  0
SECTION
  2
HEADER
  9
$ACADVER
  1
AC1009
  9
$INSBASE
 10
0.0
 20
0.0
 30
0.0
  9
$EXTMIN
 10
-210.0
 20
-148.5
 30
0.0
  9
$EXTMAX
 10
630.0
 20
445.5
 30
0.0
  9
$LIMMIN
 10
-210.0
 20
-148.5
  9
$LIMMAX
 10
630.0
 20
445.5
  9
$ORTHOMODE
 70
     0
  9
$REGENMODE
 70
     1
  9
$FILLMODE
 70
     1
  9
$QTEXTMODE
 70
     0
  9
$MIRRTEXT
 70
     1
  9
$DRAGMODE
 70
     2
  9
$LTSCALE
 40
2.0
  9
$OSMODE
 70
     0
  9
$ATTMODE
 70
     1
  9
$TEXTSIZE
 40
0.2
  9
$TRACEWID
 40
0.05
  9
$TEXTSTYLE
  7
STANDARD
  9
$CLAYER
  8
0
  9
$CELTYPE
  6
BYLAYER
  9
$CECOLOR
 62
     7
  9
$DIMSCALE
 40
2.0
  9
$DIMASZ
 40
3.5
  9
$DIMEXO
 40
0.0625
  9
$DIMDLI
 40
0.38
  9
$DIMRND
 40
0.0
  9
$DIMDLE
 40
0.0
  9
$DIMEXE
 40
0.18
  9
$DIMTP
 40
0.0
  9
$DIMTM
 40
0.0
  9
$DIMTXT
 40
3.5
  9
$DIMCEN
 40
0.09
  9
$DIMTSZ
 40
0.0
  9
$DIMTOL
 70
     0
  9
$DIMLIM
 70
     0
  9
$DIMTIH
 70
     1
  9
$DIMTOH
 70
     1
  9
$DIMSE1
 70
     0
  9
$DIMSE2
 70
     0
  9
$DIMTAD
 70
     1
  9
$DIMZIN
 70
     0
  9
$DIMBLK
  1

  9
$DIMASO
 70
     1
  9
$DIMSHO
 70
     1
  9
$DIMPOST
  1

  9
$DIMAPOST
  1

  9
$DIMALT
 70
     0
  9
$DIMALTD
 70
     2
  9
$DIMALTF
 40
25.4
  9
$DIMLFAC
 40
1.0
  9
$DIMTOFL
 70
     0
  9
$DIMTVP
 40
0.0
  9
$DIMTIX
 70
     0
  9
$DIMSOXD
 70
     0
  9
$DIMSAH
 70
     0
  9
$DIMBLK1
  1

  9
$DIMBLK2
  1

  9
$DIMSTYLE
  2
STANDARD
  9
$DIMCLRD
 70
     0
  9
$DIMCLRE
 70
     0
  9
$DIMCLRT
 70
     0
  9
$DIMTFAC
 40
1.0
  9
$DIMGAP
 40
0.09
  9
$LUNITS
 70
     2
  9
$LUPREC
 70
     2
  9
$AXISMODE
 70
     0
  9
$AXISUNIT
 10
0.0
 20
0.0
  9
$SKETCHINC
 40
0.1
  9
$FILLETRAD
 40
0.0
  9
$AUNITS
 70
     0
  9
$AUPREC
 70
     0
  9
$MENU
  1
acad
  9
$ELEVATION
 40
0.0
  9
$PELEVATION
 40
0.0
  9
$THICKNESS
 40
0.0
  9
$LIMCHECK
 70
     0
  9
$BLIPMODE
 70
     1
  9
$CHAMFERA
 40
0.0
  9
$CHAMFERB
 40
0.0
  9
$SKPOLY
 70
     0
  9
$TDCREATE
 40
0.000000000
  9
$TDUPDATE
 40
0.000000000
  9
$TDINDWG
 40
0.0000000000
  9
$TDUSRTIMER
 40
0.0000000000
  9
$USRTIMER
 70
     1
  9
$ANGBASE
 50
0.0
  9
$ANGDIR
 70
     0
  9
$PDMODE
 70
     0
  9
$PDSIZE
 40
0.0
  9
$PLINEWID
 40
0.0
  9
$COORDS
 70
     0
  9
$SPLFRAME
 70
     0
  9
$SPLINETYPE
 70
     6
  9
$SPLINESEGS
 70
     8
  9
$ATTDIA
 70
     0
  9
$ATTREQ
 70
     1
  9
$HANDLING
 70
     1
  9
$HANDSEED
  5
247
  9
$SURFTAB1
 70
     6
  9
$SURFTAB2
 70
     6
  9
$SURFTYPE
 70
     6
  9
$SURFU
 70
     6
  9
$SURFV
 70
     6
  9
$UCSNAME
  2

  9
$UCSORG
 10
0.0
 20
0.0
 30
0.0
  9
$UCSXDIR
 10
1.0
 20
0.0
 30
0.0
  9
$UCSYDIR
 10
0.0
 20
1.0
 30
0.0
  9
$PUCSNAME
  2

  9
$PUCSORG
 10
0.0
 20
0.0
 30
0.0
  9
$PUCSXDIR
 10
1.0
 20
0.0
 30
0.0
  9
$PUCSYDIR
 10
0.0
 20
1.0
 30
0.0
  9
$USERI1
 70
     0
  9
$USERI2
 70
     0
  9
$USERI3
 70
     0
  9
$USERI4
 70
     0
  9
$USERI5
 70
     0
  9
$USERR1
 40
0.0
  9
$USERR2
 40
0.0
  9
$USERR3
 40
0.0
  9
$USERR4
 40
0.0
  9
$USERR5
 40
0.0
  9
$WORLDVIEW
 70
     1
  9
$SHADEDGE
 70
     3
  9
$SHADEDIF
 70
    70
  9
$TILEMODE
 70
     1
  9
$MAXACTVP
 70
    16
  9
$PINSBASE
 10
0.0
 20
0.0
 30
0.0
  9
$PLIMCHECK
 70
     0
  9
$PEXTMIN
 10
1.000000E+20
 20
1.000000E+20
 30
1.000000E+20
  9
$PEXTMAX
 10
-1.000000E+20
 20
-1.000000E+20
 30
-1.000000E+20
  9
$PLIMMIN
 10
-210.0
 20
-148.5
  9
$PLIMMAX
 10
630.0
 20
445.5
  9
$UNITMODE
 70
     0
  9
$VISRETAIN
 70
     0
  9
$PLINEGEN
 70
     1
  9
$PSLTSCALE
 70
     0
  9
$TREEDEPTH
 70
  3020
  9
$DWGCODEPAGE
  3
dos850
  0
ENDSEC
  0
SECTION
  2
TABLES
  0
TABLE
  2
VPORT
 70
     1
  0
VPORT
  2
*ACTIVE
 70
     0
 10
0.0
 20
0.0
 11
1.0
 21
1.0
 12
420.0
 22
297.0
 13
0.0
 23
0.0
 14
1.0
 24
1.0
 15
0.0
 25
0.0
 16
0.0
 26
0.0
 36
1.0
 17
-210.0
 27
-148.5
 37
0.0
 40
594.0
 41
1.604229
 42
50.0
 43
0.0
 44
0.0
 50
0.0
 51
0.0
 71
     0
 72
   100
 73
     1
 74
     1
 75
     0
 76
     0
 77
     0
 78
     0
  0
ENDTAB
  0
TABLE
  2
LTYPE
 70
     3
  0
LTYPE
  2
CONTINUOUS
 70
    64
  3
Solid line
 72
    65
 73
     0
 40
0.0
  0
LTYPE
  2
DASHDOT
 70
    64
  3
__ . __ . __ . __ . __
 72
    65
 73
     4
 40
7.5
 49
5.0
 49
-1.25
 49
0.0
 49
-1.25
  0
LTYPE
  2
CENTER
 70
    64
  3
__ . __ . __ . __ . __
 72
    65
 73
     4
 40
7.5
 49
5.0
 49
-1.25
 49
0.0
 49
-1.25
  0
ENDTAB
  0
TABLE
  2
LAYER
 70
    11
  0
LAYER
  2
0
 70
     0
 62
     7
  6
CONTINUOUS
  0
LAYER
  2
LC-INFO-1-2-MM-A3-0
 70
     1
 62
    -1
  6
CONTINUOUS
  0
LAYER
  2
LC-004-003-MTH-0
 70
     0
 62
     2
  6
CONTINUOUS
  0
LAYER
  2
LC-005-003-MTG-0
 70
     0
 62
     2
  6
CONTINUOUS
  0
LAYER
  2
LC-003-003-----0
 70
     0
 62
     2
  6
CONTINUOUS
  0
LAYER
  2
LC-007-005-----0
 70
     0
 62
     2
  6
CONTINUOUS
  0
LAYER
  2
LC-008-000-----0
 70
     0
 62
     7
  6
CONTINUOUS
  0
LAYER
  2
LC-001-002-----0
 70
     0
 62
     1
  6
CONTINUOUS
  0
LAYER
  2
LC-002-006-MLN-0
 70
     0
 62
     2
  6
CENTER
  0
LAYER
  2
LC-006-002-RND-0
 70
     0
 62
     1
  6
CONTINUOUS
  0
LAYER
  2
LC-000
 70
     0
 62
     7
  6
CONTINUOUS
  0
ENDTAB
  0
TABLE
  2
STYLE
 70
     4
  0
STYLE
  2
STANDARD
 70
     0
 40
0.0
 41
1.0
 50
0.0
 71
     0
 42
0.0
  3
txt
  4

  0
STYLE
  2
LC-STANDARD
 70
    64
 40
0.0
 41
1.0
 50
0.0
 71
     0
 42
3.5
  3
MONOTXT
  4

  0
STYLE
  2
LC-TXTSTYLE-150-400-0-0-D2
 70
    64
 40
0.0
 41
1.0
 50
15.0
 71
     0
 42
3.5
  3
MONOTXT
  4

  0
STYLE
  2
LC-TXTSTYLE-150-400-0-0-D3
 70
    64
 40
0.0
 41
1.0
 50
15.0
 71
     0
 42
3.5
  3
LC-STANDARD
  4

  0
ENDTAB
  0
TABLE
  2
VIEW
 70
     0
  0
ENDTAB
  0
TABLE
  2
UCS
 70
     0
  0
ENDTAB
  0
TABLE
  2
APPID
 70
     1
  0
APPID
  2
ACAD
 70
     0
  0
ENDTAB
  0
TABLE
  2
DIMSTYLE
 70
     3
  0
DIMSTYLE
  2
STANDARD
 70
     0
  3

  4

  5

  6

  7

 40
1.0
 41
0.18
 42
0.0625
 43
0.38
 44
0.18
 45
0.0
 46
0.0
 47
0.0
 48
0.0
 71
     0
 72
     0
 73
     1
 74
     1
 75
     0
 76
     0
 77
     0
 78
     0
140
0.18
141
0.09
142
0.0
143
25.4
144
1.0
145
0.0
146
1.0
147
0.09
170
     0
171
     2
172
     0
173
     0
174
     0
175
     0
176
     0
177
     0
178
     0
  0
DIMSTYLE
  2
LC-STANDARD
 70
     0
  3

  4

  5

  6

  7

 40
1.0
 41
3.5
 42
0.0
 43
7.5
 44
1.8
 45
0.0
 46
0.0
 47
0.0
 48
0.0
 71
     0
 72
     0
 73
     0
 74
     0
 75
     0
 76
     0
 77
     1
 78
     8
140
3.5
141
0.0
142
0.0
143
25.4
144
1.0
145
0.0
146
0.71
147
1.5
170
     0
171
     2
172
     1
173
     0
174
     0
175
     0
176
     0
177
     0
178
     3
  0
DIMSTYLE
  2
LC-DIM-L-0090-02-02
 70
     0
  3

  4

  5

  6

  7

 40
2.0
 41
3.5
 42
0.0
 43
7.5
 44
1.8
 45
0.0
 46
0.0
 47
0.0
 48
0.0
 71
     0
 72
     0
 73
     0
 74
     0
 75
     0
 76
     0
 77
     1
 78
     8
140
9.0
141
0.0
142
0.0
143
25.4
144
1.0
145
0.0
146
0.71
147
1.5
170
     0
171
     2
172
     0
173
     0
174
     0
175
     0
176
     2
177
     2
178
     6
  0
ENDTAB
  0
ENDSEC
  0
SECTION
  2
BLOCKS
  0
BLOCK
  8
0
  5
23
  2
*D0
 70
    65
 10
0.0
 20
0.0
 30
0.0
  3
*D0
  0
LINE
  8
LC-004-003-MTH-0
  6
CONTINUOUS
  5
25
 10
52.527871
 20
140.086243
 30
0.0
 11
52.527871
 21
73.2
 31
0.0
  0
LINE
  8
LC-004-003-MTH-0
  6
CONTINUOUS
  5
26
 10
177.527871
 20
140.086243
 30
0.0
 11
177.527871
 21
73.2
 31
0.0
  0
LINE
  8
LC-005-003-MTG-0
  6
CONTINUOUS
  5
28
 10
52.527871
 20
84.0
 30
0.0
 11
177.527871
 21
84.0
 31
0.0
  0
LINE
  8
LC-003-003-----0
  6
CONTINUOUS
  5
2A
 10
70.373878
 20
86.349471
 30
0.0
 11
52.527871
 21
84.0
 31
0.0
  0
LINE
  8
LC-003-003-----0
  6
CONTINUOUS
  5
2B
 10
52.527871
 20
84.0
 30
0.0
 11
70.373878
 21
81.650529
 31
0.0
  0
LINE
  8
LC-003-003-----0
  6
CONTINUOUS
  5
2C
 10
70.373878
 20
81.650529
 30
0.0
 11
70.373878
 21
86.349471
 31
0.0
  0
LINE
  8
LC-003-003-----0
  6
CONTINUOUS
  5
2D
 10
70.413917
 20
85.738609
 30
0.0
 11
57.207871
 21
84.0
 31
0.0
  0
LINE
  8
LC-003-003-----0
  6
CONTINUOUS
  5
2E
 10
57.207871
 20
84.0
 30
0.0
 11
70.413917
 21
82.261391
 31
0.0
  0
LINE
  8
LC-003-003-----0
  6
CONTINUOUS
  5
2F
 10
70.453955
 20
85.127746
 30
0.0
 11
61.887871
 21
84.0
 31
0.0
  0
LINE
  8
LC-003-003-----0
  6
CONTINUOUS
  5
30
 10
61.887871
 20
84.0
 30
0.0
 11
70.453955
 21
82.872254
 31
0.0
  0
LINE
  8
LC-003-003-----0
  6
CONTINUOUS
  5
31
 10
70.493993
 20
84.516884
 30
0.0
 11
66.567871
 21
84.0
 31
0.0
  0
LINE
  8
LC-003-003-----0
  6
CONTINUOUS
  5
32
 10
66.567871
 20
84.0
 30
0.0
 11
70.493993
 21
83.483116
 31
0.0
  0
LINE
  8
LC-003-003-----0
  6
CONTINUOUS
  5
33
 10
159.681863
 20
81.650529
 30
0.0
 11
177.527871
 21
84.0
 31
0.0
  0
LINE
  8
LC-003-003-----0
  6
CONTINUOUS
  5
34
 10
177.527871
 20
84.0
 30
0.0
 11
159.681863
 21
86.349471
 31
0.0
  0
LINE
  8
LC-003-003-----0
  6
CONTINUOUS
  5
35
 10
159.681863
 20
86.349471
 30
0.0
 11
159.681863
 21
81.650529
 31
0.0
  0
LINE
  8
LC-003-003-----0
  6
CONTINUOUS
  5
36
 10
159.641825
 20
82.261391
 30
0.0
 11
172.847871
 21
84.0
 31
0.0
  0
LINE
  8
LC-003-003-----0
  6
CONTINUOUS
  5
37
 10
172.847871
 20
84.0
 30
0.0
 11
159.641825
 21
85.738609
 31
0.0
  0
LINE
  8
LC-003-003-----0
  6
CONTINUOUS
  5
38
 10
159.601787
 20
82.872254
 30
0.0
 11
168.167871
 21
84.0
 31
0.0
  0
LINE
  8
LC-003-003-----0
  6
CONTINUOUS
  5
39
 10
168.167871
 20
84.0
 30
0.0
 11
159.601787
 21
85.127746
 31
0.0
  0
LINE
  8
LC-003-003-----0
  6
CONTINUOUS
  5
3A
 10
159.561749
 20
83.483116
 30
0.0
 11
163.487871
 21
84.0
 31
0.0
  0
LINE
  8
LC-003-003-----0
  6
CONTINUOUS
  5
3B
 10
163.487871
 20
84.0
 30
0.0
 11
159.561749
 21
84.516884
 31
0.0
  0
TEXT
  8
LC-003-003-----0
  6
CONTINUOUS
 62
     6
  5
3D
 10
93.331778
 20
94.431999
 30
0.0
 40
18.0
  1
Ø125
 41
0.9
 51
15.0
  7
LC-TXTSTYLE-150-400-0-0-D0
 72
     1
 11
117.823117
 21
94.431999
 31
0.0
  0
ENDBLK
  8
0
  5
3E
  0
BLOCK
  8
0
  5
40
  2
*D1
 70
    65
 10
0.0
 20
0.0
 30
0.0
  3
*D1
  0
LINE
  8
LC-004-003-MTH-0
  6
CONTINUOUS
  5
41
 10
177.527871
 20
140.086243
 30
0.0
 11
248.8
 21
140.086243
 31
0.0
  0
LINE
  8
LC-004-003-MTH-0
  6
CONTINUOUS
  5
42
 10
147.456435
 20
215.086228
 30
0.0
 11
248.8
 21
215.086228
 31
0.0
  0
LINE
  8
LC-005-003-MTG-0
  6
CONTINUOUS
  5
43
 10
238.0
 20
140.086243
 30
0.0
 11
238.0
 21
215.086228
 31
0.0
  0
LINE
  8
LC-003-003-----0
  6
CONTINUOUS
  5
44
 10
235.650529
 20
157.932251
 30
0.0
 11
238.0
 21
140.086243
 31
0.0
  0
LINE
  8
LC-003-003-----0
  6
CONTINUOUS
  5
45
 10
238.0
 20
140.086243
 30
0.0
 11
240.349471
 21
157.932251
 31
0.0
  0
LINE
  8
LC-003-003-----0
  6
CONTINUOUS
  5
46
 10
240.349471
 20
157.932251
 30
0.0
 11
235.650529
 21
157.932251
 31
0.0
  0
LINE
  8
LC-003-003-----0
  6
CONTINUOUS
  5
47
 10
236.261391
 20
157.972289
 30
0.0
 11
238.0
 21
144.766243
 31
0.0
  0
LINE
  8
LC-003-003-----0
  6
CONTINUOUS
  5
48
 10
238.0
 20
144.766243
 30
0.0
 11
239.738609
 21
157.972289
 31
0.0
  0
LINE
  8
LC-003-003-----0
  6
CONTINUOUS
  5
49
 10
236.872254
 20
158.012327
 30
0.0
 11
238.0
 21
149.446243
 31
0.0
  0
LINE
  8
LC-003-003-----0
  6
CONTINUOUS
  5
4A
 10
238.0
 20
149.446243
 30
0.0
 11
239.127746
 21
158.012327
 31
0.0
  0
LINE
  8
LC-003-003-----0
  6
CONTINUOUS
  5
4B
 10
237.483116
 20
158.052365
 30
0.0
 11
238.0
 21
154.126243
 31
0.0
  0
LINE
  8
LC-003-003-----0
  6
CONTINUOUS
  5
4C
 10
238.0
 20
154.126243
 30
0.0
 11
238.516884
 21
158.052365
 31
0.0
  0
LINE
  8
LC-003-003-----0
  6
CONTINUOUS
  5
4D
 10
240.349471
 20
197.24022
 30
0.0
 11
238.0
 21
215.086228
 31
0.0
  0
LINE
  8
LC-003-003-----0
  6
CONTINUOUS
  5
4E
 10
238.0
 20
215.086228
 30
0.0
 11
235.650529
 21
197.24022
 31
0.0
  0
LINE
  8
LC-003-003-----0
  6
CONTINUOUS
  5
4F
 10
235.650529
 20
197.24022
 30
0.0
 11
240.349471
 21
197.24022
 31
0.0
  0
LINE
  8
LC-003-003-----0
  6
CONTINUOUS
  5
50
 10
239.738609
 20
197.200182
 30
0.0
 11
238.0
 21
210.406228
 31
0.0
  0
LINE
  8
LC-003-003-----0
  6
CONTINUOUS
  5
51
 10
238.0
 20
210.406228
 30
0.0
 11
236.261391
 21
197.200182
 31
0.0
  0
LINE
  8
LC-003-003-----0
  6
CONTINUOUS
  5
52
 10
239.127746
 20
197.160144
 30
0.0
 11
238.0
 21
205.726228
 31
0.0
  0
LINE
  8
LC-003-003-----0
  6
CONTINUOUS
  5
53
 10
238.0
 20
205.726228
 30
0.0
 11
236.872254
 21
197.160144
 31
0.0
  0
LINE
  8
LC-003-003-----0
  6
CONTINUOUS
  5
54
 10
238.516884
 20
197.120106
 30
0.0
 11
238.0
 21
201.046228
 31
0.0
  0
LINE
  8
LC-003-003-----0
  6
CONTINUOUS
  5
55
 10
238.0
 20
201.046228
 30
0.0
 11
237.483116
 21
197.120106
 31
0.0
  0
TEXT
  8
LC-003-003-----0
  6
CONTINUOUS
 62
     6
  5
56
 10
227.568001
 20
168.518489
 30
0.0
 40
18.0
  1
75
 50
90.0
 51
15.0
  7
LC-TXTSTYLE-150-400-0-0-D0
 72
     1
 11
227.568001
 21
180.381481
 31
0.0
  0
ENDBLK
  8
0
  5
57
  0
BLOCK
  8
0
  5
59
  2
*X2
 70
    65
 10
57.027878
 20
130.086228
 30
0.0
  3
*X2
  0
LINE
  8
LC-007-005-----0
  6
CONTINUOUS
  5
5B
 10
169.684208
 20
130.086228
 30
0.0
 11
171.527871
 21
131.929891
 31
0.0
  0
LINE
  8
LC-007-005-----0
  6
CONTINUOUS
  5
5C
 10
169.527871
 20
132.758318
 30
0.0
 11
173.015092
 21
136.24554
 31
0.0
  0
LINE
  8
LC-007-005-----0
  6
CONTINUOUS
  5
5D
 10
169.527871
 20
135.586745
 30
0.0
 11
171.527871
 21
137.586745
 31
0.0
  0
LINE
  8
LC-007-005-----0
  6
CONTINUOUS
  5
5E
 10
169.527871
 20
138.415173
 30
0.0
 11
171.198925
 21
140.086227
 31
0.0
  0
LINE
  8
LC-007-005-----0
  6
CONTINUOUS
  5
5F
 10
154.635603
 20
177.26302
 30
0.0
 11
156.062096
 21
178.689513
 31
0.0
  0
LINE
  8
LC-007-005-----0
  6
CONTINUOUS
  5
60
 10
154.135311
 20
179.591155
 30
0.0
 11
155.444453
 21
180.900297
 31
0.0
  0
LINE
  8
LC-007-005-----0
  6
CONTINUOUS
  5
61
 10
154.135311
 20
182.419582
 30
0.0
 11
154.82681
 21
183.111081
 31
0.0
  0
LINE
  8
LC-007-005-----0
  6
CONTINUOUS
  5
62
 10
154.135311
 20
185.248009
 30
0.0
 11
154.209167
 21
185.321866
 31
0.0
  0
LINE
  8
LC-007-005-----0
  6
CONTINUOUS
  5
63
 10
146.032404
 20
211.086228
 30
0.0
 11
147.027871
 21
212.081695
 31
0.0
  0
LINE
  8
LC-007-005-----0
  6
CONTINUOUS
  5
64
 10
145.027871
 20
212.910122
 30
0.0
 11
147.027871
 21
214.910122
 31
0.0
  0
LINE
  8
LC-007-005-----0
  6
CONTINUOUS
  5
65
 10
59.37555
 20
130.086228
 30
0.0
 11
60.527871
 21
131.238549
 31
0.0
  0
LINE
  8
LC-007-005-----0
  6
CONTINUOUS
  5
66
 10
58.527871
 20
132.066976
 30
0.0
 11
60.527871
 21
134.066976
 31
0.0
  0
LINE
  8
LC-007-005-----0
  6
CONTINUOUS
  5
67
 10
58.373287
 20
134.740819
 30
0.0
 11
60.527871
 21
136.895403
 31
0.0
  0
LINE
  8
LC-007-005-----0
  6
CONTINUOUS
  5
68
 10
57.039
 20
136.23496
 30
0.0
 11
57.879146
 21
137.075105
 31
0.0
  0
LINE
  8
LC-007-005-----0
  6
CONTINUOUS
  5
69
 10
58.527871
 20
137.72383
 30
0.0
 11
60.527871
 21
139.72383
 31
0.0
  0
LINE
  8
LC-007-005-----0
  6
CONTINUOUS
  5
6A
 10
117.748133
 20
211.086228
 30
0.0
 11
120.027871
 21
213.365966
 31
0.0
  0
LINE
  8
LC-007-005-----0
  6
CONTINUOUS
  5
6B
 10
114.919706
 20
211.086228
 30
0.0
 11
118.919706
 21
215.086228
 31
0.0
  0
LINE
  8
LC-007-005-----0
  6
CONTINUOUS
  5
6C
 10
112.091278
 20
211.086228
 30
0.0
 11
116.091278
 21
215.086228
 31
0.0
  0
LINE
  8
LC-007-005-----0
  6
CONTINUOUS
  5
6D
 10
110.027871
 20
211.851247
 30
0.0
 11
113.262851
 21
215.086228
 31
0.0
  0
LINE
  8
LC-007-005-----0
  6
CONTINUOUS
  5
6E
 10
73.976563
 20
178.628367
 30
0.0
 11
75.920431
 21
180.572235
 31
0.0
  0
LINE
  8
LC-007-005-----0
  6
CONTINUOUS
  5
6F
 10
110.027871
 20
214.679675
 30
0.0
 11
110.434424
 21
215.086228
 31
0.0
  0
LINE
  8
LC-007-005-----0
  6
CONTINUOUS
  5
70
 10
75.073112
 20
182.553343
 30
0.0
 11
75.920431
 21
183.400662
 31
0.0
  0
LINE
  8
LC-007-005-----0
  6
CONTINUOUS
  5
71
 10
83.807007
 20
211.086228
 30
0.0
 11
85.027871
 21
212.307092
 31
0.0
  0
LINE
  8
LC-007-005-----0
  6
CONTINUOUS
  5
72
 10
83.027871
 20
213.135519
 30
0.0
 11
84.97858
 21
215.086228
 31
0.0
  0
ENDBLK
  8
0
  5
73
  0
BLOCK
  8
0
  5
75
  2
BLK1
 70
    64
 10
0.0
 20
0.0
 30
0.0
  3
BLK1
  0
ENDBLK
  8
0
  5
76
  0
BLOCK
  8
0
  5
78
  2
BLK2
 70
    64
 10
0.0
 20
0.0
 30
0.0
  3
BLK2
  0
ENDBLK
  8
0
  5
79
  0
ENDSEC
  0
SECTION
  2
ENTITIES
  0
VIEWPORT
  8
LC-000
  5
241
 67
     1
 68
     1
 10
420.0
 20
297.0
 30
0.0
 40
840.0
 41
594.0
 69
     1
1001
ACAD
1000
MVIEW
1002
{
1070
    16
1010
0.0
1020
0.0
1030
0.0
1010
0.0
1020
0.0
1030
1.0
1040
0.0
1040
594.0
1040
420.0
1040
297.0
1040
50.0
1040
0.0
1040
0.0
1070
     0
1070
   100
1070
     1
1070
     1
1070
     0
1070
     0
1070
     0
1070
     0
1040
0.0
1040
0.0
1040
0.0
1040
1.0
1040
1.0
1040
0.0
1040
0.0
1070
     0
1002
{
1002
}
1002
}
  0
VIEWPORT
  8
0
  5
242
 67
     1
 68
     1
 10
0.0
 20
0.0
 30
0.0
 40
0.0
 41
0.0
 69
     1
1001
ACAD
1000
MVIEW
1002
{
1070
    16
1010
0.0
1020
0.0
1030
0.0
1010
0.0
1020
0.0
1030
1.0
1040
0.0
1040
594.0
1040
0.0
1040
0.0
1040
50.0
1040
0.0
1040
0.0
1070
     0
1070
   100
1070
     0
1070
     1
1070
     0
1070
     0
1070
     0
1070
     0
1040
0.0
1040
0.0
1040
0.0
1040
0.5
1040
0.5
1040
0.5
1040
0.5
1070
     0
1002
{
1002
}
1002
}
  0
DIMENSION
  8
0
  5
7A
  2
*D0
 10
115.027871
 20
84.0
 30
0.0
 11
115.027871
 21
84.0
 31
0.0
  1
%%c<>
 13
52.527871
 23
140.086243
 33
0.0
 14
177.527871
 24
140.086243
 34
0.0
  3
LC-DIM-L-0090-02-02
  0
DIMENSION
  8
0
  5
7B
  2
*D1
 10
238.0
 20
177.586236
 30
0.0
 11
238.0
 21
177.586236
 31
0.0
  1
75
 13
177.527871
 23
140.086243
 33
0.0
 14
147.456435
 24
215.086228
 34
0.0
 50
90.0
  3
LC-DIM-L-0090-02-02
  0
INSERT
  8
0
  5
7C
  2
*X2
 10
57.027878
 20
130.086228
 30
0.0
  0
INSERT
  8
0
  5
7E
  2
BLK1
 10
0.0
 20
0.0
 30
0.0
  0
INSERT
  8
0
  5
7F
  2
BLK2
 10
0.0
 20
0.0
 30
0.0
  0
LINE
  8
LC-001-002-----0
  6
CONTINUOUS
  5
81
 10
73.406036
 20
176.586228
 30
0.0
 11
156.649706
 21
176.586228
 31
0.0
  0
LINE
  8
LC-001-002-----0
  6
CONTINUOUS
  5
82
 10
60.527871
 20
140.086228
 30
0.0
 11
115.027871
 21
140.086228
 31
0.0
  0
LINE
  8
LC-001-002-----0
  6
CONTINUOUS
  5
83
 10
63.208767
 20
140.086228
 30
0.0
 11
83.044551
 21
211.086228
 31
0.0
  0
LINE
  8
LC-001-002-----0
  6
CONTINUOUS
  5
84
 10
154.135311
 20
185.586228
 30
0.0
 11
75.920431
 21
185.586228
 31
0.0
  0
LINE
  8
LC-002-006-MLN-0
  6
DASHDOT
  5
88
 10
115.027871
 20
124.586228
 30
0.0
 11
115.027871
 21
225.086228
 31
0.0
  0
LINE
  8
LC-001-002-----0
  6
CONTINUOUS
  5
89
 10
121.27264
 20
185.586228
 30
0.0
 11
120.194114
 21
211.086228
 31
0.0
  0
ARC
  8
LC-001-002-----0
  6
CONTINUOUS
  5
8A
 10
58.027878
 20
136.086228
 30
0.0
 40
1.0
 50
90.0
 51
180.0
  0
LINE
  8
LC-001-002-----0
  6
CONTINUOUS
  5
8B
 10
83.027871
 20
215.086228
 30
0.0
 11
82.886118
 21
215.086228
 31
0.0
  0
LINE
  8
LC-001-002-----0
  6
CONTINUOUS
  5
8C
 10
85.027871
 20
215.086228
 30
0.0
 11
115.027871
 21
215.086228
 31
0.0
  0
LINE
  8
LC-001-002-----0
  6
CONTINUOUS
  5
8D
 10
119.670407
 20
176.586228
 30
0.0
 11
121.21418
 21
140.086228
 31
0.0
  0
LINE
  8
LC-001-002-----0
  6
CONTINUOUS
  5
8E
 10
108.783102
 20
185.586228
 30
0.0
 11
109.861628
 21
211.086228
 31
0.0
  0
LINE
  8
LC-001-002-----0
  6
CONTINUOUS
  5
8F
 10
110.385335
 20
176.586228
 30
0.0
 11
108.841562
 21
140.086228
 31
0.0
  0
LINE
  8
LC-001-002-----0
  6
CONTINUOUS
  5
90
 10
99.433755
 20
176.586228
 30
0.0
 11
94.907642
 21
140.086228
 31
0.0
  0
LINE
  8
LC-001-002-----0
  6
CONTINUOUS
  5
91
 10
85.027871
 20
211.086228
 30
0.0
 11
115.027871
 21
211.086228
 31
0.0
  0
ARC
  8
LC-006-002-RND-0
  6
CONTINUOUS
  5
93
 10
82.599307
 20
202.086228
 30
0.0
 40
13.0
 50
88.110819
 51
165.0
  0
LINE
  8
LC-001-002-----0
  6
CONTINUOUS
  5
94
 10
97.585996
 20
176.586228
 30
0.0
 11
93.059882
 21
140.086228
 31
0.0
  0
LINE
  8
LC-001-002-----0
  6
CONTINUOUS
  5
95
 10
89.544887
 20
176.586228
 30
0.0
 11
82.344881
 21
140.086228
 31
0.0
  0
LINE
  8
LC-001-002-----0
  6
CONTINUOUS
  5
96
 10
88.032196
 20
176.586228
 30
0.0
 11
80.758175
 21
140.086228
 31
0.0
  0
LINE
  8
LC-001-002-----0
  6
CONTINUOUS
  5
97
 10
57.027878
 20
136.086228
 30
0.0
 11
58.527878
 21
134.586228
 31
0.0
  0
LINE
  8
LC-001-002-----0
  6
CONTINUOUS
  5
98
 10
60.527871
 20
130.086228
 30
0.0
 11
169.527871
 21
130.086228
 31
0.0
  0
LINE
  8
LC-001-002-----0
  6
CONTINUOUS
  5
99
 10
80.175121
 20
176.586228
 30
0.0
 11
70.79189
 21
140.086228
 31
0.0
  0
LINE
  8
LC-001-002-----0
  6
CONTINUOUS
  5
9A
 10
171.527871
 20
137.086228
 30
0.0
 11
171.527871
 21
140.086226
 31
0.0
  0
LINE
  8
LC-001-002-----0
  6
CONTINUOUS
  5
9B
 10
58.527871
 20
140.086226
 30
0.0
 11
52.527871
 21
140.086243
 31
0.0
  0
LINE
  8
LC-001-002-----0
  6
CONTINUOUS
  5
9C
 10
81.392644
 20
176.586228
 30
0.0
 11
72.009413
 21
140.086228
 31
0.0
  0
LINE
  8
LC-001-002-----0
  6
CONTINUOUS
  5
9D
 10
75.532585
 20
176.586228
 30
0.0
 11
64.605581
 21
140.086228
 31
0.0
  0
LINE
  8
LC-001-002-----0
  6
CONTINUOUS
  5
9E
 10
154.523157
 20
176.586228
 30
0.0
 11
165.450161
 21
140.086228
 31
0.0
  0
LINE
  8
LC-001-002-----0
  6
CONTINUOUS
  5
9F
 10
120.027871
 20
215.086228
 30
0.0
 11
120.027871
 21
211.086228
 31
0.0
  0
LINE
  8
LC-001-002-----0
  6
CONTINUOUS
  5
A0
 10
70.042271
 20
205.450875
 30
0.0
 11
52.527871
 21
140.086243
 31
0.0
  0
LINE
  8
LC-001-002-----0
  6
CONTINUOUS
  5
A1
 10
147.027871
 20
215.086228
 30
0.0
 11
147.169624
 21
215.086228
 31
0.0
  0
LINE
  8
LC-001-002-----0
  6
CONTINUOUS
  5
A2
 10
145.027871
 20
215.086228
 30
0.0
 11
145.027871
 21
211.086228
 31
0.0
  0
LINE
  8
LC-001-002-----0
  6
CONTINUOUS
  5
A3
 10
147.027871
 20
215.086228
 30
0.0
 11
145.027871
 21
215.086228
 31
0.0
  0
LINE
  8
LC-001-002-----0
  6
CONTINUOUS
  5
A4
 10
147.027871
 20
211.026524
 30
0.0
 11
147.027871
 21
215.086228
 31
0.0
  0
LINE
  8
LC-001-002-----0
  6
CONTINUOUS
  5
A5
 10
83.027871
 20
211.086228
 30
0.0
 11
83.027871
 21
215.086228
 31
0.0
  0
LINE
  8
LC-001-002-----0
  6
CONTINUOUS
  5
A6
 10
83.027871
 20
215.086228
 30
0.0
 11
85.027871
 21
215.086228
 31
0.0
  0
LINE
  8
LC-001-002-----0
  6
CONTINUOUS
  5
A7
 10
85.027871
 20
215.086228
 30
0.0
 11
85.027871
 21
211.086228
 31
0.0
  0
LINE
  8
LC-001-002-----0
  6
CONTINUOUS
  5
A8
 10
110.027871
 20
215.086228
 30
0.0
 11
110.027871
 21
211.086228
 31
0.0
  0
LINE
  8
LC-001-002-----0
  6
CONTINUOUS
  5
A9
 10
103.711862
 20
211.086228
 30
0.0
 11
100.549783
 21
185.586228
 31
0.0
  0
LINE
  8
LC-001-002-----0
  6
CONTINUOUS
  5
AA
 10
101.864102
 20
211.086228
 30
0.0
 11
98.702023
 21
185.586228
 31
0.0
  0
LINE
  8
LC-001-002-----0
  6
CONTINUOUS
  5
AB
 10
106.858672
 20
140.086228
 30
0.0
 11
108.402445
 21
176.586228
 31
0.0
  0
LINE
  8
LC-001-002-----0
  6
CONTINUOUS
  5
AC
 10
111.844518
 20
211.086228
 30
0.0
 11
110.765991
 21
185.586228
 31
0.0
  0
LINE
  8
LC-001-002-----0
  6
CONTINUOUS
  5
AD
 10
96.350373
 20
211.086228
 30
0.0
 11
91.320231
 21
185.586228
 31
0.0
  0
LINE
  8
LC-001-002-----0
  6
CONTINUOUS
  5
AE
 10
94.907642
 20
211.086228
 30
0.0
 11
89.825791
 21
185.586228
 31
0.0
  0
LINE
  8
LC-001-002-----0
  6
CONTINUOUS
  5
AF
 10
90.261725
 20
211.086228
 30
0.0
 11
83.706317
 21
185.586228
 31
0.0
  0
LINE
  8
LC-001-002-----0
  6
CONTINUOUS
  5
B0
 10
89.044202
 20
211.086228
 30
0.0
 11
82.488794
 21
185.586228
 31
0.0
  0
LINE
  8
LC-001-002-----0
  6
CONTINUOUS
  5
B1
 10
85.860849
 20
211.086228
 30
0.0
 11
78.226914
 21
185.586228
 31
0.0
  0
LINE
  8
LC-001-002-----0
  6
CONTINUOUS
  5
B2
 10
63.840214
 20
140.086228
 30
0.0
 11
74.767218
 21
176.586228
 31
0.0
  0
LINE
  8
LC-001-002-----0
  6
CONTINUOUS
  5
B3
 10
149.880621
 20
176.586228
 30
0.0
 11
159.263852
 21
140.086228
 31
0.0
  0
LINE
  8
LC-001-002-----0
  6
CONTINUOUS
  5
B4
 10
169.527871
 20
140.086228
 30
0.0
 11
115.027871
 21
140.086228
 31
0.0
  0
LINE
  8
LC-001-002-----0
  6
CONTINUOUS
  5
B5
 10
166.846975
 20
140.086228
 30
0.0
 11
156.649706
 21
176.586228
 31
0.0
  0
LINE
  8
LC-001-002-----0
  6
CONTINUOUS
  5
B6
 10
148.663098
 20
176.586228
 30
0.0
 11
158.046329
 21
140.086228
 31
0.0
  0
LINE
  8
LC-001-002-----0
  6
CONTINUOUS
  5
B7
 10
142.023546
 20
176.586228
 30
0.0
 11
149.297567
 21
140.086228
 31
0.0
  0
LINE
  8
LC-001-002-----0
  6
CONTINUOUS
  5
B8
 10
140.510854
 20
176.586228
 30
0.0
 11
147.710861
 21
140.086228
 31
0.0
  0
LINE
  8
LC-001-002-----0
  6
CONTINUOUS
  5
B9
 10
60.527871
 20
134.586228
 30
0.0
 11
60.527871
 21
130.086228
 31
0.0
  0
LINE
  8
LC-001-002-----0
  6
CONTINUOUS
  5
BA
 10
147.456435
 20
215.086228
 30
0.0
 11
115.027871
 21
215.086228
 31
0.0
  0
LINE
  8
LC-001-002-----0
  6
CONTINUOUS
  5
BB
 10
132.469746
 20
176.586228
 30
0.0
 11
136.99586
 21
140.086228
 31
0.0
  0
LINE
  8
LC-001-002-----0
  6
CONTINUOUS
  5
BC
 10
130.621987
 20
176.586228
 30
0.0
 11
135.1481
 21
140.086228
 31
0.0
  0
LINE
  8
LC-001-002-----0
  6
CONTINUOUS
  5
BD
 10
169.527871
 20
134.586228
 30
0.0
 11
169.527871
 21
140.086228
 31
0.0
  0
LINE
  8
LC-001-002-----0
  6
CONTINUOUS
  5
BE
 10
147.011191
 20
211.086228
 30
0.0
 11
115.027871
 21
211.086228
 31
0.0
  0
ARC
  8
LC-006-002-RND-0
  6
CONTINUOUS
  5
BF
 10
147.456435
 20
202.086228
 30
0.0
 40
13.0
 50
15.0
 51
90.0
  0
LINE
  8
LC-001-002-----0
  6
CONTINUOUS
  5
C0
 10
173.027864
 20
136.086228
 30
0.0
 11
171.527864
 21
134.586228
 31
0.0
  0
LINE
  8
LC-001-002-----0
  6
CONTINUOUS
  5
C1
 10
172.027864
 20
137.086228
 30
0.0
 11
171.527871
 21
137.086228
 31
0.0
  0
LINE
  8
LC-001-002-----0
  6
CONTINUOUS
  5
C2
 10
58.527871
 20
130.086228
 30
0.0
 11
60.527871
 21
130.086228
 31
0.0
  0
LINE
  8
LC-001-002-----0
  6
CONTINUOUS
  5
C3
 10
171.527871
 20
140.086226
 30
0.0
 11
169.527871
 21
140.086228
 31
0.0
  0
LINE
  8
LC-001-002-----0
  6
CONTINUOUS
  5
C4
 10
171.527871
 20
140.086226
 30
0.0
 11
177.527871
 21
140.086243
 31
0.0
  0
LINE
  8
LC-001-002-----0
  6
CONTINUOUS
  5
C5
 10
166.215528
 20
140.086228
 30
0.0
 11
155.288524
 21
176.586228
 31
0.0
  0
LINE
  8
LC-001-002-----0
  6
CONTINUOUS
  5
C6
 10
144.194893
 20
211.086228
 30
0.0
 11
151.828828
 21
185.586228
 31
0.0
  0
LINE
  8
LC-001-002-----0
  6
CONTINUOUS
  5
C7
 10
141.01154
 20
211.086228
 30
0.0
 11
147.566948
 21
185.586228
 31
0.0
  0
LINE
  8
LC-001-002-----0
  6
CONTINUOUS
  5
C8
 10
139.794017
 20
211.086228
 30
0.0
 11
146.349425
 21
185.586228
 31
0.0
  0
LINE
  8
LC-001-002-----0
  6
CONTINUOUS
  5
C9
 10
135.1481
 20
211.086228
 30
0.0
 11
140.229951
 21
185.586228
 31
0.0
  0
LINE
  8
LC-001-002-----0
  6
CONTINUOUS
  5
CA
 10
133.705369
 20
211.086228
 30
0.0
 11
138.73551
 21
185.586228
 31
0.0
  0
LINE
  8
LC-001-002-----0
  6
CONTINUOUS
  5
CB
 10
118.211224
 20
211.086228
 30
0.0
 11
119.289751
 21
185.586228
 31
0.0
  0
LINE
  8
LC-001-002-----0
  6
CONTINUOUS
  5
CC
 10
123.19707
 20
140.086228
 30
0.0
 11
121.653297
 21
176.586228
 31
0.0
  0
LINE
  8
LC-001-002-----0
  6
CONTINUOUS
  5
CD
 10
128.191639
 20
211.086228
 30
0.0
 11
131.353718
 21
185.586228
 31
0.0
  0
LINE
  8
LC-001-002-----0
  6
CONTINUOUS
  5
CE
 10
126.34388
 20
211.086228
 30
0.0
 11
129.505959
 21
185.586228
 31
0.0
  0
LINE
  8
LC-001-002-----0
  6
CONTINUOUS
  5
CF
 10
294.972343
 20
129.06381
 30
0.0
 11
298.848857
 21
132.940323
 31
0.0
  0
LINE
  8
LC-001-002-----0
  6
CONTINUOUS
  5
D0
 10
286.330728
 20
140.325782
 30
0.0
 11
291.078468
 21
143.066891
 31
0.0
  0
LINE
  8
LC-001-002-----0
  6
CONTINUOUS
  5
D1
 10
285.330728
 20
142.057833
 30
0.0
 11
286.330728
 21
140.325782
 31
0.0
  0
ARC
  8
LC-001-002-----0
  6
CONTINUOUS
  5
D2
 10
339.501238
 20
172.178491
 30
0.0
 40
30.0
 50
211.910213
 51
238.089787
  0
ARC
  8
LC-001-002-----0
  6
CONTINUOUS
  5
D3
 10
339.501238
 20
172.178491
 30
0.0
 40
32.0
 50
211.790785
 51
223.209215
  0
LINE
  8
LC-001-002-----0
  6
CONTINUOUS
  5
D4
 10
277.527871
 20
173.178491
 30
0.0
 11
283.010089
 21
173.178491
 31
0.0
  0
LINE
  8
LC-001-002-----0
  6
CONTINUOUS
  5
D5
 10
277.527871
 20
171.178491
 30
0.0
 11
283.010089
 21
171.178491
 31
0.0
  0
LINE
  8
LC-001-002-----0
  6
CONTINUOUS
  5
D6
 10
277.527871
 20
173.178491
 30
0.0
 11
277.527871
 21
171.178491
 31
0.0
  0
LINE
  8
LC-001-002-----0
  6
CONTINUOUS
  5
D7
 10
307.648529
 20
119.007981
 30
0.0
 11
310.389638
 21
123.75572
 31
0.0
  0
LINE
  8
LC-001-002-----0
  6
CONTINUOUS
  5
D8
 10
309.38058
 20
118.007981
 30
0.0
 11
312.121689
 21
122.75572
 31
0.0
  0
LINE
  8
LC-001-002-----0
  6
CONTINUOUS
  5
D9
 10
307.648529
 20
119.007981
 30
0.0
 11
309.38058
 21
118.007981
 31
0.0
  0
LINE
  8
LC-001-002-----0
  6
CONTINUOUS
  5
DA
 10
338.501238
 20
110.205124
 30
0.0
 11
338.501238
 21
115.687341
 31
0.0
  0
LINE
  8
LC-001-002-----0
  6
CONTINUOUS
  5
DB
 10
340.501238
 20
110.205124
 30
0.0
 11
340.501238
 21
115.687341
 31
0.0
  0
LINE
  8
LC-001-002-----0
  6
CONTINUOUS
  5
DC
 10
338.501238
 20
110.205124
 30
0.0
 11
340.501238
 21
110.205124
 31
0.0
  0
LINE
  8
LC-001-002-----0
  6
CONTINUOUS
  5
DD
 10
369.621897
 20
118.007981
 30
0.0
 11
366.880788
 21
122.75572
 31
0.0
  0
LINE
  8
LC-001-002-----0
  6
CONTINUOUS
  5
DE
 10
371.353948
 20
119.007981
 30
0.0
 11
368.612839
 21
123.75572
 31
0.0
  0
LINE
  8
LC-001-002-----0
  6
CONTINUOUS
  5
DF
 10
369.621897
 20
118.007981
 30
0.0
 11
371.353948
 21
119.007981
 31
0.0
  0
LINE
  8
LC-001-002-----0
  6
CONTINUOUS
  5
E0
 10
392.671749
 20
140.325782
 30
0.0
 11
387.924009
 21
143.066891
 31
0.0
  0
LINE
  8
LC-001-002-----0
  6
CONTINUOUS
  5
E1
 10
393.671749
 20
142.057833
 30
0.0
 11
388.924009
 21
144.798942
 31
0.0
  0
LINE
  8
LC-001-002-----0
  6
CONTINUOUS
  5
E2
 10
392.671749
 20
140.325782
 30
0.0
 11
393.671749
 21
142.057833
 31
0.0
  0
LINE
  8
LC-001-002-----0
  6
CONTINUOUS
  5
E3
 10
401.474606
 20
171.178491
 30
0.0
 11
395.992388
 21
171.178491
 31
0.0
  0
LINE
  8
LC-001-002-----0
  6
CONTINUOUS
  5
E4
 10
401.474606
 20
173.178491
 30
0.0
 11
395.992388
 21
173.178491
 31
0.0
  0
LINE
  8
LC-001-002-----0
  6
CONTINUOUS
  5
E5
 10
401.474606
 20
171.178491
 30
0.0
 11
401.474606
 21
173.178491
 31
0.0
  0
LINE
  8
LC-001-002-----0
  6
CONTINUOUS
  5
E6
 10
393.671749
 20
202.29915
 30
0.0
 11
388.924009
 21
199.558041
 31
0.0
  0
LINE
  8
LC-001-002-----0
  6
CONTINUOUS
  5
E7
 10
392.671749
 20
204.0312
 30
0.0
 11
387.924009
 21
201.290091
 31
0.0
  0
LINE
  8
LC-001-002-----0
  6
CONTINUOUS
  5
E8
 10
393.671749
 20
202.29915
 30
0.0
 11
392.671749
 21
204.0312
 31
0.0
  0
LINE
  8
LC-001-002-----0
  6
CONTINUOUS
  5
E9
 10
371.353948
 20
225.349002
 30
0.0
 11
368.612839
 21
220.601262
 31
0.0
  0
LINE
  8
LC-001-002-----0
  6
CONTINUOUS
  5
EA
 10
369.621897
 20
226.349002
 30
0.0
 11
366.880788
 21
221.601262
 31
0.0
  0
LINE
  8
LC-001-002-----0
  6
CONTINUOUS
  5
EB
 10
371.353948
 20
225.349002
 30
0.0
 11
369.621897
 21
226.349002
 31
0.0
  0
LINE
  8
LC-001-002-----0
  6
CONTINUOUS
  5
EC
 10
340.501238
 20
234.151859
 30
0.0
 11
340.501238
 21
228.669641
 31
0.0
  0
LINE
  8
LC-001-002-----0
  6
CONTINUOUS
  5
ED
 10
338.501238
 20
234.151859
 30
0.0
 11
338.501238
 21
228.669641
 31
0.0
  0
LINE
  8
LC-001-002-----0
  6
CONTINUOUS
  5
EE
 10
340.501238
 20
234.151859
 30
0.0
 11
338.501238
 21
234.151859
 31
0.0
  0
LINE
  8
LC-001-002-----0
  6
CONTINUOUS
  5
EF
 10
309.38058
 20
226.349002
 30
0.0
 11
312.121689
 21
221.601262
 31
0.0
  0
LINE
  8
LC-001-002-----0
  6
CONTINUOUS
  5
F0
 10
307.648529
 20
225.349002
 30
0.0
 11
310.389638
 21
220.601262
 31
0.0
  0
LINE
  8
LC-001-002-----0
  6
CONTINUOUS
  5
F1
 10
309.38058
 20
226.349002
 30
0.0
 11
307.648529
 21
225.349002
 31
0.0
  0
LINE
  8
LC-001-002-----0
  6
CONTINUOUS
  5
F2
 10
286.330728
 20
204.0312
 30
0.0
 11
291.078468
 21
201.290091
 31
0.0
  0
LINE
  8
LC-001-002-----0
  6
CONTINUOUS
  5
F3
 10
285.330728
 20
202.29915
 30
0.0
 11
290.078468
 21
199.558041
 31
0.0
  0
LINE
  8
LC-001-002-----0
  6
CONTINUOUS
  5
F4
 10
286.330728
 20
204.0312
 30
0.0
 11
285.330728
 21
202.29915
 31
0.0
  0
ARC
  8
LC-001-002-----0
  6
CONTINUOUS
  5
F5
 10
339.501238
 20
172.178491
 30
0.0
 40
5.0
 50
221.536959
 51
228.463041
  0
ARC
  8
LC-001-002-----0
  6
CONTINUOUS
  5
F6
 10
339.501238
 20
172.178491
 30
0.0
 40
56.5
 50
91.014138
 51
103.985862
  0
LINE
  8
LC-001-002-----0
  6
CONTINUOUS
  5
F7
 10
285.330728
 20
142.057833
 30
0.0
 11
290.078468
 21
144.798942
 31
0.0
  0
ARC
  8
LC-001-002-----0
  6
CONTINUOUS
  5
F8
 10
339.501238
 20
172.178491
 30
0.0
 40
5.0
 50
251.536959
 51
258.463041
  0
ARC
  8
LC-001-002-----0
  6
CONTINUOUS
  5
F9
 10
339.501238
 20
172.178491
 30
0.0
 40
5.0
 50
281.536959
 51
288.463041
  0
ARC
  8
LC-001-002-----0
  6
CONTINUOUS
  5
FA
 10
339.501238
 20
172.178491
 30
0.0
 40
5.0
 50
311.536959
 51
318.463041
  0
LINE
  8
LC-001-002-----0
  6
CONTINUOUS
  5
FB
 10
154.135311
 20
185.586228
 30
0.0
 11
154.135311
 21
178.586228
 31
0.0
  0
ARC
  8
LC-001-002-----0
  6
CONTINUOUS
  5
FC
 10
339.501238
 20
172.178491
 30
0.0
 40
5.0
 50
41.536959
 51
48.463041
  0
ARC
  8
LC-001-002-----0
  6
CONTINUOUS
  5
FD
 10
339.501238
 20
172.178491
 30
0.0
 40
5.0
 50
71.536959
 51
78.463041
  0
ARC
  8
LC-001-002-----0
  6
CONTINUOUS
  5
FE
 10
339.501238
 20
172.178491
 30
0.0
 40
5.0
 50
101.536959
 51
108.463041
  0
ARC
  8
LC-001-002-----0
  6
CONTINUOUS
  5
FF
 10
339.501238
 20
172.178491
 30
0.0
 40
5.0
 50
131.536959
 51
138.463041
  0
LINE
  8
LC-001-002-----0
  6
CONTINUOUS
  5
100
 10
156.135311
 20
176.586228
 30
0.0
 11
156.649706
 21
176.586228
 31
0.0
  0
LINE
  8
LC-001-002-----0
  6
CONTINUOUS
  5
101
 10
338.501238
 20
227.169398
 30
0.0
 11
338.501238
 21
228.669641
 31
0.0
  0
LINE
  8
LC-001-002-----0
  6
CONTINUOUS
  5
102
 10
160.013471
 20
205.450875
 30
0.0
 11
177.527871
 21
140.086243
 31
0.0
  0
LINE
  8
LC-001-002-----0
  6
CONTINUOUS
  5
103
 10
152.594194
 20
185.586228
 30
0.0
 11
144.96026
 21
211.086228
 31
0.0
  0
ARC
  8
LC-001-002-----0
  6
CONTINUOUS
  5
104
 10
339.501238
 20
172.178491
 30
0.0
 40
30.0
 50
241.910213
 51
268.089787
  0
ARC
  8
LC-001-002-----0
  6
CONTINUOUS
  5
105
 10
339.501238
 20
172.178491
 30
0.0
 40
30.0
 50
271.910213
 51
298.089787
  0
ARC
  8
LC-001-002-----0
  6
CONTINUOUS
  5
106
 10
339.501238
 20
172.178491
 30
0.0
 40
30.0
 50
301.910213
 51
328.089787
  0
ARC
  8
LC-001-002-----0
  6
CONTINUOUS
  5
107
 10
339.501238
 20
172.178491
 30
0.0
 40
30.0
 50
331.910213
 51
356.177446
  0
ARC
  8
LC-001-002-----0
  6
CONTINUOUS
  5
108
 10
339.501238
 20
172.178491
 30
0.0
 40
30.0
 50
3.822554
 51
28.089787
  0
ARC
  8
LC-001-002-----0
  6
CONTINUOUS
  5
109
 10
339.501238
 20
172.178491
 30
0.0
 40
30.0
 50
31.910213
 51
58.089787
  0
ARC
  8
LC-001-002-----0
  6
CONTINUOUS
  5
10A
 10
339.501238
 20
172.178491
 30
0.0
 40
30.0
 50
61.910213
 51
88.089787
  0
ARC
  8
LC-001-002-----0
  6
CONTINUOUS
  5
10B
 10
339.501238
 20
172.178491
 30
0.0
 40
30.0
 50
91.910213
 51
118.089787
  0
ARC
  8
LC-001-002-----0
  6
CONTINUOUS
  5
10C
 10
339.501238
 20
172.178491
 30
0.0
 40
30.0
 50
121.910213
 51
148.089787
  0
ARC
  8
LC-001-002-----0
  6
CONTINUOUS
  5
10D
 10
339.501238
 20
172.178491
 30
0.0
 40
30.0
 50
151.910213
 51
176.177446
  0
ARC
  8
LC-001-002-----0
  6
CONTINUOUS
  5
10E
 10
339.501238
 20
172.178491
 30
0.0
 40
30.0
 50
183.822554
 51
208.089787
  0
ARC
  8
LC-001-002-----0
  6
CONTINUOUS
  5
10F
 10
339.501238
 20
172.178491
 30
0.0
 40
32.0
 50
226.790785
 51
238.209215
  0
ARC
  8
LC-001-002-----0
  6
CONTINUOUS
  5
110
 10
339.501238
 20
172.178491
 30
0.0
 40
54.5
 50
76.051358
 51
88.948642
  0
LINE
  8
LC-001-002-----0
  6
CONTINUOUS
  5
111
 10
325.846179
 20
227.003571
 30
0.0
 11
326.23447
 21
225.554447
 31
0.0
  0
ARC
  8
LC-001-002-----0
  6
CONTINUOUS
  5
112
 10
339.501238
 20
172.178491
 30
0.0
 40
56.5
 50
106.014138
 51
118.985862
  0
ARC
  8
LC-001-002-----0
  6
CONTINUOUS
  5
113
 10
339.501238
 20
172.178491
 30
0.0
 40
56.5
 50
121.014138
 51
133.985862
  0
ARC
  8
LC-001-002-----0
  6
CONTINUOUS
  5
114
 10
339.501238
 20
172.178491
 30
0.0
 40
56.5
 50
136.014138
 51
148.985862
  0
ARC
  8
LC-001-002-----0
  6
CONTINUOUS
  5
115
 10
339.501238
 20
172.178491
 30
0.0
 40
56.5
 50
151.014138
 51
163.985862
  0
ARC
  8
LC-001-002-----0
  6
CONTINUOUS
  5
116
 10
339.501238
 20
172.178491
 30
0.0
 40
56.5
 50
166.014138
 51
178.985862
  0
ARC
  8
LC-001-002-----0
  6
CONTINUOUS
  5
117
 10
339.501238
 20
172.178491
 30
0.0
 40
56.5
 50
181.014138
 51
193.985862
  0
ARC
  8
LC-001-002-----0
  6
CONTINUOUS
  5
118
 10
339.501238
 20
172.178491
 30
0.0
 40
56.5
 50
196.014138
 51
208.985862
  0
ARC
  8
LC-001-002-----0
  6
CONTINUOUS
  5
119
 10
339.501238
 20
172.178491
 30
0.0
 40
56.5
 50
211.014138
 51
223.985862
  0
ARC
  8
LC-001-002-----0
  6
CONTINUOUS
  5
11A
 10
339.501238
 20
172.178491
 30
0.0
 40
56.5
 50
226.014138
 51
238.985862
  0
ARC
  8
LC-001-002-----0
  6
CONTINUOUS
  5
11B
 10
339.501238
 20
172.178491
 30
0.0
 40
56.5
 50
241.014138
 51
253.985862
  0
ARC
  8
LC-001-002-----0
  6
CONTINUOUS
  5
11C
 10
339.501238
 20
172.178491
 30
0.0
 40
56.5
 50
256.014138
 51
268.985862
  0
ARC
  8
LC-001-002-----0
  6
CONTINUOUS
  5
11D
 10
339.501238
 20
172.178491
 30
0.0
 40
56.5
 50
271.014138
 51
283.985862
  0
ARC
  8
LC-001-002-----0
  6
CONTINUOUS
  5
11E
 10
339.501238
 20
172.178491
 30
0.0
 40
56.5
 50
286.014138
 51
298.985862
  0
ARC
  8
LC-001-002-----0
  6
CONTINUOUS
  5
11F
 10
339.501238
 20
172.178491
 30
0.0
 40
56.5
 50
301.014138
 51
313.985862
  0
ARC
  8
LC-001-002-----0
  6
CONTINUOUS
  5
120
 10
339.501238
 20
172.178491
 30
0.0
 40
56.5
 50
316.014138
 51
328.985862
  0
ARC
  8
LC-001-002-----0
  6
CONTINUOUS
  5
121
 10
339.501238
 20
172.178491
 30
0.0
 40
56.5
 50
331.014138
 51
343.985862
  0
ARC
  8
LC-001-002-----0
  6
CONTINUOUS
  5
122
 10
339.501238
 20
172.178491
 30
0.0
 40
56.5
 50
346.014138
 51
358.985862
  0
ARC
  8
LC-001-002-----0
  6
CONTINUOUS
  5
123
 10
339.501238
 20
172.178491
 30
0.0
 40
56.5
 50
1.014138
 51
13.985862
  0
ARC
  8
LC-001-002-----0
  6
CONTINUOUS
  5
124
 10
339.501238
 20
172.178491
 30
0.0
 40
56.5
 50
16.014138
 51
28.985862
  0
ARC
  8
LC-001-002-----0
  6
CONTINUOUS
  5
125
 10
339.501238
 20
172.178491
 30
0.0
 40
56.5
 50
31.014138
 51
43.985862
  0
ARC
  8
LC-001-002-----0
  6
CONTINUOUS
  5
126
 10
339.501238
 20
172.178491
 30
0.0
 40
56.5
 50
46.014138
 51
58.985862
  0
ARC
  8
LC-001-002-----0
  6
CONTINUOUS
  5
127
 10
339.501238
 20
172.178491
 30
0.0
 40
56.5
 50
61.014138
 51
73.985862
  0
ARC
  8
LC-001-002-----0
  6
CONTINUOUS
  5
128
 10
339.501238
 20
172.178491
 30
0.0
 40
54.5
 50
91.051358
 51
103.948642
  0
ARC
  8
LC-001-002-----0
  6
CONTINUOUS
  5
129
 10
339.501238
 20
172.178491
 30
0.0
 40
54.5
 50
106.051358
 51
118.948642
  0
ARC
  8
LC-001-002-----0
  6
CONTINUOUS
  5
12A
 10
339.501238
 20
172.178491
 30
0.0
 40
54.5
 50
121.051358
 51
133.948642
  0
ARC
  8
LC-001-002-----0
  6
CONTINUOUS
  5
12B
 10
339.501238
 20
172.178491
 30
0.0
 40
54.5
 50
136.051358
 51
148.948642
  0
ARC
  8
LC-001-002-----0
  6
CONTINUOUS
  5
12C
 10
339.501238
 20
172.178491
 30
0.0
 40
54.5
 50
151.051358
 51
163.948642
  0
ARC
  8
LC-001-002-----0
  6
CONTINUOUS
  5
12D
 10
339.501238
 20
172.178491
 30
0.0
 40
54.5
 50
166.051358
 51
178.948642
  0
ARC
  8
LC-001-002-----0
  6
CONTINUOUS
  5
12E
 10
339.501238
 20
172.178491
 30
0.0
 40
54.5
 50
181.051358
 51
193.948642
  0
ARC
  8
LC-001-002-----0
  6
CONTINUOUS
  5
12F
 10
339.501238
 20
172.178491
 30
0.0
 40
54.5
 50
196.051358
 51
208.948642
  0
LINE
  8
LC-001-002-----0
  6
CONTINUOUS
  5
130
 10
296.386557
 20
127.649596
 30
0.0
 11
300.26307
 21
131.526109
 31
0.0
  0
LINE
  8
LC-001-002-----0
  6
CONTINUOUS
  5
131
 10
294.972343
 20
129.06381
 30
0.0
 11
296.386557
 21
127.649596
 31
0.0
  0
ARC
  8
LC-001-002-----0
  6
CONTINUOUS
  5
132
 10
339.501238
 20
172.178491
 30
0.0
 40
54.5
 50
211.051358
 51
223.948642
  0
ARC
  8
LC-001-002-----0
  6
CONTINUOUS
  5
133
 10
339.501238
 20
172.178491
 30
0.0
 40
54.5
 50
226.051358
 51
238.948642
  0
ARC
  8
LC-001-002-----0
  6
CONTINUOUS
  5
134
 10
339.501238
 20
172.178491
 30
0.0
 40
54.5
 50
241.051358
 51
253.948642
  0
ARC
  8
LC-001-002-----0
  6
CONTINUOUS
  5
135
 10
339.501238
 20
172.178491
 30
0.0
 40
54.5
 50
256.051358
 51
268.948642
  0
ARC
  8
LC-001-002-----0
  6
CONTINUOUS
  5
136
 10
339.501238
 20
172.178491
 30
0.0
 40
54.5
 50
271.051358
 51
283.948642
  0
ARC
  8
LC-001-002-----0
  6
CONTINUOUS
  5
137
 10
339.501238
 20
172.178491
 30
0.0
 40
54.5
 50
286.051358
 51
298.948642
  0
ARC
  8
LC-006-002-RND-0
  6
CONTINUOUS
  5
138
 10
156.135311
 20
178.586228
 30
0.0
 40
2.0
 50
180.0
 51
270.0
  0
ARC
  8
LC-001-002-----0
  6
CONTINUOUS
  5
139
 10
339.501238
 20
172.178491
 30
0.0
 40
54.5
 50
301.051358
 51
313.948642
  0
ARC
  8
LC-001-002-----0
  6
CONTINUOUS
  5
13A
 10
339.501238
 20
172.178491
 30
0.0
 40
54.5
 50
316.051358
 51
328.948642
  0
ARC
  8
LC-001-002-----0
  6
CONTINUOUS
  5
13B
 10
339.501238
 20
172.178491
 30
0.0
 40
54.5
 50
331.051358
 51
343.948642
  0
ARC
  8
LC-001-002-----0
  6
CONTINUOUS
  5
13C
 10
339.501238
 20
172.178491
 30
0.0
 40
54.5
 50
346.051358
 51
358.948642
  0
ARC
  8
LC-001-002-----0
  6
CONTINUOUS
  5
13D
 10
339.501238
 20
172.178491
 30
0.0
 40
54.5
 50
1.051358
 51
13.948642
  0
ARC
  8
LC-001-002-----0
  6
CONTINUOUS
  5
13E
 10
339.501238
 20
172.178491
 30
0.0
 40
54.5
 50
16.051358
 51
28.948642
  0
ARC
  8
LC-001-002-----0
  6
CONTINUOUS
  5
13F
 10
339.501238
 20
172.178491
 30
0.0
 40
54.5
 50
31.051358
 51
43.948642
  0
ARC
  8
LC-001-002-----0
  6
CONTINUOUS
  5
140
 10
339.501238
 20
172.178491
 30
0.0
 40
32.0
 50
241.790785
 51
253.209215
  0
ARC
  8
LC-001-002-----0
  6
CONTINUOUS
  5
141
 10
339.501238
 20
172.178491
 30
0.0
 40
32.0
 50
256.790785
 51
268.209215
  0
ARC
  8
LC-001-002-----0
  6
CONTINUOUS
  5
142
 10
339.501238
 20
172.178491
 30
0.0
 40
32.0
 50
271.790785
 51
283.209215
  0
ARC
  8
LC-001-002-----0
  6
CONTINUOUS
  5
143
 10
339.501238
 20
172.178491
 30
0.0
 40
32.0
 50
286.790785
 51
298.209215
  0
ARC
  8
LC-001-002-----0
  6
CONTINUOUS
  5
144
 10
339.501238
 20
172.178491
 30
0.0
 40
32.0
 50
301.790785
 51
313.209215
  0
ARC
  8
LC-001-002-----0
  6
CONTINUOUS
  5
145
 10
339.501238
 20
172.178491
 30
0.0
 40
32.0
 50
316.790785
 51
328.209215
  0
ARC
  8
LC-001-002-----0
  6
CONTINUOUS
  5
146
 10
339.501238
 20
172.178491
 30
0.0
 40
32.0
 50
331.790785
 51
343.209215
  0
ARC
  8
LC-001-002-----0
  6
CONTINUOUS
  5
147
 10
339.501238
 20
172.178491
 30
0.0
 40
32.0
 50
346.790785
 51
358.209215
  0
ARC
  8
LC-001-002-----0
  6
CONTINUOUS
  5
148
 10
339.501238
 20
172.178491
 30
0.0
 40
32.0
 50
1.790785
 51
13.209215
  0
ARC
  8
LC-001-002-----0
  6
CONTINUOUS
  5
149
 10
339.501238
 20
172.178491
 30
0.0
 40
32.0
 50
16.790785
 51
28.209215
  0
ARC
  8
LC-001-002-----0
  6
CONTINUOUS
  5
14A
 10
339.501238
 20
172.178491
 30
0.0
 40
32.0
 50
31.790785
 51
43.209215
  0
ARC
  8
LC-001-002-----0
  6
CONTINUOUS
  5
14B
 10
339.501238
 20
172.178491
 30
0.0
 40
32.0
 50
46.790785
 51
58.209215
  0
ARC
  8
LC-001-002-----0
  6
CONTINUOUS
  5
14C
 10
339.501238
 20
172.178491
 30
0.0
 40
32.0
 50
61.790785
 51
73.209215
  0
ARC
  8
LC-001-002-----0
  6
CONTINUOUS
  5
14D
 10
339.501238
 20
172.178491
 30
0.0
 40
32.0
 50
76.790785
 51
88.209215
  0
ARC
  8
LC-001-002-----0
  6
CONTINUOUS
  5
14E
 10
339.501238
 20
172.178491
 30
0.0
 40
32.0
 50
91.790785
 51
103.209215
  0
ARC
  8
LC-001-002-----0
  6
CONTINUOUS
  5
14F
 10
339.501238
 20
172.178491
 30
0.0
 40
32.0
 50
106.790785
 51
118.209215
  0
ARC
  8
LC-001-002-----0
  6
CONTINUOUS
  5
150
 10
339.501238
 20
172.178491
 30
0.0
 40
32.0
 50
121.790785
 51
133.209215
  0
ARC
  8
LC-001-002-----0
  6
CONTINUOUS
  5
151
 10
339.501238
 20
172.178491
 30
0.0
 40
32.0
 50
136.790785
 51
148.209215
  0
ARC
  8
LC-001-002-----0
  6
CONTINUOUS
  5
152
 10
339.501238
 20
172.178491
 30
0.0
 40
32.0
 50
151.790785
 51
163.209215
  0
ARC
  8
LC-001-002-----0
  6
CONTINUOUS
  5
153
 10
339.501238
 20
172.178491
 30
0.0
 40
32.0
 50
166.790785
 51
178.209215
  0
ARC
  8
LC-001-002-----0
  6
CONTINUOUS
  5
154
 10
339.501238
 20
172.178491
 30
0.0
 40
32.0
 50
181.790785
 51
193.209215
  0
ARC
  8
LC-001-002-----0
  6
CONTINUOUS
  5
155
 10
339.501238
 20
172.178491
 30
0.0
 40
32.0
 50
196.790785
 51
208.209215
  0
LINE
  8
LC-001-002-----0
  6
CONTINUOUS
  5
156
 10
324.427277
 20
112.057996
 30
0.0
 11
325.846179
 21
117.353412
 31
0.0
  0
LINE
  8
LC-001-002-----0
  6
CONTINUOUS
  5
157
 10
356.507052
 20
112.575634
 30
0.0
 11
355.08815
 21
117.87105
 31
0.0
  0
LINE
  8
LC-001-002-----0
  6
CONTINUOUS
  5
158
 10
384.030134
 20
129.06381
 30
0.0
 11
380.15362
 21
132.940323
 31
0.0
  0
LINE
  8
LC-001-002-----0
  6
CONTINUOUS
  5
159
 10
399.621734
 20
157.104529
 30
0.0
 11
394.326318
 21
158.523432
 31
0.0
  0
LINE
  8
LC-001-002-----0
  6
CONTINUOUS
  5
15A
 10
399.104096
 20
189.184305
 30
0.0
 11
393.80868
 21
187.765402
 31
0.0
  0
LINE
  8
LC-001-002-----0
  6
CONTINUOUS
  5
15B
 10
382.61592
 20
216.707386
 30
0.0
 11
378.739407
 21
212.830873
 31
0.0
  0
LINE
  8
LC-001-002-----0
  6
CONTINUOUS
  5
15C
 10
354.5752
 20
232.298986
 30
0.0
 11
353.156298
 21
227.003571
 31
0.0
  0
LINE
  8
LC-001-002-----0
  6
CONTINUOUS
  5
15D
 10
322.495425
 20
231.781348
 30
0.0
 11
323.914327
 21
226.485933
 31
0.0
  0
LINE
  8
LC-001-002-----0
  6
CONTINUOUS
  5
15E
 10
294.972343
 20
215.293173
 30
0.0
 11
298.848857
 21
211.416659
 31
0.0
  0
LINE
  8
LC-001-002-----0
  6
CONTINUOUS
  5
15F
 10
279.380743
 20
187.252453
 30
0.0
 11
284.201906
 21
185.960627
 31
0.0
  0
LINE
  8
LC-001-002-----0
  6
CONTINUOUS
  5
160
 10
279.898381
 20
155.172678
 30
0.0
 11
285.193797
 21
156.59158
 31
0.0
  0
LINE
  8
LC-001-002-----0
  6
CONTINUOUS
  5
161
 10
322.495425
 20
112.575634
 30
0.0
 11
323.914327
 21
117.87105
 31
0.0
  0
LINE
  8
LC-001-002-----0
  6
CONTINUOUS
  5
162
 10
354.5752
 20
112.057996
 30
0.0
 11
353.156298
 21
117.353412
 31
0.0
  0
LINE
  8
LC-001-002-----0
  6
CONTINUOUS
  5
163
 10
382.61592
 20
127.649596
 30
0.0
 11
378.739407
 21
131.526109
 31
0.0
  0
LINE
  8
LC-001-002-----0
  6
CONTINUOUS
  5
164
 10
399.104096
 20
155.172678
 30
0.0
 11
393.80868
 21
156.59158
 31
0.0
  0
LINE
  8
LC-001-002-----0
  6
CONTINUOUS
  5
165
 10
399.621734
 20
187.252453
 30
0.0
 11
394.326318
 21
185.833551
 31
0.0
  0
LINE
  8
LC-001-002-----0
  6
CONTINUOUS
  5
166
 10
384.030134
 20
215.293173
 30
0.0
 11
380.15362
 21
211.416659
 31
0.0
  0
LINE
  8
LC-001-002-----0
  6
CONTINUOUS
  5
167
 10
356.507052
 20
231.781348
 30
0.0
 11
355.08815
 21
226.485933
 31
0.0
  0
LINE
  8
LC-001-002-----0
  6
CONTINUOUS
  5
168
 10
324.427277
 20
232.298986
 30
0.0
 11
325.846179
 21
227.003571
 31
0.0
  0
LINE
  8
LC-001-002-----0
  6
CONTINUOUS
  5
169
 10
296.386557
 20
216.707386
 30
0.0
 11
300.26307
 21
212.830873
 31
0.0
  0
LINE
  8
LC-001-002-----0
  6
CONTINUOUS
  5
16A
 10
279.898381
 20
189.184305
 30
0.0
 11
285.193797
 21
187.765402
 31
0.0
  0
LINE
  8
LC-001-002-----0
  6
CONTINUOUS
  5
16B
 10
279.380743
 20
157.104529
 30
0.0
 11
284.676159
 21
158.523432
 31
0.0
  0
LINE
  8
LC-001-002-----0
  6
CONTINUOUS
  5
16C
 10
322.495425
 20
112.575634
 30
0.0
 11
324.427277
 21
112.057996
 31
0.0
  0
LINE
  8
LC-001-002-----0
  6
CONTINUOUS
  5
16D
 10
354.5752
 20
112.057996
 30
0.0
 11
356.507052
 21
112.575634
 31
0.0
  0
LINE
  8
LC-001-002-----0
  6
CONTINUOUS
  5
16E
 10
382.61592
 20
127.649596
 30
0.0
 11
384.030134
 21
129.06381
 31
0.0
  0
LINE
  8
LC-001-002-----0
  6
CONTINUOUS
  5
16F
 10
399.104096
 20
155.172678
 30
0.0
 11
399.621734
 21
157.104529
 31
0.0
  0
LINE
  8
LC-001-002-----0
  6
CONTINUOUS
  5
170
 10
399.621734
 20
187.252453
 30
0.0
 11
399.104096
 21
189.184305
 31
0.0
  0
LINE
  8
LC-001-002-----0
  6
CONTINUOUS
  5
171
 10
384.030134
 20
215.293173
 30
0.0
 11
382.61592
 21
216.707386
 31
0.0
  0
LINE
  8
LC-001-002-----0
  6
CONTINUOUS
  5
172
 10
356.507052
 20
231.781348
 30
0.0
 11
354.5752
 21
232.298986
 31
0.0
  0
LINE
  8
LC-001-002-----0
  6
CONTINUOUS
  5
173
 10
324.427277
 20
232.298986
 30
0.0
 11
322.495425
 21
231.781348
 31
0.0
  0
LINE
  8
LC-001-002-----0
  6
CONTINUOUS
  5
174
 10
296.386557
 20
216.707386
 30
0.0
 11
294.972343
 21
215.293173
 31
0.0
  0
LINE
  8
LC-001-002-----0
  6
CONTINUOUS
  5
175
 10
279.898381
 20
189.184305
 30
0.0
 11
279.380743
 21
187.252453
 31
0.0
  0
LINE
  8
LC-001-002-----0
  6
CONTINUOUS
  5
176
 10
279.380743
 20
157.104529
 30
0.0
 11
279.898381
 21
155.172678
 31
0.0
  0
LINE
  8
LC-001-002-----0
  6
CONTINUOUS
  5
177
 10
340.501238
 20
227.169398
 30
0.0
 11
340.501238
 21
204.162862
 31
0.0
  0
LINE
  8
LC-001-002-----0
  6
CONTINUOUS
  5
178
 10
338.501238
 20
227.169398
 30
0.0
 11
338.501238
 21
204.162862
 31
0.0
  0
LINE
  8
LC-001-002-----0
  6
CONTINUOUS
  5
179
 10
326.23447
 20
225.554447
 30
0.0
 11
332.189
 21
203.33184
 31
0.0
  0
LINE
  8
LC-001-002-----0
  6
CONTINUOUS
  5
17A
 10
324.302619
 20
225.036809
 30
0.0
 11
330.257148
 21
202.814202
 31
0.0
  0
LINE
  8
LC-001-002-----0
  6
CONTINUOUS
  5
17B
 10
312.87181
 20
220.302014
 30
0.0
 11
324.375078
 21
200.377769
 31
0.0
  0
LINE
  8
LC-001-002-----0
  6
CONTINUOUS
  5
17C
 10
311.13976
 20
219.302014
 30
0.0
 11
322.643028
 21
199.377769
 31
0.0
  0
LINE
  8
LC-001-002-----0
  6
CONTINUOUS
  5
17D
 10
301.323902
 20
211.770041
 30
0.0
 11
317.59198
 21
195.501964
 31
0.0
  0
LINE
  8
LC-001-002-----0
  6
CONTINUOUS
  5
17E
 10
299.909689
 20
210.355828
 30
0.0
 11
316.177766
 21
194.08775
 31
0.0
  0
LINE
  8
LC-001-002-----0
  6
CONTINUOUS
  5
17F
 10
292.377716
 20
200.53997
 30
0.0
 11
312.301961
 21
189.036702
 31
0.0
  0
LINE
  8
LC-001-002-----0
  6
CONTINUOUS
  5
180
 10
291.377716
 20
198.807919
 30
0.0
 11
311.301961
 21
187.304651
 31
0.0
  0
LINE
  8
LC-001-002-----0
  6
CONTINUOUS
  5
181
 10
286.125282
 20
185.445259
 30
0.0
 11
308.347889
 21
179.49073
 31
0.0
  0
LINE
  8
LC-001-002-----0
  6
CONTINUOUS
  5
182
 10
286.64292
 20
187.377111
 30
0.0
 11
308.865527
 21
181.422581
 31
0.0
  0
LINE
  8
LC-001-002-----0
  6
CONTINUOUS
  5
183
 10
284.510332
 20
173.178491
 30
0.0
 11
307.516867
 21
173.178491
 31
0.0
  0
LINE
  8
LC-001-002-----0
  6
CONTINUOUS
  5
184
 10
284.510332
 20
171.178491
 30
0.0
 11
307.516867
 21
171.178491
 31
0.0
  0
LINE
  8
LC-001-002-----0
  6
CONTINUOUS
  5
185
 10
286.125282
 20
158.911723
 30
0.0
 11
308.347889
 21
164.866253
 31
0.0
  0
LINE
  8
LC-001-002-----0
  6
CONTINUOUS
  5
186
 10
286.64292
 20
156.979871
 30
0.0
 11
308.865527
 21
162.934401
 31
0.0
  0
LINE
  8
LC-001-002-----0
  6
CONTINUOUS
  5
187
 10
291.377716
 20
145.549063
 30
0.0
 11
311.301961
 21
157.052331
 31
0.0
  0
LINE
  8
LC-001-002-----0
  6
CONTINUOUS
  5
188
 10
292.377716
 20
143.817012
 30
0.0
 11
312.301961
 21
155.32028
 31
0.0
  0
LINE
  8
LC-001-002-----0
  6
CONTINUOUS
  5
189
 10
299.909689
 20
134.001155
 30
0.0
 11
316.177766
 21
150.269232
 31
0.0
  0
LINE
  8
LC-001-002-----0
  6
CONTINUOUS
  5
18A
 10
301.323902
 20
132.586941
 30
0.0
 11
317.59198
 21
148.855019
 31
0.0
  0
LINE
  8
LC-001-002-----0
  6
CONTINUOUS
  5
18B
 10
312.87181
 20
124.054969
 30
0.0
 11
324.375078
 21
143.979213
 31
0.0
  0
ARC
  8
LC-001-002-----0
  6
CONTINUOUS
  5
18C
 10
339.501238
 20
172.178491
 30
0.0
 40
56.5
 50
76.014138
 51
88.985862
  0
LINE
  8
LC-001-002-----0
  6
CONTINUOUS
  5
18D
 10
311.13976
 20
125.054969
 30
0.0
 11
322.643028
 21
144.979213
 31
0.0
  0
LINE
  8
LC-001-002-----0
  6
CONTINUOUS
  5
18E
 10
324.302619
 20
119.320173
 30
0.0
 11
330.257148
 21
141.54278
 31
0.0
  0
LINE
  8
LC-001-002-----0
  6
CONTINUOUS
  5
18F
 10
326.23447
 20
118.802535
 30
0.0
 11
332.189
 21
141.025142
 31
0.0
  0
LINE
  8
LC-001-002-----0
  6
CONTINUOUS
  5
190
 10
338.501238
 20
117.187584
 30
0.0
 11
338.501238
 21
140.19412
 31
0.0
  0
LINE
  8
LC-001-002-----0
  6
CONTINUOUS
  5
191
 10
340.501238
 20
117.187584
 30
0.0
 11
340.501238
 21
140.19412
 31
0.0
  0
LINE
  8
LC-001-002-----0
  6
CONTINUOUS
  5
192
 10
354.699858
 20
119.320173
 30
0.0
 11
348.745329
 21
141.54278
 31
0.0
  0
LINE
  8
LC-001-002-----0
  6
CONTINUOUS
  5
193
 10
352.768007
 20
118.802535
 30
0.0
 11
346.813477
 21
141.025142
 31
0.0
  0
LINE
  8
LC-001-002-----0
  6
CONTINUOUS
  5
194
 10
366.130667
 20
124.054969
 30
0.0
 11
354.627399
 21
143.979213
 31
0.0
  0
LINE
  8
LC-001-002-----0
  6
CONTINUOUS
  5
195
 10
367.862717
 20
125.054969
 30
0.0
 11
356.359449
 21
144.979213
 31
0.0
  0
LINE
  8
LC-001-002-----0
  6
CONTINUOUS
  5
196
 10
312.121689
 20
221.601262
 30
0.0
 11
312.87181
 21
220.302014
 31
0.0
  0
LINE
  8
LC-001-002-----0
  6
CONTINUOUS
  5
197
 10
377.678575
 20
132.586941
 30
0.0
 11
361.410497
 21
148.855019
 31
0.0
  0
LINE
  8
LC-001-002-----0
  6
CONTINUOUS
  5
198
 10
379.092788
 20
134.001155
 30
0.0
 11
362.824711
 21
150.269232
 31
0.0
  0
LINE
  8
LC-001-002-----0
  6
CONTINUOUS
  5
199
 10
386.624761
 20
143.817012
 30
0.0
 11
366.700516
 21
155.32028
 31
0.0
  0
LINE
  8
LC-001-002-----0
  6
CONTINUOUS
  5
19A
 10
387.624761
 20
145.549063
 30
0.0
 11
367.700516
 21
157.052331
 31
0.0
  0
LINE
  8
LC-001-002-----0
  6
CONTINUOUS
  5
19B
 10
392.359557
 20
156.979871
 30
0.0
 11
370.13695
 21
162.934401
 31
0.0
  0
LINE
  8
LC-001-002-----0
  6
CONTINUOUS
  5
19C
 10
392.877195
 20
158.911723
 30
0.0
 11
370.654588
 21
164.866253
 31
0.0
  0
LINE
  8
LC-001-002-----0
  6
CONTINUOUS
  5
19D
 10
394.492145
 20
173.178491
 30
0.0
 11
371.48561
 21
173.178491
 31
0.0
  0
LINE
  8
LC-001-002-----0
  6
CONTINUOUS
  5
19E
 10
394.492145
 20
171.178491
 30
0.0
 11
371.48561
 21
171.178491
 31
0.0
  0
LINE
  8
LC-001-002-----0
  6
CONTINUOUS
  5
19F
 10
392.877195
 20
185.445259
 30
0.0
 11
370.654588
 21
179.49073
 31
0.0
  0
LINE
  8
LC-001-002-----0
  6
CONTINUOUS
  5
1A0
 10
392.359557
 20
187.377111
 30
0.0
 11
370.13695
 21
181.422581
 31
0.0
  0
LINE
  8
LC-001-002-----0
  6
CONTINUOUS
  5
1A1
 10
387.624761
 20
198.807919
 30
0.0
 11
367.700516
 21
187.304651
 31
0.0
  0
LINE
  8
LC-001-002-----0
  6
CONTINUOUS
  5
1A2
 10
58.527871
 20
137.086228
 30
0.0
 11
58.527871
 21
140.086226
 31
0.0
  0
LINE
  8
LC-001-002-----0
  6
CONTINUOUS
  5
1A3
 10
386.624761
 20
200.53997
 30
0.0
 11
366.700516
 21
189.036702
 31
0.0
  0
LINE
  8
LC-001-002-----0
  6
CONTINUOUS
  5
1A4
 10
379.092788
 20
210.355828
 30
0.0
 11
362.824711
 21
194.08775
 31
0.0
  0
LINE
  8
LC-001-002-----0
  6
CONTINUOUS
  5
1A5
 10
377.678575
 20
211.770041
 30
0.0
 11
361.410497
 21
195.501964
 31
0.0
  0
LINE
  8
LC-001-002-----0
  6
CONTINUOUS
  5
1A6
 10
300.26307
 20
212.830873
 30
0.0
 11
301.323902
 21
211.770041
 31
0.0
  0
LINE
  8
LC-001-002-----0
  6
CONTINUOUS
  5
1A7
 10
366.130667
 20
220.302014
 30
0.0
 11
354.627399
 21
200.377769
 31
0.0
  0
LINE
  8
LC-001-002-----0
  6
CONTINUOUS
  5
1A8
 10
367.862717
 20
219.302014
 30
0.0
 11
356.359449
 21
199.377769
 31
0.0
  0
LINE
  8
LC-001-002-----0
  6
CONTINUOUS
  5
1A9
 10
354.699858
 20
225.036809
 30
0.0
 11
348.745329
 21
202.814202
 31
0.0
  0
LINE
  8
LC-001-002-----0
  6
CONTINUOUS
  5
1AA
 10
352.768007
 20
225.554447
 30
0.0
 11
346.813477
 21
203.33184
 31
0.0
  0
LINE
  8
LC-001-002-----0
  6
CONTINUOUS
  5
1AB
 10
169.527871
 20
134.586228
 30
0.0
 11
169.527871
 21
130.086228
 31
0.0
  0
LINE
  8
LC-001-002-----0
  6
CONTINUOUS
  5
1AC
 10
171.527871
 20
134.586228
 30
0.0
 11
171.527871
 21
130.086228
 31
0.0
  0
LINE
  8
LC-001-002-----0
  6
CONTINUOUS
  5
1AD
 10
171.527871
 20
130.086228
 30
0.0
 11
169.527871
 21
130.086228
 31
0.0
  0
ARC
  8
LC-001-002-----0
  6
CONTINUOUS
  5
1AE
 10
339.501238
 20
172.178491
 30
0.0
 40
54.5
 50
46.051358
 51
58.948642
  0
LINE
  8
LC-001-002-----0
  6
CONTINUOUS
  5
1AF
 10
60.527871
 20
134.586228
 30
0.0
 11
60.527871
 21
140.086228
 31
0.0
  0
LINE
  8
LC-001-002-----0
  6
CONTINUOUS
  5
1B0
 10
365.967563
 20
186.30413
 30
0.0
 11
344.96534
 21
174.178491
 31
0.0
  0
LINE
  8
LC-001-002-----0
  6
CONTINUOUS
  5
1B1
 10
364.967563
 20
188.036181
 30
0.0
 11
343.243879
 21
175.494006
 31
0.0
  0
LINE
  8
LC-001-002-----0
  6
CONTINUOUS
  5
1B2
 10
361.40976
 20
192.672799
 30
0.0
 11
361.40976
 21
192.672799
 31
0.0
  0
LINE
  8
LC-001-002-----0
  6
CONTINUOUS
  5
1B3
 10
359.995547
 20
194.087013
 30
0.0
 11
359.995547
 21
194.087013
 31
0.0
  0
LINE
  8
LC-001-002-----0
  6
CONTINUOUS
  5
1B4
 10
355.358928
 20
197.644816
 30
0.0
 11
342.816754
 21
175.921132
 31
0.0
  0
LINE
  8
LC-001-002-----0
  6
CONTINUOUS
  5
1B5
 10
353.626877
 20
198.644816
 30
0.0
 11
341.084703
 21
176.921132
 31
0.0
  0
LINE
  8
LC-001-002-----0
  6
CONTINUOUS
  5
1B6
 10
340.501238
 20
202.16182
 30
0.0
 11
340.501238
 21
177.077471
 31
0.0
  0
LINE
  8
LC-001-002-----0
  6
CONTINUOUS
  5
1B7
 10
338.501238
 20
202.16182
 30
0.0
 11
338.501238
 21
177.077471
 31
0.0
  0
LINE
  8
LC-001-002-----0
  6
CONTINUOUS
  5
1B8
 10
325.3756
 20
198.644816
 30
0.0
 11
337.917774
 21
176.921132
 31
0.0
  0
LINE
  8
LC-001-002-----0
  6
CONTINUOUS
  5
1B9
 10
323.643549
 20
197.644816
 30
0.0
 11
336.185723
 21
175.921132
 31
0.0
  0
LINE
  8
LC-001-002-----0
  6
CONTINUOUS
  5
1BA
 10
314.034914
 20
188.036181
 30
0.0
 11
335.758598
 21
175.494006
 31
0.0
  0
ARC
  8
LC-001-002-----0
  6
CONTINUOUS
  5
1BB
 10
339.501238
 20
172.178491
 30
0.0
 40
30.0
 50
121.910213
 51
148.089787
  0
LINE
  8
LC-001-002-----0
  6
CONTINUOUS
  5
1BC
 10
313.034914
 20
186.30413
 30
0.0
 11
334.037137
 21
174.178491
 31
0.0
  0
LINE
  8
LC-001-002-----0
  6
CONTINUOUS
  5
1BD
 10
394.645465
 20
184.481511
 30
0.0
 11
396.138331
 21
184.678051
 31
0.0
  0
LINE
  8
LC-001-002-----0
  6
CONTINUOUS
  5
1BE
 10
395.950727
 20
174.567063
 30
0.0
 11
397.443593
 21
174.763602
 31
0.0
  0
LINE
  8
LC-001-002-----0
  6
CONTINUOUS
  5
1BF
 10
313.034914
 20
158.052852
 30
0.0
 11
334.037137
 21
170.178491
 31
0.0
  0
LINE
  8
LC-001-002-----0
  6
CONTINUOUS
  5
1C0
 10
314.034914
 20
156.320801
 30
0.0
 11
335.758598
 21
168.862976
 31
0.0
  0
LINE
  8
LC-001-002-----0
  6
CONTINUOUS
  5
1C1
 10
323.643549
 20
146.712167
 30
0.0
 11
336.185723
 21
168.43585
 31
0.0
  0
LINE
  8
LC-001-002-----0
  6
CONTINUOUS
  5
1C2
 10
325.3756
 20
145.712167
 30
0.0
 11
337.917774
 21
167.435851
 31
0.0
  0
LINE
  8
LC-001-002-----0
  6
CONTINUOUS
  5
1C3
 10
338.501238
 20
142.195162
 30
0.0
 11
338.501238
 21
167.279512
 31
0.0
  0
LINE
  8
LC-001-002-----0
  6
CONTINUOUS
  5
1C4
 10
340.501238
 20
142.195162
 30
0.0
 11
340.501238
 21
167.279512
 31
0.0
  0
LINE
  8
LC-001-002-----0
  6
CONTINUOUS
  5
1C5
 10
353.626877
 20
145.712167
 30
0.0
 11
341.084703
 21
167.43585
 31
0.0
  0
LINE
  8
LC-001-002-----0
  6
CONTINUOUS
  5
1C6
 10
355.358928
 20
146.712167
 30
0.0
 11
342.816754
 21
168.435851
 31
0.0
  0
LINE
  8
LC-001-002-----0
  6
CONTINUOUS
  5
1C7
 10
364.967563
 20
156.320801
 30
0.0
 11
343.243879
 21
168.862976
 31
0.0
  0
LINE
  8
LC-001-002-----0
  6
CONTINUOUS
  5
1C8
 10
365.967563
 20
158.052852
 30
0.0
 11
344.96534
 21
170.178491
 31
0.0
  0
LINE
  8
LC-001-002-----0
  6
CONTINUOUS
  5
1C9
 10
58.527871
 20
134.586228
 30
0.0
 11
58.527871
 21
130.086228
 31
0.0
  0
ARC
  8
LC-001-002-----0
  6
CONTINUOUS
  5
1CA
 10
339.501238
 20
172.178491
 30
0.0
 40
41.621835
 50
91.376712
 51
103.623288
  0
ARC
  8
LC-001-002-----0
  6
CONTINUOUS
  5
1CB
 10
339.501238
 20
172.178491
 30
0.0
 40
39.10744
 50
91.465246
 51
103.534754
  0
ARC
  8
LC-001-002-----0
  6
CONTINUOUS
  5
1CC
 10
339.501238
 20
172.178491
 30
0.0
 40
39.10744
 50
106.465246
 51
118.534754
  0
ARC
  8
LC-001-002-----0
  6
CONTINUOUS
  5
1CD
 10
339.501238
 20
172.178491
 30
0.0
 40
39.10744
 50
121.465246
 51
133.534754
  0
ARC
  8
LC-001-002-----0
  6
CONTINUOUS
  5
1CE
 10
339.501238
 20
172.178491
 30
0.0
 40
39.10744
 50
136.465246
 51
148.534754
  0
ARC
  8
LC-001-002-----0
  6
CONTINUOUS
  5
1CF
 10
339.501238
 20
172.178491
 30
0.0
 40
39.10744
 50
151.465246
 51
163.534754
  0
ARC
  8
LC-001-002-----0
  6
CONTINUOUS
  5
1D0
 10
339.501238
 20
172.178491
 30
0.0
 40
39.10744
 50
166.465246
 51
178.534754
  0
ARC
  8
LC-001-002-----0
  6
CONTINUOUS
  5
1D1
 10
339.501238
 20
172.178491
 30
0.0
 40
39.10744
 50
181.465246
 51
193.534754
  0
ARC
  8
LC-001-002-----0
  6
CONTINUOUS
  5
1D2
 10
339.501238
 20
172.178491
 30
0.0
 40
39.10744
 50
196.465246
 51
208.534754
  0
ARC
  8
LC-001-002-----0
  6
CONTINUOUS
  5
1D3
 10
339.501238
 20
172.178491
 30
0.0
 40
39.10744
 50
211.465246
 51
223.534754
  0
ARC
  8
LC-001-002-----0
  6
CONTINUOUS
  5
1D4
 10
339.501238
 20
172.178491
 30
0.0
 40
39.10744
 50
226.465246
 51
238.534754
  0
ARC
  8
LC-001-002-----0
  6
CONTINUOUS
  5
1D5
 10
339.501238
 20
172.178491
 30
0.0
 40
39.10744
 50
241.465246
 51
253.534754
  0
ARC
  8
LC-001-002-----0
  6
CONTINUOUS
  5
1D6
 10
339.501238
 20
172.178491
 30
0.0
 40
39.10744
 50
256.465246
 51
268.534754
  0
ARC
  8
LC-001-002-----0
  6
CONTINUOUS
  5
1D7
 10
339.501238
 20
172.178491
 30
0.0
 40
39.10744
 50
271.465246
 51
283.534754
  0
ARC
  8
LC-001-002-----0
  6
CONTINUOUS
  5
1D8
 10
339.501238
 20
172.178491
 30
0.0
 40
39.10744
 50
286.465246
 51
298.534754
  0
ARC
  8
LC-001-002-----0
  6
CONTINUOUS
  5
1D9
 10
339.501238
 20
172.178491
 30
0.0
 40
39.10744
 50
301.465246
 51
313.534754
  0
ARC
  8
LC-001-002-----0
  6
CONTINUOUS
  5
1DA
 10
339.501238
 20
172.178491
 30
0.0
 40
39.10744
 50
316.465246
 51
328.534754
  0
ARC
  8
LC-001-002-----0
  6
CONTINUOUS
  5
1DB
 10
339.501238
 20
172.178491
 30
0.0
 40
39.10744
 50
331.465246
 51
343.534754
  0
ARC
  8
LC-001-002-----0
  6
CONTINUOUS
  5
1DC
 10
339.501238
 20
172.178491
 30
0.0
 40
39.10744
 50
346.465246
 51
358.534754
  0
ARC
  8
LC-001-002-----0
  6
CONTINUOUS
  5
1DD
 10
339.501238
 20
172.178491
 30
0.0
 40
39.10744
 50
1.465246
 51
13.534754
  0
ARC
  8
LC-001-002-----0
  6
CONTINUOUS
  5
1DE
 10
339.501238
 20
172.178491
 30
0.0
 40
39.10744
 50
16.465246
 51
28.534754
  0
ARC
  8
LC-001-002-----0
  6
CONTINUOUS
  5
1DF
 10
339.501238
 20
172.178491
 30
0.0
 40
39.10744
 50
31.465246
 51
43.534754
  0
ARC
  8
LC-001-002-----0
  6
CONTINUOUS
  5
1E0
 10
339.501238
 20
172.178491
 30
0.0
 40
39.10744
 50
46.465246
 51
58.534754
  0
ARC
  8
LC-001-002-----0
  6
CONTINUOUS
  5
1E1
 10
339.501238
 20
172.178491
 30
0.0
 40
39.10744
 50
61.465246
 51
73.534754
  0
ARC
  8
LC-001-002-----0
  6
CONTINUOUS
  5
1E2
 10
339.501238
 20
172.178491
 30
0.0
 40
39.10744
 50
76.465246
 51
88.534754
  0
ARC
  8
LC-001-002-----0
  6
CONTINUOUS
  5
1E3
 10
339.501238
 20
172.178491
 30
0.0
 40
41.621835
 50
106.376712
 51
118.623288
  0
ARC
  8
LC-001-002-----0
  6
CONTINUOUS
  5
1E4
 10
339.501238
 20
172.178491
 30
0.0
 40
41.621835
 50
121.376712
 51
133.623288
  0
ARC
  8
LC-001-002-----0
  6
CONTINUOUS
  5
1E5
 10
339.501238
 20
172.178491
 30
0.0
 40
41.621835
 50
136.376712
 51
148.623288
  0
ARC
  8
LC-001-002-----0
  6
CONTINUOUS
  5
1E6
 10
339.501238
 20
172.178491
 30
0.0
 40
41.621835
 50
151.376712
 51
163.623288
  0
ARC
  8
LC-001-002-----0
  6
CONTINUOUS
  5
1E7
 10
339.501238
 20
172.178491
 30
0.0
 40
41.621835
 50
166.376712
 51
178.623288
  0
ARC
  8
LC-001-002-----0
  6
CONTINUOUS
  5
1E8
 10
339.501238
 20
172.178491
 30
0.0
 40
41.621835
 50
181.376712
 51
193.623288
  0
ARC
  8
LC-001-002-----0
  6
CONTINUOUS
  5
1E9
 10
339.501238
 20
172.178491
 30
0.0
 40
41.621835
 50
196.376712
 51
208.623288
  0
ARC
  8
LC-001-002-----0
  6
CONTINUOUS
  5
1EA
 10
339.501238
 20
172.178491
 30
0.0
 40
41.621835
 50
211.376712
 51
223.623288
  0
ARC
  8
LC-001-002-----0
  6
CONTINUOUS
  5
1EB
 10
339.501238
 20
172.178491
 30
0.0
 40
41.621835
 50
226.376712
 51
238.623288
  0
ARC
  8
LC-001-002-----0
  6
CONTINUOUS
  5
1EC
 10
339.501238
 20
172.178491
 30
0.0
 40
41.621835
 50
241.376712
 51
253.623288
  0
ARC
  8
LC-001-002-----0
  6
CONTINUOUS
  5
1ED
 10
339.501238
 20
172.178491
 30
0.0
 40
41.621835
 50
256.376712
 51
268.623288
  0
LINE
  8
LC-001-002-----0
  6
CONTINUOUS
  5
1EE
 10
291.078468
 20
201.290091
 30
0.0
 11
292.377716
 21
200.53997
 31
0.0
  0
ARC
  8
LC-001-002-----0
  6
CONTINUOUS
  5
1EF
 10
339.501238
 20
172.178491
 30
0.0
 40
41.621835
 50
271.376712
 51
283.623288
  0
ARC
  8
LC-001-002-----0
  6
CONTINUOUS
  5
1F0
 10
339.501238
 20
172.178491
 30
0.0
 40
41.621835
 50
286.376712
 51
298.623288
  0
ARC
  8
LC-001-002-----0
  6
CONTINUOUS
  5
1F1
 10
339.501238
 20
172.178491
 30
0.0
 40
41.621835
 50
301.376712
 51
313.623288
  0
LINE
  8
LC-001-002-----0
  6
CONTINUOUS
  5
1F2
 10
285.193797
 20
187.765402
 30
0.0
 11
286.64292
 21
187.377111
 31
0.0
  0
LINE
  8
LC-001-002-----0
  6
CONTINUOUS
  5
1F3
 10
283.010089
 20
173.178491
 30
0.0
 11
284.510332
 21
173.178491
 31
0.0
  0
LINE
  8
LC-001-002-----0
  6
CONTINUOUS
  5
1F4
 10
284.676159
 20
158.523432
 30
0.0
 11
286.125282
 21
158.911723
 31
0.0
  0
LINE
  8
LC-001-002-----0
  6
CONTINUOUS
  5
1F5
 10
290.078468
 20
144.798942
 30
0.0
 11
291.377716
 21
145.549063
 31
0.0
  0
ARC
  8
LC-001-002-----0
  6
CONTINUOUS
  5
1F6
 10
339.501238
 20
172.178491
 30
0.0
 40
41.621835
 50
316.376712
 51
328.623288
  0
ARC
  8
LC-001-002-----0
  6
CONTINUOUS
  5
1F7
 10
339.501238
 20
172.178491
 30
0.0
 40
41.621835
 50
331.376712
 51
343.623288
  0
ARC
  8
LC-001-002-----0
  6
CONTINUOUS
  5
1F8
 10
339.501238
 20
172.178491
 30
0.0
 40
41.621835
 50
346.376712
 51
358.623288
  0
LINE
  8
LC-001-002-----0
  6
CONTINUOUS
  5
1F9
 10
298.848857
 20
132.940323
 30
0.0
 11
299.909689
 21
134.001155
 31
0.0
  0
LINE
  8
LC-001-002-----0
  6
CONTINUOUS
  5
1FA
 10
310.389638
 20
123.75572
 30
0.0
 11
311.13976
 21
125.054969
 31
0.0
  0
ARC
  8
LC-001-002-----0
  6
CONTINUOUS
  5
1FB
 10
339.501238
 20
172.178491
 30
0.0
 40
41.621835
 50
1.376712
 51
13.623288
  0
ARC
  8
LC-001-002-----0
  6
CONTINUOUS
  5
1FC
 10
339.501238
 20
172.178491
 30
0.0
 40
41.621835
 50
16.376712
 51
28.623288
  0
ARC
  8
LC-001-002-----0
  6
CONTINUOUS
  5
1FD
 10
339.501238
 20
172.178491
 30
0.0
 40
41.621835
 50
31.376712
 51
43.623288
  0
ARC
  8
LC-001-002-----0
  6
CONTINUOUS
  5
1FE
 10
339.501238
 20
172.178491
 30
0.0
 40
41.621835
 50
46.376712
 51
58.623288
  0
LINE
  8
LC-001-002-----0
  6
CONTINUOUS
  5
1FF
 10
323.914327
 20
117.87105
 30
0.0
 11
324.302619
 21
119.320173
 31
0.0
  0
LINE
  8
LC-001-002-----0
  6
CONTINUOUS
  5
200
 10
338.501238
 20
115.687341
 30
0.0
 11
338.501238
 21
117.187584
 31
0.0
  0
LINE
  8
LC-001-002-----0
  6
CONTINUOUS
  5
201
 10
353.156298
 20
117.353412
 30
0.0
 11
352.768007
 21
118.802535
 31
0.0
  0
LINE
  8
LC-001-002-----0
  6
CONTINUOUS
  5
202
 10
366.880788
 20
122.75572
 30
0.0
 11
366.130667
 21
124.054969
 31
0.0
  0
LINE
  8
LC-001-002-----0
  6
CONTINUOUS
  5
203
 10
378.739407
 20
131.526109
 30
0.0
 11
377.678575
 21
132.586941
 31
0.0
  0
LINE
  8
LC-001-002-----0
  6
CONTINUOUS
  5
204
 10
387.924009
 20
143.066891
 30
0.0
 11
386.624761
 21
143.817012
 31
0.0
  0
ARC
  8
LC-001-002-----0
  6
CONTINUOUS
  5
205
 10
339.501238
 20
172.178491
 30
0.0
 40
41.621835
 50
61.376712
 51
73.623288
  0
LINE
  8
LC-001-002-----0
  6
CONTINUOUS
  5
206
 10
393.80868
 20
156.59158
 30
0.0
 11
392.359557
 21
156.979871
 31
0.0
  0
LINE
  8
LC-001-002-----0
  6
CONTINUOUS
  5
207
 10
395.992388
 20
171.178491
 30
0.0
 11
394.492145
 21
171.178491
 31
0.0
  0
ARC
  8
LC-001-002-----0
  6
CONTINUOUS
  5
208
 10
339.501238
 20
172.178491
 30
0.0
 40
41.621835
 50
76.376712
 51
88.623288
  0
LINE
  8
LC-001-002-----0
  6
CONTINUOUS
  5
209
 10
394.326318
 20
185.833551
 30
0.0
 11
392.877195
 21
185.445259
 31
0.0
  0
LINE
  8
LC-001-002-----0
  6
CONTINUOUS
  5
20A
 10
388.924009
 20
199.558041
 30
0.0
 11
387.624761
 21
198.807919
 31
0.0
  0
LINE
  8
LC-001-002-----0
  6
CONTINUOUS
  5
20B
 10
380.15362
 20
211.416659
 30
0.0
 11
379.092788
 21
210.355828
 31
0.0
  0
LINE
  8
LC-001-002-----0
  6
CONTINUOUS
  5
20C
 10
368.612839
 20
220.601262
 30
0.0
 11
367.862717
 21
219.302014
 31
0.0
  0
LINE
  8
LC-001-002-----0
  6
CONTINUOUS
  5
20D
 10
355.08815
 20
226.485933
 30
0.0
 11
354.699858
 21
225.036809
 31
0.0
  0
ARC
  8
LC-001-002-----0
  6
CONTINUOUS
  5
20E
 10
339.501238
 20
172.178491
 30
0.0
 40
57.999993
 50
2.55457
 51
12.44543
  0
ARC
  8
LC-001-002-----0
  6
CONTINUOUS
  5
20F
 10
339.501238
 20
172.178491
 30
0.0
 40
57.999993
 50
92.55457
 51
102.44543
  0
ARC
  8
LC-001-002-----0
  6
CONTINUOUS
  5
210
 10
339.501238
 20
172.178491
 30
0.0
 40
57.999993
 50
182.55457
 51
192.44543
  0
ARC
  8
LC-001-002-----0
  6
CONTINUOUS
  5
211
 10
339.501238
 20
172.178491
 30
0.0
 40
57.999993
 50
272.55457
 51
282.44543
  0
LINE
  8
LC-001-002-----0
  6
CONTINUOUS
  5
212
 10
327.198219
 20
227.322718
 30
0.0
 11
327.001679
 21
228.815583
 31
0.0
  0
LINE
  8
LC-001-002-----0
  6
CONTINUOUS
  5
213
 10
309.567979
 20
170.178491
 30
0.0
 11
334.037137
 21
170.178491
 31
0.0
  0
LINE
  8
LC-001-002-----0
  6
CONTINUOUS
  5
214
 10
284.357012
 20
159.875471
 30
0.0
 11
282.864146
 21
159.678932
 31
0.0
  0
LINE
  8
LC-001-002-----0
  6
CONTINUOUS
  5
215
 10
351.804258
 20
117.034265
 30
0.0
 11
352.000798
 21
115.541399
 31
0.0
  0
LINE
  8
LC-001-002-----0
  6
CONTINUOUS
  5
216
 10
309.567979
 20
174.178491
 30
0.0
 11
334.037137
 21
174.178491
 31
0.0
  0
ARC
  8
LC-001-002-----0
  6
CONTINUOUS
  5
217
 10
172.027864
 20
136.086228
 30
0.0
 40
1.0
 50
0.0
 51
90.0
  0
LINE
  8
LC-001-002-----0
  6
CONTINUOUS
  5
218
 10
337.118765
 20
228.581659
 30
0.0
 11
336.916128
 21
230.120845
 31
0.0
  0
LINE
  8
LC-001-002-----0
  6
CONTINUOUS
  5
219
 10
283.05175
 20
169.78992
 30
0.0
 11
281.558884
 21
169.59338
 31
0.0
  0
LINE
  8
LC-001-002-----0
  6
CONTINUOUS
  5
21A
 10
341.88981
 20
115.729003
 30
0.0
 11
342.086349
 21
114.236137
 31
0.0
  0
LINE
  8
LC-001-002-----0
  6
CONTINUOUS
  5
21B
 10
340.501238
 20
228.669641
 30
0.0
 11
340.501238
 21
227.169398
 31
0.0
  0
LINE
  8
LC-001-002-----0
  6
CONTINUOUS
  5
21C
 10
369.434498
 20
174.178491
 30
0.0
 11
344.96534
 21
174.178491
 31
0.0
  0
LINE
  8
LC-001-002-----0
  6
CONTINUOUS
  5
21D
 10
369.434498
 20
170.178491
 30
0.0
 11
344.96534
 21
170.178491
 31
0.0
  0
LINE
  8
LC-001-002-----0
  6
CONTINUOUS
  5
21E
 10
324.302619
 20
225.036809
 30
0.0
 11
323.914327
 21
226.485933
 31
0.0
  0
LINE
  8
LC-001-002-----0
  6
CONTINUOUS
  5
21F
 10
311.13976
 20
219.302014
 30
0.0
 11
310.389638
 21
220.601262
 31
0.0
  0
LINE
  8
LC-001-002-----0
  6
CONTINUOUS
  5
220
 10
299.909689
 20
210.355828
 30
0.0
 11
298.848857
 21
211.416659
 31
0.0
  0
LINE
  8
LC-001-002-----0
  6
CONTINUOUS
  5
221
 10
291.377716
 20
198.807919
 30
0.0
 11
290.078468
 21
199.558041
 31
0.0
  0
LINE
  8
LC-001-002-----0
  6
CONTINUOUS
  5
222
 10
286.125282
 20
185.445259
 30
0.0
 11
284.676159
 21
185.833551
 31
0.0
  0
LINE
  8
LC-001-002-----0
  6
CONTINUOUS
  5
223
 10
284.510332
 20
171.178491
 30
0.0
 11
283.010089
 21
171.178491
 31
0.0
  0
LINE
  8
LC-001-002-----0
  6
CONTINUOUS
  5
224
 10
286.64292
 20
156.979871
 30
0.0
 11
285.193797
 21
156.59158
 31
0.0
  0
LINE
  8
LC-001-002-----0
  6
CONTINUOUS
  5
225
 10
292.377716
 20
143.817012
 30
0.0
 11
291.078468
 21
143.066891
 31
0.0
  0
LINE
  8
LC-001-002-----0
  6
CONTINUOUS
  5
226
 10
301.323902
 20
132.586941
 30
0.0
 11
300.26307
 21
131.526109
 31
0.0
  0
LINE
  8
LC-001-002-----0
  6
CONTINUOUS
  5
227
 10
312.87181
 20
124.054969
 30
0.0
 11
312.121689
 21
122.75572
 31
0.0
  0
LINE
  8
LC-001-002-----0
  6
CONTINUOUS
  5
228
 10
326.23447
 20
118.802535
 30
0.0
 11
325.846179
 21
117.353412
 31
0.0
  0
LINE
  8
LC-001-002-----0
  6
CONTINUOUS
  5
229
 10
340.501238
 20
117.187584
 30
0.0
 11
340.501238
 21
115.687341
 31
0.0
  0
LINE
  8
LC-001-002-----0
  6
CONTINUOUS
  5
22A
 10
354.699858
 20
119.320173
 30
0.0
 11
355.08815
 21
117.87105
 31
0.0
  0
LINE
  8
LC-001-002-----0
  6
CONTINUOUS
  5
22B
 10
367.862717
 20
125.054969
 30
0.0
 11
368.612839
 21
123.75572
 31
0.0
  0
LINE
  8
LC-001-002-----0
  6
CONTINUOUS
  5
22C
 10
379.092788
 20
134.001155
 30
0.0
 11
380.15362
 21
132.940323
 31
0.0
  0
LINE
  8
LC-001-002-----0
  6
CONTINUOUS
  5
22D
 10
387.624761
 20
145.549063
 30
0.0
 11
388.924009
 21
144.798942
 31
0.0
  0
LINE
  8
LC-001-002-----0
  6
CONTINUOUS
  5
22E
 10
392.877195
 20
158.911723
 30
0.0
 11
394.326318
 21
158.523432
 31
0.0
  0
LINE
  8
LC-001-002-----0
  6
CONTINUOUS
  5
22F
 10
394.492145
 20
173.178491
 30
0.0
 11
395.992388
 21
173.178491
 31
0.0
  0
LINE
  8
LC-001-002-----0
  6
CONTINUOUS
  5
230
 10
392.359557
 20
187.377111
 30
0.0
 11
393.80868
 21
187.765402
 31
0.0
  0
LINE
  8
LC-001-002-----0
  6
CONTINUOUS
  5
231
 10
386.624761
 20
200.53997
 30
0.0
 11
387.924009
 21
201.290091
 31
0.0
  0
LINE
  8
LC-001-002-----0
  6
CONTINUOUS
  5
232
 10
377.678575
 20
211.770041
 30
0.0
 11
378.739407
 21
212.830873
 31
0.0
  0
LINE
  8
LC-001-002-----0
  6
CONTINUOUS
  5
233
 10
366.130667
 20
220.302014
 30
0.0
 11
366.880788
 21
221.601262
 31
0.0
  0
LINE
  8
LC-001-002-----0
  6
CONTINUOUS
  5
234
 10
352.768007
 20
225.554447
 30
0.0
 11
353.156298
 21
227.003571
 31
0.0
  0
ARC
  8
LC-001-002-----0
  6
CONTINUOUS
  5
235
 10
339.501238
 20
172.178491
 30
0.0
 40
54.5
 50
61.051358
 51
73.948642
  0
LINE
  8
LC-001-002-----0
  6
CONTINUOUS
  5
236
 10
58.027878
 20
137.086228
 30
0.0
 11
58.527871
 21
137.086228
 31
0.0
  0
LINE
  8
LC-001-002-----0
  6
CONTINUOUS
  5
237
 10
58.527871
 20
140.086226
 30
0.0
 11
60.527871
 21
140.086228
 31
0.0
  0
LINE
  8
LC-001-002-----0
  6
CONTINUOUS
  5
238
 10
85.027871
 20
211.086228
 30
0.0
 11
83.044551
 21
211.086228
 31
0.0
  0
LINE
  8
LC-001-002-----0
  6
CONTINUOUS
  5
239
 10
154.135311
 20
185.586228
 30
0.0
 11
147.027871
 21
211.026524
 31
0.0
  0
LINE
  8
LC-001-002-----0
  6
CONTINUOUS
  5
23A
 10
154.135311
 20
185.586228
 30
0.0
 11
156.649706
 21
176.586228
 31
0.0
  0
LINE
  8
LC-001-002-----0
  6
CONTINUOUS
  5
23B
 10
75.920431
 20
185.586228
 30
0.0
 11
75.920431
 21
178.586228
 31
0.0
  0
LINE
  8
LC-001-002-----0
  6
CONTINUOUS
  5
23C
 10
73.920431
 20
176.586228
 30
0.0
 11
73.406036
 21
176.586228
 31
0.0
  0
ARC
  8
LC-006-002-RND-0
  6
CONTINUOUS
  5
23D
 10
73.920431
 20
178.586228
 30
0.0
 40
2.0
 50
270.0
 51
0.0
  0
LINE
  8
LC-001-002-----0
  6
CONTINUOUS
  5
23E
 10
75.920431
 20
185.586228
 30
0.0
 11
73.406036
 21
176.586228
 31
0.0
  0
LINE
  8
LC-001-002-----0
  6
CONTINUOUS
  5
23F
 10
77.461548
 20
185.586228
 30
0.0
 11
85.095482
 21
211.086228
 31
0.0
  0
ENDSEC
  0
EOF
