  0
SECTION
  2
HEADER
  9
$ACADVER
  1
AC1009
  9
$INSBASE
 10
0.0
 20
0.0
 30
0.0
  9
$EXTMIN
 10
-210.0
 20
-148.5
 30
0.0
  9
$EXTMAX
 10
630.0
 20
445.5
 30
0.0
  9
$LIMMIN
 10
-210.0
 20
-148.5
  9
$LIMMAX
 10
630.0
 20
445.5
  9
$ORTHOMODE
 70
     0
  9
$REGENMODE
 70
     1
  9
$FILLMODE
 70
     1
  9
$QTEXTMODE
 70
     0
  9
$MIRRTEXT
 70
     1
  9
$DRAGMODE
 70
     2
  9
$LTSCALE
 40
2.0
  9
$OSMODE
 70
     0
  9
$ATTMODE
 70
     1
  9
$TEXTSIZE
 40
0.2
  9
$TRACEWID
 40
0.05
  9
$TEXTSTYLE
  7
STANDARD
  9
$CLAYER
  8
0
  9
$CELTYPE
  6
BYLAYER
  9
$CECOLOR
 62
     7
  9
$DIMSCALE
 40
2.0
  9
$DIMASZ
 40
3.5
  9
$DIMEXO
 40
0.0625
  9
$DIMDLI
 40
0.38
  9
$DIMRND
 40
0.0
  9
$DIMDLE
 40
0.0
  9
$DIMEXE
 40
0.18
  9
$DIMTP
 40
0.0
  9
$DIMTM
 40
0.0
  9
$DIMTXT
 40
3.5
  9
$DIMCEN
 40
0.09
  9
$DIMTSZ
 40
0.0
  9
$DIMTOL
 70
     0
  9
$DIMLIM
 70
     0
  9
$DIMTIH
 70
     1
  9
$DIMTOH
 70
     1
  9
$DIMSE1
 70
     0
  9
$DIMSE2
 70
     0
  9
$DIMTAD
 70
     1
  9
$DIMZIN
 70
     0
  9
$DIMBLK
  1

  9
$DIMASO
 70
     1
  9
$DIMSHO
 70
     1
  9
$DIMPOST
  1

  9
$DIMAPOST
  1

  9
$DIMALT
 70
     0
  9
$DIMALTD
 70
     2
  9
$DIMALTF
 40
25.4
  9
$DIMLFAC
 40
1.0
  9
$DIMTOFL
 70
     0
  9
$DIMTVP
 40
0.0
  9
$DIMTIX
 70
     0
  9
$DIMSOXD
 70
     0
  9
$DIMSAH
 70
     0
  9
$DIMBLK1
  1

  9
$DIMBLK2
  1

  9
$DIMSTYLE
  2
STANDARD
  9
$DIMCLRD
 70
     0
  9
$DIMCLRE
 70
     0
  9
$DIMCLRT
 70
     0
  9
$DIMTFAC
 40
1.0
  9
$DIMGAP
 40
0.09
  9
$LUNITS
 70
     2
  9
$LUPREC
 70
     2
  9
$AXISMODE
 70
     0
  9
$AXISUNIT
 10
0.0
 20
0.0
  9
$SKETCHINC
 40
0.1
  9
$FILLETRAD
 40
0.0
  9
$AUNITS
 70
     0
  9
$AUPREC
 70
     0
  9
$MENU
  1
acad
  9
$ELEVATION
 40
0.0
  9
$PELEVATION
 40
0.0
  9
$THICKNESS
 40
0.0
  9
$LIMCHECK
 70
     0
  9
$BLIPMODE
 70
     1
  9
$CHAMFERA
 40
0.0
  9
$CHAMFERB
 40
0.0
  9
$SKPOLY
 70
     0
  9
$TDCREATE
 40
0.000000000
  9
$TDUPDATE
 40
0.000000000
  9
$TDINDWG
 40
0.0000000000
  9
$TDUSRTIMER
 40
0.0000000000
  9
$USRTIMER
 70
     1
  9
$ANGBASE
 50
0.0
  9
$ANGDIR
 70
     0
  9
$PDMODE
 70
     0
  9
$PDSIZE
 40
0.0
  9
$PLINEWID
 40
0.0
  9
$COORDS
 70
     0
  9
$SPLFRAME
 70
     0
  9
$SPLINETYPE
 70
     6
  9
$SPLINESEGS
 70
     8
  9
$ATTDIA
 70
     0
  9
$ATTREQ
 70
     1
  9
$HANDLING
 70
     1
  9
$HANDSEED
  5
1C3
  9
$SURFTAB1
 70
     6
  9
$SURFTAB2
 70
     6
  9
$SURFTYPE
 70
     6
  9
$SURFU
 70
     6
  9
$SURFV
 70
     6
  9
$UCSNAME
  2

  9
$UCSORG
 10
0.0
 20
0.0
 30
0.0
  9
$UCSXDIR
 10
1.0
 20
0.0
 30
0.0
  9
$UCSYDIR
 10
0.0
 20
1.0
 30
0.0
  9
$PUCSNAME
  2

  9
$PUCSORG
 10
0.0
 20
0.0
 30
0.0
  9
$PUCSXDIR
 10
1.0
 20
0.0
 30
0.0
  9
$PUCSYDIR
 10
0.0
 20
1.0
 30
0.0
  9
$USERI1
 70
     0
  9
$USERI2
 70
     0
  9
$USERI3
 70
     0
  9
$USERI4
 70
     0
  9
$USERI5
 70
     0
  9
$USERR1
 40
0.0
  9
$USERR2
 40
0.0
  9
$USERR3
 40
0.0
  9
$USERR4
 40
0.0
  9
$USERR5
 40
0.0
  9
$WORLDVIEW
 70
     1
  9
$SHADEDGE
 70
     3
  9
$SHADEDIF
 70
    70
  9
$TILEMODE
 70
     1
  9
$MAXACTVP
 70
    16
  9
$PINSBASE
 10
0.0
 20
0.0
 30
0.0
  9
$PLIMCHECK
 70
     0
  9
$PEXTMIN
 10
1.000000E+20
 20
1.000000E+20
 30
1.000000E+20
  9
$PEXTMAX
 10
-1.000000E+20
 20
-1.000000E+20
 30
-1.000000E+20
  9
$PLIMMIN
 10
-210.0
 20
-148.5
  9
$PLIMMAX
 10
630.0
 20
445.5
  9
$UNITMODE
 70
     0
  9
$VISRETAIN
 70
     0
  9
$PLINEGEN
 70
     1
  9
$PSLTSCALE
 70
     0
  9
$TREEDEPTH
 70
  3020
  9
$DWGCODEPAGE
  3
dos850
  0
ENDSEC
  0
SECTION
  2
TABLES
  0
TABLE
  2
VPORT
 70
     1
  0
VPORT
  2
*ACTIVE
 70
     0
 10
0.0
 20
0.0
 11
1.0
 21
1.0
 12
420.0
 22
297.0
 13
0.0
 23
0.0
 14
1.0
 24
1.0
 15
0.0
 25
0.0
 16
0.0
 26
0.0
 36
1.0
 17
-210.0
 27
-148.5
 37
0.0
 40
594.0
 41
1.604229
 42
50.0
 43
0.0
 44
0.0
 50
0.0
 51
0.0
 71
     0
 72
   100
 73
     1
 74
     1
 75
     0
 76
     0
 77
     0
 78
     0
  0
ENDTAB
  0
TABLE
  2
LTYPE
 70
     2
  0
LTYPE
  2
CONTINUOUS
 70
    64
  3
Solid line
 72
    65
 73
     0
 40
0.0
  0
LTYPE
  2
DASHDOT
 70
    64
  3
__ . __ . __ . __ . __
 72
    65
 73
     4
 40
7.5
 49
5.0
 49
-1.25
 49
0.0
 49
-1.25
  0
ENDTAB
  0
TABLE
  2
LAYER
 70
    10
  0
LAYER
  2
0
 70
     0
 62
     7
  6
CONTINUOUS
  0
LAYER
  2
LC-INFO-1-2-MM-A3-0
 70
     1
 62
    -1
  6
CONTINUOUS
  0
LAYER
  2
LC-003-005-----0
 70
     0
 62
     2
  6
CONTINUOUS
  0
LAYER
  2
LC-007-003-MTH-0
 70
     0
 62
     2
  6
CONTINUOUS
  0
LAYER
  2
LC-008-003-MTG-0
 70
     0
 62
     2
  6
CONTINUOUS
  0
LAYER
  2
LC-004-003-----0
 70
     0
 62
     2
  6
CONTINUOUS
  0
LAYER
  2
LC-005-000-----0
 70
     0
 62
     7
  6
CONTINUOUS
  0
LAYER
  2
LC-001-002-----0
 70
     0
 62
     1
  6
CONTINUOUS
  0
LAYER
  2
LC-002-002-RND-0
 70
     0
 62
     1
  6
CONTINUOUS
  0
LAYER
  2
LC-000
 70
     0
 62
     7
  6
CONTINUOUS
  0
ENDTAB
  0
TABLE
  2
STYLE
 70
     5
  0
STYLE
  2
STANDARD
 70
     0
 40
0.0
 41
1.0
 50
0.0
 71
     0
 42
0.0
  3
txt
  4

  0
STYLE
  2
LC-STANDARD
 70
    64
 40
0.0
 41
1.0
 50
0.0
 71
     0
 42
3.5
  3
MONOTXT
  4

  0
STYLE
  2
LC-TXTSTYLE-0-400-0-0-STA2
 70
    64
 40
0.0
 41
1.0
 50
0.0
 71
     0
 42
3.5
  3
MONOTXT
  4

  0
STYLE
  2
LC-TXTSTYLE-150-400-0-0-A3
 70
    64
 40
0.0
 41
1.0
 50
15.0
 71
     0
 42
3.5
  3
MONOTXT
  4

  0
STYLE
  2
LC-TXTSTYLE-150-400-0-0-D4
 70
    64
 40
0.0
 41
1.0
 50
15.0
 71
     0
 42
3.5
  3
LC-STANDARD
  4

  0
ENDTAB
  0
TABLE
  2
VIEW
 70
     0
  0
ENDTAB
  0
TABLE
  2
UCS
 70
     0
  0
ENDTAB
  0
TABLE
  2
APPID
 70
     1
  0
APPID
  2
ACAD
 70
     0
  0
ENDTAB
  0
TABLE
  2
DIMSTYLE
 70
     3
  0
DIMSTYLE
  2
STANDARD
 70
     0
  3

  4

  5

  6

  7

 40
1.0
 41
0.18
 42
0.0625
 43
0.38
 44
0.18
 45
0.0
 46
0.0
 47
0.0
 48
0.0
 71
     0
 72
     0
 73
     1
 74
     1
 75
     0
 76
     0
 77
     0
 78
     0
140
0.18
141
0.09
142
0.0
143
25.4
144
1.0
145
0.0
146
1.0
147
0.09
170
     0
171
     2
172
     0
173
     0
174
     0
175
     0
176
     0
177
     0
178
     0
  0
DIMSTYLE
  2
LC-STANDARD
 70
     0
  3

  4

  5

  6

  7

 40
1.0
 41
3.5
 42
0.0
 43
7.5
 44
1.8
 45
0.0
 46
0.0
 47
0.0
 48
0.0
 71
     0
 72
     0
 73
     0
 74
     0
 75
     0
 76
     0
 77
     1
 78
     8
140
3.5
141
0.0
142
0.0
143
25.4
144
1.0
145
0.0
146
0.71
147
1.5
170
     0
171
     2
172
     1
173
     0
174
     0
175
     0
176
     0
177
     0
178
     3
  0
DIMSTYLE
  2
LC-DIM-L-0140-02-02
 70
     0
  3

  4

  5

  6

  7

 40
2.0
 41
3.5
 42
0.0
 43
7.5
 44
1.8
 45
0.0
 46
0.0
 47
0.0
 48
0.0
 71
     0
 72
     0
 73
     0
 74
     0
 75
     0
 76
     0
 77
     1
 78
     8
140
14.0
141
0.0
142
0.0
143
25.4
144
1.0
145
0.0
146
0.71
147
1.5
170
     0
171
     2
172
     0
173
     0
174
     0
175
     0
176
     2
177
     2
178
     8
  0
ENDTAB
  0
ENDSEC
  0
SECTION
  2
BLOCKS
  0
BLOCK
  8
0
  5
24
  2
*X0
 70
    65
 10
250.882441
 20
245.906413
 30
0.0
  3
*X0
  0
LINE
  8
LC-003-005-----0
  6
CONTINUOUS
  5
26
 10
253.882441
 20
289.175567
 30
0.0
 11
252.632441
 21
290.425567
 31
0.0
  0
LINE
  8
LC-003-005-----0
  6
CONTINUOUS
  5
27
 10
253.882441
 20
286.34714
 30
0.0
 11
251.352804
 21
288.876777
 31
0.0
  0
LINE
  8
LC-003-005-----0
  6
CONTINUOUS
  5
28
 10
253.882441
 20
283.518713
 30
0.0
 11
250.882441
 21
286.518713
 31
0.0
  0
LINE
  8
LC-003-005-----0
  6
CONTINUOUS
  5
29
 10
253.882441
 20
280.690286
 30
0.0
 11
251.382441
 21
283.190286
 31
0.0
  0
LINE
  8
LC-003-005-----0
  6
CONTINUOUS
  5
2A
 10
253.882441
 20
277.861859
 30
0.0
 11
251.382441
 21
280.361859
 31
0.0
  0
LINE
  8
LC-003-005-----0
  6
CONTINUOUS
  5
2B
 10
253.882441
 20
275.033431
 30
0.0
 11
251.382441
 21
277.533431
 31
0.0
  0
LINE
  8
LC-003-005-----0
  6
CONTINUOUS
  5
2C
 10
253.882441
 20
272.205004
 30
0.0
 11
251.382441
 21
274.705004
 31
0.0
  0
LINE
  8
LC-003-005-----0
  6
CONTINUOUS
  5
2D
 10
253.882441
 20
269.376577
 30
0.0
 11
251.382441
 21
271.876577
 31
0.0
  0
LINE
  8
LC-003-005-----0
  6
CONTINUOUS
  5
2E
 10
253.882441
 20
266.54815
 30
0.0
 11
251.382441
 21
269.04815
 31
0.0
  0
LINE
  8
LC-003-005-----0
  6
CONTINUOUS
  5
2F
 10
253.882441
 20
263.719723
 30
0.0
 11
251.382441
 21
266.219723
 31
0.0
  0
LINE
  8
LC-003-005-----0
  6
CONTINUOUS
  5
30
 10
253.882441
 20
260.891296
 30
0.0
 11
251.382441
 21
263.391296
 31
0.0
  0
LINE
  8
LC-003-005-----0
  6
CONTINUOUS
  5
31
 10
253.882441
 20
258.062869
 30
0.0
 11
251.382441
 21
260.562869
 31
0.0
  0
LINE
  8
LC-003-005-----0
  6
CONTINUOUS
  5
32
 10
253.882441
 20
255.234442
 30
0.0
 11
251.382441
 21
257.734442
 31
0.0
  0
LINE
  8
LC-003-005-----0
  6
CONTINUOUS
  5
33
 10
253.882441
 20
252.406014
 30
0.0
 11
251.382441
 21
254.906014
 31
0.0
  0
LINE
  8
LC-003-005-----0
  6
CONTINUOUS
  5
34
 10
253.882441
 20
249.577587
 30
0.0
 11
251.382441
 21
252.077587
 31
0.0
  0
LINE
  8
LC-003-005-----0
  6
CONTINUOUS
  5
35
 10
253.637885
 20
246.993717
 30
0.0
 11
251.382441
 21
249.24916
 31
0.0
  0
LINE
  8
LC-003-005-----0
  6
CONTINUOUS
  5
36
 10
251.896761
 20
245.906413
 30
0.0
 11
251.382441
 21
246.420733
 31
0.0
  0
ENDBLK
  8
0
  5
37
  0
BLOCK
  8
0
  5
39
  2
*X1
 70
    65
 10
143.882441
 20
245.906413
 30
0.0
  3
*X1
  0
LINE
  8
LC-003-005-----0
  6
CONTINUOUS
  5
3A
 10
145.132441
 20
290.445336
 30
0.0
 11
144.671364
 21
290.906413
 31
0.0
  0
LINE
  8
LC-003-005-----0
  6
CONTINUOUS
  5
3B
 10
146.842937
 20
285.906413
 30
0.0
 11
143.882441
 21
288.866909
 31
0.0
  0
LINE
  8
LC-003-005-----0
  6
CONTINUOUS
  5
3C
 10
146.382441
 20
283.538482
 30
0.0
 11
143.882441
 21
286.038482
 31
0.0
  0
LINE
  8
LC-003-005-----0
  6
CONTINUOUS
  5
3D
 10
146.382441
 20
280.710055
 30
0.0
 11
143.882441
 21
283.210055
 31
0.0
  0
LINE
  8
LC-003-005-----0
  6
CONTINUOUS
  5
3E
 10
146.382441
 20
277.881628
 30
0.0
 11
143.882441
 21
280.381628
 31
0.0
  0
LINE
  8
LC-003-005-----0
  6
CONTINUOUS
  5
3F
 10
146.382441
 20
275.053201
 30
0.0
 11
143.882441
 21
277.553201
 31
0.0
  0
LINE
  8
LC-003-005-----0
  6
CONTINUOUS
  5
40
 10
146.382441
 20
272.224774
 30
0.0
 11
143.882441
 21
274.724774
 31
0.0
  0
LINE
  8
LC-003-005-----0
  6
CONTINUOUS
  5
41
 10
146.382441
 20
269.396346
 30
0.0
 11
143.882441
 21
271.896346
 31
0.0
  0
LINE
  8
LC-003-005-----0
  6
CONTINUOUS
  5
42
 10
146.382441
 20
266.567919
 30
0.0
 11
143.882441
 21
269.067919
 31
0.0
  0
LINE
  8
LC-003-005-----0
  6
CONTINUOUS
  5
43
 10
146.382441
 20
263.739492
 30
0.0
 11
143.882441
 21
266.239492
 31
0.0
  0
LINE
  8
LC-003-005-----0
  6
CONTINUOUS
  5
44
 10
146.382441
 20
260.911065
 30
0.0
 11
143.882441
 21
263.411065
 31
0.0
  0
LINE
  8
LC-003-005-----0
  6
CONTINUOUS
  5
45
 10
146.382441
 20
258.082638
 30
0.0
 11
143.882441
 21
260.582638
 31
0.0
  0
LINE
  8
LC-003-005-----0
  6
CONTINUOUS
  5
46
 10
146.382441
 20
255.254211
 30
0.0
 11
143.882441
 21
257.754211
 31
0.0
  0
LINE
  8
LC-003-005-----0
  6
CONTINUOUS
  5
47
 10
146.382441
 20
252.425784
 30
0.0
 11
143.882441
 21
254.925784
 31
0.0
  0
LINE
  8
LC-003-005-----0
  6
CONTINUOUS
  5
48
 10
146.382441
 20
249.597357
 30
0.0
 11
143.882441
 21
252.097357
 31
0.0
  0
LINE
  8
LC-003-005-----0
  6
CONTINUOUS
  5
49
 10
146.382441
 20
246.768929
 30
0.0
 11
143.882441
 21
249.268929
 31
0.0
  0
ENDBLK
  8
0
  5
4A
  0
BLOCK
  8
0
  5
4C
  2
*X2
 70
    65
 10
254.882441
 20
259.344356
 30
0.0
  3
*X2
  0
LINE
  8
LC-003-005-----0
  6
CONTINUOUS
  5
4D
 10
254.882441
 20
259.891296
 30
0.0
 11
255.429381
 21
259.344356
 31
0.0
  0
LINE
  8
LC-003-005-----0
  6
CONTINUOUS
  5
4E
 10
254.882441
 20
262.719723
 30
0.0
 11
258.257808
 21
259.344356
 31
0.0
  0
LINE
  8
LC-003-005-----0
  6
CONTINUOUS
  5
4F
 10
259.086235
 20
261.344356
 30
0.0
 11
261.086235
 21
259.344356
 31
0.0
  0
LINE
  8
LC-003-005-----0
  6
CONTINUOUS
  5
50
 10
261.914662
 20
261.344356
 30
0.0
 11
263.914662
 21
259.344356
 31
0.0
  0
LINE
  8
LC-003-005-----0
  6
CONTINUOUS
  5
51
 10
264.74309
 20
261.344356
 30
0.0
 11
266.74309
 21
259.344356
 31
0.0
  0
LINE
  8
LC-003-005-----0
  6
CONTINUOUS
  5
52
 10
267.571517
 20
261.344356
 30
0.0
 11
269.571517
 21
259.344356
 31
0.0
  0
LINE
  8
LC-003-005-----0
  6
CONTINUOUS
  5
53
 10
270.382441
 20
261.361859
 30
0.0
 11
272.399944
 21
259.344356
 31
0.0
  0
LINE
  8
LC-003-005-----0
  6
CONTINUOUS
  5
54
 10
270.928371
 20
263.644356
 30
0.0
 11
275.228371
 21
259.344356
 31
0.0
  0
LINE
  8
LC-003-005-----0
  6
CONTINUOUS
  5
55
 10
273.756798
 20
263.644356
 30
0.0
 11
278.056798
 21
259.344356
 31
0.0
  0
LINE
  8
LC-003-005-----0
  6
CONTINUOUS
  5
56
 10
276.585225
 20
263.644356
 30
0.0
 11
280.885225
 21
259.344356
 31
0.0
  0
LINE
  8
LC-003-005-----0
  6
CONTINUOUS
  5
57
 10
279.413652
 20
263.644356
 30
0.0
 11
283.713652
 21
259.344356
 31
0.0
  0
LINE
  8
LC-003-005-----0
  6
CONTINUOUS
  5
58
 10
282.242079
 20
263.644356
 30
0.0
 11
286.542079
 21
259.344356
 31
0.0
  0
LINE
  8
LC-003-005-----0
  6
CONTINUOUS
  5
59
 10
285.070507
 20
263.644356
 30
0.0
 11
289.370507
 21
259.344356
 31
0.0
  0
LINE
  8
LC-003-005-----0
  6
CONTINUOUS
  5
5A
 10
287.898934
 20
263.644356
 30
0.0
 11
292.198934
 21
259.344356
 31
0.0
  0
LINE
  8
LC-003-005-----0
  6
CONTINUOUS
  5
5B
 10
290.727361
 20
263.644356
 30
0.0
 11
295.027361
 21
259.344356
 31
0.0
  0
LINE
  8
LC-003-005-----0
  6
CONTINUOUS
  5
5C
 10
293.555788
 20
263.644356
 30
0.0
 11
297.855788
 21
259.344356
 31
0.0
  0
LINE
  8
LC-003-005-----0
  6
CONTINUOUS
  5
5D
 10
296.384215
 20
263.644356
 30
0.0
 11
297.882441
 21
262.14613
 31
0.0
  0
ENDBLK
  8
0
  5
5E
  0
BLOCK
  8
0
  5
60
  2
*X3
 70
    65
 10
99.882441
 20
259.344356
 30
0.0
  3
*X3
  0
LINE
  8
LC-003-005-----0
  6
CONTINUOUS
  5
61
 10
99.882441
 20
262.156231
 30
0.0
 11
102.694316
 21
259.344356
 31
0.0
  0
LINE
  8
LC-003-005-----0
  6
CONTINUOUS
  5
62
 10
101.222743
 20
263.644356
 30
0.0
 11
105.522743
 21
259.344356
 31
0.0
  0
LINE
  8
LC-003-005-----0
  6
CONTINUOUS
  5
63
 10
104.051171
 20
263.644356
 30
0.0
 11
108.351171
 21
259.344356
 31
0.0
  0
LINE
  8
LC-003-005-----0
  6
CONTINUOUS
  5
64
 10
106.879598
 20
263.644356
 30
0.0
 11
111.179598
 21
259.344356
 31
0.0
  0
LINE
  8
LC-003-005-----0
  6
CONTINUOUS
  5
65
 10
109.708025
 20
263.644356
 30
0.0
 11
114.008025
 21
259.344356
 31
0.0
  0
LINE
  8
LC-003-005-----0
  6
CONTINUOUS
  5
66
 10
112.536452
 20
263.644356
 30
0.0
 11
116.836452
 21
259.344356
 31
0.0
  0
LINE
  8
LC-003-005-----0
  6
CONTINUOUS
  5
67
 10
115.364879
 20
263.644356
 30
0.0
 11
119.664879
 21
259.344356
 31
0.0
  0
LINE
  8
LC-003-005-----0
  6
CONTINUOUS
  5
68
 10
118.193306
 20
263.644356
 30
0.0
 11
122.493306
 21
259.344356
 31
0.0
  0
LINE
  8
LC-003-005-----0
  6
CONTINUOUS
  5
69
 10
121.021733
 20
263.644356
 30
0.0
 11
125.321733
 21
259.344356
 31
0.0
  0
LINE
  8
LC-003-005-----0
  6
CONTINUOUS
  5
6A
 10
123.85016
 20
263.644356
 30
0.0
 11
128.15016
 21
259.344356
 31
0.0
  0
LINE
  8
LC-003-005-----0
  6
CONTINUOUS
  5
6B
 10
126.678588
 20
263.644356
 30
0.0
 11
127.382441
 21
262.940502
 31
0.0
  0
LINE
  8
LC-003-005-----0
  6
CONTINUOUS
  5
6C
 10
128.978588
 20
261.344356
 30
0.0
 11
130.978588
 21
259.344356
 31
0.0
  0
LINE
  8
LC-003-005-----0
  6
CONTINUOUS
  5
6D
 10
131.807015
 20
261.344356
 30
0.0
 11
133.807015
 21
259.344356
 31
0.0
  0
LINE
  8
LC-003-005-----0
  6
CONTINUOUS
  5
6E
 10
134.635442
 20
261.344356
 30
0.0
 11
136.635442
 21
259.344356
 31
0.0
  0
LINE
  8
LC-003-005-----0
  6
CONTINUOUS
  5
6F
 10
137.463869
 20
261.344356
 30
0.0
 11
139.463869
 21
259.344356
 31
0.0
  0
LINE
  8
LC-003-005-----0
  6
CONTINUOUS
  5
70
 10
140.292296
 20
261.344356
 30
0.0
 11
142.292296
 21
259.344356
 31
0.0
  0
LINE
  8
LC-003-005-----0
  6
CONTINUOUS
  5
71
 10
141.382441
 20
263.082638
 30
0.0
 11
142.882441
 21
261.582638
 31
0.0
  0
ENDBLK
  8
0
  5
72
  0
BLOCK
  8
0
  5
74
  2
*X4
 70
    65
 10
139.357441
 20
282.002727
 30
0.0
  3
*X4
  0
LINE
  8
LC-003-005-----0
  6
CONTINUOUS
  5
75
 10
147.343751
 20
283.108253
 30
0.0
 11
147.893391
 21
283.657893
 31
0.0
  0
LINE
  8
LC-003-005-----0
  6
CONTINUOUS
  5
76
 10
146.725024
 20
285.317954
 30
0.0
 11
148.057441
 21
286.65037
 31
0.0
  0
LINE
  8
LC-003-005-----0
  6
CONTINUOUS
  5
77
 10
147.357441
 20
288.778797
 30
0.0
 11
148.057441
 21
289.478797
 31
0.0
  0
LINE
  8
LC-003-005-----0
  6
CONTINUOUS
  5
78
 10
146.65663
 20
290.906413
 30
0.0
 11
147.279833
 21
291.529616
 31
0.0
  0
LINE
  8
LC-003-005-----0
  6
CONTINUOUS
  5
79
 10
144.145032
 20
291.223242
 30
0.0
 11
144.641043
 21
291.719254
 31
0.0
  0
LINE
  8
LC-003-005-----0
  6
CONTINUOUS
  5
7A
 10
143.605174
 20
293.511811
 30
0.0
 11
144.100176
 21
294.006813
 31
0.0
  0
LINE
  8
LC-003-005-----0
  6
CONTINUOUS
  5
7B
 10
141.415735
 20
294.150799
 30
0.0
 11
142.115735
 21
294.850799
 31
0.0
  0
LINE
  8
LC-003-005-----0
  6
CONTINUOUS
  5
7C
 10
140.057441
 20
295.620933
 30
0.0
 11
140.757441
 21
296.320933
 31
0.0
  0
LINE
  8
LC-003-005-----0
  6
CONTINUOUS
  5
7D
 10
139.45888
 20
297.850799
 30
0.0
 11
140.757441
 21
299.14936
 31
0.0
  0
ENDBLK
  8
0
  5
7E
  0
BLOCK
  8
0
  5
80
  2
*X5
 70
    65
 10
248.616774
 20
282.002727
 30
0.0
  3
*X5
  0
LINE
  8
LC-003-005-----0
  6
CONTINUOUS
  5
81
 10
249.566968
 20
283.508094
 30
0.0
 11
250.745675
 21
284.6868
 31
0.0
  0
LINE
  8
LC-003-005-----0
  6
CONTINUOUS
  5
82
 10
249.457441
 20
286.226994
 30
0.0
 11
250.157441
 21
286.926994
 31
0.0
  0
LINE
  8
LC-003-005-----0
  6
CONTINUOUS
  5
83
 10
249.457441
 20
289.055421
 30
0.0
 11
250.157441
 21
289.755421
 31
0.0
  0
LINE
  8
LC-003-005-----0
  6
CONTINUOUS
  5
84
 10
251.308434
 20
290.906413
 30
0.0
 11
252.008434
 21
291.606413
 31
0.0
  0
LINE
  8
LC-003-005-----0
  6
CONTINUOUS
  5
85
 10
253.057441
 20
292.655421
 30
0.0
 11
253.79188
 21
293.38986
 31
0.0
  0
LINE
  8
LC-003-005-----0
  6
CONTINUOUS
  5
86
 10
254.075138
 20
293.673118
 30
0.0
 11
255.25282
 21
294.850799
 31
0.0
  0
LINE
  8
LC-003-005-----0
  6
CONTINUOUS
  5
87
 10
256.757441
 20
296.355421
 30
0.0
 11
257.457441
 21
297.055421
 31
0.0
  0
LINE
  8
LC-003-005-----0
  6
CONTINUOUS
  5
88
 10
256.757441
 20
299.183848
 30
0.0
 11
257.82198
 21
300.248387
 31
0.0
  0
ENDBLK
  8
0
  5
89
  0
BLOCK
  8
0
  5
8B
  2
BLK1
 70
    64
 10
0.0
 20
0.0
 30
0.0
  3
BLK1
  0
ENDBLK
  8
0
  5
8C
  0
BLOCK
  8
0
  5
8E
  2
*D7
 70
    65
 10
0.0
 20
0.0
 30
0.0
  3
*D7
  0
LINE
  8
LC-007-003-MTH-0
  6
CONTINUOUS
  5
90
 10
143.882441
 20
247.906413
 30
0.0
 11
143.882441
 21
179.2
 31
0.0
  0
LINE
  8
LC-007-003-MTH-0
  6
CONTINUOUS
  5
91
 10
253.882441
 20
247.906413
 30
0.0
 11
253.882441
 21
179.2
 31
0.0
  0
LINE
  8
LC-008-003-MTG-0
  6
CONTINUOUS
  5
93
 10
143.882441
 20
196.0
 30
0.0
 11
253.882441
 21
196.0
 31
0.0
  0
LINE
  8
LC-004-003-----0
  6
CONTINUOUS
  5
95
 10
171.642897
 20
199.654733
 30
0.0
 11
143.882441
 21
196.0
 31
0.0
  0
LINE
  8
LC-004-003-----0
  6
CONTINUOUS
  5
96
 10
143.882441
 20
196.0
 30
0.0
 11
171.642897
 21
192.345267
 31
0.0
  0
LINE
  8
LC-004-003-----0
  6
CONTINUOUS
  5
97
 10
171.642897
 20
192.345267
 30
0.0
 11
171.642897
 21
199.654733
 31
0.0
  0
LINE
  8
LC-004-003-----0
  6
CONTINUOUS
  5
98
 10
171.705178
 20
198.704503
 30
0.0
 11
151.162441
 21
196.0
 31
0.0
  0
LINE
  8
LC-004-003-----0
  6
CONTINUOUS
  5
99
 10
151.162441
 20
196.0
 30
0.0
 11
171.705178
 21
193.295497
 31
0.0
  0
LINE
  8
LC-004-003-----0
  6
CONTINUOUS
  5
9A
 10
171.76746
 20
197.754272
 30
0.0
 11
158.442441
 21
196.0
 31
0.0
  0
LINE
  8
LC-004-003-----0
  6
CONTINUOUS
  5
9B
 10
158.442441
 20
196.0
 30
0.0
 11
171.76746
 21
194.245728
 31
0.0
  0
LINE
  8
LC-004-003-----0
  6
CONTINUOUS
  5
9C
 10
171.829741
 20
196.804041
 30
0.0
 11
165.722441
 21
196.0
 31
0.0
  0
LINE
  8
LC-004-003-----0
  6
CONTINUOUS
  5
9D
 10
165.722441
 20
196.0
 30
0.0
 11
171.829741
 21
195.195959
 31
0.0
  0
LINE
  8
LC-004-003-----0
  6
CONTINUOUS
  5
9E
 10
226.121985
 20
192.345267
 30
0.0
 11
253.882441
 21
196.0
 31
0.0
  0
LINE
  8
LC-004-003-----0
  6
CONTINUOUS
  5
9F
 10
253.882441
 20
196.0
 30
0.0
 11
226.121985
 21
199.654733
 31
0.0
  0
LINE
  8
LC-004-003-----0
  6
CONTINUOUS
  5
A0
 10
226.121985
 20
199.654733
 30
0.0
 11
226.121985
 21
192.345267
 31
0.0
  0
LINE
  8
LC-004-003-----0
  6
CONTINUOUS
  5
A1
 10
226.059703
 20
193.295497
 30
0.0
 11
246.602441
 21
196.0
 31
0.0
  0
LINE
  8
LC-004-003-----0
  6
CONTINUOUS
  5
A2
 10
246.602441
 20
196.0
 30
0.0
 11
226.059703
 21
198.704503
 31
0.0
  0
LINE
  8
LC-004-003-----0
  6
CONTINUOUS
  5
A3
 10
225.997422
 20
194.245728
 30
0.0
 11
239.322441
 21
196.0
 31
0.0
  0
LINE
  8
LC-004-003-----0
  6
CONTINUOUS
  5
A4
 10
239.322441
 20
196.0
 30
0.0
 11
225.997422
 21
197.754272
 31
0.0
  0
LINE
  8
LC-004-003-----0
  6
CONTINUOUS
  5
A5
 10
225.935141
 20
195.195959
 30
0.0
 11
232.042441
 21
196.0
 31
0.0
  0
LINE
  8
LC-004-003-----0
  6
CONTINUOUS
  5
A6
 10
232.042441
 20
196.0
 30
0.0
 11
225.935141
 21
196.804041
 31
0.0
  0
TEXT
  8
LC-004-003-----0
  6
CONTINUOUS
 62
     8
  5
A8
 10
169.366034
 20
203.827554
 30
0.0
 40
28.0
  1
Ø110
 41
0.8
 51
15.0
  7
LC-TXTSTYLE-150-400-0-0-D0
 72
     1
 11
203.230601
 21
203.827554
 31
0.0
  0
ENDBLK
  8
0
  5
A9
  0
BLOCK
  8
0
  5
AB
  2
*D8
 70
    65
 10
0.0
 20
0.0
 30
0.0
  3
*D8
  0
LINE
  8
LC-007-003-MTH-0
  6
CONTINUOUS
  5
AC
 10
139.357441
 20
299.650799
 30
0.0
 11
139.357441
 21
330.4
 31
0.0
  0
LINE
  8
LC-007-003-MTH-0
  6
CONTINUOUS
  5
AD
 10
258.157441
 20
298.750799
 30
0.0
 11
258.157441
 21
330.4
 31
0.0
  0
LINE
  8
LC-008-003-MTG-0
  6
CONTINUOUS
  5
AE
 10
139.357441
 20
313.6
 30
0.0
 11
258.157441
 21
313.6
 31
0.0
  0
LINE
  8
LC-004-003-----0
  6
CONTINUOUS
  5
AF
 10
167.117897
 20
317.254733
 30
0.0
 11
139.357441
 21
313.6
 31
0.0
  0
LINE
  8
LC-004-003-----0
  6
CONTINUOUS
  5
B0
 10
139.357441
 20
313.6
 30
0.0
 11
167.117897
 21
309.945267
 31
0.0
  0
LINE
  8
LC-004-003-----0
  6
CONTINUOUS
  5
B1
 10
167.117897
 20
309.945267
 30
0.0
 11
167.117897
 21
317.254733
 31
0.0
  0
LINE
  8
LC-004-003-----0
  6
CONTINUOUS
  5
B2
 10
167.180178
 20
316.304503
 30
0.0
 11
146.637441
 21
313.6
 31
0.0
  0
LINE
  8
LC-004-003-----0
  6
CONTINUOUS
  5
B3
 10
146.637441
 20
313.6
 30
0.0
 11
167.180178
 21
310.895497
 31
0.0
  0
LINE
  8
LC-004-003-----0
  6
CONTINUOUS
  5
B4
 10
167.24246
 20
315.354272
 30
0.0
 11
153.917441
 21
313.6
 31
0.0
  0
LINE
  8
LC-004-003-----0
  6
CONTINUOUS
  5
B5
 10
153.917441
 20
313.6
 30
0.0
 11
167.24246
 21
311.845728
 31
0.0
  0
LINE
  8
LC-004-003-----0
  6
CONTINUOUS
  5
B6
 10
167.304741
 20
314.404041
 30
0.0
 11
161.197441
 21
313.6
 31
0.0
  0
LINE
  8
LC-004-003-----0
  6
CONTINUOUS
  5
B7
 10
161.197441
 20
313.6
 30
0.0
 11
167.304741
 21
312.795959
 31
0.0
  0
LINE
  8
LC-004-003-----0
  6
CONTINUOUS
  5
B8
 10
230.396985
 20
309.945267
 30
0.0
 11
258.157441
 21
313.6
 31
0.0
  0
LINE
  8
LC-004-003-----0
  6
CONTINUOUS
  5
B9
 10
258.157441
 20
313.6
 30
0.0
 11
230.396985
 21
317.254733
 31
0.0
  0
LINE
  8
LC-004-003-----0
  6
CONTINUOUS
  5
BA
 10
230.396985
 20
317.254733
 30
0.0
 11
230.396985
 21
309.945267
 31
0.0
  0
LINE
  8
LC-004-003-----0
  6
CONTINUOUS
  5
BB
 10
230.334703
 20
310.895497
 30
0.0
 11
250.877441
 21
313.6
 31
0.0
  0
LINE
  8
LC-004-003-----0
  6
CONTINUOUS
  5
BC
 10
250.877441
 20
313.6
 30
0.0
 11
230.334703
 21
316.304503
 31
0.0
  0
LINE
  8
LC-004-003-----0
  6
CONTINUOUS
  5
BD
 10
230.272422
 20
311.845728
 30
0.0
 11
243.597441
 21
313.6
 31
0.0
  0
LINE
  8
LC-004-003-----0
  6
CONTINUOUS
  5
BE
 10
243.597441
 20
313.6
 30
0.0
 11
230.272422
 21
315.354272
 31
0.0
  0
LINE
  8
LC-004-003-----0
  6
CONTINUOUS
  5
BF
 10
230.210141
 20
312.795959
 30
0.0
 11
236.317441
 21
313.6
 31
0.0
  0
LINE
  8
LC-004-003-----0
  6
CONTINUOUS
  5
C0
 10
236.317441
 20
313.6
 30
0.0
 11
230.210141
 21
314.404041
 31
0.0
  0
TEXT
  8
LC-004-003-----0
  6
CONTINUOUS
 62
     8
  5
C1
 10
173.341821
 20
321.427554
 30
0.0
 40
28.0
  1
120
 51
15.0
  7
LC-TXTSTYLE-150-400-0-0-D0
 72
     1
 11
203.105601
 21
321.427554
 31
0.0
  0
ENDBLK
  8
0
  5
C2
  0
BLOCK
  8
0
  5
C4
  2
*D9
 70
    65
 10
0.0
 20
0.0
 30
0.0
  3
*D9
  0
LINE
  8
LC-007-003-MTH-0
  6
CONTINUOUS
  5
C5
 10
99.882441
 20
263.644356
 30
0.0
 11
99.882441
 21
369.6
 31
0.0
  0
LINE
  8
LC-007-003-MTH-0
  6
CONTINUOUS
  5
C6
 10
297.882441
 20
263.644356
 30
0.0
 11
297.882441
 21
369.6
 31
0.0
  0
LINE
  8
LC-008-003-MTG-0
  6
CONTINUOUS
  5
C7
 10
99.882441
 20
352.8
 30
0.0
 11
297.882441
 21
352.8
 31
0.0
  0
LINE
  8
LC-004-003-----0
  6
CONTINUOUS
  5
C8
 10
127.642897
 20
356.454733
 30
0.0
 11
99.882441
 21
352.8
 31
0.0
  0
LINE
  8
LC-004-003-----0
  6
CONTINUOUS
  5
C9
 10
99.882441
 20
352.8
 30
0.0
 11
127.642897
 21
349.145267
 31
0.0
  0
LINE
  8
LC-004-003-----0
  6
CONTINUOUS
  5
CA
 10
127.642897
 20
349.145267
 30
0.0
 11
127.642897
 21
356.454733
 31
0.0
  0
LINE
  8
LC-004-003-----0
  6
CONTINUOUS
  5
CB
 10
127.705178
 20
355.504503
 30
0.0
 11
107.162441
 21
352.8
 31
0.0
  0
LINE
  8
LC-004-003-----0
  6
CONTINUOUS
  5
CC
 10
107.162441
 20
352.8
 30
0.0
 11
127.705178
 21
350.095497
 31
0.0
  0
LINE
  8
LC-004-003-----0
  6
CONTINUOUS
  5
CD
 10
127.76746
 20
354.554272
 30
0.0
 11
114.442441
 21
352.8
 31
0.0
  0
LINE
  8
LC-004-003-----0
  6
CONTINUOUS
  5
CE
 10
114.442441
 20
352.8
 30
0.0
 11
127.76746
 21
351.045728
 31
0.0
  0
LINE
  8
LC-004-003-----0
  6
CONTINUOUS
  5
CF
 10
127.829741
 20
353.604041
 30
0.0
 11
121.722441
 21
352.8
 31
0.0
  0
LINE
  8
LC-004-003-----0
  6
CONTINUOUS
  5
D0
 10
121.722441
 20
352.8
 30
0.0
 11
127.829741
 21
351.995959
 31
0.0
  0
LINE
  8
LC-004-003-----0
  6
CONTINUOUS
  5
D1
 10
270.121985
 20
349.145267
 30
0.0
 11
297.882441
 21
352.8
 31
0.0
  0
LINE
  8
LC-004-003-----0
  6
CONTINUOUS
  5
D2
 10
297.882441
 20
352.8
 30
0.0
 11
270.121985
 21
356.454733
 31
0.0
  0
LINE
  8
LC-004-003-----0
  6
CONTINUOUS
  5
D3
 10
270.121985
 20
356.454733
 30
0.0
 11
270.121985
 21
349.145267
 31
0.0
  0
LINE
  8
LC-004-003-----0
  6
CONTINUOUS
  5
D4
 10
270.059703
 20
350.095497
 30
0.0
 11
290.602441
 21
352.8
 31
0.0
  0
LINE
  8
LC-004-003-----0
  6
CONTINUOUS
  5
D5
 10
290.602441
 20
352.8
 30
0.0
 11
270.059703
 21
355.504503
 31
0.0
  0
LINE
  8
LC-004-003-----0
  6
CONTINUOUS
  5
D6
 10
269.997422
 20
351.045728
 30
0.0
 11
283.322441
 21
352.8
 31
0.0
  0
LINE
  8
LC-004-003-----0
  6
CONTINUOUS
  5
D7
 10
283.322441
 20
352.8
 30
0.0
 11
269.997422
 21
354.554272
 31
0.0
  0
LINE
  8
LC-004-003-----0
  6
CONTINUOUS
  5
D8
 10
269.935141
 20
351.995959
 30
0.0
 11
276.042441
 21
352.8
 31
0.0
  0
LINE
  8
LC-004-003-----0
  6
CONTINUOUS
  5
D9
 10
276.042441
 20
352.8
 30
0.0
 11
269.935141
 21
353.604041
 31
0.0
  0
TEXT
  8
LC-004-003-----0
  6
CONTINUOUS
 62
     8
  5
DA
 10
165.132963
 20
360.627554
 30
0.0
 40
28.0
  1
Ø198
 51
15.0
  7
LC-TXTSTYLE-150-400-0-0-D0
 72
     1
 11
203.230601
 21
360.627554
 31
0.0
  0
ENDBLK
  8
0
  5
DB
  0
BLOCK
  8
0
  5
DD
  2
*D10
 70
    65
 10
0.0
 20
0.0
 30
0.0
  3
*D10
  0
LINE
  8
LC-007-003-MTH-0
  6
CONTINUOUS
  5
DE
 10
141.257441
 20
294.150799
 30
0.0
 11
61.6
 21
294.150799
 31
0.0
  0
LINE
  8
LC-007-003-MTH-0
  6
CONTINUOUS
  5
DF
 10
140.057441
 20
300.350799
 30
0.0
 11
61.6
 21
300.350799
 31
0.0
  0
LINE
  8
LC-004-003-----0
  6
CONTINUOUS
  5
E0
 10
82.054733
 20
266.390343
 30
0.0
 11
78.4
 21
294.150799
 31
0.0
  0
LINE
  8
LC-004-003-----0
  6
CONTINUOUS
  5
E1
 10
78.4
 20
294.150799
 30
0.0
 11
74.745267
 21
266.390343
 31
0.0
  0
LINE
  8
LC-004-003-----0
  6
CONTINUOUS
  5
E2
 10
74.745267
 20
266.390343
 30
0.0
 11
82.054733
 21
266.390343
 31
0.0
  0
LINE
  8
LC-004-003-----0
  6
CONTINUOUS
  5
E3
 10
81.104503
 20
266.328062
 30
0.0
 11
78.4
 21
286.870799
 31
0.0
  0
LINE
  8
LC-004-003-----0
  6
CONTINUOUS
  5
E4
 10
78.4
 20
286.870799
 30
0.0
 11
75.695497
 21
266.328062
 31
0.0
  0
LINE
  8
LC-004-003-----0
  6
CONTINUOUS
  5
E5
 10
80.154272
 20
266.26578
 30
0.0
 11
78.4
 21
279.590799
 31
0.0
  0
LINE
  8
LC-004-003-----0
  6
CONTINUOUS
  5
E6
 10
78.4
 20
279.590799
 30
0.0
 11
76.645728
 21
266.26578
 31
0.0
  0
LINE
  8
LC-004-003-----0
  6
CONTINUOUS
  5
E7
 10
79.204041
 20
266.203499
 30
0.0
 11
78.4
 21
272.310799
 31
0.0
  0
LINE
  8
LC-004-003-----0
  6
CONTINUOUS
  5
E8
 10
78.4
 20
272.310799
 30
0.0
 11
77.595959
 21
266.203499
 31
0.0
  0
LINE
  8
LC-004-003-----0
  6
CONTINUOUS
  5
E9
 10
74.745267
 20
328.111255
 30
0.0
 11
78.4
 21
300.350799
 31
0.0
  0
LINE
  8
LC-004-003-----0
  6
CONTINUOUS
  5
EA
 10
78.4
 20
300.350799
 30
0.0
 11
82.054733
 21
328.111255
 31
0.0
  0
LINE
  8
LC-004-003-----0
  6
CONTINUOUS
  5
EB
 10
82.054733
 20
328.111255
 30
0.0
 11
74.745267
 21
328.111255
 31
0.0
  0
LINE
  8
LC-004-003-----0
  6
CONTINUOUS
  5
EC
 10
75.695497
 20
328.173537
 30
0.0
 11
78.4
 21
307.630799
 31
0.0
  0
LINE
  8
LC-004-003-----0
  6
CONTINUOUS
  5
ED
 10
78.4
 20
307.630799
 30
0.0
 11
81.104503
 21
328.173537
 31
0.0
  0
LINE
  8
LC-004-003-----0
  6
CONTINUOUS
  5
EE
 10
76.645728
 20
328.235818
 30
0.0
 11
78.4
 21
314.910799
 31
0.0
  0
LINE
  8
LC-004-003-----0
  6
CONTINUOUS
  5
EF
 10
78.4
 20
314.910799
 30
0.0
 11
80.154272
 21
328.235818
 31
0.0
  0
LINE
  8
LC-004-003-----0
  6
CONTINUOUS
  5
F0
 10
77.595959
 20
328.2981
 30
0.0
 11
78.4
 21
322.190799
 31
0.0
  0
LINE
  8
LC-004-003-----0
  6
CONTINUOUS
  5
F1
 10
78.4
 20
322.190799
 30
0.0
 11
79.204041
 21
328.2981
 31
0.0
  0
LINE
  8
LC-008-003-MTG-0
  6
CONTINUOUS
  5
F2
 10
78.4
 20
201.985299
 30
0.0
 11
78.4
 21
339.550799
 31
0.0
  0
TEXT
  8
LC-004-003-----0
  6
CONTINUOUS
 62
     8
  5
F3
 10
70.572446
 20
213.193762
 30
0.0
 40
28.0
  1
6,2
 50
90.0
 51
15.0
  7
LC-TXTSTYLE-150-400-0-0-D0
 72
     2
 11
70.572446
 21
260.418959
 31
0.0
  0
ENDBLK
  8
0
  5
F4
  0
BLOCK
  8
0
  5
F6
  2
*D11
 70
    65
 10
0.0
 20
0.0
 30
0.0
  3
*D11
  0
LINE
  8
LC-007-003-MTH-0
  6
CONTINUOUS
  5
F7
 10
253.346543
 20
245.906413
 30
0.0
 11
369.6
 21
245.906413
 31
0.0
  0
LINE
  8
LC-007-003-MTH-0
  6
CONTINUOUS
  5
F8
 10
257.457441
 20
300.350799
 30
0.0
 11
369.6
 21
300.350799
 31
0.0
  0
LINE
  8
LC-004-003-----0
  6
CONTINUOUS
  5
F9
 10
356.454733
 20
218.145957
 30
0.0
 11
352.8
 21
245.906413
 31
0.0
  0
LINE
  8
LC-004-003-----0
  6
CONTINUOUS
  5
FA
 10
352.8
 20
245.906413
 30
0.0
 11
349.145267
 21
218.145957
 31
0.0
  0
LINE
  8
LC-004-003-----0
  6
CONTINUOUS
  5
FB
 10
349.145267
 20
218.145957
 30
0.0
 11
356.454733
 21
218.145957
 31
0.0
  0
LINE
  8
LC-004-003-----0
  6
CONTINUOUS
  5
FC
 10
355.504503
 20
218.083676
 30
0.0
 11
352.8
 21
238.626413
 31
0.0
  0
LINE
  8
LC-004-003-----0
  6
CONTINUOUS
  5
FD
 10
352.8
 20
238.626413
 30
0.0
 11
350.095497
 21
218.083676
 31
0.0
  0
LINE
  8
LC-004-003-----0
  6
CONTINUOUS
  5
FE
 10
354.554272
 20
218.021394
 30
0.0
 11
352.8
 21
231.346413
 31
0.0
  0
LINE
  8
LC-004-003-----0
  6
CONTINUOUS
  5
FF
 10
352.8
 20
231.346413
 30
0.0
 11
351.045728
 21
218.021394
 31
0.0
  0
LINE
  8
LC-004-003-----0
  6
CONTINUOUS
  5
100
 10
353.604041
 20
217.959113
 30
0.0
 11
352.8
 21
224.066413
 31
0.0
  0
LINE
  8
LC-004-003-----0
  6
CONTINUOUS
  5
101
 10
352.8
 20
224.066413
 30
0.0
 11
351.995959
 21
217.959113
 31
0.0
  0
LINE
  8
LC-004-003-----0
  6
CONTINUOUS
  5
102
 10
349.145267
 20
328.111255
 30
0.0
 11
352.8
 21
300.350799
 31
0.0
  0
LINE
  8
LC-004-003-----0
  6
CONTINUOUS
  5
103
 10
352.8
 20
300.350799
 30
0.0
 11
356.454733
 21
328.111255
 31
0.0
  0
LINE
  8
LC-004-003-----0
  6
CONTINUOUS
  5
104
 10
356.454733
 20
328.111255
 30
0.0
 11
349.145267
 21
328.111255
 31
0.0
  0
LINE
  8
LC-004-003-----0
  6
CONTINUOUS
  5
105
 10
350.095497
 20
328.173537
 30
0.0
 11
352.8
 21
307.630799
 31
0.0
  0
LINE
  8
LC-004-003-----0
  6
CONTINUOUS
  5
106
 10
352.8
 20
307.630799
 30
0.0
 11
355.504503
 21
328.173537
 31
0.0
  0
LINE
  8
LC-004-003-----0
  6
CONTINUOUS
  5
107
 10
351.045728
 20
328.235818
 30
0.0
 11
352.8
 21
314.910799
 31
0.0
  0
LINE
  8
LC-004-003-----0
  6
CONTINUOUS
  5
108
 10
352.8
 20
314.910799
 30
0.0
 11
354.554272
 21
328.235818
 31
0.0
  0
LINE
  8
LC-004-003-----0
  6
CONTINUOUS
  5
109
 10
351.995959
 20
328.2981
 30
0.0
 11
352.8
 21
322.190799
 31
0.0
  0
LINE
  8
LC-004-003-----0
  6
CONTINUOUS
  5
10A
 10
352.8
 20
322.190799
 30
0.0
 11
353.604041
 21
328.2981
 31
0.0
  0
LINE
  8
LC-008-003-MTG-0
  6
CONTINUOUS
  5
10B
 10
352.8
 20
206.706413
 30
0.0
 11
352.8
 21
339.550799
 31
0.0
  0
TEXT
  8
LC-004-003-----0
  6
CONTINUOUS
 62
     8
  5
10C
 10
344.972446
 20
261.073617
 30
0.0
 40
28.0
  1
54
 50
90.0
 51
15.0
  7
LC-TXTSTYLE-150-400-0-0-D0
 72
     1
 11
344.972446
 21
277.476766
 31
0.0
  0
ENDBLK
  8
0
  5
10D
  0
ENDSEC
  0
SECTION
  2
ENTITIES
  0
VIEWPORT
  8
LC-000
  5
1BE
 67
     1
 68
     1
 10
420.0
 20
297.0
 30
0.0
 40
840.0
 41
594.0
 69
     1
1001
ACAD
1000
MVIEW
1002
{
1070
    16
1010
0.0
1020
0.0
1030
0.0
1010
0.0
1020
0.0
1030
1.0
1040
0.0
1040
594.0
1040
420.0
1040
297.0
1040
50.0
1040
0.0
1040
0.0
1070
     0
1070
   100
1070
     1
1070
     1
1070
     0
1070
     0
1070
     0
1070
     0
1040
0.0
1040
0.0
1040
0.0
1040
1.0
1040
1.0
1040
0.0
1040
0.0
1070
     0
1002
{
1002
}
1002
}
  0
VIEWPORT
  8
0
  5
1BF
 67
     1
 68
     1
 10
0.0
 20
0.0
 30
0.0
 40
0.0
 41
0.0
 69
     1
1001
ACAD
1000
MVIEW
1002
{
1070
    16
1010
0.0
1020
0.0
1030
0.0
1010
0.0
1020
0.0
1030
1.0
1040
0.0
1040
594.0
1040
0.0
1040
0.0
1040
50.0
1040
0.0
1040
0.0
1070
     0
1070
   100
1070
     0
1070
     1
1070
     0
1070
     0
1070
     0
1070
     0
1040
0.0
1040
0.0
1040
0.0
1040
0.5
1040
0.5
1040
0.5
1040
0.5
1070
     0
1002
{
1002
}
1002
}
  0
INSERT
  8
0
  5
10E
  2
*X0
 10
250.882441
 20
245.906413
 30
0.0
  0
INSERT
  8
0
  5
10F
  2
*X1
 10
143.882441
 20
245.906413
 30
0.0
  0
INSERT
  8
0
  5
110
  2
*X2
 10
254.882441
 20
259.344356
 30
0.0
  0
INSERT
  8
0
  5
111
  2
*X3
 10
99.882441
 20
259.344356
 30
0.0
  0
INSERT
  8
0
  5
112
  2
*X4
 10
139.357441
 20
282.002727
 30
0.0
  0
INSERT
  8
0
  5
113
  2
*X5
 10
248.616774
 20
282.002727
 30
0.0
  0
INSERT
  8
0
  5
115
  2
BLK1
 10
0.0
 20
0.0
 30
0.0
  0
DIMENSION
  8
0
  5
116
  2
*D7
 10
198.882441
 20
196.0
 30
0.0
 11
198.882441
 21
196.0
 31
0.0
  1
%%c<>
 13
143.882441
 23
247.906413
 33
0.0
 14
253.882441
 24
247.906413
 34
0.0
  3
LC-DIM-L-0140-02-02
  0
DIMENSION
  8
0
  5
117
  2
*D8
 10
198.757441
 20
313.6
 30
0.0
 11
198.757441
 21
313.6
 31
0.0
  1
120
 13
139.357441
 23
299.650799
 33
0.0
 14
258.157441
 24
298.750799
 34
0.0
  3
LC-DIM-L-0140-02-02
  0
DIMENSION
  8
0
  5
118
  2
*D9
 10
198.882441
 20
352.8
 30
0.0
 11
198.882441
 21
352.8
 31
0.0
  1
%%c<>
 13
99.882441
 23
263.644356
 33
0.0
 14
297.882441
 24
263.644356
 34
0.0
  3
LC-DIM-L-0140-02-02
  0
DIMENSION
  8
0
  5
119
  2
*D10
 10
78.4
 20
295.739764
 30
0.0
 11
78.4
 21
295.739764
 31
0.0
 13
140.057441
 23
300.350799
 33
0.0
 14
141.257441
 24
294.150799
 34
0.0
 50
90.0
  3
LC-DIM-L-0140-02-02
  0
DIMENSION
  8
0
  5
11A
  2
*D11
 10
352.8
 20
273.128606
 30
0.0
 11
352.8
 21
273.128606
 31
0.0
  1
54
 13
257.457441
 23
300.350799
 33
0.0
 14
253.346543
 24
245.906413
 34
0.0
 50
90.0
  3
LC-DIM-L-0140-02-02
  0
LINE
  8
LC-001-002-----0
  6
CONTINUOUS
  5
11C
 10
251.382441
 20
285.906413
 30
0.0
 11
251.382441
 21
245.906413
 31
0.0
  0
LINE
  8
LC-001-002-----0
  6
CONTINUOUS
  5
11D
 10
198.882441
 20
245.906413
 30
0.0
 11
146.382441
 21
245.906413
 31
0.0
  0
LINE
  8
LC-001-002-----0
  6
CONTINUOUS
  5
11E
 10
253.882441
 20
247.906413
 30
0.0
 11
253.346543
 21
245.906413
 31
0.0
  0
LINE
  8
LC-001-002-----0
  6
CONTINUOUS
  5
11F
 10
198.882441
 20
245.906413
 30
0.0
 11
251.382441
 21
245.906413
 31
0.0
  0
LINE
  8
LC-001-002-----0
  6
CONTINUOUS
  5
120
 10
252.632441
 20
289.206413
 30
0.0
 11
252.632441
 21
290.906413
 31
0.0
  0
LINE
  8
LC-001-002-----0
  6
CONTINUOUS
  5
121
 10
143.882441
 20
247.906413
 30
0.0
 11
144.418339
 21
245.906413
 31
0.0
  0
LINE
  8
LC-001-002-----0
  6
CONTINUOUS
  5
122
 10
146.382441
 20
285.906413
 30
0.0
 11
146.382441
 21
245.906413
 31
0.0
  0
LINE
  8
LC-001-002-----0
  6
CONTINUOUS
  5
123
 10
145.132441
 20
289.206413
 30
0.0
 11
145.132441
 21
290.906413
 31
0.0
  0
LINE
  8
LC-001-002-----0
  6
CONTINUOUS
  5
124
 10
251.382441
 20
285.906413
 30
0.0
 11
250.632441
 21
285.906413
 31
0.0
  0
LINE
  8
LC-001-002-----0
  6
CONTINUOUS
  5
125
 10
146.382441
 20
285.906413
 30
0.0
 11
146.882441
 21
285.906413
 31
0.0
  0
LINE
  8
LC-001-002-----0
  6
CONTINUOUS
  5
126
 10
144.418339
 20
245.906413
 30
0.0
 11
146.382441
 21
245.906413
 31
0.0
  0
LINE
  8
LC-001-002-----0
  6
CONTINUOUS
  5
127
 10
143.882441
 20
290.906413
 30
0.0
 11
143.882441
 21
247.906413
 31
0.0
  0
LINE
  8
LC-001-002-----0
  6
CONTINUOUS
  5
128
 10
251.382441
 20
288.906413
 30
0.0
 11
250.882441
 21
288.406413
 31
0.0
  0
LINE
  8
LC-001-002-----0
  6
CONTINUOUS
  5
129
 10
253.346543
 20
245.906413
 30
0.0
 11
251.382441
 21
245.906413
 31
0.0
  0
LINE
  8
LC-001-002-----0
  6
CONTINUOUS
  5
12A
 10
253.882441
 20
290.906413
 30
0.0
 11
253.882441
 21
247.906413
 31
0.0
  0
LINE
  8
LC-001-002-----0
  6
CONTINUOUS
  5
12B
 10
146.382441
 20
288.906413
 30
0.0
 11
146.882441
 21
288.406413
 31
0.0
  0
LINE
  8
LC-001-002-----0
  6
CONTINUOUS
  5
12C
 10
251.382441
 20
288.906413
 30
0.0
 11
252.332441
 21
288.906413
 31
0.0
  0
ARC
  8
LC-002-002-RND-0
  6
CONTINUOUS
  5
12E
 10
252.332441
 20
289.206413
 30
0.0
 40
0.3
 50
270.0
 51
0.0
  0
ARC
  8
LC-002-002-RND-0
  6
CONTINUOUS
  5
12F
 10
145.432441
 20
289.206413
 30
0.0
 40
0.3
 50
180.0
 51
270.0
  0
LINE
  8
LC-001-002-----0
  6
CONTINUOUS
  5
130
 10
146.882441
 20
288.406413
 30
0.0
 11
146.882441
 21
285.906413
 31
0.0
  0
LINE
  8
LC-001-002-----0
  6
CONTINUOUS
  5
131
 10
250.882441
 20
288.406413
 30
0.0
 11
250.882441
 21
285.906413
 31
0.0
  0
LINE
  8
LC-001-002-----0
  6
CONTINUOUS
  5
132
 10
251.382441
 20
288.906413
 30
0.0
 11
250.882441
 21
288.406413
 31
0.0
  0
LINE
  8
LC-001-002-----0
  6
CONTINUOUS
  5
133
 10
146.382441
 20
288.906413
 30
0.0
 11
145.432441
 21
288.906413
 31
0.0
  0
LINE
  8
LC-001-002-----0
  6
CONTINUOUS
  5
134
 10
297.882441
 20
263.644356
 30
0.0
 11
297.882441
 21
259.344356
 31
0.0
  0
LINE
  8
LC-001-002-----0
  6
CONTINUOUS
  5
135
 10
99.882441
 20
263.644356
 30
0.0
 11
99.882441
 21
259.344356
 31
0.0
  0
LINE
  8
LC-001-002-----0
  6
CONTINUOUS
  5
136
 10
297.882441
 20
259.344356
 30
0.0
 11
253.882441
 21
259.344356
 31
0.0
  0
LINE
  8
LC-001-002-----0
  6
CONTINUOUS
  5
137
 10
297.882441
 20
263.644356
 30
0.0
 11
253.882441
 21
263.644356
 31
0.0
  0
LINE
  8
LC-001-002-----0
  6
CONTINUOUS
  5
138
 10
254.882441
 20
263.644356
 30
0.0
 11
254.882441
 21
259.344356
 31
0.0
  0
LINE
  8
LC-001-002-----0
  6
CONTINUOUS
  5
139
 10
270.382441
 20
263.644356
 30
0.0
 11
270.382441
 21
261.344356
 31
0.0
  0
LINE
  8
LC-001-002-----0
  6
CONTINUOUS
  5
13A
 10
270.382441
 20
261.344356
 30
0.0
 11
256.382441
 21
261.344356
 31
0.0
  0
LINE
  8
LC-001-002-----0
  6
CONTINUOUS
  5
13B
 10
256.382441
 20
263.644356
 30
0.0
 11
256.382441
 21
261.344356
 31
0.0
  0
LINE
  8
LC-001-002-----0
  6
CONTINUOUS
  5
13C
 10
142.882441
 20
263.644356
 30
0.0
 11
142.882441
 21
259.344356
 31
0.0
  0
LINE
  8
LC-001-002-----0
  6
CONTINUOUS
  5
13D
 10
127.382441
 20
263.644356
 30
0.0
 11
127.382441
 21
261.344356
 31
0.0
  0
LINE
  8
LC-001-002-----0
  6
CONTINUOUS
  5
13E
 10
127.382441
 20
261.344356
 30
0.0
 11
141.382441
 21
261.344356
 31
0.0
  0
LINE
  8
LC-001-002-----0
  6
CONTINUOUS
  5
13F
 10
141.382441
 20
263.644356
 30
0.0
 11
141.382441
 21
261.344356
 31
0.0
  0
ARC
  8
LC-002-002-RND-0
  6
CONTINUOUS
  5
140
 10
254.257441
 20
293.152531
 30
0.0
 40
0.5
 50
112.0
 51
180.0
  0
ARC
  8
LC-002-002-RND-0
  6
CONTINUOUS
  5
141
 10
254.257441
 20
293.152531
 30
0.0
 40
1.2
 50
112.0
 51
180.0
  0
LINE
  8
LC-001-002-----0
  6
CONTINUOUS
  5
142
 10
143.444744
 20
293.616123
 30
0.0
 11
142.121375
 21
294.150799
 31
0.0
  0
LINE
  8
LC-001-002-----0
  6
CONTINUOUS
  5
143
 10
143.706969
 20
294.265152
 30
0.0
 11
142.257441
 21
294.850799
 31
0.0
  0
ARC
  8
LC-002-002-RND-0
  6
CONTINUOUS
  5
144
 10
143.257441
 20
293.152531
 30
0.0
 40
1.2
 50
0.0
 51
68.0
  0
ARC
  8
LC-002-002-RND-0
  6
CONTINUOUS
  5
145
 10
143.257441
 20
293.152531
 30
0.0
 40
0.5
 50
0.0
 51
68.0
  0
LINE
  8
LC-001-002-----0
  6
CONTINUOUS
  5
146
 10
257.457441
 20
300.350799
 30
0.0
 11
198.757441
 21
300.350799
 31
0.0
  0
LINE
  8
LC-001-002-----0
  6
CONTINUOUS
  5
147
 10
256.257441
 20
294.150799
 30
0.0
 11
255.393507
 21
294.150799
 31
0.0
  0
LINE
  8
LC-001-002-----0
  6
CONTINUOUS
  5
148
 10
249.821161
 20
285.383624
 30
0.0
 11
249.457441
 21
285.383624
 31
0.0
  0
ARC
  8
LC-002-002-RND-0
  6
CONTINUOUS
  5
149
 10
256.257441
 20
295.350799
 30
0.0
 40
1.2
 50
270.0
 51
0.0
  0
LINE
  8
LC-001-002-----0
  6
CONTINUOUS
  5
14A
 10
256.257441
 20
294.850799
 30
0.0
 11
255.257441
 21
294.850799
 31
0.0
  0
ARC
  8
LC-002-002-RND-0
  6
CONTINUOUS
  5
14B
 10
256.257441
 20
295.350799
 30
0.0
 40
0.5
 50
270.0
 51
0.0
  0
LINE
  8
LC-001-002-----0
  6
CONTINUOUS
  5
14C
 10
141.257441
 20
294.150799
 30
0.0
 11
142.121375
 21
294.150799
 31
0.0
  0
ARC
  8
LC-002-002-RND-0
  6
CONTINUOUS
  5
14D
 10
141.257441
 20
295.350799
 30
0.0
 40
1.2
 50
180.0
 51
270.0
  0
ARC
  8
LC-002-002-RND-0
  6
CONTINUOUS
  5
14E
 10
141.257441
 20
295.350799
 30
0.0
 40
0.5
 50
180.0
 51
270.0
  0
ARC
  8
LC-001-002-----0
  6
CONTINUOUS
  5
14F
 10
140.057441
 20
299.650799
 30
0.0
 40
0.7
 50
360.0
 51
180.0
  0
ARC
  8
LC-002-002-RND-0
  6
CONTINUOUS
  5
150
 10
144.957441
 20
292.106413
 30
0.0
 40
0.5
 50
180.0
 51
270.0
  0
LINE
  8
LC-001-002-----0
  6
CONTINUOUS
  5
151
 10
140.057441
 20
297.850799
 30
0.0
 11
139.357441
 21
297.850799
 31
0.0
  0
LINE
  8
LC-001-002-----0
  6
CONTINUOUS
  5
152
 10
140.057441
 20
295.350799
 30
0.0
 11
140.057441
 21
299.156062
 31
0.0
  0
LINE
  8
LC-001-002-----0
  6
CONTINUOUS
  5
153
 10
140.757441
 20
295.350799
 30
0.0
 11
140.757441
 21
299.650799
 31
0.0
  0
LINE
  8
LC-001-002-----0
  6
CONTINUOUS
  5
154
 10
139.357441
 20
297.850799
 30
0.0
 11
139.357441
 21
299.650799
 31
0.0
  0
ARC
  8
LC-002-002-RND-0
  6
CONTINUOUS
  5
155
 10
144.957441
 20
292.106413
 30
0.0
 40
1.2
 50
180.0
 51
270.0
  0
ARC
  8
LC-002-002-RND-0
  6
CONTINUOUS
  5
156
 10
146.857441
 20
290.406413
 30
0.0
 40
1.2
 50
360.0
 51
90.0
  0
LINE
  8
LC-001-002-----0
  6
CONTINUOUS
  5
157
 10
146.857441
 20
290.906413
 30
0.0
 11
144.957441
 21
290.906413
 31
0.0
  0
LINE
  8
LC-001-002-----0
  6
CONTINUOUS
  5
158
 10
144.457441
 20
293.152531
 30
0.0
 11
144.457441
 21
292.106413
 31
0.0
  0
ARC
  8
LC-001-002-----0
  6
CONTINUOUS
  5
159
 10
257.457441
 20
299.650799
 30
0.0
 40
0.7
 50
0.0
 51
180.0
  0
LINE
  8
LC-001-002-----0
  6
CONTINUOUS
  5
15A
 10
143.757441
 20
293.152531
 30
0.0
 11
143.757441
 21
292.106413
 31
0.0
  0
ARC
  8
LC-002-002-RND-0
  6
CONTINUOUS
  5
15B
 10
252.557441
 20
292.106413
 30
0.0
 40
0.5
 50
270.0
 51
0.0
  0
LINE
  8
LC-001-002-----0
  6
CONTINUOUS
  5
15C
 10
257.457441
 20
297.850799
 30
0.0
 11
258.157441
 21
297.850799
 31
0.0
  0
ARC
  8
LC-002-002-RND-0
  6
CONTINUOUS
  5
15D
 10
146.857441
 20
290.406413
 30
0.0
 40
0.5
 50
0.0
 51
90.0
  0
LINE
  8
LC-001-002-----0
  6
CONTINUOUS
  5
15E
 10
148.057441
 20
285.383624
 30
0.0
 11
148.057441
 21
290.406413
 31
0.0
  0
LINE
  8
LC-001-002-----0
  6
CONTINUOUS
  5
15F
 10
147.357441
 20
286.083978
 30
0.0
 11
147.357441
 21
290.406413
 31
0.0
  0
LINE
  8
LC-001-002-----0
  6
CONTINUOUS
  5
160
 10
147.693721
 20
285.383624
 30
0.0
 11
148.057441
 21
285.383624
 31
0.0
  0
LINE
  8
LC-001-002-----0
  6
CONTINUOUS
  5
161
 10
147.411813
 20
284.981018
 30
0.0
 11
148.408125
 21
282.243674
 31
0.0
  0
LINE
  8
LC-001-002-----0
  6
CONTINUOUS
  5
162
 10
257.457441
 20
295.350799
 30
0.0
 11
257.457441
 21
299.244488
 31
0.0
  0
ARC
  8
LC-002-002-RND-0
  6
CONTINUOUS
  5
163
 10
147.693721
 20
285.083624
 30
0.0
 40
0.3
 50
90.0
 51
200.0
  0
LINE
  8
LC-001-002-----0
  6
CONTINUOUS
  5
164
 10
148.408125
 20
282.243674
 30
0.0
 11
147.74613
 21
282.002727
 31
0.0
  0
LINE
  8
LC-001-002-----0
  6
CONTINUOUS
  5
165
 10
146.764446
 20
284.699881
 30
0.0
 11
147.74613
 21
282.002727
 31
0.0
  0
ARC
  8
LC-001-002-----0
  6
CONTINUOUS
  5
166
 10
147.798108
 20
285.076103
 30
0.0
 40
1.1
 50
113.616097
 51
200.0
  0
LINE
  8
LC-001-002-----0
  6
CONTINUOUS
  5
167
 10
255.257441
 20
294.850799
 30
0.0
 11
198.757441
 21
294.850799
 31
0.0
  0
LINE
  8
LC-001-002-----0
  6
CONTINUOUS
  5
168
 10
140.057441
 20
300.350799
 30
0.0
 11
198.757441
 21
300.350799
 31
0.0
  0
LINE
  8
LC-001-002-----0
  6
CONTINUOUS
  5
169
 10
141.257441
 20
294.850799
 30
0.0
 11
142.257441
 21
294.850799
 31
0.0
  0
LINE
  8
LC-001-002-----0
  6
CONTINUOUS
  5
16A
 10
198.757441
 20
291.606413
 30
0.0
 11
146.857441
 21
291.606413
 31
0.0
  0
LINE
  8
LC-001-002-----0
  6
CONTINUOUS
  5
16B
 10
148.057441
 20
285.383624
 30
0.0
 11
198.757441
 21
285.383624
 31
0.0
  0
LINE
  8
LC-001-002-----0
  6
CONTINUOUS
  5
16C
 10
256.757441
 20
295.350799
 30
0.0
 11
256.757441
 21
299.650799
 31
0.0
  0
LINE
  8
LC-001-002-----0
  6
CONTINUOUS
  5
16D
 10
148.40643
 20
282.248329
 30
0.0
 11
198.757441
 21
282.248329
 31
0.0
  0
LINE
  8
LC-001-002-----0
  6
CONTINUOUS
  5
16E
 10
147.74613
 20
282.002727
 30
0.0
 11
198.757441
 21
282.002727
 31
0.0
  0
LINE
  8
LC-001-002-----0
  6
CONTINUOUS
  5
16F
 10
142.257441
 20
294.850799
 30
0.0
 11
198.757441
 21
294.850799
 31
0.0
  0
LINE
  8
LC-001-002-----0
  6
CONTINUOUS
  5
170
 10
146.857441
 20
291.606413
 30
0.0
 11
144.957441
 21
291.606413
 31
0.0
  0
LINE
  8
LC-001-002-----0
  6
CONTINUOUS
  5
171
 10
247.708229
 20
282.248329
 30
0.0
 11
198.757441
 21
282.248329
 31
0.0
  0
LINE
  8
LC-001-002-----0
  6
CONTINUOUS
  5
172
 10
250.103069
 20
284.981018
 30
0.0
 11
249.106757
 21
282.243674
 31
0.0
  0
LINE
  8
LC-001-002-----0
  6
CONTINUOUS
  5
173
 10
250.750436
 20
284.699881
 30
0.0
 11
249.768752
 21
282.002727
 31
0.0
  0
ARC
  8
LC-001-002-----0
  6
CONTINUOUS
  5
174
 10
249.716774
 20
285.076103
 30
0.0
 40
1.1
 50
340.0
 51
66.383903
  0
ARC
  8
LC-002-002-RND-0
  6
CONTINUOUS
  5
175
 10
249.821161
 20
285.083624
 30
0.0
 40
0.3
 50
340.0
 51
90.0
  0
LINE
  8
LC-001-002-----0
  6
CONTINUOUS
  5
176
 10
249.093966
 20
282.248329
 30
0.0
 11
198.757441
 21
282.248329
 31
0.0
  0
LINE
  8
LC-001-002-----0
  6
CONTINUOUS
  5
177
 10
249.106757
 20
282.243674
 30
0.0
 11
249.768752
 21
282.002727
 31
0.0
  0
LINE
  8
LC-001-002-----0
  6
CONTINUOUS
  5
178
 10
250.657441
 20
291.606413
 30
0.0
 11
252.557441
 21
291.606413
 31
0.0
  0
LINE
  8
LC-001-002-----0
  6
CONTINUOUS
  5
179
 10
249.457441
 20
285.383624
 30
0.0
 11
198.757441
 21
285.383624
 31
0.0
  0
LINE
  8
LC-001-002-----0
  6
CONTINUOUS
  5
17A
 10
249.768752
 20
282.002727
 30
0.0
 11
198.757441
 21
282.002727
 31
0.0
  0
LINE
  8
LC-001-002-----0
  6
CONTINUOUS
  5
17B
 10
253.807913
 20
294.265152
 30
0.0
 11
255.257441
 21
294.850799
 31
0.0
  0
LINE
  8
LC-001-002-----0
  6
CONTINUOUS
  5
17C
 10
254.070138
 20
293.616123
 30
0.0
 11
255.393507
 21
294.150799
 31
0.0
  0
LINE
  8
LC-001-002-----0
  6
CONTINUOUS
  5
17D
 10
258.157441
 20
297.850799
 30
0.0
 11
258.157441
 21
299.650799
 31
0.0
  0
ARC
  8
LC-002-002-RND-0
  6
CONTINUOUS
  5
17E
 10
252.557441
 20
292.106413
 30
0.0
 40
1.2
 50
270.0
 51
0.0
  0
ARC
  8
LC-002-002-RND-0
  6
CONTINUOUS
  5
17F
 10
250.657441
 20
290.406413
 30
0.0
 40
1.2
 50
90.0
 51
180.0
  0
LINE
  8
LC-001-002-----0
  6
CONTINUOUS
  5
180
 10
250.657441
 20
290.906413
 30
0.0
 11
252.557441
 21
290.906413
 31
0.0
  0
LINE
  8
LC-001-002-----0
  6
CONTINUOUS
  5
181
 10
198.757441
 20
291.606413
 30
0.0
 11
250.657441
 21
291.606413
 31
0.0
  0
LINE
  8
LC-001-002-----0
  6
CONTINUOUS
  5
182
 10
253.057441
 20
293.152531
 30
0.0
 11
253.057441
 21
292.106413
 31
0.0
  0
LINE
  8
LC-001-002-----0
  6
CONTINUOUS
  5
183
 10
253.757441
 20
293.152531
 30
0.0
 11
253.757441
 21
292.106413
 31
0.0
  0
ARC
  8
LC-002-002-RND-0
  6
CONTINUOUS
  5
184
 10
250.657441
 20
290.406413
 30
0.0
 40
0.5
 50
90.0
 51
180.0
  0
LINE
  8
LC-001-002-----0
  6
CONTINUOUS
  5
185
 10
249.457441
 20
285.383624
 30
0.0
 11
249.457441
 21
290.406413
 31
0.0
  0
LINE
  8
LC-001-002-----0
  6
CONTINUOUS
  5
186
 10
250.157441
 20
286.083978
 30
0.0
 11
250.157441
 21
290.406413
 31
0.0
  0
LINE
  8
LC-001-002-----0
  6
CONTINUOUS
  5
187
 10
253.257441
 20
294.850799
 30
0.0
 11
253.257441
 21
294.850799
 31
0.0
  0
LINE
  8
LC-001-002-----0
  6
CONTINUOUS
  5
188
 10
239.257441
 20
294.850799
 30
0.0
 11
239.257441
 21
294.850799
 31
0.0
  0
LINE
  8
LC-001-002-----0
  6
CONTINUOUS
  5
189
 10
239.257441
 20
294.850799
 30
0.0
 11
239.257441
 21
294.850799
 31
0.0
  0
LINE
  8
LC-001-002-----0
  6
CONTINUOUS
  5
18A
 10
253.257441
 20
294.850799
 30
0.0
 11
253.257441
 21
294.850799
 31
0.0
  0
ARC
  8
LC-002-002-RND-0
  6
CONTINUOUS
  5
18B
 10
239.757441
 20
294.850799
 30
0.0
 40
0.5
 50
90.0
 51
180.0
  0
LINE
  8
LC-001-002-----0
  6
CONTINUOUS
  5
18C
 10
252.757441
 20
295.350799
 30
0.0
 11
239.757441
 21
295.350799
 31
0.0
  0
ARC
  8
LC-002-002-RND-0
  6
CONTINUOUS
  5
18D
 10
252.757441
 20
294.850799
 30
0.0
 40
0.5
 50
0.0
 51
90.0
  0
LINE
  8
LC-001-002-----0
  6
CONTINUOUS
  5
18E
 10
144.457441
 20
293.152531
 30
0.0
 11
144.457441
 21
292.106413
 31
0.0
  0
LINE
  8
LC-001-002-----0
  6
CONTINUOUS
  5
18F
 10
144.257441
 20
294.850799
 30
0.0
 11
144.257441
 21
294.850799
 31
0.0
  0
LINE
  8
LC-001-002-----0
  6
CONTINUOUS
  5
190
 10
158.257441
 20
294.850799
 30
0.0
 11
158.257441
 21
294.850799
 31
0.0
  0
LINE
  8
LC-001-002-----0
  6
CONTINUOUS
  5
191
 10
158.257441
 20
294.850799
 30
0.0
 11
158.257441
 21
294.850799
 31
0.0
  0
LINE
  8
LC-001-002-----0
  6
CONTINUOUS
  5
192
 10
144.257441
 20
294.850799
 30
0.0
 11
144.257441
 21
294.850799
 31
0.0
  0
ARC
  8
LC-002-002-RND-0
  6
CONTINUOUS
  5
193
 10
157.757441
 20
294.850799
 30
0.0
 40
0.5
 50
0.0
 51
90.0
  0
LINE
  8
LC-001-002-----0
  6
CONTINUOUS
  5
194
 10
144.757441
 20
295.350799
 30
0.0
 11
157.757441
 21
295.350799
 31
0.0
  0
ARC
  8
LC-002-002-RND-0
  6
CONTINUOUS
  5
195
 10
144.757441
 20
294.850799
 30
0.0
 40
0.5
 50
90.0
 51
180.0
  0
ARC
  8
LC-002-002-RND-0
  6
CONTINUOUS
  5
196
 10
396.882441
 20
217.384618
 30
0.0
 40
2.0
 50
180.0
 51
270.0
  0
CIRCLE
  8
LC-001-002-----0
  6
CONTINUOUS
  5
197
 10
452.882441
 20
273.384618
 30
0.0
 40
54.3
  0
CIRCLE
  8
LC-001-002-----0
  6
CONTINUOUS
  5
198
 10
452.882441
 20
273.384618
 30
0.0
 40
56.5
  0
ARC
  8
LC-002-002-RND-0
  6
CONTINUOUS
  5
199
 10
396.882441
 20
329.384618
 30
0.0
 40
2.0
 50
90.0
 51
180.0
  0
CIRCLE
  8
LC-001-002-----0
  6
CONTINUOUS
  5
19A
 10
452.882441
 20
273.384618
 30
0.0
 40
50.7
  0
CIRCLE
  8
LC-001-002-----0
  6
CONTINUOUS
  5
19B
 10
405.382441
 20
320.884618
 30
0.0
 40
7.0
  0
LINE
  8
LC-001-002-----0
  6
CONTINUOUS
  5
19C
 10
396.882441
 20
332.784618
 30
0.0
 11
508.882441
 21
332.784618
 31
0.0
  0
LINE
  8
LC-001-002-----0
  6
CONTINUOUS
  5
19D
 10
396.882441
 20
331.384618
 30
0.0
 11
508.882441
 21
331.384618
 31
0.0
  0
LINE
  8
LC-001-002-----0
  6
CONTINUOUS
  5
19E
 10
394.882441
 20
217.384618
 30
0.0
 11
394.882441
 21
329.384618
 31
0.0
  0
LINE
  8
LC-001-002-----0
  6
CONTINUOUS
  5
19F
 10
508.882441
 20
215.384618
 30
0.0
 11
396.882441
 21
215.384618
 31
0.0
  0
LINE
  8
LC-001-002-----0
  6
CONTINUOUS
  5
1A0
 10
510.882441
 20
329.384618
 30
0.0
 11
510.882441
 21
217.384618
 31
0.0
  0
LINE
  8
LC-001-002-----0
  6
CONTINUOUS
  5
1A1
 10
393.482441
 20
217.384618
 30
0.0
 11
393.482441
 21
329.384618
 31
0.0
  0
LINE
  8
LC-001-002-----0
  6
CONTINUOUS
  5
1A2
 10
508.882441
 20
213.984618
 30
0.0
 11
396.882441
 21
213.984618
 31
0.0
  0
LINE
  8
LC-001-002-----0
  6
CONTINUOUS
  5
1A3
 10
512.282441
 20
329.384618
 30
0.0
 11
512.282441
 21
217.384618
 31
0.0
  0
ARC
  8
LC-002-002-RND-0
  6
CONTINUOUS
  5
1A4
 10
508.882441
 20
329.384618
 30
0.0
 40
2.0
 50
0.0
 51
90.0
  0
ARC
  8
LC-002-002-RND-0
  6
CONTINUOUS
  5
1A5
 10
508.882441
 20
217.384618
 30
0.0
 40
2.0
 50
270.0
 51
0.0
  0
ARC
  8
LC-002-002-RND-0
  6
CONTINUOUS
  5
1A6
 10
396.882441
 20
329.384618
 30
0.0
 40
3.4
 50
90.0
 51
180.0
  0
ARC
  8
LC-002-002-RND-0
  6
CONTINUOUS
  5
1A7
 10
508.882441
 20
329.384618
 30
0.0
 40
3.4
 50
0.0
 51
90.0
  0
ARC
  8
LC-002-002-RND-0
  6
CONTINUOUS
  5
1A8
 10
508.882441
 20
217.384618
 30
0.0
 40
3.4
 50
270.0
 51
0.0
  0
ARC
  8
LC-002-002-RND-0
  6
CONTINUOUS
  5
1A9
 10
396.882441
 20
217.384618
 30
0.0
 40
3.4
 50
180.0
 51
270.0
  0
CIRCLE
  8
LC-001-002-----0
  6
CONTINUOUS
  5
1AA
 10
500.382441
 20
320.884618
 30
0.0
 40
7.0
  0
CIRCLE
  8
LC-001-002-----0
  6
CONTINUOUS
  5
1AB
 10
405.382441
 20
225.884618
 30
0.0
 40
7.0
  0
CIRCLE
  8
LC-001-002-----0
  6
CONTINUOUS
  5
1AC
 10
500.382441
 20
225.884618
 30
0.0
 40
7.0
  0
CIRCLE
  8
LC-001-002-----0
  6
CONTINUOUS
  5
1AD
 10
405.382441
 20
320.884618
 30
0.0
 40
2.5
  0
ARC
  8
LC-004-003-----0
  6
CONTINUOUS
  5
1AE
 10
405.382441
 20
320.884618
 30
0.0
 40
3.0
 50
180.0
 51
90.0
  0
CIRCLE
  8
LC-001-002-----0
  6
CONTINUOUS
  5
1AF
 10
500.382441
 20
225.884618
 30
0.0
 40
2.5
  0
ARC
  8
LC-004-003-----0
  6
CONTINUOUS
  5
1B0
 10
500.382441
 20
225.884618
 30
0.0
 40
3.0
 50
180.0
 51
90.0
  0
CIRCLE
  8
LC-001-002-----0
  6
CONTINUOUS
  5
1B1
 10
452.882441
 20
273.484618
 30
0.0
 40
99.0
  0
LINE
  8
LC-001-002-----0
  6
CONTINUOUS
  5
1B2
 10
145.132441
 20
290.906413
 30
0.0
 11
143.882441
 21
290.906413
 31
0.0
  0
LINE
  8
LC-001-002-----0
  6
CONTINUOUS
  5
1B3
 10
253.882441
 20
290.906413
 30
0.0
 11
252.632441
 21
290.906413
 31
0.0
  0
LINE
  8
LC-001-002-----0
  6
CONTINUOUS
  5
1B4
 10
252.632441
 20
290.906413
 30
0.0
 11
253.882441
 21
290.906413
 31
0.0
  0
LINE
  8
LC-001-002-----0
  6
DASHDOT
 62
     2
  5
1B6
 10
198.882441
 20
245.906413
 30
0.0
 11
198.757441
 21
300.350799
 31
0.0
  0
LINE
  8
LC-001-002-----0
  6
CONTINUOUS
  5
1B7
 10
143.882441
 20
263.644356
 30
0.0
 11
99.882441
 21
263.644356
 31
0.0
  0
LINE
  8
LC-001-002-----0
  6
CONTINUOUS
  5
1B8
 10
143.882441
 20
259.344356
 30
0.0
 11
99.882441
 21
259.344356
 31
0.0
  0
LINE
  8
LC-001-002-----0
  6
CONTINUOUS
 62
     2
  5
1B9
 10
160.162758
 20
323.136
 30
0.0
 11
175.162758
 21
323.136
 31
0.0
  0
LINE
  8
LC-001-002-----0
  6
CONTINUOUS
 62
     2
  5
1BA
 10
175.162758
 20
323.136
 30
0.0
 11
175.162758
 21
338.136
 31
0.0
  0
LINE
  8
LC-001-002-----0
  6
CONTINUOUS
 62
     2
  5
1BB
 10
160.162758
 20
323.136
 30
0.0
 11
160.162758
 21
338.136
 31
0.0
  0
LINE
  8
LC-001-002-----0
  6
CONTINUOUS
 62
     2
  5
1BC
 10
160.162758
 20
338.136
 30
0.0
 11
175.162758
 21
338.136
 31
0.0
  0
ENDSEC
  0
EOF
