  0
SECTION
  2
HEADER
  9
$ACADVER
  1
AC1009
  9
$DWGCODEPAGE
  3
ansi_1252
  9
$INSBASE
 10
0.0
 20
0.0
 30
0.0
  9
$EXTMIN
 10
0.0
 20
0.0
 30
0.0
  9
$EXTMAX
 10
420.0
 20
297.0
 30
0.0
  9
$LIMMIN
 10
0.0
 20
0.0
  9
$LIMMAX
 10
420.0
 20
297.0
  9
$ORTHOMODE
 70
     0
  9
$REGENMODE
 70
     1
  9
$FILLMODE
 70
     1
  9
$QTEXTMODE
 70
     0
  9
$MIRRTEXT
 70
     1
  9
$DRAGMODE
 70
     2
  9
$LTSCALE
 40
1.0
  9
$OSMODE
 70
    37
  9
$ATTMODE
 70
     1
  9
$TEXTSIZE
 40
9.8777777778
  9
$TRACEWID
 40
1.0
  9
$TEXTSTYLE
  7
STANDARD
  9
$CLAYER
  8
0
  9
$CELTYPE
  6
BYLAYER
  9
$CECOLOR
 62
   256
  9
$DIMSCALE
 40
1.0
  9
$DIMASZ
 40
4.0
  9
$DIMEXO
 40
1.0
  9
$DIMDLI
 40
3.75
  9
$DIMRND
 40
0.0
  9
$DIMDLE
 40
0.0
  9
$DIMEXE
 40
1.0
  9
$DIMTP
 40
0.0
  9
$DIMTM
 40
0.0
  9
$DIMTXT
 40
9.8777777778
  9
$DIMCEN
 40
2.5
  9
$DIMTSZ
 40
0.0
  9
$DIMTOL
 70
     0
  9
$DIMLIM
 70
     0
  9
$DIMTIH
 70
     1
  9
$DIMTOH
 70
     1
  9
$DIMSE1
 70
     0
  9
$DIMSE2
 70
     0
  9
$DIMTAD
 70
     1
  9
$DIMZIN
 70
     0
  9
$DIMBLK
  1

  9
$DIMASO
 70
     1
  9
$DIMSHO
 70
     1
  9
$DIMPOST
  1

  9
$DIMAPOST
  1

  9
$DIMALT
 70
     0
  9
$DIMALTD
 70
     3
  9
$DIMALTF
 40
0.0393700787
  9
$DIMLFAC
 40
1.0
  9
$DIMTOFL
 70
     1
  9
$DIMTVP
 40
0.0
  9
$DIMTIX
 70
     0
  9
$DIMSOXD
 70
     0
  9
$DIMSAH
 70
     0
  9
$DIMBLK1
  1

  9
$DIMBLK2
  1

  9
$DIMSTYLE
  2
ISO-25
  9
$DIMCLRD
 70
     0
  9
$DIMCLRE
 70
     0
  9
$DIMCLRT
 70
     0
  9
$DIMTFAC
 40
1.0
  9
$DIMGAP
 40
1.524
  9
$LUNITS
 70
     2
  9
$LUPREC
 70
     2
  9
$SKETCHINC
 40
1.0
  9
$FILLETRAD
 40
10.0
  9
$AUNITS
 70
     0
  9
$AUPREC
 70
     2
  9
$MENU
  1
.
  9
$ELEVATION
 40
0.0
  9
$PELEVATION
 40
0.0
  9
$THICKNESS
 40
0.0
  9
$LIMCHECK
 70
     0
  9
$CHAMFERA
 40
0.0
  9
$CHAMFERB
 40
0.0
  9
$SKPOLY
 70
     0
  9
$TDCREATE
 40
2460129.3495325
  9
$TDUPDATE
 40
2460129.34953294
  9
$TDINDWG
 40
0.0000000116
  9
$TDUSRTIMER
 40
0.0000000116
  9
$USRTIMER
 70
     1
  9
$ANGBASE
 50
0.0
  9
$ANGDIR
 70
     0
  9
$PDMODE
 70
     0
  9
$PDSIZE
 40
-1.0
  9
$PLINEWID
 40
0.0
  9
$COORDS
 70
     1
  9
$SPLFRAME
 70
     0
  9
$SPLINETYPE
 70
     6
  9
$SPLINESEGS
 70
     8
  9
$ATTDIA
 70
     0
  9
$ATTREQ
 70
     1
  9
$HANDLING
 70
     1
  9
$HANDSEED
  5
13C
  9
$SURFTAB1
 70
     6
  9
$SURFTAB2
 70
     6
  9
$SURFTYPE
 70
     6
  9
$SURFU
 70
     6
  9
$SURFV
 70
     6
  9
$UCSNAME
  2

  9
$UCSORG
 10
0.0
 20
0.0
 30
0.0
  9
$UCSXDIR
 10
1.0
 20
0.0
 30
0.0
  9
$UCSYDIR
 10
0.0
 20
1.0
 30
0.0
  9
$PUCSNAME
  2

  9
$PUCSORG
 10
0.0
 20
0.0
 30
0.0
  9
$PUCSXDIR
 10
1.0
 20
0.0
 30
0.0
  9
$PUCSYDIR
 10
0.0
 20
1.0
 30
0.0
  9
$USERI1
 70
     0
  9
$USERI2
 70
     0
  9
$USERI3
 70
     0
  9
$USERI4
 70
     0
  9
$USERI5
 70
     0
  9
$USERR1
 40
0.0
  9
$USERR2
 40
0.0
  9
$USERR3
 40
0.0
  9
$USERR4
 40
0.0
  9
$USERR5
 40
0.0
  9
$WORLDVIEW
 70
     1
  9
$SHADEDGE
 70
     3
  9
$SHADEDIF
 70
    70
  9
$TILEMODE
 70
     1
  9
$MAXACTVP
 70
    64
  9
$PLIMCHECK
 70
     0
  9
$PEXTMIN
 10
1.0000000000E+20
 20
1.0000000000E+20
 30
1.0000000000E+20
  9
$PEXTMAX
 10
-1.0000000000E+20
 20
-1.0000000000E+20
 30
-1.0000000000E+20
  9
$PLIMMIN
 10
0.0
 20
0.0
  9
$PLIMMAX
 10
420.0
 20
297.0
  9
$UNITMODE
 70
     0
  9
$VISRETAIN
 70
     1
  9
$PLINEGEN
 70
     0
  9
$PSLTSCALE
 70
     1
  0
ENDSEC
  0
SECTION
  2
TABLES
  0
TABLE
  2
VPORT
 70
     1
  0
VPORT
  2
*ACTIVE
 70
     0
 10
0.0
 20
0.0
 11
1.0
 21
1.0
 12
210.0
 22
148.5
 13
0.0
 23
0.0
 14
10.0
 24
10.0
 15
10.0
 25
10.0
 16
0.0
 26
0.0
 36
1.0
 17
0.0
 27
0.0
 37
0.0
 40
297.0
 41
1.4141414141
 42
50.0
 43
0.0
 44
0.0
 50
0.0
 51
0.0
 71
     0
 72
  2000
 73
     1
 74
     3
 75
     0
 76
     0
 77
     0
 78
     0
  0
ENDTAB
  0
TABLE
  2
LTYPE
 70
     6
  0
LTYPE
  2
CONTINUOUS
 70
     0
  3
Solid line
 72
    65
 73
     0
 40
0.0
  0
LTYPE
  2
HIDDEN
 70
     0
  3
Hidden __ __ __ __ __ __ __ __ __ __ __ __ __ __
 72
    65
 73
     2
 40
1.905
 49
1.27
 49
-0.635
  0
LTYPE
  2
PHANTOM
 70
     0
  3
Phantom ______  __  __  ______  __  __  ______
 72
    65
 73
     6
 40
12.7
 49
6.35
 49
-1.27
 49
1.27
 49
-1.27
 49
1.27
 49
-1.27
  0
LTYPE
  2
CENTER
 70
     0
  3
Center ____ _ ____ _ ____ _ ____ _ ____ _ ____
 72
    65
 73
     4
 40
10.16
 49
6.35
 49
-1.27
 49
1.27
 49
-1.27
  0
LTYPE
  2
CENTERX2
 70
     0
  3
Center (2x) ________  __  ________  __  _____
 72
    65
 73
     4
 40
20.32
 49
12.7
 49
-2.54
 49
2.54
 49
-2.54
  0
LTYPE
  2
DOT2
 70
     0
  3
Dot (.5x) ........................................
 72
    65
 73
     2
 40
0.635
 49
0.0
 49
-0.635
  0
ENDTAB
  0
TABLE
  2
LAYER
 70
     7
  0
LAYER
  2
0
 70
     0
 62
     7
  6
CONTINUOUS
  0
LAYER
  2
FORMAT
 70
     0
 62
     7
  6
CONTINUOUS
  0
LAYER
  2
RED
 70
     0
 62
     1
  6
CONTINUOUS
  0
LAYER
  2
GREEN
 70
     0
 62
   114
  6
CONTINUOUS
  0
LAYER
  2
BLUE
 70
     0
 62
     5
  6
CONTINUOUS
  0
LAYER
  2
BLATTFORMAT
 70
     0
 62
     7
  6
CONTINUOUS
  0
LAYER
  2
BEMAßUNG
 70
     0
 62
     7
  6
CONTINUOUS
  0
ENDTAB
  0
TABLE
  2
STYLE
 70
     1
  0
STYLE
  2
STANDARD
 70
     0
 40
0.0
 41
1.0
 50
0.0
 71
     0
 42
9.8777777778
  3
txt
  4

  0
ENDTAB
  0
TABLE
  2
VIEW
 70
     0
  0
ENDTAB
  0
TABLE
  2
UCS
 70
     0
  0
ENDTAB
  0
TABLE
  2
APPID
 70
     1
  0
APPID
  2
ACAD
 70
     0
  0
ENDTAB
  0
TABLE
  2
DIMSTYLE
 70
     4
  0
DIMSTYLE
  2
ISO-25
 70
     0
  3

  4

  5

  6

  7

 40
1.0
 41
2.5
 42
0.625
 43
3.75
 44
1.25
 45
0.0
 46
0.0
 47
0.0
 48
0.0
140
2.5
141
2.5
142
0.0
143
0.0393700787
144
1.0
145
0.0
146
1.0
147
0.625
 71
     0
 72
     0
 73
     0
 74
     0
 75
     0
 76
     0
 77
     1
 78
     8
170
     0
171
     3
172
     1
173
     0
174
     0
175
     0
176
     0
177
     0
178
     0
  0
DIMSTYLE
  2
SLDDIMSTYLE0
 70
     0
  3

  4

  5

  6

  7

 40
1.0
 41
4.0
 42
0.0625
 43
0.38
 44
0.0
 45
0.000000001
 46
0.0
 47
0.0
 48
0.0
140
7.4083333333
141
0.09
142
0.0
143
25.4
144
1.0
145
0.0
146
1.0
147
1.8520833333
 71
     0
 72
     0
 73
     0
 74
     0
 75
     0
 76
     0
 77
     1
 78
    12
170
     0
171
     2
172
     0
173
     1
174
     0
175
     0
176
     0
177
     0
178
     0
  0
DIMSTYLE
  2
SLDDIMSTYLE1
 70
     0
  3

  4

  5

  6

  7

 40
1.0
 41
4.0
 42
0.0625
 43
0.38
 44
0.0
 45
0.000000001
 46
0.0
 47
0.0
 48
0.0
140
7.4083333333
141
0.09
142
0.0
143
25.4
144
1.0
145
0.0
146
1.0
147
1.8520833333
 71
     0
 72
     0
 73
     0
 74
     0
 75
     0
 76
     0
 77
     1
 78
    12
170
     0
171
     2
172
     1
173
     1
174
     0
175
     0
176
     0
177
     0
178
     0
  0
DIMSTYLE
  2
SLDDIMSTYLE2
 70
     0
  3

  4

  5

  6

  7

 40
1.0
 41
4.0
 42
0.0625
 43
0.38
 44
0.0
 45
0.000000001
 46
0.0
 47
0.0
 48
0.0
140
7.4083333333
141
0.09
142
0.0
143
25.4
144
1.0
145
0.0
146
1.0
147
1.8520833333
 71
     0
 72
     0
 73
     0
 74
     0
 75
     0
 76
     0
 77
     1
 78
    12
170
     0
171
     2
172
     1
173
     1
174
     0
175
     0
176
     0
177
     0
178
     0
  0
ENDTAB
  0
ENDSEC
  0
SECTION
  2
BLOCKS
  0
BLOCK
  8
0
  2
$MODEL_SPACE
 70
     0
 10
0.0
 20
0.0
 30
0.0
  3
$MODEL_SPACE
  1

  0
ENDBLK
  5
21
  8
0
  0
BLOCK
 67
     1
  8
0
  2
$PAPER_SPACE
 70
     0
 10
0.0
 20
0.0
 30
0.0
  3
$PAPER_SPACE
  1

  0
ENDBLK
  5
1D
 67
     1
  8
0
  0
BLOCK
  8
0
  2
_D
 70
     0
 10
0.0
 20
0.0
 30
0.0
  3
_D
  1

  0
SOLID
  5
110
  8
BEMAßUNG
 10
175.1270741997
 20
221.2639830508
 30
0.0
 11
174.2270741997
 21
217.2639830508
 31
0.0
 12
176.0270741997
 22
217.2639830508
 32
0.0
 13
176.0270741997
 23
217.2639830508
 33
0.0
  0
SOLID
  5
111
  8
BEMAßUNG
 10
175.1270741997
 20
181.2639830508
 30
0.0
 11
176.0270741997
 21
185.2639830508
 31
0.0
 12
174.2270741997
 22
185.2639830508
 32
0.0
 13
174.2270741997
 23
185.2639830508
 33
0.0
  0
LINE
  5
112
  8
BEMAßUNG
 10
190.0046489936
 20
221.2639830508
 30
0.0
 11
174.1270741997
 21
221.2639830508
 31
0.0
  0
LINE
  5
113
  8
BEMAßUNG
 10
187.2546489936
 20
181.2639830508
 30
0.0
 11
174.1270741997
 21
181.2639830508
 31
0.0
  0
LINE
  5
114
  8
BEMAßUNG
 10
175.1270741997
 20
221.2639830508
 30
0.0
 11
175.1270741997
 21
181.2639830508
 31
0.0
  0
TEXT
  5
115
  8
BEMAßUNG
 10
172.5100056748
 20
196.9449190322
 30
12.25
 40
7.4083333333
  1
40
 50
90.0
 41
0.7
 11
175.1270739669
 21
196.9449190322
 31
12.25
 73
     1
  0
ENDBLK
  5
10F
  8
0
  0
BLOCK
  8
0
  2
_D_1
 70
     0
 10
0.0
 20
0.0
 30
0.0
  3
_D_1
  1

  0
SOLID
  5
11A
  8
BEMAßUNG
 10
161.0304128841
 20
231.2639830508
 30
0.0
 11
160.1304128841
 21
227.2639830508
 31
0.0
 12
161.9304128841
 22
227.2639830508
 32
0.0
 13
161.9304128841
 23
227.2639830508
 33
0.0
  0
SOLID
  5
11B
  8
BEMAßUNG
 10
161.0304128841
 20
181.2639830508
 30
0.0
 11
161.9304128841
 21
185.2639830508
 31
0.0
 12
160.1304128841
 22
185.2639830508
 32
0.0
 13
160.1304128841
 23
185.2639830508
 33
0.0
  0
LINE
  5
11C
  8
BEMAßUNG
 10
181.5195995049
 20
231.2639830508
 30
0.0
 11
160.0304128841
 21
231.2639830508
 31
0.0
  0
LINE
  5
11D
  8
BEMAßUNG
 10
187.2546489936
 20
181.2639830508
 30
0.0
 11
160.0304128841
 21
181.2639830508
 31
0.0
  0
LINE
  5
11E
  8
BEMAßUNG
 10
161.0304128841
 20
231.2639830508
 30
0.0
 11
161.0304128841
 21
181.2639830508
 31
0.0
  0
TEXT
  5
11F
  8
BEMAßUNG
 10
158.4133443592
 20
201.5811543093
 30
12.25
 40
7.4083333333
  1
50
 50
90.0
 41
0.7
 11
161.0304126512
 21
201.5811543093
 31
12.25
 73
     1
  0
ENDBLK
  5
119
  8
0
  0
BLOCK
  8
0
  2
_D_2
 70
     0
 10
0.0
 20
0.0
 30
0.0
  3
_D_2
  1

  0
SOLID
  5
125
  8
BEMAßUNG
 10
188.2546489936
 20
167.7614475197
 30
0.0
 11
184.2546489936
 21
168.6614475197
 31
0.0
 12
184.2546489936
 22
166.8614475197
 32
0.0
 13
184.2546489936
 23
166.8614475197
 33
0.0
  0
SOLID
  5
126
  8
BEMAßUNG
 10
222.7546489936
 20
167.7614475197
 30
0.0
 11
226.7546489936
 21
166.8614475197
 31
0.0
 12
226.7546489936
 22
168.6614475197
 32
0.0
 13
226.7546489936
 23
168.6614475197
 33
0.0
  0
LINE
  5
127
  8
BEMAßUNG
 10
188.2546489936
 20
180.2639830508
 30
0.0
 11
188.2546489936
 21
166.7614475197
 31
0.0
  0
LINE
  5
128
  8
BEMAßUNG
 10
222.7546489936
 20
180.2639830508
 30
0.0
 11
222.7546489936
 21
166.7614475197
 31
0.0
  0
LINE
  5
129
  8
BEMAßUNG
 10
188.2546489936
 20
167.7614475197
 30
0.0
 11
176.2546489936
 21
167.7614475197
 31
0.0
  0
LINE
  5
12A
  8
BEMAßUNG
 10
188.2546489936
 20
167.7614475197
 30
0.0
 11
222.7546489936
 21
167.7614475197
 31
0.0
  0
LINE
  5
12B
  8
BEMAßUNG
 10
222.7546489936
 20
167.7614475197
 30
0.0
 11
234.7546489936
 21
167.7614475197
 31
0.0
  0
TEXT
  5
12C
  8
BEMAßUNG
 10
189.3950558039
 20
170.3785160446
 30
12.25
 40
7.4083333333
  1
%%c
 41
0.7
 11
189.3950558039
 21
167.7614477526
 31
12.25
 73
     1
  0
TEXT
  5
12D
  8
BEMAßUNG
 10
200.5775232571
 20
170.3785160446
 30
12.25
 40
7.4083333333
  1
34,5
 41
0.7
 11
200.5775232571
 21
167.7614477526
 31
12.25
 73
     1
  0
ENDBLK
  5
124
  8
0
  0
BLOCK
  8
0
  2
_D_3
 70
     0
 10
0.0
 20
0.0
 30
0.0
  3
_D_3
  1

  0
SOLID
  5
133
  8
BEMAßUNG
 10
186.0286489936
 20
238.1266668016
 30
0.0
 11
182.0286489936
 21
239.0266668016
 31
0.0
 12
182.0286489936
 22
237.2266668016
 32
0.0
 13
182.0286489936
 23
237.2266668016
 33
0.0
  0
SOLID
  5
134
  8
BEMAßUNG
 10
224.9806489936
 20
238.1266668016
 30
0.0
 11
228.9806489936
 21
237.2266668016
 31
0.0
 12
228.9806489936
 22
239.0266668016
 32
0.0
 13
228.9806489936
 23
239.0266668016
 33
0.0
  0
LINE
  5
135
  8
BEMAßUNG
 10
186.0286489936
 20
231.2639830508
 30
0.0
 11
186.0286489936
 21
239.1266668016
 31
0.0
  0
LINE
  5
136
  8
BEMAßUNG
 10
224.9806489936
 20
231.2639830508
 30
0.0
 11
224.9806489936
 21
239.1266668016
 31
0.0
  0
LINE
  5
137
  8
BEMAßUNG
 10
186.0286489936
 20
238.1266668016
 30
0.0
 11
174.0286489936
 21
238.1266668016
 31
0.0
  0
LINE
  5
138
  8
BEMAßUNG
 10
186.0286489936
 20
238.1266668016
 30
0.0
 11
224.9806489936
 21
238.1266668016
 31
0.0
  0
LINE
  5
139
  8
BEMAßUNG
 10
224.9806489936
 20
238.1266668016
 30
0.0
 11
236.9806489936
 21
238.1266668016
 31
0.0
  0
TEXT
  5
13A
  8
BEMAßUNG
 10
193.4970772597
 20
240.7437353265
 30
12.25
 40
7.4083333333
  1
%%c
 41
0.7
 11
193.4970772597
 21
238.1266670344
 31
12.25
 73
     1
  0
TEXT
  5
13B
  8
BEMAßUNG
 10
204.6795447129
 20
240.7437353265
 30
12.25
 40
7.4083333333
  1
39
 41
0.7
 11
204.6795447129
 21
238.1266670344
 31
12.25
 73
     1
  0
ENDBLK
  5
132
  8
0
  0
ENDSEC
  0
SECTION
  2
ENTITIES
  0
CIRCLE
  5
79
  8
0
  6
CONTINUOUS
 62
     7
 10
205.5046489936
 20
134.4017071114
 30
0.0
 40
14.5
  0
CIRCLE
  5
7A
  8
0
  6
CONTINUOUS
 62
     7
 10
205.5046489936
 20
134.4017071114
 30
0.0
 40
20.476
  0
CIRCLE
  5
7B
  8
0
  6
CONTINUOUS
 62
     7
 10
205.5046489936
 20
134.4017071114
 30
0.0
 40
19.476
  0
ARC
  5
7C
  8
0
  6
CONTINUOUS
 62
     7
 10
205.5046489936
 20
134.4017071114
 30
0.0
 40
24.00000000000001
 50
291.6144613529
 51
308.3855386471
  0
LINE
  5
7D
  8
0
  6
CONTINUOUS
 62
     7
 10
224.3170540086
 20
149.3045060952
 30
0.0
 11
223.6602857581
 21
148.925320769
 31
0.0
  0
LINE
  5
7E
  8
0
  6
CONTINUOUS
 62
     7
 10
197.0432131625
 20
156.0573438759
 30
0.0
 11
196.6640278363
 21
156.7141121264
 31
0.0
  0
ARC
  5
7F
  8
0
  6
CONTINUOUS
 62
     7
 10
205.5046489936
 20
134.4017071114
 30
0.0
 40
23.25000000000004
 50
98.658084535
 51
111.341915465
  0
LINE
  5
80
  8
0
  6
CONTINUOUS
 62
     7
 10
202.0046489936
 20
158.1451272526
 30
0.0
 11
202.0046489936
 21
157.3867566002
 31
0.0
  0
LINE
  5
81
  8
0
  6
CONTINUOUS
 62
     7
 10
227.1602857581
 20
142.8631429425
 30
0.0
 11
227.8170540086
 21
143.2423282688
 31
0.0
  0
ARC
  5
82
  8
0
  6
CONTINUOUS
 62
     7
 10
205.5046489936
 20
134.4017071114
 30
0.0
 40
23.99999999999996
 50
351.6144613529
 51
8.3855386471
  0
LINE
  5
83
  8
0
  6
CONTINUOUS
 62
     7
 10
229.2480691348
 20
137.9017071114
 30
0.0
 11
228.4896984824
 21
137.9017071114
 31
0.0
  0
ARC
  5
84
  8
0
  6
CONTINUOUS
 62
     7
 10
205.5046489936
 20
134.4017071114
 30
0.0
 40
23.25000000000007
 50
8.658084535
 51
21.341915465
  0
LINE
  5
85
  8
0
  6
CONTINUOUS
 62
     7
 10
220.0282626512
 20
152.5573438759
 30
0.0
 11
220.4074479774
 21
153.2141121264
 31
0.0
  0
ARC
  5
86
  8
0
  6
CONTINUOUS
 62
     7
 10
205.5046489936
 20
134.4017071114
 30
0.0
 40
23.99999999999996
 50
171.6144613529
 51
188.3855386471
  0
LINE
  5
87
  8
0
  6
CONTINUOUS
 62
     7
 10
183.1922439786
 20
143.2423282688
 30
0.0
 11
183.8490122291
 21
142.8631429425
 31
0.0
  0
ARC
  5
88
  8
0
  6
CONTINUOUS
 62
     7
 10
205.5046489936
 20
134.4017071114
 30
0.0
 40
23.25
 50
38.658084535
 51
51.341915465
  0
LINE
  5
89
  8
0
  6
CONTINUOUS
 62
     7
 10
209.0046489936
 20
157.3867566002
 30
0.0
 11
209.0046489936
 21
158.1451272526
 31
0.0
  0
ARC
  5
8A
  8
0
  6
CONTINUOUS
 62
     7
 10
205.5046489936
 20
134.4017071114
 30
0.0
 40
24.00000000000003
 50
321.6144613529
 51
338.3855386471
  0
ARC
  5
8B
  8
0
  6
CONTINUOUS
 62
     7
 10
205.5046489936
 20
134.4017071114
 30
0.0
 40
23.25000000000005
 50
68.658084535
 51
81.341915465
  0
LINE
  5
8C
  8
0
  6
CONTINUOUS
 62
     7
 10
214.3452701509
 20
156.7141121264
 30
0.0
 11
213.9660848247
 21
156.0573438759
 31
0.0
  0
LINE
  5
8D
  8
0
  6
CONTINUOUS
 62
     7
 10
190.981035336
 20
116.2460703469
 30
0.0
 11
190.6018500098
 21
115.5893020964
 31
0.0
  0
ARC
  5
8E
  8
0
  6
CONTINUOUS
 62
     7
 10
205.5046489936
 20
134.4017071114
 30
0.0
 40
24.00000000000001
 50
201.6144613529
 51
218.3855386471
  0
ARC
  5
8F
  8
0
  6
CONTINUOUS
 62
     7
 10
205.5046489936
 20
134.4017071114
 30
0.0
 40
23.25000000000002
 50
218.658084535
 51
231.341915465
  0
LINE
  5
90
  8
0
  6
CONTINUOUS
 62
     7
 10
186.6922439786
 20
119.4989081276
 30
0.0
 11
187.3490122291
 21
119.8780934538
 31
0.0
  0
LINE
  5
91
  8
0
  6
CONTINUOUS
 62
     7
 10
202.0046489936
 20
111.4166576227
 30
0.0
 11
202.0046489936
 21
110.6582869703
 31
0.0
  0
ARC
  5
92
  8
0
  6
CONTINUOUS
 62
     7
 10
205.5046489936
 20
134.4017071114
 30
0.0
 40
24.00000000000002
 50
111.6144613529
 51
128.3855386471
  0
LINE
  5
93
  8
0
  6
CONTINUOUS
 62
     7
 10
196.6640278363
 20
112.0893020964
 30
0.0
 11
197.0432131625
 21
112.7460703469
 31
0.0
  0
ARC
  5
94
  8
0
  6
CONTINUOUS
 62
     7
 10
205.5046489936
 20
134.4017071114
 30
0.0
 40
23.25000000000009
 50
248.658084535
 51
261.341915465
  0
LINE
  5
95
  8
0
  6
CONTINUOUS
 62
     7
 10
213.9660848247
 20
112.7460703469
 30
0.0
 11
214.3452701509
 21
112.0893020964
 31
0.0
  0
ARC
  5
96
  8
0
  6
CONTINUOUS
 62
     7
 10
205.5046489936
 20
134.4017071114
 30
0.0
 40
24.0
 50
141.6144613529
 51
158.3855386471
  0
LINE
  5
97
  8
0
  6
CONTINUOUS
 62
     7
 10
209.0046489936
 20
110.6582869703
 30
0.0
 11
209.0046489936
 21
111.4166576227
 31
0.0
  0
ARC
  5
98
  8
0
  6
CONTINUOUS
 62
     7
 10
205.5046489936
 20
134.4017071114
 30
0.0
 40
23.25000000000007
 50
278.658084535
 51
291.341915465
  0
LINE
  5
99
  8
0
  6
CONTINUOUS
 62
     7
 10
223.6602857581
 20
119.8780934538
 30
0.0
 11
224.3170540086
 21
119.4989081276
 31
0.0
  0
ARC
  5
9A
  8
0
  6
CONTINUOUS
 62
     7
 10
205.5046489936
 20
134.4017071114
 30
0.0
 40
24.0
 50
21.6144613529
 51
38.3855386471
  0
LINE
  5
9B
  8
0
  6
CONTINUOUS
 62
     7
 10
220.4074479774
 20
115.5893020964
 30
0.0
 11
220.0282626512
 21
116.2460703469
 31
0.0
  0
ARC
  5
9C
  8
0
  6
CONTINUOUS
 62
     7
 10
205.5046489936
 20
134.4017071114
 30
0.0
 40
23.25000000000006
 50
308.658084535
 51
321.341915465
  0
LINE
  5
9D
  8
0
  6
CONTINUOUS
 62
     7
 10
228.4896984824
 20
130.9017071114
 30
0.0
 11
229.2480691348
 21
130.9017071114
 31
0.0
  0
ARC
  5
9E
  8
0
  6
CONTINUOUS
 62
     7
 10
205.5046489936
 20
134.4017071114
 30
0.0
 40
24.0
 50
51.6144613529
 51
68.3855386471
  0
ARC
  5
9F
  8
0
  6
CONTINUOUS
 62
     7
 10
205.5046489936
 20
134.4017071114
 30
0.0
 40
23.25000000000007
 50
338.658084535
 51
351.341915465
  0
LINE
  5
A0
  8
0
  6
CONTINUOUS
 62
     7
 10
227.8170540086
 20
125.5610859541
 30
0.0
 11
227.1602857581
 21
125.9402712803
 31
0.0
  0
LINE
  5
A1
  8
0
  6
CONTINUOUS
 62
     7
 10
187.3490122291
 20
148.925320769
 30
0.0
 11
186.6922439786
 21
149.3045060952
 31
0.0
  0
ARC
  5
A2
  8
0
  6
CONTINUOUS
 62
     7
 10
205.5046489936
 20
134.4017071114
 30
0.0
 40
23.99999999999997
 50
261.6144613529
 51
278.3855386471
  0
LINE
  5
A3
  8
0
  6
CONTINUOUS
 62
     7
 10
190.6018500098
 20
153.2141121264
 30
0.0
 11
190.981035336
 21
152.5573438759
 31
0.0
  0
ARC
  5
A4
  8
0
  6
CONTINUOUS
 62
     7
 10
205.5046489936
 20
134.4017071114
 30
0.0
 40
23.25000000000002
 50
128.658084535
 51
141.341915465
  0
LINE
  5
A5
  8
0
  6
CONTINUOUS
 62
     7
 10
182.5195995049
 20
137.9017071114
 30
0.0
 11
181.7612288524
 21
137.9017071114
 31
0.0
  0
ARC
  5
A6
  8
0
  6
CONTINUOUS
 62
     7
 10
205.5046489936
 20
134.4017071114
 30
0.0
 40
24.00000000000003
 50
231.6144613529
 51
248.3855386471
  0
ARC
  5
A7
  8
0
  6
CONTINUOUS
 62
     7
 10
205.5046489936
 20
134.4017071114
 30
0.0
 40
23.25000000000004
 50
158.658084535
 51
171.341915465
  0
LINE
  5
A8
  8
0
  6
CONTINUOUS
 62
     7
 10
183.8490122291
 20
125.9402712803
 30
0.0
 11
183.1922439786
 21
125.5610859541
 31
0.0
  0
ARC
  5
A9
  8
0
  6
CONTINUOUS
 62
     7
 10
205.5046489936
 20
134.4017071114
 30
0.0
 40
23.99999999999999
 50
81.6144613529
 51
98.3855386471
  0
LINE
  5
AA
  8
0
  6
CONTINUOUS
 62
     7
 10
181.7612288524
 20
130.9017071114
 30
0.0
 11
182.5195995049
 21
130.9017071114
 31
0.0
  0
ARC
  5
AB
  8
0
  6
CONTINUOUS
 62
     7
 10
205.5046489936
 20
134.4017071114
 30
0.0
 40
23.25000000000004
 50
188.658084535
 51
201.341915465
  0
ARC
  5
AC
  8
0
  6
CONTINUOUS
 62
     7
 10
205.5046489936
 20
134.4017071114
 30
0.0
 40
24.5
 50
180.0
 51
0.0
  0
ARC
  5
AD
  8
0
  6
CONTINUOUS
 62
     7
 10
205.5046489936
 20
134.4017071114
 30
0.0
 40
24.5
 50
0.0
 51
180.0
  0
LINE
  5
AE
  8
0
  6
CENTER
 62
     7
 10
235.8846489936
 20
134.4017071114
 30
0.0
 11
175.1246489936
 21
134.4017071114
 31
0.0
  0
LINE
  5
AF
  8
0
  6
CONTINUOUS
 62
     7
 10
233.8846489936
 20
122.4017071114
 30
0.0
 11
233.8846489936
 21
134.4017071114
 31
0.0
  0
SOLID
  5
B0
  8
0
  6
CONTINUOUS
 62
     7
 10
233.8846489936
 20
134.4017071114
 30
0.0
 11
232.3846489936
 21
128.4017071114
 31
0.0
 12
235.3846489936
 22
128.4017071114
 32
0.0
 13
235.3846489936
 23
128.4017071114
 33
0.0
  0
LINE
  5
B1
  8
0
  6
CONTINUOUS
 62
     7
 10
177.1246489936
 20
122.4017071114
 30
0.0
 11
177.1246489936
 21
134.4017071114
 31
0.0
  0
SOLID
  5
B2
  8
0
  6
CONTINUOUS
 62
     7
 10
177.1246489936
 20
134.4017071114
 30
0.0
 11
175.6246489936
 21
128.4017071114
 31
0.0
 12
178.6246489936
 22
128.4017071114
 32
0.0
 13
178.6246489936
 23
128.4017071114
 33
0.0
  0
TEXT
  5
B3
  8
0
  6
CONTINUOUS
 62
     7
 10
235.7914842317
 20
123.7299571492
 30
0.0
 40
6.35
  1
A
 41
0.7
 11
235.7914842317
 21
130.0799571492
 31
0.0
 73
     3
  0
TEXT
  5
B4
  8
0
  6
CONTINUOUS
 62
     7
 10
170.4507256603
 20
123.7299571492
 30
0.0
 40
6.35
  1
A
 41
0.7
 11
170.4507256603
 21
130.0799571492
 31
0.0
 73
     3
  0
LINE
  5
B5
  8
0
  6
CONTINUOUS
 62
     7
 10
223.5046489936
 20
217.2639830508
 30
0.0
 11
223.5046489936
 21
221.2639830508
 31
0.0
  0
LINE
  5
B6
  8
0
  6
CONTINUOUS
 62
     7
 10
223.5046489936
 20
193.2639830508
 30
0.0
 11
223.5046489936
 21
205.2639830508
 31
0.0
  0
LINE
  5
B7
  8
0
  6
CONTINUOUS
 62
     7
 10
225.5046489936
 20
217.2639830508
 30
0.0
 11
225.5046489936
 21
229.2639830508
 31
0.0
  0
LINE
  5
B8
  8
0
  6
CONTINUOUS
 62
     7
 10
225.5046489936
 20
193.2639830508
 30
0.0
 11
225.5046489936
 21
205.2639830508
 31
0.0
  0
LINE
  5
B9
  8
0
  6
CONTINUOUS
 62
     7
 10
227.5046489936
 20
220.3039830508
 30
0.0
 11
227.5046489936
 21
229.2639830508
 31
0.0
  0
LINE
  5
BA
  8
0
  6
CONTINUOUS
 62
     7
 10
229.5046489936
 20
221.2639830508
 30
0.0
 11
229.5046489936
 21
222.2639830508
 31
0.0
  0
LINE
  5
BB
  8
0
  6
CONTINUOUS
 62
     7
 10
224.9806489936
 20
229.2639830508
 30
0.0
 11
229.5046489936
 21
229.2639830508
 31
0.0
  0
LINE
  5
BC
  8
0
  6
CONTINUOUS
 62
     7
 10
222.7546489936
 20
205.2639830508
 30
0.0
 11
226.4596489936
 21
205.2639830508
 31
0.0
  0
LINE
  5
BD
  8
0
  6
CONTINUOUS
 62
     7
 10
222.7546489936
 20
207.2639830508
 30
0.0
 11
226.4596489936
 21
207.2639830508
 31
0.0
  0
LINE
  5
BE
  8
0
  6
CONTINUOUS
 62
     7
 10
222.7546489936
 20
183.2639830508
 30
0.0
 11
226.4596489936
 21
183.2639830508
 31
0.0
  0
LINE
  5
BF
  8
0
  6
CONTINUOUS
 62
     7
 10
222.7546489936
 20
209.2639830508
 30
0.0
 11
226.4596489936
 21
209.2639830508
 31
0.0
  0
LINE
  5
C0
  8
0
  6
CONTINUOUS
 62
     7
 10
222.7546489936
 20
185.2639830508
 30
0.0
 11
226.4596489936
 21
185.2639830508
 31
0.0
  0
LINE
  5
C1
  8
0
  6
CONTINUOUS
 62
     7
 10
222.7546489936
 20
211.2639830508
 30
0.0
 11
226.4596489936
 21
211.2639830508
 31
0.0
  0
LINE
  5
C2
  8
0
  6
CONTINUOUS
 62
     7
 10
222.7546489936
 20
187.2639830508
 30
0.0
 11
226.4596489936
 21
187.2639830508
 31
0.0
  0
LINE
  5
C3
  8
0
  6
CONTINUOUS
 62
     7
 10
222.7546489936
 20
213.2639830508
 30
0.0
 11
226.4596489936
 21
213.2639830508
 31
0.0
  0
LINE
  5
C4
  8
0
  6
CONTINUOUS
 62
     7
 10
222.7546489936
 20
189.2639830508
 30
0.0
 11
226.4596489936
 21
189.2639830508
 31
0.0
  0
LINE
  5
C5
  8
0
  6
CONTINUOUS
 62
     7
 10
222.7546489936
 20
215.2639830508
 30
0.0
 11
226.4596489936
 21
215.2639830508
 31
0.0
  0
LINE
  5
C6
  8
0
  6
CONTINUOUS
 62
     7
 10
222.7546489936
 20
191.2639830508
 30
0.0
 11
226.4596489936
 21
191.2639830508
 31
0.0
  0
LINE
  5
C7
  8
0
  6
CONTINUOUS
 62
     7
 10
222.7546489936
 20
217.2639830508
 30
0.0
 11
226.4596489936
 21
217.2639830508
 31
0.0
  0
LINE
  5
C8
  8
0
  6
CONTINUOUS
 62
     7
 10
222.7546489936
 20
193.2639830508
 30
0.0
 11
226.4596489936
 21
193.2639830508
 31
0.0
  0
LINE
  5
C9
  8
0
  6
CONTINUOUS
 62
     7
 10
183.5046489936
 20
229.2639830508
 30
0.0
 11
183.5046489936
 21
231.2639830508
 31
0.0
  0
LINE
  5
CA
  8
0
  6
CONTINUOUS
 62
     7
 10
185.5046489936
 20
229.2639830508
 30
0.0
 11
185.5046489936
 21
230.7879830508
 31
0.0
  0
LINE
  5
CB
  8
0
  6
CONTINUOUS
 62
     7
 10
185.5046489936
 20
205.2639830508
 30
0.0
 11
185.5046489936
 21
217.2639830508
 31
0.0
  0
LINE
  5
CC
  8
0
  6
CONTINUOUS
 62
     7
 10
185.5046489936
 20
181.3089830508
 30
0.0
 11
185.5046489936
 21
193.2639830508
 31
0.0
  0
LINE
  5
CD
  8
0
  6
CONTINUOUS
 62
     7
 10
187.5046489936
 20
205.2639830508
 30
0.0
 11
187.5046489936
 21
217.2639830508
 31
0.0
  0
LINE
  5
CE
  8
0
  6
CONTINUOUS
 62
     7
 10
187.5046489936
 20
181.2639830508
 30
0.0
 11
187.5046489936
 21
193.2639830508
 31
0.0
  0
LINE
  5
CF
  8
0
  6
CONTINUOUS
 62
     7
 10
181.5046489936
 20
221.2639830508
 30
0.0
 11
181.5046489936
 21
222.2639830508
 31
0.0
  0
LINE
  5
D0
  8
0
  6
CONTINUOUS
 62
     7
 10
184.5496489936
 20
217.2639830508
 30
0.0
 11
188.2546489936
 21
217.2639830508
 31
0.0
  0
LINE
  5
D1
  8
0
  6
CONTINUOUS
 62
     7
 10
184.5496489936
 20
193.2639830508
 30
0.0
 11
188.2546489936
 21
193.2639830508
 31
0.0
  0
LINE
  5
D2
  8
0
  6
CONTINUOUS
 62
     7
 10
184.5446489936
 20
219.2639830508
 30
0.0
 11
188.2546489936
 21
219.2639830508
 31
0.0
  0
LINE
  5
D3
  8
0
  6
CONTINUOUS
 62
     7
 10
184.5496489936
 20
195.2639830508
 30
0.0
 11
188.2546489936
 21
195.2639830508
 31
0.0
  0
LINE
  5
D4
  8
0
  6
CONTINUOUS
 62
     7
 10
182.3375422124
 20
221.2639830508
 30
0.0
 11
186.0286489936
 21
221.2639830508
 31
0.0
  0
LINE
  5
D5
  8
0
  6
CONTINUOUS
 62
     7
 10
184.5496489936
 20
197.2639830508
 30
0.0
 11
188.2546489936
 21
197.2639830508
 31
0.0
  0
LINE
  5
D6
  8
0
  6
CONTINUOUS
 62
     7
 10
181.5046489936
 20
223.2639830508
 30
0.0
 11
186.0286489936
 21
223.2639830508
 31
0.0
  0
LINE
  5
D7
  8
0
  6
CONTINUOUS
 62
     7
 10
184.5496489936
 20
199.2639830508
 30
0.0
 11
188.2546489936
 21
199.2639830508
 31
0.0
  0
LINE
  5
D8
  8
0
  6
CONTINUOUS
 62
     7
 10
181.5046489936
 20
225.2639830508
 30
0.0
 11
186.0286489936
 21
225.2639830508
 31
0.0
  0
LINE
  5
D9
  8
0
  6
CONTINUOUS
 62
     7
 10
184.5496489936
 20
201.2639830508
 30
0.0
 11
188.2546489936
 21
201.2639830508
 31
0.0
  0
LINE
  5
DA
  8
0
  6
CONTINUOUS
 62
     7
 10
181.5046489936
 20
227.2639830508
 30
0.0
 11
186.0286489936
 21
227.2639830508
 31
0.0
  0
LINE
  5
DB
  8
0
  6
CONTINUOUS
 62
     7
 10
184.5496489936
 20
203.2639830508
 30
0.0
 11
188.2546489936
 21
203.2639830508
 31
0.0
  0
LINE
  5
DC
  8
0
  6
CONTINUOUS
 62
     7
 10
181.5046489936
 20
229.2639830508
 30
0.0
 11
186.0286489936
 21
229.2639830508
 31
0.0
  0
LINE
  5
DD
  8
0
  6
CONTINUOUS
 62
     7
 10
184.5496489936
 20
205.2639830508
 30
0.0
 11
188.2546489936
 21
205.2639830508
 31
0.0
  0
LINE
  5
DE
  8
0
  6
CONTINUOUS
 62
     7
 10
186.0046489936
 20
223.2146233535
 30
0.0
 11
187.9552892963
 21
221.2639830508
 31
0.0
  0
LINE
  5
DF
  8
0
  6
CONTINUOUS
 62
     7
 10
190.4454173568
 20
223.2639830508
 30
0.0
 11
191.0046489936
 21
222.7047514141
 31
0.0
  0
LINE
  5
E0
  8
0
  6
CONTINUOUS
 62
     7
 10
221.8763137806
 20
223.2639830508
 30
0.0
 11
223.8763137806
 21
221.2639830508
 31
0.0
  0
LINE
  5
E1
  8
0
  6
CONTINUOUS
 62
     7
 10
220.0046489936
 20
221.2639830508
 30
0.0
 11
220.0046489936
 21
223.2639830508
 31
0.0
  0
LINE
  5
E2
  8
0
  6
CONTINUOUS
 62
     7
 10
225.0046489936
 20
221.2639830508
 30
0.0
 11
225.0046489936
 21
223.2639830508
 31
0.0
  0
LINE
  5
E3
  8
0
  6
CONTINUOUS
 62
     7
 10
220.0046489936
 20
223.2639830508
 30
0.0
 11
225.0046489936
 21
223.2639830508
 31
0.0
  0
LINE
  5
E4
  8
0
  6
CONTINUOUS
 62
     7
 10
220.0046489936
 20
221.2639830508
 30
0.0
 11
225.0046489936
 21
221.2639830508
 31
0.0
  0
LINE
  5
E5
  8
0
  6
CONTINUOUS
 62
     7
 10
186.0046489936
 20
223.2639830508
 30
0.0
 11
186.0046489936
 21
221.2639830508
 31
0.0
  0
LINE
  5
E6
  8
0
  6
CONTINUOUS
 62
     7
 10
191.0046489936
 20
223.2639830508
 30
0.0
 11
191.0046489936
 21
221.2639830508
 31
0.0
  0
LINE
  5
E7
  8
0
  6
CONTINUOUS
 62
     7
 10
186.0046489936
 20
223.2639830508
 30
0.0
 11
191.0046489936
 21
223.2639830508
 31
0.0
  0
LINE
  5
E8
  8
0
  6
CONTINUOUS
 62
     7
 10
186.0046489936
 20
221.2639830508
 30
0.0
 11
191.0046489936
 21
221.2639830508
 31
0.0
  0
LINE
  5
E9
  8
0
  6
CONTINUOUS
 62
     7
 10
220.0046489936
 20
223.2639830508
 30
0.0
 11
191.0046489936
 21
223.2639830508
 31
0.0
  0
LINE
  5
EA
  8
0
  6
CONTINUOUS
 62
     7
 10
220.0046489936
 20
221.2639830508
 30
0.0
 11
191.0046489936
 21
221.2639830508
 31
0.0
  0
LINE
  5
EB
  8
0
  6
CONTINUOUS
 62
     7
 10
222.7546489936
 20
221.2639830508
 30
0.0
 11
222.7546489936
 21
181.2639830508
 31
0.0
  0
LINE
  5
EC
  8
0
  6
CONTINUOUS
 62
     7
 10
188.2546489936
 20
181.2639830508
 30
0.0
 11
222.7546489936
 21
181.2639830508
 31
0.0
  0
LINE
  5
ED
  8
0
  6
CONTINUOUS
 62
     7
 10
188.2546489936
 20
181.2639830508
 30
0.0
 11
188.2546489936
 21
221.2639830508
 31
0.0
  0
LINE
  5
EE
  8
0
  6
CONTINUOUS
 62
     7
 10
229.5046489936
 20
222.2639830508
 30
0.0
 11
230.0046489936
 21
222.2639830508
 31
0.0
  0
LINE
  5
EF
  8
0
  6
CONTINUOUS
 62
     7
 10
230.0046489936
 20
222.2639830508
 30
0.0
 11
230.0046489936
 21
221.2639830508
 31
0.0
  0
LINE
  5
F0
  8
0
  6
CONTINUOUS
 62
     7
 10
228.6717557748
 20
221.2639830508
 30
0.0
 11
230.0046489936
 21
221.2639830508
 31
0.0
  0
ARC
  5
F1
  8
0
  6
CONTINUOUS
 62
     7
 10
228.6717557748
 20
220.7639830508
 30
0.0
 40
0.5000000000000442
 50
90.0
 51
135.0
  0
LINE
  5
F2
  8
0
  6
CONTINUOUS
 62
     7
 10
228.3182023842
 20
221.1175364414
 30
0.0
 11
226.4596489936
 21
219.2589830508
 31
0.0
  0
LINE
  5
F3
  8
0
  6
CONTINUOUS
 62
     7
 10
226.4596489936
 20
219.2589830508
 30
0.0
 11
226.4596489936
 21
182.2639830508
 31
0.0
  0
LINE
  5
F4
  8
0
  6
CONTINUOUS
 62
     7
 10
226.4596489936
 20
182.2639830508
 30
0.0
 11
225.4596489936
 21
181.2639830508
 31
0.0
  0
LINE
  5
F5
  8
0
  6
CONTINUOUS
 62
     7
 10
224.9806489936
 20
230.2639830508
 30
0.0
 11
224.9806489936
 21
221.2639830508
 31
0.0
  0
LINE
  5
F6
  8
0
  6
CONTINUOUS
 62
     7
 10
225.9806489936
 20
231.2639830508
 30
0.0
 11
224.9806489936
 21
230.2639830508
 31
0.0
  0
LINE
  5
F7
  8
0
  6
CONTINUOUS
 62
     7
 10
225.9806489936
 20
231.2639830508
 30
0.0
 11
229.5046489936
 21
231.2639830508
 31
0.0
  0
LINE
  5
F8
  8
0
  6
CONTINUOUS
 62
     7
 10
229.5046489936
 20
231.2639830508
 30
0.0
 11
229.5046489936
 21
222.2639830508
 31
0.0
  0
LINE
  5
F9
  8
0
  6
CONTINUOUS
 62
     7
 10
222.7546489936
 20
181.2639830508
 30
0.0
 11
225.4596489936
 21
181.2639830508
 31
0.0
  0
LINE
  5
FA
  8
0
  6
CONTINUOUS
 62
     7
 10
222.7546489936
 20
221.2639830508
 30
0.0
 11
224.9806489936
 21
221.2639830508
 31
0.0
  0
LINE
  5
FB
  8
0
  6
CONTINUOUS
 62
     7
 10
184.5496489936
 20
182.2639830508
 30
0.0
 11
184.5496489936
 21
219.2589830508
 31
0.0
  0
LINE
  5
FC
  8
0
  6
CONTINUOUS
 62
     7
 10
184.5496489936
 20
219.2589830508
 30
0.0
 11
182.691095603
 21
221.1175364414
 31
0.0
  0
LINE
  5
FD
  8
0
  6
CONTINUOUS
 62
     7
 10
185.5496489936
 20
181.2639830508
 30
0.0
 11
184.5496489936
 21
182.2639830508
 31
0.0
  0
LINE
  5
FE
  8
0
  6
CONTINUOUS
 62
     7
 10
186.0286489936
 20
221.2639830508
 30
0.0
 11
186.0286489936
 21
230.2639830508
 31
0.0
  0
LINE
  5
FF
  8
0
  6
CONTINUOUS
 62
     7
 10
224.9806489936
 20
230.2639830508
 30
0.0
 11
186.0286489936
 21
230.2639830508
 31
0.0
  0
LINE
  5
100
  8
0
  6
CONTINUOUS
 62
     7
 10
181.5046489936
 20
222.2639830508
 30
0.0
 11
181.5046489936
 21
231.2639830508
 31
0.0
  0
LINE
  5
101
  8
0
  6
CONTINUOUS
 62
     7
 10
181.0046489936
 20
221.2639830508
 30
0.0
 11
181.0046489936
 21
222.2639830508
 31
0.0
  0
LINE
  5
102
  8
0
  6
CONTINUOUS
 62
     7
 10
186.0286489936
 20
230.2639830508
 30
0.0
 11
185.0286489936
 21
231.2639830508
 31
0.0
  0
LINE
  5
103
  8
0
  6
CONTINUOUS
 62
     7
 10
225.9806489936
 20
231.2639830508
 30
0.0
 11
185.0286489936
 21
231.2639830508
 31
0.0
  0
ARC
  5
104
  8
0
  6
CONTINUOUS
 62
     7
 10
182.3375422124
 20
220.7639830508
 30
0.0
 40
0.5000000000000241
 50
45.0
 51
90.0
  0
LINE
  5
105
  8
0
  6
CONTINUOUS
 62
     7
 10
181.0046489936
 20
222.2639830508
 30
0.0
 11
181.5046489936
 21
222.2639830508
 31
0.0
  0
LINE
  5
106
  8
0
  6
CONTINUOUS
 62
     7
 10
181.0046489936
 20
221.2639830508
 30
0.0
 11
182.3375422124
 21
221.2639830508
 31
0.0
  0
LINE
  5
107
  8
0
  6
CONTINUOUS
 62
     7
 10
181.5046489936
 20
231.2639830508
 30
0.0
 11
185.0286489936
 21
231.2639830508
 31
0.0
  0
LINE
  5
108
  8
0
  6
CONTINUOUS
 62
     7
 10
185.5496489936
 20
181.2639830508
 30
0.0
 11
188.2546489936
 21
181.2639830508
 31
0.0
  0
LINE
  5
109
  8
0
  6
CONTINUOUS
 62
     7
 10
186.0286489936
 20
221.2639830508
 30
0.0
 11
188.2546489936
 21
221.2639830508
 31
0.0
  0
LINE
  5
10A
  8
0
  6
CENTERX2
 62
     7
 10
205.5046489936
 20
181.2639830508
 30
0.0
 11
205.5046489936
 21
231.2639830508
 31
0.0
  0
DIMENSION
  5
10B
  8
BEMAßUNG
  2
_D
 10
175.1270741997
 20
181.2639830508
 30
0.0
 11
175.1270741997
 21
202.4188540775
 31
0.0
 70
   160
  1
<>
  3
SLDDIMSTYLE0
 13
191.0046489936
 23
221.2639830508
 33
0.0
 14
188.2546489936
 24
181.2639830508
 34
0.0
 50
90.0
  0
DIMENSION
  5
116
  8
BEMAßUNG
  2
_D_1
 10
161.0304128841
 20
181.2639830508
 30
0.0
 11
161.0304128841
 21
207.0550893546
 31
0.0
 70
   160
  1
<>
  3
SLDDIMSTYLE0
 13
182.5195995049
 23
231.2639830508
 33
0.0
 14
188.2546489936
 24
181.2639830508
 34
0.0
 50
90.0
  0
DIMENSION
  5
120
  8
BEMAßUNG
  2
_D_2
 10
222.7546489936
 20
167.7614475197
 30
0.0
 11
204.5622455659
 21
167.7614475197
 31
0.0
 70
   160
  1
%%c<>
  3
SLDDIMSTYLE1
 13
188.2546489936
 23
181.2639830508
 33
0.0
 14
222.7546489936
 24
181.2639830508
 34
0.0
  0
DIMENSION
  5
12E
  8
BEMAßUNG
  2
_D_3
 10
224.9806489936
 20
238.1266668016
 30
0.0
 11
204.5622455659
 21
238.1266668016
 31
0.0
 70
   160
  1
%%c<>
  3
SLDDIMSTYLE2
 13
186.0286489936
 23
230.2639830508
 33
0.0
 14
224.9806489936
 24
230.2639830508
 34
0.0
  0
ENDSEC
  0
EOF
