  0
SECTION
  2
HEADER
  9
$ACADVER
  1
AC1015
  9
$ACADMAINTVER
 70
     6
  9
$DWGCODEPAGE
  3
ANSI_1252
  9
$INSBASE
 10
0.0
 20
0.0
 30
0.0
  9
$EXTMIN
 10
0.0
 20
0.0
 30
0.0
  9
$EXTMAX
 10
840.0
 20
594.0
 30
0.0
  9
$LIMMIN
 10
0.0
 20
0.0
  9
$LIMMAX
 10
840.0
 20
594.0
  9
$ORTHOMODE
 70
     0
  9
$REGENMODE
 70
     1
  9
$FILLMODE
 70
     1
  9
$QTEXTMODE
 70
     0
  9
$MIRRTEXT
 70
     1
  9
$LTSCALE
 40
2.0
  9
$ATTMODE
 70
     1
  9
$TEXTSIZE
 40
2.5
  9
$TRACEWID
 40
1.0
  9
$TEXTSTYLE
  7
Standard
  9
$CLAYER
  8
0
  9
$CELTYPE
  6
ByLayer
  9
$CECOLOR
 62
     7
  9
$CELTSCALE
 40
1.0
  9
$DISPSILH
 70
     0
  9
$DIMSCALE
 40
2.0
  9
$DIMASZ
 40
3.5
  9
$DIMEXO
 40
0.625
  9
$DIMDLI
 40
3.75
  9
$DIMRND
 40
0.0
  9
$DIMDLE
 40
0.0
  9
$DIMEXE
 40
1.25
  9
$DIMTP
 40
0.0
  9
$DIMTM
 40
0.0
  9
$DIMTXT
 40
3.5
  9
$DIMCEN
 40
2.5
  9
$DIMTSZ
 40
0.0
  9
$DIMTOL
 70
     0
  9
$DIMLIM
 70
     0
  9
$DIMTIH
 70
     0
  9
$DIMTOH
 70
     0
  9
$DIMSE1
 70
     0
  9
$DIMSE2
 70
     0
  9
$DIMTAD
 70
     1
  9
$DIMZIN
 70
     8
  9
$DIMBLK
  1

  9
$DIMASO
 70
     1
  9
$DIMSHO
 70
     1
  9
$DIMPOST
  1

  9
$DIMAPOST
  1

  9
$DIMALT
 70
     0
  9
$DIMALTD
 70
     3
  9
$DIMALTF
 40
0.03937
  9
$DIMLFAC
 40
1.0
  9
$DIMTOFL
 70
     1
  9
$DIMTVP
 40
0.0
  9
$DIMTIX
 70
     0
  9
$DIMSOXD
 70
     0
  9
$DIMSAH
 70
     0
  9
$DIMBLK1
  1

  9
$DIMBLK2
  1

  9
$DIMSTYLE
  2
ISO-25
  9
$DIMCLRD
 70
     0
  9
$DIMCLRE
 70
     0
  9
$DIMCLRT
 70
     0
  9
$DIMTFAC
 40
1.0
  9
$DIMGAP
 40
0.625
  9
$DIMJUST
 70
     0
  9
$DIMSD1
 70
     0
  9
$DIMSD2
 70
     0
  9
$DIMTOLJ
 70
     0
  9
$DIMTZIN
 70
     8
  9
$DIMALTZ
 70
     0
  9
$DIMALTTZ
 70
     0
  9
$DIMUPT
 70
     0
  9
$DIMDEC
 70
     2
  9
$DIMTDEC
 70
     2
  9
$DIMALTU
 70
     2
  9
$DIMALTTD
 70
     3
  9
$DIMTXSTY
  7
Standard
  9
$DIMAUNIT
 70
     0
  9
$DIMADEC
 70
     0
  9
$DIMALTRND
 40
0.0
  9
$DIMAZIN
 70
     0
  9
$DIMDSEP
 70
    44
  9
$DIMATFIT
 70
     3
  9
$DIMFRAC
 70
     0
  9
$DIMLDRBLK
  1

  9
$DIMLUNIT
 70
     2
  9
$DIMLWD
 70
    -2
  9
$DIMLWE
 70
    -2
  9
$DIMTMOVE
 70
     0
  9
$LUNITS
 70
     2
  9
$LUPREC
 70
     4
  9
$SKETCHINC
 40
1.0
  9
$FILLETRAD
 40
10.0
  9
$AUNITS
 70
     0
  9
$AUPREC
 70
     0
  9
$MENU
  1
.
  9
$ELEVATION
 40
0.0
  9
$PELEVATION
 40
0.0
  9
$THICKNESS
 40
0.0
  9
$LIMCHECK
 70
     0
  9
$CHAMFERA
 40
10.0
  9
$CHAMFERB
 40
10.0
  9
$CHAMFERC
 40
20.0
  9
$CHAMFERD
 40
0.0
  9
$SKPOLY
 70
     0
  9
$TDCREATE
 40
2456906.277009294
  9
$TDUCREATE
 40
2456906.193675961
  9
$TDUPDATE
 40
2456906.277009306
  9
$TDUUPDATE
 40
2456906.193675972
  9
$TDINDWG
 40
0.0000000116
  9
$TDUSRTIMER
 40
0.0000000116
  9
$USRTIMER
 70
     1
  9
$ANGBASE
 50
0.0
  9
$ANGDIR
 70
     0
  9
$PDMODE
 70
     0
  9
$PDSIZE
 40
0.0
  9
$PLINEWID
 40
0.0
  9
$SPLFRAME
 70
     0
  9
$SPLINETYPE
 70
     6
  9
$SPLINESEGS
 70
     8
  9
$HANDSEED
  5
5DE
  9
$SURFTAB1
 70
     6
  9
$SURFTAB2
 70
     6
  9
$SURFTYPE
 70
     6
  9
$SURFU
 70
     6
  9
$SURFV
 70
     6
  9
$UCSBASE
  2

  9
$UCSNAME
  2

  9
$UCSORG
 10
0.0
 20
0.0
 30
0.0
  9
$UCSXDIR
 10
1.0
 20
0.0
 30
0.0
  9
$UCSYDIR
 10
0.0
 20
1.0
 30
0.0
  9
$UCSORTHOREF
  2

  9
$UCSORTHOVIEW
 70
     0
  9
$UCSORGTOP
 10
0.0
 20
0.0
 30
0.0
  9
$UCSORGBOTTOM
 10
0.0
 20
0.0
 30
0.0
  9
$UCSORGLEFT
 10
0.0
 20
0.0
 30
0.0
  9
$UCSORGRIGHT
 10
0.0
 20
0.0
 30
0.0
  9
$UCSORGFRONT
 10
0.0
 20
0.0
 30
0.0
  9
$UCSORGBACK
 10
0.0
 20
0.0
 30
0.0
  9
$PUCSBASE
  2

  9
$PUCSNAME
  2

  9
$PUCSORG
 10
0.0
 20
0.0
 30
0.0
  9
$PUCSXDIR
 10
1.0
 20
0.0
 30
0.0
  9
$PUCSYDIR
 10
0.0
 20
1.0
 30
0.0
  9
$PUCSORTHOREF
  2

  9
$PUCSORTHOVIEW
 70
     0
  9
$PUCSORGTOP
 10
0.0
 20
0.0
 30
0.0
  9
$PUCSORGBOTTOM
 10
0.0
 20
0.0
 30
0.0
  9
$PUCSORGLEFT
 10
0.0
 20
0.0
 30
0.0
  9
$PUCSORGRIGHT
 10
0.0
 20
0.0
 30
0.0
  9
$PUCSORGFRONT
 10
0.0
 20
0.0
 30
0.0
  9
$PUCSORGBACK
 10
0.0
 20
0.0
 30
0.0
  9
$USERI1
 70
     0
  9
$USERI2
 70
     0
  9
$USERI3
 70
     0
  9
$USERI4
 70
     0
  9
$USERI5
 70
     0
  9
$USERR1
 40
0.0
  9
$USERR2
 40
0.0
  9
$USERR3
 40
0.0
  9
$USERR4
 40
0.0
  9
$USERR5
 40
0.0
  9
$WORLDVIEW
 70
     1
  9
$SHADEDGE
 70
     3
  9
$SHADEDIF
 70
    70
  9
$TILEMODE
 70
     1
  9
$MAXACTVP
 70
    64
  9
$PINSBASE
 10
0.0
 20
0.0
 30
0.0
  9
$PLIMCHECK
 70
     0
  9
$PEXTMIN
 10
0.0
 20
0.0
 30
0.0
  9
$PEXTMAX
 10
840.0
 20
594.0
 30
0.0
  9
$PLIMMIN
 10
0.0
 20
0.0
  9
$PLIMMAX
 10
840.0
 20
594.0
  9
$UNITMODE
 70
     0
  9
$VISRETAIN
 70
     1
  9
$PLINEGEN
 70
     0
  9
$PSLTSCALE
 70
     1
  9
$TREEDEPTH
 70
  3020
  9
$CMLSTYLE
  2
Standard
  9
$CMLJUST
 70
     0
  9
$CMLSCALE
 40
20.0
  9
$PROXYGRAPHICS
 70
     1
  9
$MEASUREMENT
 70
     1
  9
$CELWEIGHT
370
    -1
  9
$ENDCAPS
280
     0
  9
$JOINSTYLE
280
     0
  9
$LWDISPLAY
290
     0
  9
$INSUNITS
 70
     4
  9
$HYPERLINKBASE
  1

  9
$STYLESHEET
  1

  9
$XEDIT
290
     1
  9
$CEPSNTYPE
380
     0
  9
$PSTYLEMODE
290
     1
  9
$FINGERPRINTGUID
  2
{FAEB1C30-E019-11D5-929B-00C0DF256EC4}
  9
$VERSIONGUID
  2
{FAEB1C32-E019-11D5-929B-00C0DF256EC4}
  9
$EXTNAMES
290
     1
  9
$PSVPSCALE
 40
0.0
  9
$OLESTARTUP
290
     0
  0
ENDSEC
  0
SECTION
  2
CLASSES
  0
CLASS
  1
ACDBDICTIONARYWDFLT
  2
AcDbDictionaryWithDefault
  3
ObjectDBX Classes
 90
        0
280
     0
281
     0
  0
CLASS
  1
ACDBPLACEHOLDER
  2
AcDbPlaceHolder
  3
ObjectDBX Classes
 90
        0
280
     0
281
     0
  0
CLASS
  1
LAYOUT
  2
AcDbLayout
  3
ObjectDBX Classes
 90
        0
280
     0
281
     0
  0
ENDSEC
  0
SECTION
  2
TABLES
  0
TABLE
  2
VPORT
  5
8
330
0
100
AcDbSymbolTable
 70
     2
  0
VPORT
  5
29
330
8
100
AcDbSymbolTableRecord
100
AcDbViewportTableRecord
  2
*ACTIVE
 70
     0
 10
0.0
 20
0.0
 11
1.0
 21
1.0
 12
420.0
 22
297.0
 13
0.0
 23
0.0
 14
1.0
 24
1.0
 15
0.0
 25
0.0
 16
0.0
 26
0.0
 36
1.0
 17
0.0
 27
0.0
 37
0.0
 40
594.0
 41
1.414141
 42
50.0
 43
0.0
 44
0.0
 50
0.0
 51
0.0
 71
    16
 72
   100
 73
     1
 74
     0
 75
     0
 76
     0
 77
     0
 78
     0
281
     0
 65
     0
110
0.0
120
0.0
130
0.0
111
1.0
121
0.0
131
0.0
112
0.0
122
1.0
132
0.0
 79
     0
146
0.0
  0
ENDTAB
  0
TABLE
  2
LTYPE
  5
5
330
0
100
AcDbSymbolTable
 70
     3
  0
LTYPE
  5
14
330
5
100
AcDbSymbolTableRecord
100
AcDbLinetypeTableRecord
  2
ByBlock
 70
     0
  3

 72
    65
 73
     0
 40
0.0
  0
LTYPE
  5
15
330
5
100
AcDbSymbolTableRecord
100
AcDbLinetypeTableRecord
  2
ByLayer
 70
     0
  3

 72
    65
 73
     0
 40
0.0
  0
LTYPE
  5
16
330
5
100
AcDbSymbolTableRecord
100
AcDbLinetypeTableRecord
  2
Continuous
 70
     0
  3
Solid line
 72
    65
 73
     0
 40
0.0
  0
LTYPE
  5
2A
330
5
100
AcDbSymbolTableRecord
100
AcDbLinetypeTableRecord
  2
DASHED
 70
     0
  3
__ __ __ __ __
 72
    65
 73
     2
 40
6.25
 49
5.0
 74
     4
 75
     0
340
0
 46
1.0
 50
0.0
 44
0.0
 45
0.0
 49
-1.25
 74
     4
 75
     0
340
0
 46
1.0
 50
0.0
 44
0.0
 45
0.0
  0
LTYPE
  5
32
330
5
100
AcDbSymbolTableRecord
100
AcDbLinetypeTableRecord
  2
DASHDOT
 70
     0
  3
__ . __ . __ . __ . __
 72
    65
 73
     4
 40
7.5
 49
5.0
 74
     4
 75
     0
340
0
 46
1.0
 50
0.0
 44
0.0
 45
0.0
 49
-1.25
 74
     4
 75
     0
340
0
 46
1.0
 50
0.0
 44
0.0
 45
0.0
 49
0.0
 74
     4
 75
     0
340
0
 46
1.0
 50
0.0
 44
0.0
 45
0.0
 49
-1.25
 74
     4
 75
     0
340
0
 46
1.0
 50
0.0
 44
0.0
 45
0.0
  0
ENDTAB
  0
TABLE
  2
LAYER
  5
2
330
0
100
AcDbSymbolTable
 70
    13
  0
LAYER
  5
10
330
2
100
AcDbSymbolTableRecord
100
AcDbLayerTableRecord
  2
0
 70
     0
 62
     7
  6
Continuous
370
    -3
390
F
  0
LAYER
  5
2B
330
2
100
AcDbSymbolTableRecord
100
AcDbLayerTableRecord
  2
LC-INFO-1-2-mm-A3-0
 70
     1
 62
     7
  6
ByBlock
370
    -3
390
F
  0
LAYER
  5
2C
330
2
100
AcDbSymbolTableRecord
100
AcDbLayerTableRecord
  2
LC-CUT-HIDDEN
 70
     0
 62
     7
  6
DASHED
370
    -3
390
F
  0
LAYER
  5
2D
330
2
100
AcDbSymbolTableRecord
100
AcDbLayerTableRecord
  2
LC-VIEWPORT
 70
     0
 62
     7
  6
ByBlock
370
    -3
390
F
  0
LAYER
  5
2E
330
2
100
AcDbSymbolTableRecord
100
AcDbLayerTableRecord
  2
LC-3D-HIDDEN
 70
     0
 62
     9
  6
DASHED
370
    -3
390
F
  0
LAYER
  5
33
330
2
100
AcDbSymbolTableRecord
100
AcDbLayerTableRecord
  2
LC-001-002-----0
 70
     0
 62
     2
  6
DASHDOT
370
    -3
390
F
  0
LAYER
  5
44
330
2
100
AcDbSymbolTableRecord
100
AcDbLayerTableRecord
  2
LC-002-005-----0
 70
     0
 62
     2
  6
ByBlock
370
    -3
390
F
  0
LAYER
  5
A9
330
2
100
AcDbSymbolTableRecord
100
AcDbLayerTableRecord
  2
LC-003-002-RND-0
 70
     0
 62
     1
  6
ByBlock
370
    -3
390
F
  0
LAYER
  5
11E
330
2
100
AcDbSymbolTableRecord
100
AcDbLayerTableRecord
  2
LC-004-001-----0
 70
     0
 62
     1
  6
ByBlock
370
    -3
390
F
  0
LAYER
  5
1E9
330
2
100
AcDbSymbolTableRecord
100
AcDbLayerTableRecord
  2
LC-005-003-----0
 70
     0
 62
     2
  6
ByBlock
370
    -3
390
F
  0
LAYER
  5
1EB
330
2
100
AcDbSymbolTableRecord
100
AcDbLayerTableRecord
  2
Defpoints
 70
     0
 62
     7
  6
Continuous
290
     0
370
    -3
390
F
  0
LAYER
  5
21F
330
2
100
AcDbSymbolTableRecord
100
AcDbLayerTableRecord
  2
LC-006-101-D00-0
 70
     0
 62
     2
  6
DASHDOT
370
    -3
390
F
  0
LAYER
  5
221
330
2
100
AcDbSymbolTableRecord
100
AcDbLayerTableRecord
  2
LC-007-100-D00-0
 70
     0
 62
     1
  6
ByBlock
370
    -3
390
F
  0
ENDTAB
  0
TABLE
  2
STYLE
  5
3
330
0
100
AcDbSymbolTable
 70
     5
  0
STYLE
  5
11
330
3
100
AcDbSymbolTableRecord
100
AcDbTextStyleTableRecord
  2
Standard
 70
     0
 40
0.0
 41
1.0
 50
0.0
 71
     0
 42
2.5
  3
txt
  4

  0
STYLE
  5
2F
330
3
100
AcDbSymbolTableRecord
100
AcDbTextStyleTableRecord
  2
LCTX15-400-0-0-Arial
 70
     0
 40
0.0
 41
0.9
 50
0.0
 71
     0
 42
3.5
  3

  4

1001
ACAD
1000
Arial
1071
 16777218
  0
STYLE
  5
30
330
3
100
AcDbSymbolTableRecord
100
AcDbTextStyleTableRecord
  2
LCTX0-400-0-0pDIN-Schrift
 70
     0
 40
0.0
 41
0.9
 50
0.0
 71
     0
 42
3.5
  3
TXT
  4

  0
STYLE
  5
31
330
3
100
AcDbSymbolTableRecord
100
AcDbTextStyleTableRecord
  2
LCTX0-1143-0-0pDIN-Schrift
 70
     0
 40
0.0
 41
0.9
 50
0.0
 71
     0
 42
3.5
  3
TXT
  4

  0
STYLE
  5
1E7
330
3
100
AcDbSymbolTableRecord
100
AcDbTextStyleTableRecord
  2
LCTX15-400-0-0pDIN-Schrift
 70
     0
 40
2.5
 41
0.8
 50
15.0
 71
     0
 42
3.5
  3
STANDARD
  4

  0
ENDTAB
  0
TABLE
  2
VIEW
  5
6
330
0
100
AcDbSymbolTable
 70
     0
  0
ENDTAB
  0
TABLE
  2
UCS
  5
7
330
0
100
AcDbSymbolTable
 70
     0
  0
ENDTAB
  0
TABLE
  2
APPID
  5
9
330
0
100
AcDbSymbolTable
 70
     1
  0
APPID
  5
12
330
9
100
AcDbSymbolTableRecord
100
AcDbRegAppTableRecord
  2
ACAD
 70
     0
  0
ENDTAB
  0
TABLE
  2
DIMSTYLE
  5
A
330
0
100
AcDbSymbolTable
 70
     2
100
AcDbDimStyleTable
  0
DIMSTYLE
105
27
330
A
100
AcDbSymbolTableRecord
100
AcDbDimStyleTableRecord
  2
ISO-25
 70
     0
 41
2.5
 42
0.625
 43
3.75
 44
1.25
 73
     0
 74
     0
 77
     1
 78
     8
140
2.5
141
2.5
143
0.03937
147
0.625
171
     3
172
     1
271
     2
272
     2
274
     3
278
    44
283
     0
284
     8
340
11
  0
DIMSTYLE
105
1E8
102
{ACAD_REACTORS
330
1EA
330
1F8
330
205
330
212
330
5C8
102
}
330
A
100
AcDbSymbolTableRecord
100
AcDbDimStyleTableRecord
  2
LC-DIM-L-0140-02-02
 70
     0
 40
2.0
 41
14.0
 42
0.0
 43
7.5
 44
1.8
 73
     0
 74
     0
 77
     1
 78
     8
 79
     2
140
14.0
141
0.0
146
0.71
147
1.5
176
     2
177
     2
178
     2
179
     2
271
     2
278
    44
289
     1
340
1E7
  0
ENDTAB
  0
TABLE
  2
BLOCK_RECORD
  5
1
330
0
100
AcDbSymbolTable
 70
    62
  0
BLOCK_RECORD
  5
1F
330
1
100
AcDbSymbolTableRecord
100
AcDbBlockTableRecord
  2
*Model_Space
340
22
  0
BLOCK_RECORD
  5
1B
330
1
100
AcDbSymbolTableRecord
100
AcDbBlockTableRecord
  2
*Paper_Space
340
1E
  0
BLOCK_RECORD
  5
23
330
1
100
AcDbSymbolTableRecord
100
AcDbBlockTableRecord
  2
*Paper_Space0
340
26
  0
BLOCK_RECORD
  5
41
330
1
100
AcDbSymbolTableRecord
100
AcDbBlockTableRecord
  2
*X11
340
0
102
{BLKREFS
331
A1
102
}
  0
BLOCK_RECORD
  5
BE
330
1
100
AcDbSymbolTableRecord
100
AcDbBlockTableRecord
  2
*X22
340
0
102
{BLKREFS
331
11B
102
}
  0
BLOCK_RECORD
  5
14A
330
1
100
AcDbSymbolTableRecord
100
AcDbBlockTableRecord
  2
*X33
340
0
102
{BLKREFS
331
156
102
}
  0
BLOCK_RECORD
  5
179
330
1
100
AcDbSymbolTableRecord
100
AcDbBlockTableRecord
  2
*X44
340
0
102
{BLKREFS
331
187
102
}
  0
BLOCK_RECORD
  5
188
330
1
100
AcDbSymbolTableRecord
100
AcDbBlockTableRecord
  2
*X55
340
0
102
{BLKREFS
331
19B
102
}
  0
BLOCK_RECORD
  5
19C
330
1
100
AcDbSymbolTableRecord
100
AcDbBlockTableRecord
  2
*X66
340
0
102
{BLKREFS
331
1A7
102
}
  0
BLOCK_RECORD
  5
1A8
330
1
100
AcDbSymbolTableRecord
100
AcDbBlockTableRecord
  2
*X77
340
0
102
{BLKREFS
331
1B2
102
}
  0
BLOCK_RECORD
  5
1B9
330
1
100
AcDbSymbolTableRecord
100
AcDbBlockTableRecord
  2
*X88
340
0
102
{BLKREFS
331
1C4
102
}
  0
BLOCK_RECORD
  5
1EC
330
1
100
AcDbSymbolTableRecord
100
AcDbBlockTableRecord
  2
*D9
340
0
  0
BLOCK_RECORD
  5
1F9
330
1
100
AcDbSymbolTableRecord
100
AcDbBlockTableRecord
  2
*D10
340
0
  0
BLOCK_RECORD
  5
206
330
1
100
AcDbSymbolTableRecord
100
AcDbBlockTableRecord
  2
*D11
340
0
  0
BLOCK_RECORD
  5
213
330
1
100
AcDbSymbolTableRecord
100
AcDbBlockTableRecord
  2
*D12
340
0
  0
BLOCK_RECORD
  5
266
330
1
100
AcDbSymbolTableRecord
100
AcDbBlockTableRecord
  2
POLY1
340
0
102
{BLKREFS
331
28D
102
}
  0
BLOCK_RECORD
  5
28E
330
1
100
AcDbSymbolTableRecord
100
AcDbBlockTableRecord
  2
POLY2
340
0
102
{BLKREFS
331
2A5
102
}
  0
BLOCK_RECORD
  5
2A6
330
1
100
AcDbSymbolTableRecord
100
AcDbBlockTableRecord
  2
POLY3
340
0
102
{BLKREFS
331
2AD
102
}
  0
BLOCK_RECORD
  5
2AE
330
1
100
AcDbSymbolTableRecord
100
AcDbBlockTableRecord
  2
POLY4
340
0
102
{BLKREFS
331
2B5
102
}
  0
BLOCK_RECORD
  5
2B6
330
1
100
AcDbSymbolTableRecord
100
AcDbBlockTableRecord
  2
POLY5
340
0
102
{BLKREFS
331
2BD
102
}
  0
BLOCK_RECORD
  5
2BE
330
1
100
AcDbSymbolTableRecord
100
AcDbBlockTableRecord
  2
POLY6
340
0
102
{BLKREFS
331
2C5
102
}
  0
BLOCK_RECORD
  5
2C6
330
1
100
AcDbSymbolTableRecord
100
AcDbBlockTableRecord
  2
POLY7
340
0
102
{BLKREFS
331
2CD
102
}
  0
BLOCK_RECORD
  5
2CE
330
1
100
AcDbSymbolTableRecord
100
AcDbBlockTableRecord
  2
POLY8
340
0
102
{BLKREFS
331
2E1
102
}
  0
BLOCK_RECORD
  5
2E2
330
1
100
AcDbSymbolTableRecord
100
AcDbBlockTableRecord
  2
POLY9
340
0
102
{BLKREFS
331
2E9
102
}
  0
BLOCK_RECORD
  5
2EA
330
1
100
AcDbSymbolTableRecord
100
AcDbBlockTableRecord
  2
POLY10
340
0
102
{BLKREFS
331
2FD
102
}
  0
BLOCK_RECORD
  5
2FE
330
1
100
AcDbSymbolTableRecord
100
AcDbBlockTableRecord
  2
POLY11
340
0
102
{BLKREFS
331
329
102
}
  0
BLOCK_RECORD
  5
32A
330
1
100
AcDbSymbolTableRecord
100
AcDbBlockTableRecord
  2
POLY12
340
0
102
{BLKREFS
331
341
102
}
  0
BLOCK_RECORD
  5
342
330
1
100
AcDbSymbolTableRecord
100
AcDbBlockTableRecord
  2
POLY13
340
0
102
{BLKREFS
331
34D
102
}
  0
BLOCK_RECORD
  5
34E
330
1
100
AcDbSymbolTableRecord
100
AcDbBlockTableRecord
  2
POLY14
340
0
102
{BLKREFS
331
365
102
}
  0
BLOCK_RECORD
  5
366
330
1
100
AcDbSymbolTableRecord
100
AcDbBlockTableRecord
  2
POLY15
340
0
102
{BLKREFS
331
36D
102
}
  0
BLOCK_RECORD
  5
36E
330
1
100
AcDbSymbolTableRecord
100
AcDbBlockTableRecord
  2
POLY16
340
0
102
{BLKREFS
331
375
102
}
  0
BLOCK_RECORD
  5
376
330
1
100
AcDbSymbolTableRecord
100
AcDbBlockTableRecord
  2
POLY17
340
0
102
{BLKREFS
331
37D
102
}
  0
BLOCK_RECORD
  5
37E
330
1
100
AcDbSymbolTableRecord
100
AcDbBlockTableRecord
  2
POLY18
340
0
102
{BLKREFS
331
385
102
}
  0
BLOCK_RECORD
  5
386
330
1
100
AcDbSymbolTableRecord
100
AcDbBlockTableRecord
  2
POLY19
340
0
102
{BLKREFS
331
3A1
102
}
  0
BLOCK_RECORD
  5
3A2
330
1
100
AcDbSymbolTableRecord
100
AcDbBlockTableRecord
  2
POLY20
340
0
102
{BLKREFS
331
3A9
102
}
  0
BLOCK_RECORD
  5
3AA
330
1
100
AcDbSymbolTableRecord
100
AcDbBlockTableRecord
  2
POLY21
340
0
102
{BLKREFS
331
3B1
102
}
  0
BLOCK_RECORD
  5
3B2
330
1
100
AcDbSymbolTableRecord
100
AcDbBlockTableRecord
  2
POLY22
340
0
102
{BLKREFS
331
3B9
102
}
  0
BLOCK_RECORD
  5
3BA
330
1
100
AcDbSymbolTableRecord
100
AcDbBlockTableRecord
  2
POLY23
340
0
102
{BLKREFS
331
3C1
102
}
  0
BLOCK_RECORD
  5
3C2
330
1
100
AcDbSymbolTableRecord
100
AcDbBlockTableRecord
  2
POLY24
340
0
102
{BLKREFS
331
3CD
102
}
  0
BLOCK_RECORD
  5
3CE
330
1
100
AcDbSymbolTableRecord
100
AcDbBlockTableRecord
  2
POLY25
340
0
102
{BLKREFS
331
3D9
102
}
  0
BLOCK_RECORD
  5
3DA
330
1
100
AcDbSymbolTableRecord
100
AcDbBlockTableRecord
  2
POLY26
340
0
102
{BLKREFS
331
3FF
102
}
  0
BLOCK_RECORD
  5
400
330
1
100
AcDbSymbolTableRecord
100
AcDbBlockTableRecord
  2
POLY27
340
0
102
{BLKREFS
331
40B
102
}
  0
BLOCK_RECORD
  5
40C
330
1
100
AcDbSymbolTableRecord
100
AcDbBlockTableRecord
  2
POLY28
340
0
102
{BLKREFS
331
413
102
}
  0
BLOCK_RECORD
  5
414
330
1
100
AcDbSymbolTableRecord
100
AcDbBlockTableRecord
  2
POLY29
340
0
102
{BLKREFS
331
427
102
}
  0
BLOCK_RECORD
  5
428
330
1
100
AcDbSymbolTableRecord
100
AcDbBlockTableRecord
  2
POLY30
340
0
102
{BLKREFS
331
433
102
}
  0
BLOCK_RECORD
  5
434
330
1
100
AcDbSymbolTableRecord
100
AcDbBlockTableRecord
  2
POLY31
340
0
102
{BLKREFS
331
457
102
}
  0
BLOCK_RECORD
  5
458
330
1
100
AcDbSymbolTableRecord
100
AcDbBlockTableRecord
  2
POLY32
340
0
102
{BLKREFS
331
46B
102
}
  0
BLOCK_RECORD
  5
46C
330
1
100
AcDbSymbolTableRecord
100
AcDbBlockTableRecord
  2
POLY33
340
0
102
{BLKREFS
331
483
102
}
  0
BLOCK_RECORD
  5
484
330
1
100
AcDbSymbolTableRecord
100
AcDbBlockTableRecord
  2
POLY34
340
0
102
{BLKREFS
331
48F
102
}
  0
BLOCK_RECORD
  5
490
330
1
100
AcDbSymbolTableRecord
100
AcDbBlockTableRecord
  2
POLY35
340
0
102
{BLKREFS
331
4A3
102
}
  0
BLOCK_RECORD
  5
4A4
330
1
100
AcDbSymbolTableRecord
100
AcDbBlockTableRecord
  2
POLY36
340
0
102
{BLKREFS
331
4B3
102
}
  0
BLOCK_RECORD
  5
4B4
330
1
100
AcDbSymbolTableRecord
100
AcDbBlockTableRecord
  2
POLY37
340
0
102
{BLKREFS
331
4BF
102
}
  0
BLOCK_RECORD
  5
4C0
330
1
100
AcDbSymbolTableRecord
100
AcDbBlockTableRecord
  2
POLY38
340
0
102
{BLKREFS
331
4E1
102
}
  0
BLOCK_RECORD
  5
4E2
330
1
100
AcDbSymbolTableRecord
100
AcDbBlockTableRecord
  2
POLY39
340
0
102
{BLKREFS
331
4ED
102
}
  0
BLOCK_RECORD
  5
4EE
330
1
100
AcDbSymbolTableRecord
100
AcDbBlockTableRecord
  2
POLY40
340
0
102
{BLKREFS
331
50D
102
}
  0
BLOCK_RECORD
  5
50E
330
1
100
AcDbSymbolTableRecord
100
AcDbBlockTableRecord
  2
POLY41
340
0
102
{BLKREFS
331
519
102
}
  0
BLOCK_RECORD
  5
51A
330
1
100
AcDbSymbolTableRecord
100
AcDbBlockTableRecord
  2
POLY42
340
0
102
{BLKREFS
331
521
102
}
  0
BLOCK_RECORD
  5
522
330
1
100
AcDbSymbolTableRecord
100
AcDbBlockTableRecord
  2
POLY43
340
0
102
{BLKREFS
331
529
102
}
  0
BLOCK_RECORD
  5
52A
330
1
100
AcDbSymbolTableRecord
100
AcDbBlockTableRecord
  2
POLY44
340
0
102
{BLKREFS
331
535
102
}
  0
BLOCK_RECORD
  5
536
330
1
100
AcDbSymbolTableRecord
100
AcDbBlockTableRecord
  2
POLY45
340
0
102
{BLKREFS
331
541
102
}
  0
BLOCK_RECORD
  5
550
330
1
100
AcDbSymbolTableRecord
100
AcDbBlockTableRecord
  2
POLY46
340
0
102
{BLKREFS
331
563
102
}
  0
BLOCK_RECORD
  5
564
330
1
100
AcDbSymbolTableRecord
100
AcDbBlockTableRecord
  2
POLY47
340
0
102
{BLKREFS
331
573
102
}
  0
BLOCK_RECORD
  5
574
330
1
100
AcDbSymbolTableRecord
100
AcDbBlockTableRecord
  2
POLY48
340
0
102
{BLKREFS
331
583
102
}
  0
BLOCK_RECORD
  5
5C9
330
1
100
AcDbSymbolTableRecord
100
AcDbBlockTableRecord
  2
*D61
340
0
  0
ENDTAB
  0
ENDSEC
  0
SECTION
  2
BLOCKS
  0
BLOCK
  5
20
330
1F
100
AcDbEntity
  8
0
100
AcDbBlockBegin
  2
*Model_Space
 70
     0
 71
     0
 10
0.0
 20
0.0
 30
0.0
  3
*Model_Space
  1

  0
ENDBLK
  5
21
330
1F
100
AcDbEntity
  8
0
100
AcDbBlockEnd
  0
BLOCK
  5
1C
330
1B
100
AcDbEntity
 67
     1
  8
0
100
AcDbBlockBegin
  2
*Paper_Space
 70
     0
 71
     0
 10
0.0
 20
0.0
 30
0.0
  3
*Paper_Space
  1

  0
ENDBLK
  5
1D
330
1B
100
AcDbEntity
 67
     1
  8
0
100
AcDbBlockEnd
  0
BLOCK
  5
24
330
23
100
AcDbEntity
  8
0
100
AcDbBlockBegin
  2
*Paper_Space0
 70
     0
 71
     0
 10
0.0
 20
0.0
 30
0.0
  3
*Paper_Space0
  1

  0
ENDBLK
  5
25
330
23
100
AcDbEntity
  8
0
100
AcDbBlockEnd
  0
BLOCK
  5
42
330
41
100
AcDbEntity
  8
0
100
AcDbBlockBegin
  2
*X11
 70
     1
 71
     0
 10
0.0
 20
0.0
 30
0.0
  3
*X11
  1

  4
*X1
  0
LINE
  5
45
330
41
100
AcDbEntity
  8
LC-002-005-----0
 62
     7
370
    25
100
AcDbLine
 10
483.781369
 20
418.727545
 30
0.0
 11
485.085362
 21
420.031538
 31
0.0
  0
LINE
  5
46
330
41
100
AcDbEntity
  8
LC-002-005-----0
 62
     7
370
    25
100
AcDbLine
 10
480.952942
 20
418.727545
 30
0.0
 11
482.854652
 21
420.629255
 31
0.0
  0
LINE
  5
47
330
41
100
AcDbEntity
  8
LC-002-005-----0
 62
     7
370
    25
100
AcDbLine
 10
478.124515
 20
418.727545
 30
0.0
 11
480.623942
 21
421.226972
 31
0.0
  0
LINE
  5
48
330
41
100
AcDbEntity
  8
LC-002-005-----0
 62
     7
370
    25
100
AcDbLine
 10
475.296088
 20
418.727545
 30
0.0
 11
477.796088
 21
421.227545
 31
0.0
  0
LINE
  5
49
330
41
100
AcDbEntity
  8
LC-002-005-----0
 62
     7
370
    25
100
AcDbLine
 10
472.467661
 20
418.727545
 30
0.0
 11
474.967661
 21
421.227545
 31
0.0
  0
LINE
  5
4A
330
41
100
AcDbEntity
  8
LC-002-005-----0
 62
     7
370
    25
100
AcDbLine
 10
469.639233
 20
418.727545
 30
0.0
 11
472.139233
 21
421.227545
 31
0.0
  0
LINE
  5
4B
330
41
100
AcDbEntity
  8
LC-002-005-----0
 62
     7
370
    25
100
AcDbLine
 10
466.810806
 20
418.727545
 30
0.0
 11
469.310806
 21
421.227545
 31
0.0
  0
LINE
  5
4C
330
41
100
AcDbEntity
  8
LC-002-005-----0
 62
     7
370
    25
100
AcDbLine
 10
463.982379
 20
418.727545
 30
0.0
 11
466.482379
 21
421.227545
 31
0.0
  0
LINE
  5
4D
330
41
100
AcDbEntity
  8
LC-002-005-----0
 62
     7
370
    25
100
AcDbLine
 10
461.153952
 20
418.727545
 30
0.0
 11
463.653952
 21
421.227545
 31
0.0
  0
LINE
  5
4E
330
41
100
AcDbEntity
  8
LC-002-005-----0
 62
     7
370
    25
100
AcDbLine
 10
458.325525
 20
418.727545
 30
0.0
 11
460.825525
 21
421.227545
 31
0.0
  0
LINE
  5
4F
330
41
100
AcDbEntity
  8
LC-002-005-----0
 62
     7
370
    25
100
AcDbLine
 10
455.497098
 20
418.727545
 30
0.0
 11
457.997098
 21
421.227545
 31
0.0
  0
LINE
  5
50
330
41
100
AcDbEntity
  8
LC-002-005-----0
 62
     7
370
    25
100
AcDbLine
 10
452.668671
 20
418.727545
 30
0.0
 11
455.168671
 21
421.227545
 31
0.0
  0
LINE
  5
51
330
41
100
AcDbEntity
  8
LC-002-005-----0
 62
     7
370
    25
100
AcDbLine
 10
449.840244
 20
418.727545
 30
0.0
 11
452.340244
 21
421.227545
 31
0.0
  0
LINE
  5
52
330
41
100
AcDbEntity
  8
LC-002-005-----0
 62
     7
370
    25
100
AcDbLine
 10
447.011816
 20
418.727545
 30
0.0
 11
449.511816
 21
421.227545
 31
0.0
  0
LINE
  5
53
330
41
100
AcDbEntity
  8
LC-002-005-----0
 62
     7
370
    25
100
AcDbLine
 10
444.183389
 20
418.727545
 30
0.0
 11
446.683389
 21
421.227545
 31
0.0
  0
LINE
  5
54
330
41
100
AcDbEntity
  8
LC-002-005-----0
 62
     7
370
    25
100
AcDbLine
 10
441.354962
 20
418.727545
 30
0.0
 11
443.854962
 21
421.227545
 31
0.0
  0
LINE
  5
55
330
41
100
AcDbEntity
  8
LC-002-005-----0
 62
     7
370
    25
100
AcDbLine
 10
438.526535
 20
418.727545
 30
0.0
 11
441.026535
 21
421.227545
 31
0.0
  0
LINE
  5
56
330
41
100
AcDbEntity
  8
LC-002-005-----0
 62
     7
370
    25
100
AcDbLine
 10
435.698108
 20
418.727545
 30
0.0
 11
438.198108
 21
421.227545
 31
0.0
  0
LINE
  5
57
330
41
100
AcDbEntity
  8
LC-002-005-----0
 62
     7
370
    25
100
AcDbLine
 10
432.869681
 20
418.727545
 30
0.0
 11
435.369681
 21
421.227545
 31
0.0
  0
LINE
  5
58
330
41
100
AcDbEntity
  8
LC-002-005-----0
 62
     7
370
    25
100
AcDbLine
 10
430.041254
 20
418.727545
 30
0.0
 11
432.541254
 21
421.227545
 31
0.0
  0
LINE
  5
59
330
41
100
AcDbEntity
  8
LC-002-005-----0
 62
     7
370
    25
100
AcDbLine
 10
427.212827
 20
418.727545
 30
0.0
 11
429.712827
 21
421.227545
 31
0.0
  0
LINE
  5
5A
330
41
100
AcDbEntity
  8
LC-002-005-----0
 62
     7
370
    25
100
AcDbLine
 10
424.384399
 20
418.727545
 30
0.0
 11
426.884399
 21
421.227545
 31
0.0
  0
LINE
  5
5B
330
41
100
AcDbEntity
  8
LC-002-005-----0
 62
     7
370
    25
100
AcDbLine
 10
421.555972
 20
418.727545
 30
0.0
 11
424.055972
 21
421.227545
 31
0.0
  0
LINE
  5
5C
330
41
100
AcDbEntity
  8
LC-002-005-----0
 62
     7
370
    25
100
AcDbLine
 10
419.417257
 20
419.417257
 30
0.0
 11
421.247384
 21
421.247384
 31
0.0
  0
LINE
  5
5D
330
41
100
AcDbEntity
  8
LC-002-005-----0
 62
     7
370
    25
100
AcDbLine
 10
418.381981
 20
421.210408
 30
0.0
 11
420.212108
 21
423.040535
 31
0.0
  0
LINE
  5
5E
330
41
100
AcDbEntity
  8
LC-002-005-----0
 62
     7
370
    25
100
AcDbLine
 10
417.346705
 20
423.003559
 30
0.0
 11
419.176832
 21
424.833686
 31
0.0
  0
LINE
  5
5F
330
41
100
AcDbEntity
  8
LC-002-005-----0
 62
     7
370
    25
100
AcDbLine
 10
416.311429
 20
424.79671
 30
0.0
 11
418.141556
 21
426.626837
 31
0.0
  0
LINE
  5
60
330
41
100
AcDbEntity
  8
LC-002-005-----0
 62
     7
370
    25
100
AcDbLine
 10
415.276153
 20
426.589861
 30
0.0
 11
417.10628
 21
428.419988
 31
0.0
  0
LINE
  5
61
330
41
100
AcDbEntity
  8
LC-002-005-----0
 62
     7
370
    25
100
AcDbLine
 10
414.240876
 20
428.383012
 30
0.0
 11
416.071003
 21
430.213139
 31
0.0
  0
LINE
  5
62
330
41
100
AcDbEntity
  8
LC-002-005-----0
 62
     7
370
    25
100
AcDbLine
 10
413.2056
 20
430.176163
 30
0.0
 11
415.035727
 21
432.00629
 31
0.0
  0
LINE
  5
63
330
41
100
AcDbEntity
  8
LC-002-005-----0
 62
     7
370
    25
100
AcDbLine
 10
412.170324
 20
431.969314
 30
0.0
 11
414.000451
 21
433.799441
 31
0.0
  0
LINE
  5
64
330
41
100
AcDbEntity
  8
LC-002-005-----0
 62
     7
370
    25
100
AcDbLine
 10
411.135048
 20
433.762465
 30
0.0
 11
412.965175
 21
435.592592
 31
0.0
  0
LINE
  5
65
330
41
100
AcDbEntity
  8
LC-002-005-----0
 62
     7
370
    25
100
AcDbLine
 10
410.099772
 20
435.555616
 30
0.0
 11
411.929899
 21
437.385743
 31
0.0
  0
LINE
  5
66
330
41
100
AcDbEntity
  8
LC-002-005-----0
 62
     7
370
    25
100
AcDbLine
 10
409.064495
 20
437.348767
 30
0.0
 11
410.894622
 21
439.178894
 31
0.0
  0
LINE
  5
67
330
41
100
AcDbEntity
  8
LC-002-005-----0
 62
     7
370
    25
100
AcDbLine
 10
408.029219
 20
439.141918
 30
0.0
 11
409.859346
 21
440.972045
 31
0.0
  0
LINE
  5
68
330
41
100
AcDbEntity
  8
LC-002-005-----0
 62
     7
370
    25
100
AcDbLine
 10
406.81042
 20
440.751545
 30
0.0
 11
408.82407
 21
442.765196
 31
0.0
  0
LINE
  5
69
330
41
100
AcDbEntity
  8
LC-002-005-----0
 62
     7
370
    25
100
AcDbLine
 10
403.981993
 20
440.751545
 30
0.0
 11
406.481993
 21
443.251545
 31
0.0
  0
LINE
  5
6A
330
41
100
AcDbEntity
  8
LC-002-005-----0
 62
     7
370
    25
100
AcDbLine
 10
401.153565
 20
440.751545
 30
0.0
 11
403.653565
 21
443.251545
 31
0.0
  0
LINE
  5
6B
330
41
100
AcDbEntity
  8
LC-002-005-----0
 62
     7
370
    25
100
AcDbLine
 10
398.325138
 20
440.751545
 30
0.0
 11
400.825138
 21
443.251545
 31
0.0
  0
LINE
  5
6C
330
41
100
AcDbEntity
  8
LC-002-005-----0
 62
     7
370
    25
100
AcDbLine
 10
395.496711
 20
440.751545
 30
0.0
 11
397.996711
 21
443.251545
 31
0.0
  0
LINE
  5
6D
330
41
100
AcDbEntity
  8
LC-002-005-----0
 62
     7
370
    25
100
AcDbLine
 10
392.668284
 20
440.751545
 30
0.0
 11
395.168284
 21
443.251545
 31
0.0
  0
LINE
  5
6E
330
41
100
AcDbEntity
  8
LC-002-005-----0
 62
     7
370
    25
100
AcDbLine
 10
389.839857
 20
440.751545
 30
0.0
 11
392.339857
 21
443.251545
 31
0.0
  0
LINE
  5
6F
330
41
100
AcDbEntity
  8
LC-002-005-----0
 62
     7
370
    25
100
AcDbLine
 10
387.01143
 20
440.751545
 30
0.0
 11
389.51143
 21
443.251545
 31
0.0
  0
LINE
  5
70
330
41
100
AcDbEntity
  8
LC-002-005-----0
 62
     7
370
    25
100
AcDbLine
 10
384.183003
 20
440.751545
 30
0.0
 11
386.683003
 21
443.251545
 31
0.0
  0
LINE
  5
71
330
41
100
AcDbEntity
  8
LC-002-005-----0
 62
     7
370
    25
100
AcDbLine
 10
381.354576
 20
440.751545
 30
0.0
 11
383.854576
 21
443.251545
 31
0.0
  0
LINE
  5
72
330
41
100
AcDbEntity
  8
LC-002-005-----0
 62
     7
370
    25
100
AcDbLine
 10
378.526148
 20
440.751545
 30
0.0
 11
381.026148
 21
443.251545
 31
0.0
  0
LINE
  5
73
330
41
100
AcDbEntity
  8
LC-002-005-----0
 62
     7
370
    25
100
AcDbLine
 10
375.697721
 20
440.751545
 30
0.0
 11
378.197721
 21
443.251545
 31
0.0
  0
LINE
  5
74
330
41
100
AcDbEntity
  8
LC-002-005-----0
 62
     7
370
    25
100
AcDbLine
 10
372.869294
 20
440.751545
 30
0.0
 11
375.369294
 21
443.251545
 31
0.0
  0
LINE
  5
75
330
41
100
AcDbEntity
  8
LC-002-005-----0
 62
     7
370
    25
100
AcDbLine
 10
370.040867
 20
440.751545
 30
0.0
 11
372.540867
 21
443.251545
 31
0.0
  0
LINE
  5
76
330
41
100
AcDbEntity
  8
LC-002-005-----0
 62
     7
370
    25
100
AcDbLine
 10
367.21244
 20
440.751545
 30
0.0
 11
369.71244
 21
443.251545
 31
0.0
  0
LINE
  5
77
330
41
100
AcDbEntity
  8
LC-002-005-----0
 62
     7
370
    25
100
AcDbLine
 10
364.384013
 20
440.751545
 30
0.0
 11
366.884013
 21
443.251545
 31
0.0
  0
LINE
  5
78
330
41
100
AcDbEntity
  8
LC-002-005-----0
 62
     7
370
    25
100
AcDbLine
 10
361.555586
 20
440.751545
 30
0.0
 11
364.055586
 21
443.251545
 31
0.0
  0
LINE
  5
79
330
41
100
AcDbEntity
  8
LC-002-005-----0
 62
     7
370
    25
100
AcDbLine
 10
358.727159
 20
440.751545
 30
0.0
 11
361.227159
 21
443.251545
 31
0.0
  0
LINE
  5
7A
330
41
100
AcDbEntity
  8
LC-002-005-----0
 62
     7
370
    25
100
AcDbLine
 10
355.898731
 20
440.751545
 30
0.0
 11
358.398731
 21
443.251545
 31
0.0
  0
LINE
  5
7B
330
41
100
AcDbEntity
  8
LC-002-005-----0
 62
     7
370
    25
100
AcDbLine
 10
341.176602
 20
428.857843
 30
0.0
 11
342.093908
 21
429.775149
 31
0.0
  0
LINE
  5
7C
330
41
100
AcDbEntity
  8
LC-002-005-----0
 62
     7
370
    25
100
AcDbLine
 10
353.070304
 20
440.751545
 30
0.0
 11
355.570304
 21
443.251545
 31
0.0
  0
LINE
  5
7D
330
41
100
AcDbEntity
  8
LC-002-005-----0
 62
     7
370
    25
100
AcDbLine
 10
339.335136
 20
429.844804
 30
0.0
 11
344.906334
 21
435.416002
 31
0.0
  0
LINE
  5
7E
330
41
100
AcDbEntity
  8
LC-002-005-----0
 62
     7
370
    25
100
AcDbLine
 10
350.241877
 20
440.751545
 30
0.0
 11
352.741877
 21
443.251545
 31
0.0
  0
LINE
  5
7F
330
41
100
AcDbEntity
  8
LC-002-005-----0
 62
     7
370
    25
100
AcDbLine
 10
338.99145
 20
432.329545
 30
0.0
 11
349.91345
 21
443.251545
 31
0.0
  0
LINE
  5
80
330
41
100
AcDbEntity
  8
LC-002-005-----0
 62
     7
370
    25
100
AcDbLine
 10
336.163023
 20
432.329545
 30
0.0
 11
338.663023
 21
434.829545
 31
0.0
  0
LINE
  5
81
330
41
100
AcDbEntity
  8
LC-002-005-----0
 62
     7
370
    25
100
AcDbLine
 10
344.406887
 20
440.573409
 30
0.0
 11
347.085023
 21
443.251545
 31
0.0
  0
LINE
  5
82
330
41
100
AcDbEntity
  8
LC-002-005-----0
 62
     7
370
    25
100
AcDbLine
 10
333.334596
 20
432.329545
 30
0.0
 11
335.834596
 21
434.829545
 31
0.0
  0
LINE
  5
83
330
41
100
AcDbEntity
  8
LC-002-005-----0
 62
     7
370
    25
100
AcDbLine
 10
330.506169
 20
432.329545
 30
0.0
 11
333.006169
 21
434.829545
 31
0.0
  0
LINE
  5
84
330
41
100
AcDbEntity
  8
LC-002-005-----0
 62
     7
370
    25
100
AcDbLine
 10
327.677742
 20
432.329545
 30
0.0
 11
330.177742
 21
434.829545
 31
0.0
  0
LINE
  5
85
330
41
100
AcDbEntity
  8
LC-002-005-----0
 62
     7
370
    25
100
AcDbLine
 10
324.849314
 20
432.329545
 30
0.0
 11
327.349314
 21
434.829545
 31
0.0
  0
LINE
  5
86
330
41
100
AcDbEntity
  8
LC-002-005-----0
 62
     7
370
    25
100
AcDbLine
 10
322.020887
 20
432.329545
 30
0.0
 11
324.520887
 21
434.829545
 31
0.0
  0
LINE
  5
87
330
41
100
AcDbEntity
  8
LC-002-005-----0
 62
     7
370
    25
100
AcDbLine
 10
319.19246
 20
432.329545
 30
0.0
 11
321.69246
 21
434.829545
 31
0.0
  0
LINE
  5
88
330
41
100
AcDbEntity
  8
LC-002-005-----0
 62
     7
370
    25
100
AcDbLine
 10
316.364033
 20
432.329545
 30
0.0
 11
318.864033
 21
434.829545
 31
0.0
  0
LINE
  5
89
330
41
100
AcDbEntity
  8
LC-002-005-----0
 62
     7
370
    25
100
AcDbLine
 10
313.535606
 20
432.329545
 30
0.0
 11
316.035606
 21
434.829545
 31
0.0
  0
LINE
  5
8A
330
41
100
AcDbEntity
  8
LC-002-005-----0
 62
     7
370
    25
100
AcDbLine
 10
310.707179
 20
432.329545
 30
0.0
 11
313.207179
 21
434.829545
 31
0.0
  0
LINE
  5
8B
330
41
100
AcDbEntity
  8
LC-002-005-----0
 62
     7
370
    25
100
AcDbLine
 10
307.878752
 20
432.329545
 30
0.0
 11
310.378752
 21
434.829545
 31
0.0
  0
LINE
  5
8C
330
41
100
AcDbEntity
  8
LC-002-005-----0
 62
     7
370
    25
100
AcDbLine
 10
305.050325
 20
432.329545
 30
0.0
 11
307.550325
 21
434.829545
 31
0.0
  0
LINE
  5
8D
330
41
100
AcDbEntity
  8
LC-002-005-----0
 62
     7
370
    25
100
AcDbLine
 10
302.221897
 20
432.329545
 30
0.0
 11
304.721897
 21
434.829545
 31
0.0
  0
LINE
  5
8E
330
41
100
AcDbEntity
  8
LC-002-005-----0
 62
     7
370
    25
100
AcDbLine
 10
299.39347
 20
432.329545
 30
0.0
 11
303.090666
 21
436.02674
 31
0.0
  0
LINE
  5
8F
330
41
100
AcDbEntity
  8
LC-002-005-----0
 62
     7
370
    25
100
AcDbLine
 10
296.565043
 20
432.329545
 30
0.0
 11
299.065043
 21
434.829545
 31
0.0
  0
LINE
  5
90
330
41
100
AcDbEntity
  8
LC-002-005-----0
 62
     7
370
    25
100
AcDbLine
 10
293.736616
 20
432.329545
 30
0.0
 11
296.236616
 21
434.829545
 31
0.0
  0
LINE
  5
91
330
41
100
AcDbEntity
  8
LC-002-005-----0
 62
     7
370
    25
100
AcDbLine
 10
290.908189
 20
432.329545
 30
0.0
 11
293.408189
 21
434.829545
 31
0.0
  0
LINE
  5
92
330
41
100
AcDbEntity
  8
LC-002-005-----0
 62
     7
370
    25
100
AcDbLine
 10
288.079762
 20
432.329545
 30
0.0
 11
290.579762
 21
434.829545
 31
0.0
  0
LINE
  5
93
330
41
100
AcDbEntity
  8
LC-002-005-----0
 62
     7
370
    25
100
AcDbLine
 10
285.251335
 20
432.329545
 30
0.0
 11
287.751335
 21
434.829545
 31
0.0
  0
LINE
  5
94
330
41
100
AcDbEntity
  8
LC-002-005-----0
 62
     7
370
    25
100
AcDbLine
 10
282.422908
 20
432.329545
 30
0.0
 11
284.922908
 21
434.829545
 31
0.0
  0
LINE
  5
95
330
41
100
AcDbEntity
  8
LC-002-005-----0
 62
     7
370
    25
100
AcDbLine
 10
279.59448
 20
432.329545
 30
0.0
 11
282.09448
 21
434.829545
 31
0.0
  0
LINE
  5
96
330
41
100
AcDbEntity
  8
LC-002-005-----0
 62
     7
370
    25
100
AcDbLine
 10
276.766053
 20
432.329545
 30
0.0
 11
279.266053
 21
434.829545
 31
0.0
  0
LINE
  5
97
330
41
100
AcDbEntity
  8
LC-002-005-----0
 62
     7
370
    25
100
AcDbLine
 10
273.937626
 20
432.329545
 30
0.0
 11
276.437626
 21
434.829545
 31
0.0
  0
LINE
  5
98
330
41
100
AcDbEntity
  8
LC-002-005-----0
 62
     7
370
    25
100
AcDbLine
 10
271.109199
 20
432.329545
 30
0.0
 11
273.609199
 21
434.829545
 31
0.0
  0
LINE
  5
99
330
41
100
AcDbEntity
  8
LC-002-005-----0
 62
     7
370
    25
100
AcDbLine
 10
268.280772
 20
432.329545
 30
0.0
 11
270.780772
 21
434.829545
 31
0.0
  0
LINE
  5
9A
330
41
100
AcDbEntity
  8
LC-002-005-----0
 62
     7
370
    25
100
AcDbLine
 10
267.090666
 20
433.967866
 30
0.0
 11
269.590666
 21
436.467866
 31
0.0
  0
LINE
  5
9B
330
41
100
AcDbEntity
  8
LC-002-005-----0
 62
     7
370
    25
100
AcDbLine
 10
267.090666
 20
436.796293
 30
0.0
 11
269.246144
 21
438.951771
 31
0.0
  0
LINE
  5
9C
330
41
100
AcDbEntity
  8
LC-002-005-----0
 62
     7
370
    25
100
AcDbLine
 10
264.795491
 20
437.329545
 30
0.0
 11
267.295491
 21
439.829545
 31
0.0
  0
LINE
  5
9D
330
41
100
AcDbEntity
  8
LC-002-005-----0
 62
     7
370
    25
100
AcDbLine
 10
261.967063
 20
437.329545
 30
0.0
 11
264.467063
 21
439.829545
 31
0.0
  0
LINE
  5
9E
330
41
100
AcDbEntity
  8
LC-002-005-----0
 62
     7
370
    25
100
AcDbLine
 10
255.388636
 20
433.579545
 30
0.0
 11
261.638636
 21
439.829545
 31
0.0
  0
LINE
  5
9F
330
41
100
AcDbEntity
  8
LC-002-005-----0
 62
     7
370
    25
100
AcDbLine
 10
252.560209
 20
433.579545
 30
0.0
 11
256.46884
 21
437.488176
 31
0.0
  0
LINE
  5
A0
330
41
100
AcDbEntity
  8
LC-002-005-----0
 62
     7
370
    25
100
AcDbLine
 10
251.090666
 20
434.938429
 30
0.0
 11
252.231782
 21
436.079545
 31
0.0
  0
ENDBLK
  5
43
330
41
100
AcDbEntity
  8
0
100
AcDbBlockEnd
  0
BLOCK
  5
BF
330
BE
100
AcDbEntity
  8
0
100
AcDbBlockBegin
  2
*X22
 70
     1
 71
     0
 10
0.0
 20
0.0
 30
0.0
  3
*X22
  1

  4
*X2
  0
LINE
  5
C1
330
BE
100
AcDbEntity
  8
LC-002-005-----0
 62
     7
370
    25
100
AcDbLine
 10
482.526376
 20
346.761874
 30
0.0
 11
484.516047
 21
348.751545
 31
0.0
  0
LINE
  5
C2
330
BE
100
AcDbEntity
  8
LC-002-005-----0
 62
     7
370
    25
100
AcDbLine
 10
479.18762
 20
346.251545
 30
0.0
 11
481.68762
 21
348.751545
 31
0.0
  0
LINE
  5
C3
330
BE
100
AcDbEntity
  8
LC-002-005-----0
 62
     7
370
    25
100
AcDbLine
 10
476.359193
 20
346.251545
 30
0.0
 11
478.859193
 21
348.751545
 31
0.0
  0
LINE
  5
C4
330
BE
100
AcDbEntity
  8
LC-002-005-----0
 62
     7
370
    25
100
AcDbLine
 10
473.530766
 20
346.251545
 30
0.0
 11
476.030766
 21
348.751545
 31
0.0
  0
LINE
  5
C5
330
BE
100
AcDbEntity
  8
LC-002-005-----0
 62
     7
370
    25
100
AcDbLine
 10
470.702339
 20
346.251545
 30
0.0
 11
473.202339
 21
348.751545
 31
0.0
  0
LINE
  5
C6
330
BE
100
AcDbEntity
  8
LC-002-005-----0
 62
     7
370
    25
100
AcDbLine
 10
467.873912
 20
346.251545
 30
0.0
 11
470.373912
 21
348.751545
 31
0.0
  0
LINE
  5
C7
330
BE
100
AcDbEntity
  8
LC-002-005-----0
 62
     7
370
    25
100
AcDbLine
 10
465.045484
 20
346.251545
 30
0.0
 11
467.545484
 21
348.751545
 31
0.0
  0
LINE
  5
C8
330
BE
100
AcDbEntity
  8
LC-002-005-----0
 62
     7
370
    25
100
AcDbLine
 10
462.217057
 20
346.251545
 30
0.0
 11
464.717057
 21
348.751545
 31
0.0
  0
LINE
  5
C9
330
BE
100
AcDbEntity
  8
LC-002-005-----0
 62
     7
370
    25
100
AcDbLine
 10
459.38863
 20
346.251545
 30
0.0
 11
461.88863
 21
348.751545
 31
0.0
  0
LINE
  5
CA
330
BE
100
AcDbEntity
  8
LC-002-005-----0
 62
     7
370
    25
100
AcDbLine
 10
456.560203
 20
346.251545
 30
0.0
 11
459.060203
 21
348.751545
 31
0.0
  0
LINE
  5
CB
330
BE
100
AcDbEntity
  8
LC-002-005-----0
 62
     7
370
    25
100
AcDbLine
 10
453.731776
 20
346.251545
 30
0.0
 11
456.231776
 21
348.751545
 31
0.0
  0
LINE
  5
CC
330
BE
100
AcDbEntity
  8
LC-002-005-----0
 62
     7
370
    25
100
AcDbLine
 10
450.903349
 20
346.251545
 30
0.0
 11
453.403349
 21
348.751545
 31
0.0
  0
LINE
  5
CD
330
BE
100
AcDbEntity
  8
LC-002-005-----0
 62
     7
370
    25
100
AcDbLine
 10
448.074922
 20
346.251545
 30
0.0
 11
450.574922
 21
348.751545
 31
0.0
  0
LINE
  5
CE
330
BE
100
AcDbEntity
  8
LC-002-005-----0
 62
     7
370
    25
100
AcDbLine
 10
445.246495
 20
346.251545
 30
0.0
 11
447.746495
 21
348.751545
 31
0.0
  0
LINE
  5
CF
330
BE
100
AcDbEntity
  8
LC-002-005-----0
 62
     7
370
    25
100
AcDbLine
 10
442.418067
 20
346.251545
 30
0.0
 11
444.918067
 21
348.751545
 31
0.0
  0
LINE
  5
D0
330
BE
100
AcDbEntity
  8
LC-002-005-----0
 62
     7
370
    25
100
AcDbLine
 10
439.58964
 20
346.251545
 30
0.0
 11
442.08964
 21
348.751545
 31
0.0
  0
LINE
  5
D1
330
BE
100
AcDbEntity
  8
LC-002-005-----0
 62
     7
370
    25
100
AcDbLine
 10
436.761213
 20
346.251545
 30
0.0
 11
439.261213
 21
348.751545
 31
0.0
  0
LINE
  5
D2
330
BE
100
AcDbEntity
  8
LC-002-005-----0
 62
     7
370
    25
100
AcDbLine
 10
433.932786
 20
346.251545
 30
0.0
 11
436.432786
 21
348.751545
 31
0.0
  0
LINE
  5
D3
330
BE
100
AcDbEntity
  8
LC-002-005-----0
 62
     7
370
    25
100
AcDbLine
 10
431.104359
 20
346.251545
 30
0.0
 11
433.604359
 21
348.751545
 31
0.0
  0
LINE
  5
D4
330
BE
100
AcDbEntity
  8
LC-002-005-----0
 62
     7
370
    25
100
AcDbLine
 10
428.275932
 20
346.251545
 30
0.0
 11
430.775932
 21
348.751545
 31
0.0
  0
LINE
  5
D5
330
BE
100
AcDbEntity
  8
LC-002-005-----0
 62
     7
370
    25
100
AcDbLine
 10
425.447505
 20
346.251545
 30
0.0
 11
427.947505
 21
348.751545
 31
0.0
  0
LINE
  5
D6
330
BE
100
AcDbEntity
  8
LC-002-005-----0
 62
     7
370
    25
100
AcDbLine
 10
422.619078
 20
346.251545
 30
0.0
 11
425.119078
 21
348.751545
 31
0.0
  0
LINE
  5
D7
330
BE
100
AcDbEntity
  8
LC-002-005-----0
 62
     7
370
    25
100
AcDbLine
 10
419.099313
 20
345.560208
 30
0.0
 11
422.29065
 21
348.751545
 31
0.0
  0
LINE
  5
D8
330
BE
100
AcDbEntity
  8
LC-002-005-----0
 62
     7
370
    25
100
AcDbLine
 10
414.643404
 20
343.932726
 30
0.0
 11
418.836387
 21
348.125709
 31
0.0
  0
LINE
  5
D9
330
BE
100
AcDbEntity
  8
LC-002-005-----0
 62
     7
370
    25
100
AcDbLine
 10
410.187496
 20
342.305245
 30
0.0
 11
414.380479
 21
346.498228
 31
0.0
  0
LINE
  5
DA
330
BE
100
AcDbEntity
  8
LC-002-005-----0
 62
     7
370
    25
100
AcDbLine
 10
405.731587
 20
340.677763
 30
0.0
 11
409.92457
 21
344.870746
 31
0.0
  0
LINE
  5
DB
330
BE
100
AcDbEntity
  8
LC-002-005-----0
 62
     7
370
    25
100
AcDbLine
 10
401.275679
 20
339.050282
 30
0.0
 11
405.468662
 21
343.243265
 31
0.0
  0
LINE
  5
DC
330
BE
100
AcDbEntity
  8
LC-002-005-----0
 62
     7
370
    25
100
AcDbLine
 10
397.648515
 20
338.251545
 30
0.0
 11
401.012753
 21
341.615784
 31
0.0
  0
LINE
  5
DD
330
BE
100
AcDbEntity
  8
LC-002-005-----0
 62
     7
370
    25
100
AcDbLine
 10
394.820088
 20
338.251545
 30
0.0
 11
397.320088
 21
340.751545
 31
0.0
  0
LINE
  5
DE
330
BE
100
AcDbEntity
  8
LC-002-005-----0
 62
     7
370
    25
100
AcDbLine
 10
391.991661
 20
338.251545
 30
0.0
 11
394.491661
 21
340.751545
 31
0.0
  0
LINE
  5
DF
330
BE
100
AcDbEntity
  8
LC-002-005-----0
 62
     7
370
    25
100
AcDbLine
 10
389.163233
 20
338.251545
 30
0.0
 11
391.663233
 21
340.751545
 31
0.0
  0
LINE
  5
E0
330
BE
100
AcDbEntity
  8
LC-002-005-----0
 62
     7
370
    25
100
AcDbLine
 10
386.334806
 20
338.251545
 30
0.0
 11
388.834806
 21
340.751545
 31
0.0
  0
LINE
  5
E1
330
BE
100
AcDbEntity
  8
LC-002-005-----0
 62
     7
370
    25
100
AcDbLine
 10
383.506379
 20
338.251545
 30
0.0
 11
386.006379
 21
340.751545
 31
0.0
  0
LINE
  5
E2
330
BE
100
AcDbEntity
  8
LC-002-005-----0
 62
     7
370
    25
100
AcDbLine
 10
380.677952
 20
338.251545
 30
0.0
 11
383.177952
 21
340.751545
 31
0.0
  0
LINE
  5
E3
330
BE
100
AcDbEntity
  8
LC-002-005-----0
 62
     7
370
    25
100
AcDbLine
 10
377.849525
 20
338.251545
 30
0.0
 11
380.349525
 21
340.751545
 31
0.0
  0
LINE
  5
E4
330
BE
100
AcDbEntity
  8
LC-002-005-----0
 62
     7
370
    25
100
AcDbLine
 10
375.021098
 20
338.251545
 30
0.0
 11
377.521098
 21
340.751545
 31
0.0
  0
LINE
  5
E5
330
BE
100
AcDbEntity
  8
LC-002-005-----0
 62
     7
370
    25
100
AcDbLine
 10
372.192671
 20
338.251545
 30
0.0
 11
374.692671
 21
340.751545
 31
0.0
  0
LINE
  5
E6
330
BE
100
AcDbEntity
  8
LC-002-005-----0
 62
     7
370
    25
100
AcDbLine
 10
369.364244
 20
338.251545
 30
0.0
 11
371.864244
 21
340.751545
 31
0.0
  0
LINE
  5
E7
330
BE
100
AcDbEntity
  8
LC-002-005-----0
 62
     7
370
    25
100
AcDbLine
 10
366.535816
 20
338.251545
 30
0.0
 11
369.035816
 21
340.751545
 31
0.0
  0
LINE
  5
E8
330
BE
100
AcDbEntity
  8
LC-002-005-----0
 62
     7
370
    25
100
AcDbLine
 10
363.707389
 20
338.251545
 30
0.0
 11
366.207389
 21
340.751545
 31
0.0
  0
LINE
  5
E9
330
BE
100
AcDbEntity
  8
LC-002-005-----0
 62
     7
370
    25
100
AcDbLine
 10
360.878962
 20
338.251545
 30
0.0
 11
363.378962
 21
340.751545
 31
0.0
  0
LINE
  5
EA
330
BE
100
AcDbEntity
  8
LC-002-005-----0
 62
     7
370
    25
100
AcDbLine
 10
358.050535
 20
338.251545
 30
0.0
 11
360.550535
 21
340.751545
 31
0.0
  0
LINE
  5
EB
330
BE
100
AcDbEntity
  8
LC-002-005-----0
 62
     7
370
    25
100
AcDbLine
 10
355.222108
 20
338.251545
 30
0.0
 11
357.722108
 21
340.751545
 31
0.0
  0
LINE
  5
EC
330
BE
100
AcDbEntity
  8
LC-002-005-----0
 62
     7
370
    25
100
AcDbLine
 10
352.393681
 20
338.251545
 30
0.0
 11
354.893681
 21
340.751545
 31
0.0
  0
LINE
  5
ED
330
BE
100
AcDbEntity
  8
LC-002-005-----0
 62
     7
370
    25
100
AcDbLine
 10
349.565254
 20
338.251545
 30
0.0
 11
352.065254
 21
340.751545
 31
0.0
  0
LINE
  5
EE
330
BE
100
AcDbEntity
  8
LC-002-005-----0
 62
     7
370
    25
100
AcDbLine
 10
346.736827
 20
338.251545
 30
0.0
 11
349.236827
 21
340.751545
 31
0.0
  0
LINE
  5
EF
330
BE
100
AcDbEntity
  8
LC-002-005-----0
 62
     7
370
    25
100
AcDbLine
 10
343.908399
 20
338.251545
 30
0.0
 11
346.408399
 21
340.751545
 31
0.0
  0
LINE
  5
F0
330
BE
100
AcDbEntity
  8
LC-002-005-----0
 62
     7
370
    25
100
AcDbLine
 10
341.079972
 20
338.251545
 30
0.0
 11
343.579972
 21
340.751545
 31
0.0
  0
LINE
  5
F1
330
BE
100
AcDbEntity
  8
LC-002-005-----0
 62
     7
370
    25
100
AcDbLine
 10
338.251545
 20
338.251545
 30
0.0
 11
340.751545
 21
340.751545
 31
0.0
  0
LINE
  5
F2
330
BE
100
AcDbEntity
  8
LC-002-005-----0
 62
     7
370
    25
100
AcDbLine
 10
335.423118
 20
338.251545
 30
0.0
 11
337.923118
 21
340.751545
 31
0.0
  0
LINE
  5
F3
330
BE
100
AcDbEntity
  8
LC-002-005-----0
 62
     7
370
    25
100
AcDbLine
 10
332.594691
 20
338.251545
 30
0.0
 11
335.094691
 21
340.751545
 31
0.0
  0
LINE
  5
F4
330
BE
100
AcDbEntity
  8
LC-002-005-----0
 62
     7
370
    25
100
AcDbLine
 10
329.766264
 20
338.251545
 30
0.0
 11
332.266264
 21
340.751545
 31
0.0
  0
LINE
  5
F5
330
BE
100
AcDbEntity
  8
LC-002-005-----0
 62
     7
370
    25
100
AcDbLine
 10
326.937837
 20
338.251545
 30
0.0
 11
329.437837
 21
340.751545
 31
0.0
  0
LINE
  5
F6
330
BE
100
AcDbEntity
  8
LC-002-005-----0
 62
     7
370
    25
100
AcDbLine
 10
324.10941
 20
338.251545
 30
0.0
 11
326.60941
 21
340.751545
 31
0.0
  0
LINE
  5
F7
330
BE
100
AcDbEntity
  8
LC-002-005-----0
 62
     7
370
    25
100
AcDbLine
 10
321.280982
 20
338.251545
 30
0.0
 11
323.780982
 21
340.751545
 31
0.0
  0
LINE
  5
F8
330
BE
100
AcDbEntity
  8
LC-002-005-----0
 62
     7
370
    25
100
AcDbLine
 10
319.559648
 20
339.358638
 30
0.0
 11
321.327415
 21
341.126405
 31
0.0
  0
LINE
  5
F9
330
BE
100
AcDbEntity
  8
LC-002-005-----0
 62
     7
370
    25
100
AcDbLine
 10
318.145435
 20
340.772852
 30
0.0
 11
319.913202
 21
342.540619
 31
0.0
  0
LINE
  5
FA
330
BE
100
AcDbEntity
  8
LC-002-005-----0
 62
     7
370
    25
100
AcDbLine
 10
316.731221
 20
342.187065
 30
0.0
 11
318.498988
 21
343.954832
 31
0.0
  0
LINE
  5
FB
330
BE
100
AcDbEntity
  8
LC-002-005-----0
 62
     7
370
    25
100
AcDbLine
 10
315.317007
 20
343.601279
 30
0.0
 11
317.084774
 21
345.369046
 31
0.0
  0
LINE
  5
FC
330
BE
100
AcDbEntity
  8
LC-002-005-----0
 62
     7
370
    25
100
AcDbLine
 10
313.902794
 20
345.015492
 30
0.0
 11
315.670561
 21
346.783259
 31
0.0
  0
LINE
  5
FD
330
BE
100
AcDbEntity
  8
LC-002-005-----0
 62
     7
370
    25
100
AcDbLine
 10
312.48858
 20
346.429706
 30
0.0
 11
314.256347
 21
348.197473
 31
0.0
  0
LINE
  5
FE
330
BE
100
AcDbEntity
  8
LC-002-005-----0
 62
     7
370
    25
100
AcDbLine
 10
311.074367
 20
347.843919
 30
0.0
 11
312.842134
 21
349.611686
 31
0.0
  0
LINE
  5
FF
330
BE
100
AcDbEntity
  8
LC-002-005-----0
 62
     7
370
    25
100
AcDbLine
 10
309.660153
 20
349.258133
 30
0.0
 11
311.42792
 21
351.0259
 31
0.0
  0
LINE
  5
100
330
BE
100
AcDbEntity
  8
LC-002-005-----0
 62
     7
370
    25
100
AcDbLine
 10
308.24594
 20
350.672347
 30
0.0
 11
310.013707
 21
352.440113
 31
0.0
  0
LINE
  5
101
330
BE
100
AcDbEntity
  8
LC-002-005-----0
 62
     7
370
    25
100
AcDbLine
 10
306.831726
 20
352.08656
 30
0.0
 11
308.599493
 21
353.854327
 31
0.0
  0
LINE
  5
102
330
BE
100
AcDbEntity
  8
LC-002-005-----0
 62
     7
370
    25
100
AcDbLine
 10
305.417513
 20
353.500774
 30
0.0
 11
307.185279
 21
355.268541
 31
0.0
  0
LINE
  5
103
330
BE
100
AcDbEntity
  8
LC-002-005-----0
 62
     7
370
    25
100
AcDbLine
 10
301.590666
 20
352.502354
 30
0.0
 11
303.090666
 21
354.002354
 31
0.0
  0
LINE
  5
104
330
BE
100
AcDbEntity
  8
LC-002-005-----0
 62
     7
370
    25
100
AcDbLine
 10
303.917857
 20
354.829545
 30
0.0
 11
306.058608
 21
356.970296
 31
0.0
  0
LINE
  5
105
330
BE
100
AcDbEntity
  8
LC-002-005-----0
 62
     7
370
    25
100
AcDbLine
 10
301.08943
 20
354.829545
 30
0.0
 11
307.121074
 21
360.861189
 31
0.0
  0
LINE
  5
106
330
BE
100
AcDbEntity
  8
LC-002-005-----0
 62
     7
370
    25
100
AcDbLine
 10
298.261003
 20
354.829545
 30
0.0
 11
300.761003
 21
357.329545
 31
0.0
  0
LINE
  5
107
330
BE
100
AcDbEntity
  8
LC-002-005-----0
 62
     7
370
    25
100
AcDbLine
 10
295.432576
 20
354.829545
 30
0.0
 11
297.932576
 21
357.329545
 31
0.0
  0
LINE
  5
108
330
BE
100
AcDbEntity
  8
LC-002-005-----0
 62
     7
370
    25
100
AcDbLine
 10
292.604148
 20
354.829545
 30
0.0
 11
295.104148
 21
357.329545
 31
0.0
  0
LINE
  5
109
330
BE
100
AcDbEntity
  8
LC-002-005-----0
 62
     7
370
    25
100
AcDbLine
 10
289.775721
 20
354.829545
 30
0.0
 11
292.275721
 21
357.329545
 31
0.0
  0
LINE
  5
10A
330
BE
100
AcDbEntity
  8
LC-002-005-----0
 62
     7
370
    25
100
AcDbLine
 10
286.947294
 20
354.829545
 30
0.0
 11
289.447294
 21
357.329545
 31
0.0
  0
LINE
  5
10B
330
BE
100
AcDbEntity
  8
LC-002-005-----0
 62
     7
370
    25
100
AcDbLine
 10
284.118867
 20
354.829545
 30
0.0
 11
286.618867
 21
357.329545
 31
0.0
  0
LINE
  5
10C
330
BE
100
AcDbEntity
  8
LC-002-005-----0
 62
     7
370
    25
100
AcDbLine
 10
281.29044
 20
354.829545
 30
0.0
 11
283.79044
 21
357.329545
 31
0.0
  0
LINE
  5
10D
330
BE
100
AcDbEntity
  8
LC-002-005-----0
 62
     7
370
    25
100
AcDbLine
 10
278.462013
 20
354.829545
 30
0.0
 11
280.962013
 21
357.329545
 31
0.0
  0
LINE
  5
10E
330
BE
100
AcDbEntity
  8
LC-002-005-----0
 62
     7
370
    25
100
AcDbLine
 10
275.633586
 20
354.829545
 30
0.0
 11
278.133586
 21
357.329545
 31
0.0
  0
LINE
  5
10F
330
BE
100
AcDbEntity
  8
LC-002-005-----0
 62
     7
370
    25
100
AcDbLine
 10
267.818136
 20
349.842523
 30
0.0
 11
269.577688
 21
351.602074
 31
0.0
  0
LINE
  5
110
330
BE
100
AcDbEntity
  8
LC-002-005-----0
 62
     7
370
    25
100
AcDbLine
 10
272.805159
 20
354.829545
 30
0.0
 11
275.305159
 21
357.329545
 31
0.0
  0
LINE
  5
111
330
BE
100
AcDbEntity
  8
LC-002-005-----0
 62
     7
370
    25
100
AcDbLine
 10
264.976731
 20
349.829545
 30
0.0
 11
269.590666
 21
354.443479
 31
0.0
  0
LINE
  5
112
330
BE
100
AcDbEntity
  8
LC-002-005-----0
 62
     7
370
    25
100
AcDbLine
 10
269.976731
 20
354.829545
 30
0.0
 11
272.476731
 21
357.329545
 31
0.0
  0
LINE
  5
113
330
BE
100
AcDbEntity
  8
LC-002-005-----0
 62
     7
370
    25
100
AcDbLine
 10
262.148304
 20
349.829545
 30
0.0
 11
264.648304
 21
352.329545
 31
0.0
  0
LINE
  5
114
330
BE
100
AcDbEntity
  8
LC-002-005-----0
 62
     7
370
    25
100
AcDbLine
 10
267.090666
 20
354.771906
 30
0.0
 11
269.648304
 21
357.329545
 31
0.0
  0
LINE
  5
115
330
BE
100
AcDbEntity
  8
LC-002-005-----0
 62
     7
370
    25
100
AcDbLine
 10
259.435929
 20
349.945597
 30
0.0
 11
261.819877
 21
352.329545
 31
0.0
  0
LINE
  5
116
330
BE
100
AcDbEntity
  8
LC-002-005-----0
 62
     7
370
    25
100
AcDbLine
 10
257.819685
 20
351.15778
 30
0.0
 11
259.6054
 21
352.943495
 31
0.0
  0
LINE
  5
117
330
BE
100
AcDbEntity
  8
LC-002-005-----0
 62
     7
370
    25
100
AcDbLine
 10
256.203441
 20
352.369963
 30
0.0
 11
257.989155
 21
354.155678
 31
0.0
  0
LINE
  5
118
330
BE
100
AcDbEntity
  8
LC-002-005-----0
 62
     7
370
    25
100
AcDbLine
 10
254.584596
 20
353.579545
 30
0.0
 11
256.372911
 21
355.367861
 31
0.0
  0
LINE
  5
119
330
BE
100
AcDbEntity
  8
LC-002-005-----0
 62
     7
370
    25
100
AcDbLine
 10
251.756169
 20
353.579545
 30
0.0
 11
254.256169
 21
356.079545
 31
0.0
  0
LINE
  5
11A
330
BE
100
AcDbEntity
  8
LC-002-005-----0
 62
     7
370
    25
100
AcDbLine
 10
251.088746
 20
355.740549
 30
0.0
 11
251.427742
 21
356.079545
 31
0.0
  0
ENDBLK
  5
C0
330
BE
100
AcDbEntity
  8
0
100
AcDbBlockEnd
  0
BLOCK
  5
14B
330
14A
100
AcDbEntity
  8
0
100
AcDbBlockBegin
  2
*X33
 70
     1
 71
     0
 10
0.0
 20
0.0
 30
0.0
  3
*X33
  1

  4
*X3
  0
LINE
  5
14D
330
14A
100
AcDbEntity
  8
LC-002-005-----0
 62
     7
370
    25
100
AcDbLine
 10
266.067011
 20
432.944211
 30
0.0
 11
266.490919
 21
433.368119
 31
0.0
  0
LINE
  5
14E
330
14A
100
AcDbEntity
  8
LC-002-005-----0
 62
     7
370
    25
100
AcDbLine
 10
265.081368
 20
433.372782
 30
0.0
 11
267.102826
 21
435.394239
 31
0.0
  0
LINE
  5
14F
330
14A
100
AcDbEntity
  8
LC-002-005-----0
 62
     7
370
    25
100
AcDbLine
 10
263.115652
 20
432.82128
 30
0.0
 11
263.395374
 21
433.101002
 31
0.0
  0
LINE
  5
150
330
14A
100
AcDbEntity
  8
LC-002-005-----0
 62
     7
370
    25
100
AcDbLine
 10
264.095726
 20
433.801353
 30
0.0
 11
267.093995
 21
436.799623
 31
0.0
  0
LINE
  5
151
330
14A
100
AcDbEntity
  8
LC-002-005-----0
 62
     7
370
    25
100
AcDbLine
 10
262.13001
 20
433.249851
 30
0.0
 11
266.203029
 21
437.322871
 31
0.0
  0
LINE
  5
152
330
14A
100
AcDbEntity
  8
LC-002-005-----0
 62
     7
370
    25
100
AcDbLine
 10
261.144367
 20
433.678422
 30
0.0
 11
264.778101
 21
437.312156
 31
0.0
  0
LINE
  5
153
330
14A
100
AcDbEntity
  8
LC-002-005-----0
 62
     7
370
    25
100
AcDbLine
 10
260.158725
 20
434.106993
 30
0.0
 11
263.353173
 21
437.301441
 31
0.0
  0
LINE
  5
154
330
14A
100
AcDbEntity
  8
LC-002-005-----0
 62
     7
370
    25
100
AcDbLine
 10
259.166077
 20
434.528559
 30
0.0
 11
261.928244
 21
437.290726
 31
0.0
  0
LINE
  5
155
330
14A
100
AcDbEntity
  8
LC-002-005-----0
 62
     7
370
    25
100
AcDbLine
 10
259.157247
 20
435.933942
 30
0.0
 11
260.503316
 21
437.280011
 31
0.0
  0
ENDBLK
  5
14C
330
14A
100
AcDbEntity
  8
0
100
AcDbBlockEnd
  0
BLOCK
  5
17A
330
179
100
AcDbEntity
  8
0
100
AcDbBlockBegin
  2
*X44
 70
     1
 71
     0
 10
0.0
 20
0.0
 30
0.0
  3
*X44
  1

  4
*X4
  0
LINE
  5
17C
330
179
100
AcDbEntity
  8
LC-002-005-----0
 62
     7
370
    25
100
AcDbLine
 10
343.23674
 20
428.923808
 30
0.0
 11
343.676339
 21
428.48421
 31
0.0
  0
LINE
  5
17D
330
179
100
AcDbEntity
  8
LC-002-005-----0
 62
     7
370
    25
100
AcDbLine
 10
343.707202
 20
429.86756
 30
0.0
 11
346.036628
 21
427.538136
 31
0.0
  0
LINE
  5
17E
330
179
100
AcDbEntity
  8
LC-002-005-----0
 62
     7
370
    25
100
AcDbLine
 10
344.177663
 20
430.811311
 30
0.0
 11
346.50709
 21
428.481888
 31
0.0
  0
LINE
  5
17F
330
179
100
AcDbEntity
  8
LC-002-005-----0
 62
     7
370
    25
100
AcDbLine
 10
344.648125
 20
431.755063
 30
0.0
 11
346.977551
 21
429.42564
 31
0.0
  0
LINE
  5
180
330
179
100
AcDbEntity
  8
LC-002-005-----0
 62
     7
370
    25
100
AcDbLine
 10
345.118586
 20
432.698815
 30
0.0
 11
347.448013
 21
430.369392
 31
0.0
  0
LINE
  5
181
330
179
100
AcDbEntity
  8
LC-002-005-----0
 62
     7
370
    25
100
AcDbLine
 10
345.589048
 20
433.642567
 30
0.0
 11
347.918474
 21
431.313143
 31
0.0
  0
LINE
  5
182
330
179
100
AcDbEntity
  8
LC-002-005-----0
 62
     7
370
    25
100
AcDbLine
 10
346.068392
 20
434.577435
 30
0.0
 11
348.388936
 21
432.256895
 31
0.0
  0
LINE
  5
183
330
179
100
AcDbEntity
  8
LC-002-005-----0
 62
     7
370
    25
100
AcDbLine
 10
346.722795
 20
435.337246
 30
0.0
 11
349.87529
 21
432.184756
 31
0.0
  0
LINE
  5
184
330
179
100
AcDbEntity
  8
LC-002-005-----0
 62
     7
370
    25
100
AcDbLine
 10
347.612615
 20
435.86164
 30
0.0
 11
354.096765
 21
429.377499
 31
0.0
  0
LINE
  5
185
330
179
100
AcDbEntity
  8
LC-002-005-----0
 62
     7
370
    25
100
AcDbLine
 10
348.820656
 20
436.067813
 30
0.0
 11
358.318239
 21
426.570243
 31
0.0
  0
LINE
  5
186
330
179
100
AcDbEntity
  8
LC-002-005-----0
 62
     7
370
    25
100
AcDbLine
 10
353.136249
 20
433.166438
 30
0.0
 11
361.917913
 21
424.384786
 31
0.0
  0
ENDBLK
  5
17B
330
179
100
AcDbEntity
  8
0
100
AcDbBlockEnd
  0
BLOCK
  5
189
330
188
100
AcDbEntity
  8
0
100
AcDbBlockBegin
  2
*X55
 70
     1
 71
     0
 10
0.0
 20
0.0
 30
0.0
  3
*X55
  1

  4
*X5
  0
LINE
  5
18B
330
188
100
AcDbEntity
  8
LC-002-005-----0
 62
     7
370
    25
100
AcDbLine
 10
307.275677
 20
355.990452
 30
0.0
 11
310.282995
 21
352.983137
 31
0.0
  0
LINE
  5
18C
330
188
100
AcDbEntity
  8
LC-002-005-----0
 62
     7
370
    25
100
AcDbLine
 10
307.487126
 20
357.193216
 30
0.0
 11
312.098502
 21
352.581845
 31
0.0
  0
LINE
  5
18D
330
188
100
AcDbEntity
  8
LC-002-005-----0
 62
     7
370
    25
100
AcDbLine
 10
307.947874
 20
358.14668
 30
0.0
 11
313.914009
 21
352.180553
 31
0.0
  0
LINE
  5
18E
330
188
100
AcDbEntity
  8
LC-002-005-----0
 62
     7
370
    25
100
AcDbLine
 10
308.418437
 20
359.090331
 30
0.0
 11
310.747763
 21
356.761008
 31
0.0
  0
LINE
  5
18F
330
188
100
AcDbEntity
  8
LC-002-005-----0
 62
     7
370
    25
100
AcDbLine
 10
312.016188
 20
355.492585
 30
0.0
 11
315.729516
 21
351.779261
 31
0.0
  0
LINE
  5
190
330
188
100
AcDbEntity
  8
LC-002-005-----0
 62
     7
370
    25
100
AcDbLine
 10
308.889
 20
360.033981
 30
0.0
 11
311.218326
 21
357.704658
 31
0.0
  0
LINE
  5
191
330
188
100
AcDbEntity
  8
LC-002-005-----0
 62
     7
370
    25
100
AcDbLine
 10
314.197582
 20
354.725406
 30
0.0
 11
317.545023
 21
351.377969
 31
0.0
  0
LINE
  5
192
330
188
100
AcDbEntity
  8
LC-002-005-----0
 62
     7
370
    25
100
AcDbLine
 10
309.359564
 20
360.977631
 30
0.0
 11
311.688889
 21
358.648308
 31
0.0
  0
LINE
  5
193
330
188
100
AcDbEntity
  8
LC-002-005-----0
 62
     7
370
    25
100
AcDbLine
 10
316.378976
 20
353.958228
 30
0.0
 11
319.36053
 21
350.976677
 31
0.0
  0
LINE
  5
194
330
188
100
AcDbEntity
  8
LC-002-005-----0
 62
     7
370
    25
100
AcDbLine
 10
309.830127
 20
361.921281
 30
0.0
 11
312.159452
 21
359.591958
 31
0.0
  0
LINE
  5
195
330
188
100
AcDbEntity
  8
LC-002-005-----0
 62
     7
370
    25
100
AcDbLine
 10
318.56037
 20
353.191049
 30
0.0
 11
321.176037
 21
350.575385
 31
0.0
  0
LINE
  5
196
330
188
100
AcDbEntity
  8
LC-002-005-----0
 62
     7
370
    25
100
AcDbLine
 10
310.30069
 20
362.864931
 30
0.0
 11
312.630015
 21
360.535608
 31
0.0
  0
LINE
  5
197
330
188
100
AcDbEntity
  8
LC-002-005-----0
 62
     7
370
    25
100
AcDbLine
 10
320.741764
 20
352.423871
 30
0.0
 11
322.991544
 21
350.174093
 31
0.0
  0
LINE
  5
198
330
188
100
AcDbEntity
  8
LC-002-005-----0
 62
     7
370
    25
100
AcDbLine
 10
312.668616
 20
361.911221
 30
0.0
 11
313.100579
 21
361.479259
 31
0.0
  0
LINE
  5
199
330
188
100
AcDbEntity
  8
LC-002-005-----0
 62
     7
370
    25
100
AcDbLine
 10
322.923158
 20
351.656692
 30
0.0
 11
324.747206
 21
349.832646
 31
0.0
  0
LINE
  5
19A
330
188
100
AcDbEntity
  8
LC-002-005-----0
 62
     7
370
    25
100
AcDbLine
 10
325.104552
 20
350.889514
 30
0.0
 11
325.21777
 21
350.776296
 31
0.0
  0
ENDBLK
  5
18A
330
188
100
AcDbEntity
  8
0
100
AcDbBlockEnd
  0
BLOCK
  5
19D
330
19C
100
AcDbEntity
  8
0
100
AcDbBlockBegin
  2
*X66
 70
     1
 71
     0
 10
0.0
 20
0.0
 30
0.0
  3
*X66
  1

  4
*X6
  0
LINE
  5
19F
330
19C
100
AcDbEntity
  8
LC-002-005-----0
 62
     7
370
    25
100
AcDbLine
 10
347.561526
 20
423.929058
 30
0.0
 11
347.893768
 21
424.2613
 31
0.0
  0
LINE
  5
1A0
330
19C
100
AcDbEntity
  8
LC-002-005-----0
 62
     7
370
    25
100
AcDbLine
 10
345.674123
 20
424.870082
 30
0.0
 11
350.70529
 21
429.90125
 31
0.0
  0
LINE
  5
1A1
330
19C
100
AcDbEntity
  8
LC-002-005-----0
 62
     7
370
    25
100
AcDbLine
 10
343.78672
 20
425.811107
 30
0.0
 11
344.951408
 21
426.975794
 31
0.0
  0
LINE
  5
1A2
330
19C
100
AcDbEntity
  8
LC-002-005-----0
 62
     7
370
    25
100
AcDbLine
 10
348.296489
 20
430.320876
 30
0.0
 11
349.610158
 21
431.634545
 31
0.0
  0
LINE
  5
1A3
330
19C
100
AcDbEntity
  8
LC-002-005-----0
 62
     7
370
    25
100
AcDbLine
 10
341.899317
 20
426.752131
 30
0.0
 11
343.064005
 21
427.916819
 31
0.0
  0
LINE
  5
1A4
330
19C
100
AcDbEntity
  8
LC-002-005-----0
 62
     7
370
    25
100
AcDbLine
 10
340.011915
 20
427.693155
 30
0.0
 11
341.176602
 21
428.857843
 31
0.0
  0
LINE
  5
1A5
330
19C
100
AcDbEntity
  8
LC-002-005-----0
 62
     7
370
    25
100
AcDbLine
 10
338.124512
 20
428.63418
 30
0.0
 11
339.335136
 21
429.844804
 31
0.0
  0
LINE
  5
1A6
330
19C
100
AcDbEntity
  8
LC-002-005-----0
 62
     7
370
    25
100
AcDbLine
 10
336.926235
 20
430.26433
 30
0.0
 11
338.566484
 21
431.904579
 31
0.0
  0
ENDBLK
  5
19E
330
19C
100
AcDbEntity
  8
0
100
AcDbBlockEnd
  0
BLOCK
  5
1A9
330
1A8
100
AcDbEntity
  8
0
100
AcDbBlockBegin
  2
*X77
 70
     1
 71
     0
 10
0.0
 20
0.0
 30
0.0
  3
*X77
  1

  4
*X7
  0
LINE
  5
1AB
330
1A8
100
AcDbEntity
  8
LC-002-005-----0
 62
     7
370
    25
100
AcDbLine
 10
313.140937
 20
355.5669
 30
0.0
 11
314.142738
 21
356.5687
 31
0.0
  0
LINE
  5
1AC
330
1A8
100
AcDbEntity
  8
LC-002-005-----0
 62
     7
370
    25
100
AcDbLine
 10
311.733737
 20
356.988127
 30
0.0
 11
316.95607
 21
362.210454
 31
0.0
  0
LINE
  5
1AD
330
1A8
100
AcDbEntity
  8
LC-002-005-----0
 62
     7
370
    25
100
AcDbLine
 10
314.024886
 20
362.107698
 30
0.0
 11
315.189574
 21
363.272385
 31
0.0
  0
LINE
  5
1AE
330
1A8
100
AcDbEntity
  8
LC-002-005-----0
 62
     7
370
    25
100
AcDbLine
 10
312.137484
 20
363.048724
 30
0.0
 11
313.302172
 21
364.213411
 31
0.0
  0
LINE
  5
1AF
330
1A8
100
AcDbEntity
  8
LC-002-005-----0
 62
     7
370
    25
100
AcDbLine
 10
310.250081
 20
363.98975
 30
0.0
 11
311.41477
 21
365.154436
 31
0.0
  0
LINE
  5
1B0
330
1A8
100
AcDbEntity
  8
LC-002-005-----0
 62
     7
370
    25
100
AcDbLine
 10
308.362679
 20
364.930775
 30
0.0
 11
309.527368
 21
366.095462
 31
0.0
  0
LINE
  5
1B1
330
1A8
100
AcDbEntity
  8
LC-002-005-----0
 62
     7
370
    25
100
AcDbLine
 10
305.310589
 20
364.707114
 30
0.0
 11
307.639965
 21
367.036488
 31
0.0
  0
ENDBLK
  5
1AA
330
1A8
100
AcDbEntity
  8
0
100
AcDbBlockEnd
  0
BLOCK
  5
1BA
330
1B9
100
AcDbEntity
  8
0
100
AcDbBlockBegin
  2
*X88
 70
     1
 71
     0
 10
0.0
 20
0.0
 30
0.0
  3
*X88
  1

  4
*X8
  0
LINE
  5
1BC
330
1B9
100
AcDbEntity
  8
LC-002-005-----0
 62
     7
370
    25
100
AcDbLine
 10
266.070191
 20
352.337219
 30
0.0
 11
267.097166
 21
353.364194
 31
0.0
  0
LINE
  5
1BD
330
1B9
100
AcDbEntity
  8
LC-002-005-----0
 62
     7
370
    25
100
AcDbLine
 10
264.666533
 20
352.347774
 30
0.0
 11
267.106109
 21
354.787349
 31
0.0
  0
LINE
  5
1BE
330
1B9
100
AcDbEntity
  8
LC-002-005-----0
 62
     7
370
    25
100
AcDbLine
 10
263.262874
 20
352.358329
 30
0.0
 11
266.469558
 21
355.565012
 31
0.0
  0
LINE
  5
1BF
330
1B9
100
AcDbEntity
  8
LC-002-005-----0
 62
     7
370
    25
100
AcDbLine
 10
261.859216
 20
352.368884
 30
0.0
 11
266.311532
 21
356.8212
 31
0.0
  0
LINE
  5
1C0
330
1B9
100
AcDbEntity
  8
LC-002-005-----0
 62
     7
370
    25
100
AcDbLine
 10
260.455557
 20
352.379438
 30
0.0
 11
263.809324
 21
355.733206
 31
0.0
  0
LINE
  5
1C1
330
1B9
100
AcDbEntity
  8
LC-002-005-----0
 62
     7
370
    25
100
AcDbLine
 10
259.149471
 20
352.487566
 30
0.0
 11
263.417083
 21
356.755178
 31
0.0
  0
LINE
  5
1C2
330
1B9
100
AcDbEntity
  8
LC-002-005-----0
 62
     7
370
    25
100
AcDbLine
 10
259.158413
 20
353.910722
 30
0.0
 11
261.292978
 21
356.045287
 31
0.0
  0
LINE
  5
1C3
330
1B9
100
AcDbEntity
  8
LC-002-005-----0
 62
     7
370
    25
100
AcDbLine
 10
259.167355
 20
355.333877
 30
0.0
 11
259.36409
 21
355.530612
 31
0.0
  0
ENDBLK
  5
1BB
330
1B9
100
AcDbEntity
  8
0
100
AcDbBlockEnd
  0
BLOCK
  5
1F6
330
1EC
100
AcDbEntity
  8
0
100
AcDbBlockBegin
  2
*D9
 70
     1
 71
     0
 10
0.0
 20
0.0
 30
0.0
  3
*D9
  1

  0
LINE
  5
1ED
330
1EC
100
AcDbEntity
  8
LC-005-003-----0
 62
     2
370
    -2
100
AcDbLine
 10
480.621804
 20
421.227545
 30
0.0
 11
510.491177
 21
421.227545
 31
0.0
  0
LINE
  5
1EE
330
1EC
100
AcDbEntity
  8
LC-005-003-----0
 62
     2
370
    -2
100
AcDbLine
 10
480.621804
 20
346.251545
 30
0.0
 11
510.491177
 21
346.251545
 31
0.0
  0
LINE
  5
1EF
330
1EC
100
AcDbEntity
  8
LC-005-003-----0
 62
     2
370
    -2
100
AcDbLine
 10
506.891177
 20
393.227545
 30
0.0
 11
506.891177
 21
374.251545
 31
0.0
  0
SOLID
  5
1F0
330
1EC
100
AcDbEntity
  8
LC-005-003-----0
 62
     2
100
AcDbTrace
 10
511.557844
 20
393.227545
 30
0.0
 11
502.22451
 21
393.227545
 31
0.0
 12
506.891177
 22
421.227545
 32
0.0
 13
506.891177
 23
421.227545
 33
0.0
  0
SOLID
  5
1F1
330
1EC
100
AcDbEntity
  8
LC-005-003-----0
 62
     2
100
AcDbTrace
 10
502.22451
 20
374.251545
 30
0.0
 11
511.557844
 21
374.251545
 31
0.0
 12
506.891177
 22
346.251545
 32
0.0
 13
506.891177
 23
346.251545
 33
0.0
  0
MTEXT
  5
1F2
330
1EC
100
AcDbEntity
  8
LC-005-003-----0
 62
     2
100
AcDbMText
 10
476.091177
 20
383.739545
 30
0.0
 40
28.0
 41
0.0
 71
     5
 72
     1
  1
\A1;DN70
  7
LCTX15-400-0-0pDIN-Schrift
 11
6.123031769111886E-17
 21
1.0
 31
0.0
 73
     1
 44
1.0
  0
POINT
  5
1F3
330
1EC
100
AcDbEntity
  8
Defpoints
 62
     0
100
AcDbPoint
 10
480.621804
 20
421.227545
 30
0.0
  0
POINT
  5
1F4
330
1EC
100
AcDbEntity
  8
Defpoints
 62
     0
100
AcDbPoint
 10
480.621804
 20
346.251545
 30
0.0
  0
POINT
  5
1F5
330
1EC
100
AcDbEntity
  8
Defpoints
 62
     0
100
AcDbPoint
 10
506.891177
 20
346.251545
 30
0.0
  0
ENDBLK
  5
1F7
330
1EC
100
AcDbEntity
  8
0
100
AcDbBlockEnd
  0
BLOCK
  5
203
330
1F9
100
AcDbEntity
  8
0
100
AcDbBlockBegin
  2
*D10
 70
     1
 71
     0
 10
0.0
 20
0.0
 30
0.0
  3
*D10
  1

  0
LINE
  5
1FA
330
1F9
100
AcDbEntity
  8
LC-005-003-----0
 62
     2
370
    -2
100
AcDbLine
 10
251.090666
 20
433.579545
 30
0.0
 11
228.891177
 21
433.579545
 31
0.0
  0
LINE
  5
1FB
330
1F9
100
AcDbEntity
  8
LC-005-003-----0
 62
     2
370
    -2
100
AcDbLine
 10
251.088748
 20
356.079545
 30
0.0
 11
228.891177
 21
356.079545
 31
0.0
  0
LINE
  5
1FC
330
1F9
100
AcDbEntity
  8
LC-005-003-----0
 62
     2
370
    -2
100
AcDbLine
 10
232.491177
 20
405.579545
 30
0.0
 11
232.491177
 21
384.079545
 31
0.0
  0
SOLID
  5
1FD
330
1F9
100
AcDbEntity
  8
LC-005-003-----0
 62
     2
100
AcDbTrace
 10
237.157844
 20
405.579545
 30
0.0
 11
227.82451
 21
405.579545
 31
0.0
 12
232.491177
 22
433.579545
 32
0.0
 13
232.491177
 23
433.579545
 33
0.0
  0
SOLID
  5
1FE
330
1F9
100
AcDbEntity
  8
LC-005-003-----0
 62
     2
100
AcDbTrace
 10
227.82451
 20
384.079545
 30
0.0
 11
237.157844
 21
384.079545
 31
0.0
 12
232.491177
 22
356.079545
 32
0.0
 13
232.491177
 23
356.079545
 33
0.0
  0
MTEXT
  5
1FF
330
1F9
100
AcDbEntity
  8
LC-005-003-----0
 62
     2
100
AcDbMText
 10
201.691177
 20
394.829545
 30
0.0
 40
28.0
 41
0.0
 71
     5
 72
     1
  1
\A1;DN70
  7
LCTX15-400-0-0pDIN-Schrift
 11
6.123031769111886E-17
 21
1.0
 31
0.0
 73
     1
 44
1.0
  0
POINT
  5
200
330
1F9
100
AcDbEntity
  8
Defpoints
 62
     0
100
AcDbPoint
 10
251.090666
 20
433.579545
 30
0.0
  0
POINT
  5
201
330
1F9
100
AcDbEntity
  8
Defpoints
 62
     0
100
AcDbPoint
 10
251.088748
 20
356.079545
 30
0.0
  0
POINT
  5
202
330
1F9
100
AcDbEntity
  8
Defpoints
 62
     0
100
AcDbPoint
 10
232.491177
 20
356.079545
 30
0.0
  0
ENDBLK
  5
204
330
1F9
100
AcDbEntity
  8
0
100
AcDbBlockEnd
  0
BLOCK
  5
210
330
206
100
AcDbEntity
  8
0
100
AcDbBlockBegin
  2
*D11
 70
     1
 71
     0
 10
0.0
 20
0.0
 30
0.0
  3
*D11
  1

  0
LINE
  5
207
330
206
100
AcDbEntity
  8
LC-005-003-----0
 62
     2
370
    -2
100
AcDbLine
 10
320.666741
 20
338.251545
 30
0.0
 11
189.691177
 21
338.251545
 31
0.0
  0
LINE
  5
208
330
206
100
AcDbEntity
  8
LC-005-003-----0
 62
     2
370
    -2
100
AcDbLine
 10
360.669093
 20
460.251545
 30
0.0
 11
189.691177
 21
460.251545
 31
0.0
  0
LINE
  5
209
330
206
100
AcDbEntity
  8
LC-005-003-----0
 62
     2
370
    -2
100
AcDbLine
 10
193.291177
 20
366.251545
 30
0.0
 11
193.291177
 21
432.251545
 31
0.0
  0
SOLID
  5
20A
330
206
100
AcDbEntity
  8
LC-005-003-----0
 62
     2
100
AcDbTrace
 10
188.62451
 20
366.251545
 30
0.0
 11
197.957844
 21
366.251545
 31
0.0
 12
193.291177
 22
338.251545
 32
0.0
 13
193.291177
 23
338.251545
 33
0.0
  0
SOLID
  5
20B
330
206
100
AcDbEntity
  8
LC-005-003-----0
 62
     2
100
AcDbTrace
 10
197.957844
 20
432.251545
 30
0.0
 11
188.62451
 21
432.251545
 31
0.0
 12
193.291177
 22
460.251545
 32
0.0
 13
193.291177
 23
460.251545
 33
0.0
  0
MTEXT
  5
20C
330
206
100
AcDbEntity
  8
LC-005-003-----0
 62
     2
100
AcDbMText
 10
162.491177
 20
399.251545
 30
0.0
 40
28.0
 41
0.0
 71
     5
 72
     1
  1
\A1;127
  7
LCTX15-400-0-0pDIN-Schrift
 11
6.123031769111886E-17
 21
1.0
 31
0.0
 73
     1
 44
1.0
  0
POINT
  5
20D
330
206
100
AcDbEntity
  8
Defpoints
 62
     0
100
AcDbPoint
 10
320.666741
 20
338.251545
 30
0.0
  0
POINT
  5
20E
330
206
100
AcDbEntity
  8
Defpoints
 62
     0
100
AcDbPoint
 10
360.669093
 20
460.251545
 30
0.0
  0
POINT
  5
20F
330
206
100
AcDbEntity
  8
Defpoints
 62
     0
100
AcDbPoint
 10
193.291177
 20
460.251545
 30
0.0
  0
ENDBLK
  5
211
330
206
100
AcDbEntity
  8
0
100
AcDbBlockEnd
  0
BLOCK
  5
21D
330
213
100
AcDbEntity
  8
0
100
AcDbBlockBegin
  2
*D12
 70
     1
 71
     0
 10
0.0
 20
0.0
 30
0.0
  3
*D12
  1

  0
LINE
  5
214
330
213
100
AcDbEntity
  8
LC-005-003-----0
 62
     2
370
    -2
100
AcDbLine
 10
251.088734
 20
353.579545
 30
0.0
 11
251.088734
 21
269.03
 31
0.0
  0
LINE
  5
215
330
213
100
AcDbEntity
  8
LC-005-003-----0
 62
     2
370
    -2
100
AcDbLine
 10
486.088804
 20
348.751545
 30
0.0
 11
486.088804
 21
269.03
 31
0.0
  0
LINE
  5
216
330
213
100
AcDbEntity
  8
LC-005-003-----0
 62
     2
370
    -2
100
AcDbLine
 10
279.088734
 20
272.63
 30
0.0
 11
458.088804
 21
272.63
 31
0.0
  0
SOLID
  5
217
330
213
100
AcDbEntity
  8
LC-005-003-----0
 62
     2
100
AcDbTrace
 10
279.088734
 20
277.296667
 30
0.0
 11
279.088734
 21
267.963333
 31
0.0
 12
251.088734
 22
272.63
 32
0.0
 13
251.088734
 23
272.63
 33
0.0
  0
SOLID
  5
218
330
213
100
AcDbEntity
  8
LC-005-003-----0
 62
     2
100
AcDbTrace
 10
458.088804
 20
267.963333
 30
0.0
 11
458.088804
 21
277.296667
 31
0.0
 12
486.088804
 22
272.63
 32
0.0
 13
486.088804
 23
272.63
 33
0.0
  0
MTEXT
  5
219
330
213
100
AcDbEntity
  8
LC-005-003-----0
 62
     2
100
AcDbMText
 10
368.588769
 20
303.43
 30
0.0
 40
28.0
 41
0.0
 71
     5
 72
     1
  1
\A1;235
  7
LCTX15-400-0-0pDIN-Schrift
 73
     1
 44
1.0
  0
POINT
  5
21A
330
213
100
AcDbEntity
  8
Defpoints
 62
     0
100
AcDbPoint
 10
251.088734
 20
353.579545
 30
0.0
  0
POINT
  5
21B
330
213
100
AcDbEntity
  8
Defpoints
 62
     0
100
AcDbPoint
 10
486.088804
 20
348.751545
 30
0.0
  0
POINT
  5
21C
330
213
100
AcDbEntity
  8
Defpoints
 62
     0
100
AcDbPoint
 10
486.088804
 20
272.63
 30
0.0
  0
ENDBLK
  5
21E
330
213
100
AcDbEntity
  8
0
100
AcDbBlockEnd
  0
BLOCK
  5
267
330
266
100
AcDbEntity
  8
0
100
AcDbBlockBegin
  2
POLY1
 70
     0
 71
     0
 10
0.0
 20
0.0
 30
0.0
  3
POLY1
  1

  4
POLY1
  0
LINE
  5
269
330
266
100
AcDbEntity
  8
LC-007-100-D00-0
 62
     7
370
    50
100
AcDbLine
 10
331.089277
 20
59.051913
 30
0.0
 11
331.089277
 21
59.051913
 31
0.0
  0
LINE
  5
26A
330
266
100
AcDbEntity
  8
LC-007-100-D00-0
 62
     7
370
    50
100
AcDbLine
 10
331.089277
 20
59.051913
 30
0.0
 11
330.059367
 21
59.150609
 31
0.0
  0
LINE
  5
26B
330
266
100
AcDbEntity
  8
LC-007-100-D00-0
 62
     7
370
    50
100
AcDbLine
 10
330.059367
 20
59.150609
 30
0.0
 11
330.059367
 21
59.150609
 31
0.0
  0
LINE
  5
26C
330
266
100
AcDbEntity
  8
LC-007-100-D00-0
 62
     7
370
    50
100
AcDbLine
 10
330.059367
 20
59.150609
 30
0.0
 11
328.988651
 21
59.327101
 31
0.0
  0
LINE
  5
26D
330
266
100
AcDbEntity
  8
LC-007-100-D00-0
 62
     7
370
    50
100
AcDbLine
 10
328.988651
 20
59.327101
 30
0.0
 11
328.988651
 21
59.327101
 31
0.0
  0
LINE
  5
26E
330
266
100
AcDbEntity
  8
LC-007-100-D00-0
 62
     7
370
    50
100
AcDbLine
 10
328.988651
 20
59.327101
 30
0.0
 11
327.938968
 21
59.573938
 31
0.0
  0
LINE
  5
26F
330
266
100
AcDbEntity
  8
LC-007-100-D00-0
 62
     7
370
    50
100
AcDbLine
 10
327.938968
 20
59.573938
 30
0.0
 11
327.938968
 21
59.573938
 31
0.0
  0
LINE
  5
270
330
266
100
AcDbEntity
  8
LC-007-100-D00-0
 62
     7
370
    50
100
AcDbLine
 10
327.938968
 20
59.573938
 30
0.0
 11
326.898719
 21
59.89164
 31
0.0
  0
LINE
  5
271
330
266
100
AcDbEntity
  8
LC-007-100-D00-0
 62
     7
370
    50
100
AcDbLine
 10
326.898719
 20
59.89164
 30
0.0
 11
326.898719
 21
59.89164
 31
0.0
  0
LINE
  5
272
330
266
100
AcDbEntity
  8
LC-007-100-D00-0
 62
     7
370
    50
100
AcDbLine
 10
326.898719
 20
59.89164
 30
0.0
 11
325.83673
 21
60.292371
 31
0.0
  0
LINE
  5
273
330
266
100
AcDbEntity
  8
LC-007-100-D00-0
 62
     7
370
    50
100
AcDbLine
 10
325.83673
 20
60.292371
 30
0.0
 11
325.83673
 21
60.292371
 31
0.0
  0
LINE
  5
274
330
266
100
AcDbEntity
  8
LC-007-100-D00-0
 62
     7
370
    50
100
AcDbLine
 10
325.83673
 20
60.292371
 30
0.0
 11
324.826872
 21
60.746592
 31
0.0
  0
LINE
  5
275
330
266
100
AcDbEntity
  8
LC-007-100-D00-0
 62
     7
370
    50
100
AcDbLine
 10
324.826872
 20
60.746592
 30
0.0
 11
324.826872
 21
60.746592
 31
0.0
  0
LINE
  5
276
330
266
100
AcDbEntity
  8
LC-007-100-D00-0
 62
     7
370
    50
100
AcDbLine
 10
324.826872
 20
60.746592
 30
0.0
 11
323.798449
 21
61.28439
 31
0.0
  0
LINE
  5
277
330
266
100
AcDbEntity
  8
LC-007-100-D00-0
 62
     7
370
    50
100
AcDbLine
 10
323.798449
 20
61.28439
 30
0.0
 11
323.798449
 21
61.28439
 31
0.0
  0
LINE
  5
278
330
266
100
AcDbEntity
  8
LC-007-100-D00-0
 62
     7
370
    50
100
AcDbLine
 10
323.798449
 20
61.28439
 30
0.0
 11
322.780842
 21
61.893534
 31
0.0
  0
LINE
  5
279
330
266
100
AcDbEntity
  8
LC-007-100-D00-0
 62
     7
370
    50
100
AcDbLine
 10
322.780842
 20
61.893534
 30
0.0
 11
322.780842
 21
61.893534
 31
0.0
  0
LINE
  5
27A
330
266
100
AcDbEntity
  8
LC-007-100-D00-0
 62
     7
370
    50
100
AcDbLine
 10
322.780842
 20
61.893534
 30
0.0
 11
320.757731
 21
63.343318
 31
0.0
  0
LINE
  5
27B
330
266
100
AcDbEntity
  8
LC-007-100-D00-0
 62
     7
370
    50
100
AcDbLine
 10
320.757731
 20
63.343318
 30
0.0
 11
320.757731
 21
63.343318
 31
0.0
  0
LINE
  5
27C
330
266
100
AcDbEntity
  8
LC-007-100-D00-0
 62
     7
370
    50
100
AcDbLine
 10
320.757731
 20
63.343318
 30
0.0
 11
318.799697
 21
65.071603
 31
0.0
  0
LINE
  5
27D
330
266
100
AcDbEntity
  8
LC-007-100-D00-0
 62
     7
370
    50
100
AcDbLine
 10
318.799697
 20
65.071603
 30
0.0
 11
318.799697
 21
65.071603
 31
0.0
  0
LINE
  5
27E
330
266
100
AcDbEntity
  8
LC-007-100-D00-0
 62
     7
370
    50
100
AcDbLine
 10
318.799697
 20
65.071603
 30
0.0
 11
317.829535
 21
66.056905
 31
0.0
  0
LINE
  5
27F
330
266
100
AcDbEntity
  8
LC-007-100-D00-0
 62
     7
370
    50
100
AcDbLine
 10
317.829535
 20
66.056905
 30
0.0
 11
317.829535
 21
66.056905
 31
0.0
  0
LINE
  5
280
330
266
100
AcDbEntity
  8
LC-007-100-D00-0
 62
     7
370
    50
100
AcDbLine
 10
317.829535
 20
66.056905
 30
0.0
 11
316.883063
 21
67.107231
 31
0.0
  0
LINE
  5
281
330
266
100
AcDbEntity
  8
LC-007-100-D00-0
 62
     7
370
    50
100
AcDbLine
 10
316.883063
 20
67.107231
 30
0.0
 11
316.883063
 21
67.107231
 31
0.0
  0
LINE
  5
282
330
266
100
AcDbEntity
  8
LC-007-100-D00-0
 62
     7
370
    50
100
AcDbLine
 10
316.883063
 20
67.107231
 30
0.0
 11
315.911572
 21
68.283208
 31
0.0
  0
LINE
  5
283
330
266
100
AcDbEntity
  8
LC-007-100-D00-0
 62
     7
370
    50
100
AcDbLine
 10
315.911572
 20
68.283208
 30
0.0
 11
315.911572
 21
68.283208
 31
0.0
  0
LINE
  5
284
330
266
100
AcDbEntity
  8
LC-007-100-D00-0
 62
     7
370
    50
100
AcDbLine
 10
315.911572
 20
68.283208
 30
0.0
 11
315.029512
 21
69.443317
 31
0.0
  0
LINE
  5
285
330
266
100
AcDbEntity
  8
LC-007-100-D00-0
 62
     7
370
    50
100
AcDbLine
 10
315.029512
 20
69.443317
 30
0.0
 11
315.029512
 21
69.443317
 31
0.0
  0
LINE
  5
286
330
266
100
AcDbEntity
  8
LC-007-100-D00-0
 62
     7
370
    50
100
AcDbLine
 10
315.029512
 20
69.443317
 30
0.0
 11
314.158881
 21
70.681701
 31
0.0
  0
LINE
  5
287
330
266
100
AcDbEntity
  8
LC-007-100-D00-0
 62
     7
370
    50
100
AcDbLine
 10
314.158881
 20
70.681701
 30
0.0
 11
314.158881
 21
70.681701
 31
0.0
  0
LINE
  5
288
330
266
100
AcDbEntity
  8
LC-007-100-D00-0
 62
     7
370
    50
100
AcDbLine
 10
314.158881
 20
70.681701
 30
0.0
 11
313.250752
 21
72.081077
 31
0.0
  0
LINE
  5
289
330
266
100
AcDbEntity
  8
LC-007-100-D00-0
 62
     7
370
    50
100
AcDbLine
 10
313.250752
 20
72.081077
 30
0.0
 11
313.250752
 21
72.081077
 31
0.0
  0
LINE
  5
28A
330
266
100
AcDbEntity
  8
LC-007-100-D00-0
 62
     7
370
    50
100
AcDbLine
 10
313.250752
 20
72.081077
 30
0.0
 11
312.597358
 21
73.162094
 31
0.0
  0
LINE
  5
28B
330
266
100
AcDbEntity
  8
LC-007-100-D00-0
 62
     7
370
    50
100
AcDbLine
 10
312.597358
 20
73.162094
 30
0.0
 11
312.597358
 21
73.162094
 31
0.0
  0
LINE
  5
28C
330
266
100
AcDbEntity
  8
LC-007-100-D00-0
 62
     7
370
    50
100
AcDbLine
 10
312.597358
 20
73.162094
 30
0.0
 11
311.945797
 21
74.307533
 31
0.0
  0
ENDBLK
  5
268
330
266
100
AcDbEntity
  8
0
100
AcDbBlockEnd
  0
BLOCK
  5
28F
330
28E
100
AcDbEntity
  8
0
100
AcDbBlockBegin
  2
POLY2
 70
     0
 71
     0
 10
0.0
 20
0.0
 30
0.0
  3
POLY2
  1

  4
POLY2
  0
LINE
  5
291
330
28E
100
AcDbEntity
  8
LC-007-100-D00-0
 62
     7
370
    50
100
AcDbLine
 10
331.288477
 20
58.417033
 30
0.0
 11
331.288477
 21
58.417033
 31
0.0
  0
LINE
  5
292
330
28E
100
AcDbEntity
  8
LC-007-100-D00-0
 62
     7
370
    50
100
AcDbLine
 10
331.288477
 20
58.417033
 30
0.0
 11
330.488717
 21
58.480095
 31
0.0
  0
LINE
  5
293
330
28E
100
AcDbEntity
  8
LC-007-100-D00-0
 62
     7
370
    50
100
AcDbLine
 10
330.488717
 20
58.480095
 30
0.0
 11
330.488717
 21
58.480095
 31
0.0
  0
LINE
  5
294
330
28E
100
AcDbEntity
  8
LC-007-100-D00-0
 62
     7
370
    50
100
AcDbLine
 10
330.488717
 20
58.480095
 30
0.0
 11
329.668652
 21
58.588624
 31
0.0
  0
LINE
  5
295
330
28E
100
AcDbEntity
  8
LC-007-100-D00-0
 62
     7
370
    50
100
AcDbLine
 10
329.668652
 20
58.588624
 30
0.0
 11
329.668652
 21
58.588624
 31
0.0
  0
LINE
  5
296
330
28E
100
AcDbEntity
  8
LC-007-100-D00-0
 62
     7
370
    50
100
AcDbLine
 10
329.668652
 20
58.588624
 30
0.0
 11
328.890988
 21
58.732839
 31
0.0
  0
LINE
  5
297
330
28E
100
AcDbEntity
  8
LC-007-100-D00-0
 62
     7
370
    50
100
AcDbLine
 10
328.890988
 20
58.732839
 30
0.0
 11
328.890988
 21
58.732839
 31
0.0
  0
LINE
  5
298
330
28E
100
AcDbEntity
  8
LC-007-100-D00-0
 62
     7
370
    50
100
AcDbLine
 10
328.890988
 20
58.732839
 30
0.0
 11
328.054185
 21
58.933331
 31
0.0
  0
LINE
  5
299
330
28E
100
AcDbEntity
  8
LC-007-100-D00-0
 62
     7
370
    50
100
AcDbLine
 10
328.054185
 20
58.933331
 30
0.0
 11
328.054185
 21
58.933331
 31
0.0
  0
LINE
  5
29A
330
28E
100
AcDbEntity
  8
LC-007-100-D00-0
 62
     7
370
    50
100
AcDbLine
 10
328.054185
 20
58.933331
 30
0.0
 11
326.363925
 21
59.483932
 31
0.0
  0
LINE
  5
29B
330
28E
100
AcDbEntity
  8
LC-007-100-D00-0
 62
     7
370
    50
100
AcDbLine
 10
326.363925
 20
59.483932
 30
0.0
 11
326.363925
 21
59.483932
 31
0.0
  0
LINE
  5
29C
330
28E
100
AcDbEntity
  8
LC-007-100-D00-0
 62
     7
370
    50
100
AcDbLine
 10
326.363925
 20
59.483932
 30
0.0
 11
324.854812
 21
60.144548
 31
0.0
  0
LINE
  5
29D
330
28E
100
AcDbEntity
  8
LC-007-100-D00-0
 62
     7
370
    50
100
AcDbLine
 10
324.854812
 20
60.144548
 30
0.0
 11
324.854812
 21
60.144548
 31
0.0
  0
LINE
  5
29E
330
28E
100
AcDbEntity
  8
LC-007-100-D00-0
 62
     7
370
    50
100
AcDbLine
 10
324.854812
 20
60.144548
 30
0.0
 11
323.198516
 21
61.060848
 31
0.0
  0
LINE
  5
29F
330
28E
100
AcDbEntity
  8
LC-007-100-D00-0
 62
     7
370
    50
100
AcDbLine
 10
323.198516
 20
61.060848
 30
0.0
 11
323.198516
 21
61.060848
 31
0.0
  0
LINE
  5
2A0
330
28E
100
AcDbEntity
  8
LC-007-100-D00-0
 62
     7
370
    50
100
AcDbLine
 10
323.198516
 20
61.060848
 30
0.0
 11
321.718502
 21
62.057668
 31
0.0
  0
LINE
  5
2A1
330
28E
100
AcDbEntity
  8
LC-007-100-D00-0
 62
     7
370
    50
100
AcDbLine
 10
321.718502
 20
62.057668
 30
0.0
 11
321.718502
 21
62.057668
 31
0.0
  0
LINE
  5
2A2
330
28E
100
AcDbEntity
  8
LC-007-100-D00-0
 62
     7
370
    50
100
AcDbLine
 10
321.718502
 20
62.057668
 30
0.0
 11
320.170475
 21
63.291638
 31
0.0
  0
LINE
  5
2A3
330
28E
100
AcDbEntity
  8
LC-007-100-D00-0
 62
     7
370
    50
100
AcDbLine
 10
320.170475
 20
63.291638
 30
0.0
 11
320.170475
 21
63.291638
 31
0.0
  0
LINE
  5
2A4
330
28E
100
AcDbEntity
  8
LC-007-100-D00-0
 62
     7
370
    50
100
AcDbLine
 10
320.170475
 20
63.291638
 30
0.0
 11
318.676177
 21
64.682343
 31
0.0
  0
ENDBLK
  5
290
330
28E
100
AcDbEntity
  8
0
100
AcDbBlockEnd
  0
BLOCK
  5
2A7
330
2A6
100
AcDbEntity
  8
0
100
AcDbBlockBegin
  2
POLY3
 70
     0
 71
     0
 10
0.0
 20
0.0
 30
0.0
  3
POLY3
  1

  4
POLY3
  0
LINE
  5
2A9
330
2A6
100
AcDbEntity
  8
LC-007-100-D00-0
 62
     7
370
    50
100
AcDbLine
 10
331.422893
 20
58.523845
 30
0.0
 11
331.422893
 21
58.523845
 31
0.0
  0
LINE
  5
2AA
330
2A6
100
AcDbEntity
  8
LC-007-100-D00-0
 62
     7
370
    50
100
AcDbLine
 10
331.422893
 20
58.523845
 30
0.0
 11
331.213159
 21
58.772349
 31
0.0
  0
LINE
  5
2AB
330
2A6
100
AcDbEntity
  8
LC-007-100-D00-0
 62
     7
370
    50
100
AcDbLine
 10
331.213159
 20
58.772349
 30
0.0
 11
331.213159
 21
58.772349
 31
0.0
  0
LINE
  5
2AC
330
2A6
100
AcDbEntity
  8
LC-007-100-D00-0
 62
     7
370
    50
100
AcDbLine
 10
331.213159
 20
58.772349
 30
0.0
 11
331.089277
 21
59.051913
 31
0.0
  0
ENDBLK
  5
2A8
330
2A6
100
AcDbEntity
  8
0
100
AcDbBlockEnd
  0
BLOCK
  5
2AF
330
2AE
100
AcDbEntity
  8
0
100
AcDbBlockBegin
  2
POLY4
 70
     0
 71
     0
 10
0.0
 20
0.0
 30
0.0
  3
POLY4
  1

  4
POLY4
  0
LINE
  5
2B1
330
2AE
100
AcDbEntity
  8
LC-007-100-D00-0
 62
     7
370
    50
100
AcDbLine
 10
331.995584
 20
58.216222
 30
0.0
 11
331.995584
 21
58.216222
 31
0.0
  0
LINE
  5
2B2
330
2AE
100
AcDbEntity
  8
LC-007-100-D00-0
 62
     7
370
    50
100
AcDbLine
 10
331.995584
 20
58.216222
 30
0.0
 11
331.692397
 21
58.330452
 31
0.0
  0
LINE
  5
2B3
330
2AE
100
AcDbEntity
  8
LC-007-100-D00-0
 62
     7
370
    50
100
AcDbLine
 10
331.692397
 20
58.330452
 30
0.0
 11
331.692397
 21
58.330452
 31
0.0
  0
LINE
  5
2B4
330
2AE
100
AcDbEntity
  8
LC-007-100-D00-0
 62
     7
370
    50
100
AcDbLine
 10
331.692397
 20
58.330452
 30
0.0
 11
331.422893
 21
58.523845
 31
0.0
  0
ENDBLK
  5
2B0
330
2AE
100
AcDbEntity
  8
0
100
AcDbBlockEnd
  0
BLOCK
  5
2B7
330
2B6
100
AcDbEntity
  8
0
100
AcDbBlockBegin
  2
POLY5
 70
     0
 71
     0
 10
0.0
 20
0.0
 30
0.0
  3
POLY5
  1

  4
POLY5
  0
LINE
  5
2B9
330
2B6
100
AcDbEntity
  8
LC-007-100-D00-0
 62
     7
370
    50
100
AcDbLine
 10
331.612667
 20
58.25556
 30
0.0
 11
331.612667
 21
58.25556
 31
0.0
  0
LINE
  5
2BA
330
2B6
100
AcDbEntity
  8
LC-007-100-D00-0
 62
     7
370
    50
100
AcDbLine
 10
331.612667
 20
58.25556
 30
0.0
 11
331.800298
 21
58.219626
 31
0.0
  0
LINE
  5
2BB
330
2B6
100
AcDbEntity
  8
LC-007-100-D00-0
 62
     7
370
    50
100
AcDbLine
 10
331.800298
 20
58.219626
 30
0.0
 11
331.800298
 21
58.219626
 31
0.0
  0
LINE
  5
2BC
330
2B6
100
AcDbEntity
  8
LC-007-100-D00-0
 62
     7
370
    50
100
AcDbLine
 10
331.800298
 20
58.219626
 30
0.0
 11
331.995584
 21
58.216222
 31
0.0
  0
ENDBLK
  5
2B8
330
2B6
100
AcDbEntity
  8
0
100
AcDbBlockEnd
  0
BLOCK
  5
2BF
330
2BE
100
AcDbEntity
  8
0
100
AcDbBlockBegin
  2
POLY6
 70
     0
 71
     0
 10
0.0
 20
0.0
 30
0.0
  3
POLY6
  1

  4
POLY6
  0
LINE
  5
2C1
330
2BE
100
AcDbEntity
  8
LC-007-100-D00-0
 62
     7
370
    50
100
AcDbLine
 10
331.288477
 20
58.417033
 30
0.0
 11
331.288477
 21
58.417033
 31
0.0
  0
LINE
  5
2C2
330
2BE
100
AcDbEntity
  8
LC-007-100-D00-0
 62
     7
370
    50
100
AcDbLine
 10
331.288477
 20
58.417033
 30
0.0
 11
331.439718
 21
58.322027
 31
0.0
  0
LINE
  5
2C3
330
2BE
100
AcDbEntity
  8
LC-007-100-D00-0
 62
     7
370
    50
100
AcDbLine
 10
331.439718
 20
58.322027
 30
0.0
 11
331.439718
 21
58.322027
 31
0.0
  0
LINE
  5
2C4
330
2BE
100
AcDbEntity
  8
LC-007-100-D00-0
 62
     7
370
    50
100
AcDbLine
 10
331.439718
 20
58.322027
 30
0.0
 11
331.612667
 21
58.25556
 31
0.0
  0
ENDBLK
  5
2C0
330
2BE
100
AcDbEntity
  8
0
100
AcDbBlockEnd
  0
BLOCK
  5
2C7
330
2C6
100
AcDbEntity
  8
0
100
AcDbBlockBegin
  2
POLY7
 70
     0
 71
     0
 10
0.0
 20
0.0
 30
0.0
  3
POLY7
  1

  4
POLY7
  0
LINE
  5
2C9
330
2C6
100
AcDbEntity
  8
LC-007-100-D00-0
 62
     7
370
    50
100
AcDbLine
 10
331.139149
 20
58.714905
 30
0.0
 11
331.139149
 21
58.714905
 31
0.0
  0
LINE
  5
2CA
330
2C6
100
AcDbEntity
  8
LC-007-100-D00-0
 62
     7
370
    50
100
AcDbLine
 10
331.139149
 20
58.714905
 30
0.0
 11
331.202124
 21
58.55871
 31
0.0
  0
LINE
  5
2CB
330
2C6
100
AcDbEntity
  8
LC-007-100-D00-0
 62
     7
370
    50
100
AcDbLine
 10
331.202124
 20
58.55871
 30
0.0
 11
331.202124
 21
58.55871
 31
0.0
  0
LINE
  5
2CC
330
2C6
100
AcDbEntity
  8
LC-007-100-D00-0
 62
     7
370
    50
100
AcDbLine
 10
331.202124
 20
58.55871
 30
0.0
 11
331.288477
 21
58.417033
 31
0.0
  0
ENDBLK
  5
2C8
330
2C6
100
AcDbEntity
  8
0
100
AcDbBlockEnd
  0
BLOCK
  5
2CF
330
2CE
100
AcDbEntity
  8
0
100
AcDbBlockBegin
  2
POLY8
 70
     0
 71
     0
 10
0.0
 20
0.0
 30
0.0
  3
POLY8
  1

  4
POLY8
  0
LINE
  5
2D1
330
2CE
100
AcDbEntity
  8
LC-007-100-D00-0
 62
     7
370
    50
100
AcDbLine
 10
318.676177
 20
64.682343
 30
0.0
 11
318.676177
 21
64.682343
 31
0.0
  0
LINE
  5
2D2
330
2CE
100
AcDbEntity
  8
LC-007-100-D00-0
 62
     7
370
    50
100
AcDbLine
 10
318.676177
 20
64.682343
 30
0.0
 11
317.239754
 21
66.216021
 31
0.0
  0
LINE
  5
2D3
330
2CE
100
AcDbEntity
  8
LC-007-100-D00-0
 62
     7
370
    50
100
AcDbLine
 10
317.239754
 20
66.216021
 30
0.0
 11
317.239754
 21
66.216021
 31
0.0
  0
LINE
  5
2D4
330
2CE
100
AcDbEntity
  8
LC-007-100-D00-0
 62
     7
370
    50
100
AcDbLine
 10
317.239754
 20
66.216021
 30
0.0
 11
315.853309
 21
67.893343
 31
0.0
  0
LINE
  5
2D5
330
2CE
100
AcDbEntity
  8
LC-007-100-D00-0
 62
     7
370
    50
100
AcDbLine
 10
315.853309
 20
67.893343
 30
0.0
 11
315.853309
 21
67.893343
 31
0.0
  0
LINE
  5
2D6
330
2CE
100
AcDbEntity
  8
LC-007-100-D00-0
 62
     7
370
    50
100
AcDbLine
 10
315.853309
 20
67.893343
 30
0.0
 11
314.620103
 21
69.565874
 31
0.0
  0
LINE
  5
2D7
330
2CE
100
AcDbEntity
  8
LC-007-100-D00-0
 62
     7
370
    50
100
AcDbLine
 10
314.620103
 20
69.565874
 30
0.0
 11
314.620103
 21
69.565874
 31
0.0
  0
LINE
  5
2D8
330
2CE
100
AcDbEntity
  8
LC-007-100-D00-0
 62
     7
370
    50
100
AcDbLine
 10
314.620103
 20
69.565874
 30
0.0
 11
313.324585
 21
71.528969
 31
0.0
  0
LINE
  5
2D9
330
2CE
100
AcDbEntity
  8
LC-007-100-D00-0
 62
     7
370
    50
100
AcDbLine
 10
313.324585
 20
71.528969
 30
0.0
 11
313.324585
 21
71.528969
 31
0.0
  0
LINE
  5
2DA
330
2CE
100
AcDbEntity
  8
LC-007-100-D00-0
 62
     7
370
    50
100
AcDbLine
 10
313.324585
 20
71.528969
 30
0.0
 11
312.73495
 21
72.500215
 31
0.0
  0
LINE
  5
2DB
330
2CE
100
AcDbEntity
  8
LC-007-100-D00-0
 62
     7
370
    50
100
AcDbLine
 10
312.73495
 20
72.500215
 30
0.0
 11
312.73495
 21
72.500215
 31
0.0
  0
LINE
  5
2DC
330
2CE
100
AcDbEntity
  8
LC-007-100-D00-0
 62
     7
370
    50
100
AcDbLine
 10
312.73495
 20
72.500215
 30
0.0
 11
312.120403
 21
73.56947
 31
0.0
  0
LINE
  5
2DD
330
2CE
100
AcDbEntity
  8
LC-007-100-D00-0
 62
     7
370
    50
100
AcDbLine
 10
312.120403
 20
73.56947
 30
0.0
 11
312.120403
 21
73.56947
 31
0.0
  0
LINE
  5
2DE
330
2CE
100
AcDbEntity
  8
LC-007-100-D00-0
 62
     7
370
    50
100
AcDbLine
 10
312.120403
 20
73.56947
 30
0.0
 11
311.913504
 21
73.943334
 31
0.0
  0
LINE
  5
2DF
330
2CE
100
AcDbEntity
  8
LC-007-100-D00-0
 62
     7
370
    50
100
AcDbLine
 10
311.913504
 20
73.943334
 30
0.0
 11
311.913504
 21
73.943334
 31
0.0
  0
LINE
  5
2E0
330
2CE
100
AcDbEntity
  8
LC-007-100-D00-0
 62
     7
370
    50
100
AcDbLine
 10
311.913504
 20
73.943334
 30
0.0
 11
311.715735
 21
74.307533
 31
0.0
  0
ENDBLK
  5
2D0
330
2CE
100
AcDbEntity
  8
0
100
AcDbBlockEnd
  0
BLOCK
  5
2E3
330
2E2
100
AcDbEntity
  8
0
100
AcDbBlockBegin
  2
POLY9
 70
     0
 71
     0
 10
0.0
 20
0.0
 30
0.0
  3
POLY9
  1

  4
POLY9
  0
LINE
  5
2E5
330
2E2
100
AcDbEntity
  8
LC-007-100-D00-0
 62
     7
370
    50
100
AcDbLine
 10
331.089277
 20
59.051913
 30
0.0
 11
331.089277
 21
59.051913
 31
0.0
  0
LINE
  5
2E6
330
2E2
100
AcDbEntity
  8
LC-007-100-D00-0
 62
     7
370
    50
100
AcDbLine
 10
331.089277
 20
59.051913
 30
0.0
 11
331.101038
 21
58.880885
 31
0.0
  0
LINE
  5
2E7
330
2E2
100
AcDbEntity
  8
LC-007-100-D00-0
 62
     7
370
    50
100
AcDbLine
 10
331.101038
 20
58.880885
 30
0.0
 11
331.101038
 21
58.880885
 31
0.0
  0
LINE
  5
2E8
330
2E2
100
AcDbEntity
  8
LC-007-100-D00-0
 62
     7
370
    50
100
AcDbLine
 10
331.101038
 20
58.880885
 30
0.0
 11
331.139149
 21
58.714905
 31
0.0
  0
ENDBLK
  5
2E4
330
2E2
100
AcDbEntity
  8
0
100
AcDbBlockEnd
  0
BLOCK
  5
2EB
330
2EA
100
AcDbEntity
  8
0
100
AcDbBlockBegin
  2
POLY10
 70
     0
 71
     0
 10
0.0
 20
0.0
 30
0.0
  3
POLY10
  1

  4
POLY10
  0
LINE
  5
2ED
330
2EA
100
AcDbEntity
  8
LC-007-100-D00-0
 62
     7
370
    50
100
AcDbLine
 10
342.351925
 20
87.602271
 30
0.0
 11
341.664773
 21
84.677112
 31
0.0
  0
LINE
  5
2EE
330
2EA
100
AcDbEntity
  8
LC-007-100-D00-0
 62
     7
370
    50
100
AcDbLine
 10
341.664773
 20
84.677112
 30
0.0
 11
340.254683
 21
79.12312
 31
0.0
  0
LINE
  5
2EF
330
2EA
100
AcDbEntity
  8
LC-007-100-D00-0
 62
     7
370
    50
100
AcDbLine
 10
340.254683
 20
79.12312
 30
0.0
 11
338.963897
 21
74.946604
 31
0.0
  0
LINE
  5
2F0
330
2EA
100
AcDbEntity
  8
LC-007-100-D00-0
 62
     7
370
    50
100
AcDbLine
 10
338.963897
 20
74.946604
 30
0.0
 11
337.605869
 21
71.385278
 31
0.0
  0
LINE
  5
2F1
330
2EA
100
AcDbEntity
  8
LC-007-100-D00-0
 62
     7
370
    50
100
AcDbLine
 10
337.605869
 20
71.385278
 30
0.0
 11
337.605869
 21
71.385278
 31
0.0
  0
LINE
  5
2F2
330
2EA
100
AcDbEntity
  8
LC-007-100-D00-0
 62
     7
370
    50
100
AcDbLine
 10
337.605869
 20
71.385278
 30
0.0
 11
336.873413
 21
69.608749
 31
0.0
  0
LINE
  5
2F3
330
2EA
100
AcDbEntity
  8
LC-007-100-D00-0
 62
     7
370
    50
100
AcDbLine
 10
336.873413
 20
69.608749
 30
0.0
 11
336.873413
 21
69.608749
 31
0.0
  0
LINE
  5
2F4
330
2EA
100
AcDbEntity
  8
LC-007-100-D00-0
 62
     7
370
    50
100
AcDbLine
 10
336.873413
 20
69.608749
 30
0.0
 11
336.118325
 21
67.904284
 31
0.0
  0
LINE
  5
2F5
330
2EA
100
AcDbEntity
  8
LC-007-100-D00-0
 62
     7
370
    50
100
AcDbLine
 10
336.118325
 20
67.904284
 30
0.0
 11
336.118325
 21
67.904284
 31
0.0
  0
LINE
  5
2F6
330
2EA
100
AcDbEntity
  8
LC-007-100-D00-0
 62
     7
370
    50
100
AcDbLine
 10
336.118325
 20
67.904284
 30
0.0
 11
335.35064
 21
66.289494
 31
0.0
  0
LINE
  5
2F7
330
2EA
100
AcDbEntity
  8
LC-007-100-D00-0
 62
     7
370
    50
100
AcDbLine
 10
335.35064
 20
66.289494
 30
0.0
 11
335.35064
 21
66.289494
 31
0.0
  0
LINE
  5
2F8
330
2EA
100
AcDbEntity
  8
LC-007-100-D00-0
 62
     7
370
    50
100
AcDbLine
 10
335.35064
 20
66.289494
 30
0.0
 11
334.529863
 21
64.681654
 31
0.0
  0
LINE
  5
2F9
330
2EA
100
AcDbEntity
  8
LC-007-100-D00-0
 62
     7
370
    50
100
AcDbLine
 10
334.529863
 20
64.681654
 30
0.0
 11
334.529863
 21
64.681654
 31
0.0
  0
LINE
  5
2FA
330
2EA
100
AcDbEntity
  8
LC-007-100-D00-0
 62
     7
370
    50
100
AcDbLine
 10
334.529863
 20
64.681654
 30
0.0
 11
332.856223
 21
61.737671
 31
0.0
  0
LINE
  5
2FB
330
2EA
100
AcDbEntity
  8
LC-007-100-D00-0
 62
     7
370
    50
100
AcDbLine
 10
332.856223
 20
61.737671
 30
0.0
 11
332.856223
 21
61.737671
 31
0.0
  0
LINE
  5
2FC
330
2EA
100
AcDbEntity
  8
LC-007-100-D00-0
 62
     7
370
    50
100
AcDbLine
 10
332.856223
 20
61.737671
 30
0.0
 11
331.089277
 21
59.051913
 31
0.0
  0
ENDBLK
  5
2EC
330
2EA
100
AcDbEntity
  8
0
100
AcDbBlockEnd
  0
BLOCK
  5
2FF
330
2FE
100
AcDbEntity
  8
0
100
AcDbBlockBegin
  2
POLY11
 70
     0
 71
     0
 10
0.0
 20
0.0
 30
0.0
  3
POLY11
  1

  4
POLY11
  0
LINE
  5
301
330
2FE
100
AcDbEntity
  8
LC-007-100-D00-0
 62
     7
370
    50
100
AcDbLine
 10
321.261852
 20
154.107533
 30
0.0
 11
321.261852
 21
154.107533
 31
0.0
  0
LINE
  5
302
330
2FE
100
AcDbEntity
  8
LC-007-100-D00-0
 62
     7
370
    50
100
AcDbLine
 10
321.261852
 20
154.107533
 30
0.0
 11
324.172421
 21
153.616298
 31
0.0
  0
LINE
  5
303
330
2FE
100
AcDbEntity
  8
LC-007-100-D00-0
 62
     7
370
    50
100
AcDbLine
 10
324.172421
 20
153.616298
 30
0.0
 11
324.172421
 21
153.616298
 31
0.0
  0
LINE
  5
304
330
2FE
100
AcDbEntity
  8
LC-007-100-D00-0
 62
     7
370
    50
100
AcDbLine
 10
324.172421
 20
153.616298
 30
0.0
 11
327.011322
 21
152.154688
 31
0.0
  0
LINE
  5
305
330
2FE
100
AcDbEntity
  8
LC-007-100-D00-0
 62
     7
370
    50
100
AcDbLine
 10
327.011322
 20
152.154688
 30
0.0
 11
327.011322
 21
152.154688
 31
0.0
  0
LINE
  5
306
330
2FE
100
AcDbEntity
  8
LC-007-100-D00-0
 62
     7
370
    50
100
AcDbLine
 10
327.011322
 20
152.154688
 30
0.0
 11
329.708652
 21
149.758693
 31
0.0
  0
LINE
  5
307
330
2FE
100
AcDbEntity
  8
LC-007-100-D00-0
 62
     7
370
    50
100
AcDbLine
 10
329.708652
 20
149.758693
 30
0.0
 11
329.708652
 21
149.758693
 31
0.0
  0
LINE
  5
308
330
2FE
100
AcDbEntity
  8
LC-007-100-D00-0
 62
     7
370
    50
100
AcDbLine
 10
329.708652
 20
149.758693
 30
0.0
 11
332.197993
 21
146.487311
 31
0.0
  0
LINE
  5
309
330
2FE
100
AcDbEntity
  8
LC-007-100-D00-0
 62
     7
370
    50
100
AcDbLine
 10
332.197993
 20
146.487311
 30
0.0
 11
332.197993
 21
146.487311
 31
0.0
  0
LINE
  5
30A
330
2FE
100
AcDbEntity
  8
LC-007-100-D00-0
 62
     7
370
    50
100
AcDbLine
 10
332.197993
 20
146.487311
 30
0.0
 11
334.418051
 21
142.421093
 31
0.0
  0
LINE
  5
30B
330
2FE
100
AcDbEntity
  8
LC-007-100-D00-0
 62
     7
370
    50
100
AcDbLine
 10
334.418051
 20
142.421093
 30
0.0
 11
334.418051
 21
142.421093
 31
0.0
  0
LINE
  5
30C
330
2FE
100
AcDbEntity
  8
LC-007-100-D00-0
 62
     7
370
    50
100
AcDbLine
 10
334.418051
 20
142.421093
 30
0.0
 11
336.314159
 21
137.660165
 31
0.0
  0
LINE
  5
30D
330
2FE
100
AcDbEntity
  8
LC-007-100-D00-0
 62
     7
370
    50
100
AcDbLine
 10
336.314159
 20
137.660165
 30
0.0
 11
336.314159
 21
137.660165
 31
0.0
  0
LINE
  5
30E
330
2FE
100
AcDbEntity
  8
LC-007-100-D00-0
 62
     7
370
    50
100
AcDbLine
 10
336.314159
 20
137.660165
 30
0.0
 11
337.83963
 21
132.321754
 31
0.0
  0
LINE
  5
30F
330
2FE
100
AcDbEntity
  8
LC-007-100-D00-0
 62
     7
370
    50
100
AcDbLine
 10
337.83963
 20
132.321754
 30
0.0
 11
337.83963
 21
132.321754
 31
0.0
  0
LINE
  5
310
330
2FE
100
AcDbEntity
  8
LC-007-100-D00-0
 62
     7
370
    50
100
AcDbLine
 10
337.83963
 20
132.321754
 30
0.0
 11
338.956901
 21
126.537311
 31
0.0
  0
LINE
  5
311
330
2FE
100
AcDbEntity
  8
LC-007-100-D00-0
 62
     7
370
    50
100
AcDbLine
 10
338.956901
 20
126.537311
 30
0.0
 11
338.956901
 21
126.537311
 31
0.0
  0
LINE
  5
312
330
2FE
100
AcDbEntity
  8
LC-007-100-D00-0
 62
     7
370
    50
100
AcDbLine
 10
338.956901
 20
126.537311
 30
0.0
 11
339.63846
 21
120.449268
 31
0.0
  0
LINE
  5
313
330
2FE
100
AcDbEntity
  8
LC-007-100-D00-0
 62
     7
370
    50
100
AcDbLine
 10
339.63846
 20
120.449268
 30
0.0
 11
339.63846
 21
120.449268
 31
0.0
  0
LINE
  5
314
330
2FE
100
AcDbEntity
  8
LC-007-100-D00-0
 62
     7
370
    50
100
AcDbLine
 10
339.63846
 20
120.449268
 30
0.0
 11
339.867527
 21
114.207533
 31
0.0
  0
LINE
  5
315
330
2FE
100
AcDbEntity
  8
LC-007-100-D00-0
 62
     7
370
    50
100
AcDbLine
 10
339.867527
 20
114.207533
 30
0.0
 11
339.867527
 21
114.207533
 31
0.0
  0
LINE
  5
316
330
2FE
100
AcDbEntity
  8
LC-007-100-D00-0
 62
     7
370
    50
100
AcDbLine
 10
339.867527
 20
114.207533
 30
0.0
 11
339.63846
 21
107.965798
 31
0.0
  0
LINE
  5
317
330
2FE
100
AcDbEntity
  8
LC-007-100-D00-0
 62
     7
370
    50
100
AcDbLine
 10
339.63846
 20
107.965798
 30
0.0
 11
339.63846
 21
107.965798
 31
0.0
  0
LINE
  5
318
330
2FE
100
AcDbEntity
  8
LC-007-100-D00-0
 62
     7
370
    50
100
AcDbLine
 10
339.63846
 20
107.965798
 30
0.0
 11
338.956901
 21
101.877755
 31
0.0
  0
LINE
  5
319
330
2FE
100
AcDbEntity
  8
LC-007-100-D00-0
 62
     7
370
    50
100
AcDbLine
 10
338.956901
 20
101.877755
 30
0.0
 11
338.956901
 21
101.877755
 31
0.0
  0
LINE
  5
31A
330
2FE
100
AcDbEntity
  8
LC-007-100-D00-0
 62
     7
370
    50
100
AcDbLine
 10
338.956901
 20
101.877755
 30
0.0
 11
337.83963
 21
96.093313
 31
0.0
  0
LINE
  5
31B
330
2FE
100
AcDbEntity
  8
LC-007-100-D00-0
 62
     7
370
    50
100
AcDbLine
 10
337.83963
 20
96.093313
 30
0.0
 11
337.83963
 21
96.093313
 31
0.0
  0
LINE
  5
31C
330
2FE
100
AcDbEntity
  8
LC-007-100-D00-0
 62
     7
370
    50
100
AcDbLine
 10
337.83963
 20
96.093313
 30
0.0
 11
336.314159
 21
90.754902
 31
0.0
  0
LINE
  5
31D
330
2FE
100
AcDbEntity
  8
LC-007-100-D00-0
 62
     7
370
    50
100
AcDbLine
 10
336.314159
 20
90.754902
 30
0.0
 11
336.314159
 21
90.754902
 31
0.0
  0
LINE
  5
31E
330
2FE
100
AcDbEntity
  8
LC-007-100-D00-0
 62
     7
370
    50
100
AcDbLine
 10
336.314159
 20
90.754902
 30
0.0
 11
334.418051
 21
85.993973
 31
0.0
  0
LINE
  5
31F
330
2FE
100
AcDbEntity
  8
LC-007-100-D00-0
 62
     7
370
    50
100
AcDbLine
 10
334.418051
 20
85.993973
 30
0.0
 11
334.418051
 21
85.993973
 31
0.0
  0
LINE
  5
320
330
2FE
100
AcDbEntity
  8
LC-007-100-D00-0
 62
     7
370
    50
100
AcDbLine
 10
334.418051
 20
85.993973
 30
0.0
 11
332.197993
 21
81.927755
 31
0.0
  0
LINE
  5
321
330
2FE
100
AcDbEntity
  8
LC-007-100-D00-0
 62
     7
370
    50
100
AcDbLine
 10
332.197993
 20
81.927755
 30
0.0
 11
332.197993
 21
81.927755
 31
0.0
  0
LINE
  5
322
330
2FE
100
AcDbEntity
  8
LC-007-100-D00-0
 62
     7
370
    50
100
AcDbLine
 10
332.197993
 20
81.927755
 30
0.0
 11
329.708652
 21
78.656373
 31
0.0
  0
LINE
  5
323
330
2FE
100
AcDbEntity
  8
LC-007-100-D00-0
 62
     7
370
    50
100
AcDbLine
 10
329.708652
 20
78.656373
 30
0.0
 11
329.708652
 21
78.656373
 31
0.0
  0
LINE
  5
324
330
2FE
100
AcDbEntity
  8
LC-007-100-D00-0
 62
     7
370
    50
100
AcDbLine
 10
329.708652
 20
78.656373
 30
0.0
 11
327.011322
 21
76.260378
 31
0.0
  0
LINE
  5
325
330
2FE
100
AcDbEntity
  8
LC-007-100-D00-0
 62
     7
370
    50
100
AcDbLine
 10
327.011322
 20
76.260378
 30
0.0
 11
327.011322
 21
76.260378
 31
0.0
  0
LINE
  5
326
330
2FE
100
AcDbEntity
  8
LC-007-100-D00-0
 62
     7
370
    50
100
AcDbLine
 10
327.011322
 20
76.260378
 30
0.0
 11
324.172421
 21
74.798769
 31
0.0
  0
LINE
  5
327
330
2FE
100
AcDbEntity
  8
LC-007-100-D00-0
 62
     7
370
    50
100
AcDbLine
 10
324.172421
 20
74.798769
 30
0.0
 11
324.172421
 21
74.798769
 31
0.0
  0
LINE
  5
328
330
2FE
100
AcDbEntity
  8
LC-007-100-D00-0
 62
     7
370
    50
100
AcDbLine
 10
324.172421
 20
74.798769
 30
0.0
 11
321.261852
 21
74.307533
 31
0.0
  0
ENDBLK
  5
300
330
2FE
100
AcDbEntity
  8
0
100
AcDbBlockEnd
  0
BLOCK
  5
32B
330
32A
100
AcDbEntity
  8
0
100
AcDbBlockBegin
  2
POLY12
 70
     0
 71
     0
 10
0.0
 20
0.0
 30
0.0
  3
POLY12
  1

  4
POLY12
  0
LINE
  5
32D
330
32A
100
AcDbEntity
  8
LC-007-100-D00-0
 62
     7
370
    50
100
AcDbLine
 10
342.351925
 20
140.812796
 30
0.0
 11
342.351925
 21
140.812796
 31
0.0
  0
LINE
  5
32E
330
32A
100
AcDbEntity
  8
LC-007-100-D00-0
 62
     7
370
    50
100
AcDbLine
 10
342.351925
 20
140.812796
 30
0.0
 11
342.375311
 21
140.819614
 31
0.0
  0
LINE
  5
32F
330
32A
100
AcDbEntity
  8
LC-007-100-D00-0
 62
     7
370
    50
100
AcDbLine
 10
342.375311
 20
140.819614
 30
0.0
 11
342.375311
 21
140.819614
 31
0.0
  0
LINE
  5
330
330
32A
100
AcDbEntity
  8
LC-007-100-D00-0
 62
     7
370
    50
100
AcDbLine
 10
342.375311
 20
140.819614
 30
0.0
 11
342.421065
 21
140.832785
 31
0.0
  0
LINE
  5
331
330
32A
100
AcDbEntity
  8
LC-007-100-D00-0
 62
     7
370
    50
100
AcDbLine
 10
342.421065
 20
140.832785
 30
0.0
 11
342.421065
 21
140.832785
 31
0.0
  0
LINE
  5
332
330
32A
100
AcDbEntity
  8
LC-007-100-D00-0
 62
     7
370
    50
100
AcDbLine
 10
342.421065
 20
140.832785
 30
0.0
 11
342.460236
 21
140.843961
 31
0.0
  0
LINE
  5
333
330
32A
100
AcDbEntity
  8
LC-007-100-D00-0
 62
     7
370
    50
100
AcDbLine
 10
342.460236
 20
140.843961
 30
0.0
 11
342.460236
 21
140.843961
 31
0.0
  0
LINE
  5
334
330
32A
100
AcDbEntity
  8
LC-007-100-D00-0
 62
     7
370
    50
100
AcDbLine
 10
342.460236
 20
140.843961
 30
0.0
 11
342.506675
 21
140.857111
 31
0.0
  0
LINE
  5
335
330
32A
100
AcDbEntity
  8
LC-007-100-D00-0
 62
     7
370
    50
100
AcDbLine
 10
342.506675
 20
140.857111
 30
0.0
 11
342.506675
 21
140.857111
 31
0.0
  0
LINE
  5
336
330
32A
100
AcDbEntity
  8
LC-007-100-D00-0
 62
     7
370
    50
100
AcDbLine
 10
342.506675
 20
140.857111
 30
0.0
 11
342.617267
 21
140.887849
 31
0.0
  0
LINE
  5
337
330
32A
100
AcDbEntity
  8
LC-007-100-D00-0
 62
     7
370
    50
100
AcDbLine
 10
342.617267
 20
140.887849
 30
0.0
 11
342.617267
 21
140.887849
 31
0.0
  0
LINE
  5
338
330
32A
100
AcDbEntity
  8
LC-007-100-D00-0
 62
     7
370
    50
100
AcDbLine
 10
342.617267
 20
140.887849
 30
0.0
 11
342.720435
 21
140.915388
 31
0.0
  0
LINE
  5
339
330
32A
100
AcDbEntity
  8
LC-007-100-D00-0
 62
     7
370
    50
100
AcDbLine
 10
342.720435
 20
140.915388
 30
0.0
 11
342.720435
 21
140.915388
 31
0.0
  0
LINE
  5
33A
330
32A
100
AcDbEntity
  8
LC-007-100-D00-0
 62
     7
370
    50
100
AcDbLine
 10
342.720435
 20
140.915388
 30
0.0
 11
342.848476
 21
140.947253
 31
0.0
  0
LINE
  5
33B
330
32A
100
AcDbEntity
  8
LC-007-100-D00-0
 62
     7
370
    50
100
AcDbLine
 10
342.848476
 20
140.947253
 30
0.0
 11
342.848476
 21
140.947253
 31
0.0
  0
LINE
  5
33C
330
32A
100
AcDbEntity
  8
LC-007-100-D00-0
 62
     7
370
    50
100
AcDbLine
 10
342.848476
 20
140.947253
 30
0.0
 11
342.976655
 21
140.975636
 31
0.0
  0
LINE
  5
33D
330
32A
100
AcDbEntity
  8
LC-007-100-D00-0
 62
     7
370
    50
100
AcDbLine
 10
342.976655
 20
140.975636
 30
0.0
 11
342.976655
 21
140.975636
 31
0.0
  0
LINE
  5
33E
330
32A
100
AcDbEntity
  8
LC-007-100-D00-0
 62
     7
370
    50
100
AcDbLine
 10
342.976655
 20
140.975636
 30
0.0
 11
343.117868
 21
141.001581
 31
0.0
  0
LINE
  5
33F
330
32A
100
AcDbEntity
  8
LC-007-100-D00-0
 62
     7
370
    50
100
AcDbLine
 10
343.117868
 20
141.001581
 30
0.0
 11
343.117868
 21
141.001581
 31
0.0
  0
LINE
  5
340
330
32A
100
AcDbEntity
  8
LC-007-100-D00-0
 62
     7
370
    50
100
AcDbLine
 10
343.117868
 20
141.001581
 30
0.0
 11
343.258232
 21
141.020409
 31
0.0
  0
ENDBLK
  5
32C
330
32A
100
AcDbEntity
  8
0
100
AcDbBlockEnd
  0
BLOCK
  5
343
330
342
100
AcDbEntity
  8
0
100
AcDbBlockBegin
  2
POLY13
 70
     0
 71
     0
 10
0.0
 20
0.0
 30
0.0
  3
POLY13
  1

  4
POLY13
  0
LINE
  5
345
330
342
100
AcDbEntity
  8
LC-007-100-D00-0
 62
     7
370
    50
100
AcDbLine
 10
343.258232
 20
141.020409
 30
0.0
 11
343.258232
 21
141.020409
 31
0.0
  0
LINE
  5
346
330
342
100
AcDbEntity
  8
LC-007-100-D00-0
 62
     7
370
    50
100
AcDbLine
 10
343.258232
 20
141.020409
 30
0.0
 11
343.268001
 21
141.02131
 31
0.0
  0
LINE
  5
347
330
342
100
AcDbEntity
  8
LC-007-100-D00-0
 62
     7
370
    50
100
AcDbLine
 10
343.268001
 20
141.02131
 30
0.0
 11
343.268001
 21
141.02131
 31
0.0
  0
LINE
  5
348
330
342
100
AcDbEntity
  8
LC-007-100-D00-0
 62
     7
370
    50
100
AcDbLine
 10
343.268001
 20
141.02131
 30
0.0
 11
343.277693
 21
141.021945
 31
0.0
  0
LINE
  5
349
330
342
100
AcDbEntity
  8
LC-007-100-D00-0
 62
     7
370
    50
100
AcDbLine
 10
343.277693
 20
141.021945
 30
0.0
 11
343.277693
 21
141.021945
 31
0.0
  0
LINE
  5
34A
330
342
100
AcDbEntity
  8
LC-007-100-D00-0
 62
     7
370
    50
100
AcDbLine
 10
343.277693
 20
141.021945
 30
0.0
 11
343.287492
 21
141.022328
 31
0.0
  0
LINE
  5
34B
330
342
100
AcDbEntity
  8
LC-007-100-D00-0
 62
     7
370
    50
100
AcDbLine
 10
343.287492
 20
141.022328
 30
0.0
 11
343.287492
 21
141.022328
 31
0.0
  0
LINE
  5
34C
330
342
100
AcDbEntity
  8
LC-007-100-D00-0
 62
     7
370
    50
100
AcDbLine
 10
343.287492
 20
141.022328
 30
0.0
 11
343.297207
 21
141.022454
 31
0.0
  0
ENDBLK
  5
344
330
342
100
AcDbEntity
  8
0
100
AcDbBlockEnd
  0
BLOCK
  5
34F
330
34E
100
AcDbEntity
  8
0
100
AcDbBlockBegin
  2
POLY14
 70
     0
 71
     0
 10
0.0
 20
0.0
 30
0.0
  3
POLY14
  1

  4
POLY14
  0
LINE
  5
351
330
34E
100
AcDbEntity
  8
LC-007-100-D00-0
 62
     7
370
    50
100
AcDbLine
 10
331.995584
 20
170.198844
 30
0.0
 11
331.995584
 21
170.198844
 31
0.0
  0
LINE
  5
352
330
34E
100
AcDbEntity
  8
LC-007-100-D00-0
 62
     7
370
    50
100
AcDbLine
 10
331.995584
 20
170.198844
 30
0.0
 11
333.877296
 21
167.280824
 31
0.0
  0
LINE
  5
353
330
34E
100
AcDbEntity
  8
LC-007-100-D00-0
 62
     7
370
    50
100
AcDbLine
 10
333.877296
 20
167.280824
 30
0.0
 11
333.877296
 21
167.280824
 31
0.0
  0
LINE
  5
354
330
34E
100
AcDbEntity
  8
LC-007-100-D00-0
 62
     7
370
    50
100
AcDbLine
 10
333.877296
 20
167.280824
 30
0.0
 11
335.453657
 21
164.450247
 31
0.0
  0
LINE
  5
355
330
34E
100
AcDbEntity
  8
LC-007-100-D00-0
 62
     7
370
    50
100
AcDbLine
 10
335.453657
 20
164.450247
 30
0.0
 11
335.453657
 21
164.450247
 31
0.0
  0
LINE
  5
356
330
34E
100
AcDbEntity
  8
LC-007-100-D00-0
 62
     7
370
    50
100
AcDbLine
 10
335.453657
 20
164.450247
 30
0.0
 11
336.253554
 21
162.8586
 31
0.0
  0
LINE
  5
357
330
34E
100
AcDbEntity
  8
LC-007-100-D00-0
 62
     7
370
    50
100
AcDbLine
 10
336.253554
 20
162.8586
 30
0.0
 11
336.253554
 21
162.8586
 31
0.0
  0
LINE
  5
358
330
34E
100
AcDbEntity
  8
LC-007-100-D00-0
 62
     7
370
    50
100
AcDbLine
 10
336.253554
 20
162.8586
 30
0.0
 11
337.049316
 21
161.157702
 31
0.0
  0
LINE
  5
359
330
34E
100
AcDbEntity
  8
LC-007-100-D00-0
 62
     7
370
    50
100
AcDbLine
 10
337.049316
 20
161.157702
 30
0.0
 11
337.049316
 21
161.157702
 31
0.0
  0
LINE
  5
35A
330
34E
100
AcDbEntity
  8
LC-007-100-D00-0
 62
     7
370
    50
100
AcDbLine
 10
337.049316
 20
161.157702
 30
0.0
 11
337.797451
 21
159.439916
 31
0.0
  0
LINE
  5
35B
330
34E
100
AcDbEntity
  8
LC-007-100-D00-0
 62
     7
370
    50
100
AcDbLine
 10
337.797451
 20
159.439916
 30
0.0
 11
337.797451
 21
159.439916
 31
0.0
  0
LINE
  5
35C
330
34E
100
AcDbEntity
  8
LC-007-100-D00-0
 62
     7
370
    50
100
AcDbLine
 10
337.797451
 20
159.439916
 30
0.0
 11
338.542815
 21
157.600264
 31
0.0
  0
LINE
  5
35D
330
34E
100
AcDbEntity
  8
LC-007-100-D00-0
 62
     7
370
    50
100
AcDbLine
 10
338.542815
 20
157.600264
 30
0.0
 11
338.542815
 21
157.600264
 31
0.0
  0
LINE
  5
35E
330
34E
100
AcDbEntity
  8
LC-007-100-D00-0
 62
     7
370
    50
100
AcDbLine
 10
338.542815
 20
157.600264
 30
0.0
 11
339.929048
 21
153.776503
 31
0.0
  0
LINE
  5
35F
330
34E
100
AcDbEntity
  8
LC-007-100-D00-0
 62
     7
370
    50
100
AcDbLine
 10
339.929048
 20
153.776503
 30
0.0
 11
339.929048
 21
153.776503
 31
0.0
  0
LINE
  5
360
330
34E
100
AcDbEntity
  8
LC-007-100-D00-0
 62
     7
370
    50
100
AcDbLine
 10
339.929048
 20
153.776503
 30
0.0
 11
341.183348
 21
149.745858
 31
0.0
  0
LINE
  5
361
330
34E
100
AcDbEntity
  8
LC-007-100-D00-0
 62
     7
370
    50
100
AcDbLine
 10
341.183348
 20
149.745858
 30
0.0
 11
341.183348
 21
149.745858
 31
0.0
  0
LINE
  5
362
330
34E
100
AcDbEntity
  8
LC-007-100-D00-0
 62
     7
370
    50
100
AcDbLine
 10
341.183348
 20
149.745858
 30
0.0
 11
342.314187
 21
145.468634
 31
0.0
  0
LINE
  5
363
330
34E
100
AcDbEntity
  8
LC-007-100-D00-0
 62
     7
370
    50
100
AcDbLine
 10
342.314187
 20
145.468634
 30
0.0
 11
342.314187
 21
145.468634
 31
0.0
  0
LINE
  5
364
330
34E
100
AcDbEntity
  8
LC-007-100-D00-0
 62
     7
370
    50
100
AcDbLine
 10
342.314187
 20
145.468634
 30
0.0
 11
343.297207
 21
141.022454
 31
0.0
  0
ENDBLK
  5
350
330
34E
100
AcDbEntity
  8
0
100
AcDbBlockEnd
  0
BLOCK
  5
367
330
366
100
AcDbEntity
  8
0
100
AcDbBlockBegin
  2
POLY15
 70
     0
 71
     0
 10
0.0
 20
0.0
 30
0.0
  3
POLY15
  1

  4
POLY15
  0
LINE
  5
369
330
366
100
AcDbEntity
  8
LC-007-100-D00-0
 62
     7
370
    50
100
AcDbLine
 10
331.364228
 20
169.940211
 30
0.0
 11
331.364228
 21
169.940211
 31
0.0
  0
LINE
  5
36A
330
366
100
AcDbEntity
  8
LC-007-100-D00-0
 62
     7
370
    50
100
AcDbLine
 10
331.364228
 20
169.940211
 30
0.0
 11
331.477854
 21
170.057326
 31
0.0
  0
LINE
  5
36B
330
366
100
AcDbEntity
  8
LC-007-100-D00-0
 62
     7
370
    50
100
AcDbLine
 10
331.477854
 20
170.057326
 30
0.0
 11
331.477854
 21
170.057326
 31
0.0
  0
LINE
  5
36C
330
366
100
AcDbEntity
  8
LC-007-100-D00-0
 62
     7
370
    50
100
AcDbLine
 10
331.477854
 20
170.057326
 30
0.0
 11
331.612667
 21
170.159506
 31
0.0
  0
ENDBLK
  5
368
330
366
100
AcDbEntity
  8
0
100
AcDbBlockEnd
  0
BLOCK
  5
36F
330
36E
100
AcDbEntity
  8
0
100
AcDbBlockBegin
  2
POLY16
 70
     0
 71
     0
 10
0.0
 20
0.0
 30
0.0
  3
POLY16
  1

  4
POLY16
  0
LINE
  5
371
330
36E
100
AcDbEntity
  8
LC-007-100-D00-0
 62
     7
370
    50
100
AcDbLine
 10
331.422893
 20
169.891222
 30
0.0
 11
331.422893
 21
169.891222
 31
0.0
  0
LINE
  5
372
330
36E
100
AcDbEntity
  8
LC-007-100-D00-0
 62
     7
370
    50
100
AcDbLine
 10
331.422893
 20
169.891222
 30
0.0
 11
331.692397
 21
170.084615
 31
0.0
  0
LINE
  5
373
330
36E
100
AcDbEntity
  8
LC-007-100-D00-0
 62
     7
370
    50
100
AcDbLine
 10
331.692397
 20
170.084615
 30
0.0
 11
331.692397
 21
170.084615
 31
0.0
  0
LINE
  5
374
330
36E
100
AcDbEntity
  8
LC-007-100-D00-0
 62
     7
370
    50
100
AcDbLine
 10
331.692397
 20
170.084615
 30
0.0
 11
331.995584
 21
170.198844
 31
0.0
  0
ENDBLK
  5
370
330
36E
100
AcDbEntity
  8
0
100
AcDbBlockEnd
  0
BLOCK
  5
377
330
376
100
AcDbEntity
  8
0
100
AcDbBlockBegin
  2
POLY17
 70
     0
 71
     0
 10
0.0
 20
0.0
 30
0.0
  3
POLY17
  1

  4
POLY17
  0
LINE
  5
379
330
376
100
AcDbEntity
  8
LC-007-100-D00-0
 62
     7
370
    50
100
AcDbLine
 10
331.364228
 20
169.940211
 30
0.0
 11
331.364228
 21
169.940211
 31
0.0
  0
LINE
  5
37A
330
376
100
AcDbEntity
  8
LC-007-100-D00-0
 62
     7
370
    50
100
AcDbLine
 10
331.364228
 20
169.940211
 30
0.0
 11
331.390827
 21
169.918018
 31
0.0
  0
LINE
  5
37B
330
376
100
AcDbEntity
  8
LC-007-100-D00-0
 62
     7
370
    50
100
AcDbLine
 10
331.390827
 20
169.918018
 30
0.0
 11
331.390827
 21
169.918018
 31
0.0
  0
LINE
  5
37C
330
376
100
AcDbEntity
  8
LC-007-100-D00-0
 62
     7
370
    50
100
AcDbLine
 10
331.390827
 20
169.918018
 30
0.0
 11
331.422893
 21
169.891222
 31
0.0
  0
ENDBLK
  5
378
330
376
100
AcDbEntity
  8
0
100
AcDbBlockEnd
  0
BLOCK
  5
37F
330
37E
100
AcDbEntity
  8
0
100
AcDbBlockBegin
  2
POLY18
 70
     0
 71
     0
 10
0.0
 20
0.0
 30
0.0
  3
POLY18
  1

  4
POLY18
  0
LINE
  5
381
330
37E
100
AcDbEntity
  8
LC-007-100-D00-0
 62
     7
370
    50
100
AcDbLine
 10
331.612667
 20
170.159506
 30
0.0
 11
331.612667
 21
170.159506
 31
0.0
  0
LINE
  5
382
330
37E
100
AcDbEntity
  8
LC-007-100-D00-0
 62
     7
370
    50
100
AcDbLine
 10
331.612667
 20
170.159506
 30
0.0
 11
331.439718
 21
170.093039
 31
0.0
  0
LINE
  5
383
330
37E
100
AcDbEntity
  8
LC-007-100-D00-0
 62
     7
370
    50
100
AcDbLine
 10
331.439718
 20
170.093039
 30
0.0
 11
331.439718
 21
170.093039
 31
0.0
  0
LINE
  5
384
330
37E
100
AcDbEntity
  8
LC-007-100-D00-0
 62
     7
370
    50
100
AcDbLine
 10
331.439718
 20
170.093039
 30
0.0
 11
331.288477
 21
169.998033
 31
0.0
  0
ENDBLK
  5
380
330
37E
100
AcDbEntity
  8
0
100
AcDbBlockEnd
  0
BLOCK
  5
387
330
386
100
AcDbEntity
  8
0
100
AcDbBlockBegin
  2
POLY19
 70
     0
 71
     0
 10
0.0
 20
0.0
 30
0.0
  3
POLY19
  1

  4
POLY19
  0
LINE
  5
389
330
386
100
AcDbEntity
  8
LC-007-100-D00-0
 62
     7
370
    50
100
AcDbLine
 10
331.089277
 20
169.363153
 30
0.0
 11
331.089277
 21
169.363153
 31
0.0
  0
LINE
  5
38A
330
386
100
AcDbEntity
  8
LC-007-100-D00-0
 62
     7
370
    50
100
AcDbLine
 10
331.089277
 20
169.363153
 30
0.0
 11
332.856223
 21
166.677395
 31
0.0
  0
LINE
  5
38B
330
386
100
AcDbEntity
  8
LC-007-100-D00-0
 62
     7
370
    50
100
AcDbLine
 10
332.856223
 20
166.677395
 30
0.0
 11
332.856223
 21
166.677395
 31
0.0
  0
LINE
  5
38C
330
386
100
AcDbEntity
  8
LC-007-100-D00-0
 62
     7
370
    50
100
AcDbLine
 10
332.856223
 20
166.677395
 30
0.0
 11
334.529863
 21
163.733412
 31
0.0
  0
LINE
  5
38D
330
386
100
AcDbEntity
  8
LC-007-100-D00-0
 62
     7
370
    50
100
AcDbLine
 10
334.529863
 20
163.733412
 30
0.0
 11
334.529863
 21
163.733412
 31
0.0
  0
LINE
  5
38E
330
386
100
AcDbEntity
  8
LC-007-100-D00-0
 62
     7
370
    50
100
AcDbLine
 10
334.529863
 20
163.733412
 30
0.0
 11
335.336499
 21
162.154277
 31
0.0
  0
LINE
  5
38F
330
386
100
AcDbEntity
  8
LC-007-100-D00-0
 62
     7
370
    50
100
AcDbLine
 10
335.336499
 20
162.154277
 30
0.0
 11
335.336499
 21
162.154277
 31
0.0
  0
LINE
  5
390
330
386
100
AcDbEntity
  8
LC-007-100-D00-0
 62
     7
370
    50
100
AcDbLine
 10
335.336499
 20
162.154277
 30
0.0
 11
336.118325
 21
160.510782
 31
0.0
  0
LINE
  5
391
330
386
100
AcDbEntity
  8
LC-007-100-D00-0
 62
     7
370
    50
100
AcDbLine
 10
336.118325
 20
160.510782
 30
0.0
 11
336.118325
 21
160.510782
 31
0.0
  0
LINE
  5
392
330
386
100
AcDbEntity
  8
LC-007-100-D00-0
 62
     7
370
    50
100
AcDbLine
 10
336.118325
 20
160.510782
 30
0.0
 11
336.873414
 21
158.806316
 31
0.0
  0
LINE
  5
393
330
386
100
AcDbEntity
  8
LC-007-100-D00-0
 62
     7
370
    50
100
AcDbLine
 10
336.873414
 20
158.806316
 30
0.0
 11
336.873414
 21
158.806316
 31
0.0
  0
LINE
  5
394
330
386
100
AcDbEntity
  8
LC-007-100-D00-0
 62
     7
370
    50
100
AcDbLine
 10
336.873414
 20
158.806316
 30
0.0
 11
337.605869
 21
157.029788
 31
0.0
  0
LINE
  5
395
330
386
100
AcDbEntity
  8
LC-007-100-D00-0
 62
     7
370
    50
100
AcDbLine
 10
337.605869
 20
157.029788
 30
0.0
 11
337.605869
 21
157.029788
 31
0.0
  0
LINE
  5
396
330
386
100
AcDbEntity
  8
LC-007-100-D00-0
 62
     7
370
    50
100
AcDbLine
 10
337.605869
 20
157.029788
 30
0.0
 11
338.32259
 21
155.158715
 31
0.0
  0
LINE
  5
397
330
386
100
AcDbEntity
  8
LC-007-100-D00-0
 62
     7
370
    50
100
AcDbLine
 10
338.32259
 20
155.158715
 30
0.0
 11
338.32259
 21
155.158715
 31
0.0
  0
LINE
  5
398
330
386
100
AcDbEntity
  8
LC-007-100-D00-0
 62
     7
370
    50
100
AcDbLine
 10
338.32259
 20
155.158715
 30
0.0
 11
338.982555
 21
153.303403
 31
0.0
  0
LINE
  5
399
330
386
100
AcDbEntity
  8
LC-007-100-D00-0
 62
     7
370
    50
100
AcDbLine
 10
338.982555
 20
153.303403
 30
0.0
 11
338.982555
 21
153.303403
 31
0.0
  0
LINE
  5
39A
330
386
100
AcDbEntity
  8
LC-007-100-D00-0
 62
     7
370
    50
100
AcDbLine
 10
338.982555
 20
153.303403
 30
0.0
 11
339.642299
 21
151.302283
 31
0.0
  0
LINE
  5
39B
330
386
100
AcDbEntity
  8
LC-007-100-D00-0
 62
     7
370
    50
100
AcDbLine
 10
339.642299
 20
151.302283
 30
0.0
 11
339.642299
 21
151.302283
 31
0.0
  0
LINE
  5
39C
330
386
100
AcDbEntity
  8
LC-007-100-D00-0
 62
     7
370
    50
100
AcDbLine
 10
339.642299
 20
151.302283
 30
0.0
 11
340.238842
 21
149.346016
 31
0.0
  0
LINE
  5
39D
330
386
100
AcDbEntity
  8
LC-007-100-D00-0
 62
     7
370
    50
100
AcDbLine
 10
340.238842
 20
149.346016
 30
0.0
 11
340.238842
 21
149.346016
 31
0.0
  0
LINE
  5
39E
330
386
100
AcDbEntity
  8
LC-007-100-D00-0
 62
     7
370
    50
100
AcDbLine
 10
340.238842
 20
149.346016
 30
0.0
 11
341.36783
 21
145.164312
 31
0.0
  0
LINE
  5
39F
330
386
100
AcDbEntity
  8
LC-007-100-D00-0
 62
     7
370
    50
100
AcDbLine
 10
341.36783
 20
145.164312
 30
0.0
 11
341.36783
 21
145.164312
 31
0.0
  0
LINE
  5
3A0
330
386
100
AcDbEntity
  8
LC-007-100-D00-0
 62
     7
370
    50
100
AcDbLine
 10
341.36783
 20
145.164312
 30
0.0
 11
342.351925
 21
140.812796
 31
0.0
  0
ENDBLK
  5
388
330
386
100
AcDbEntity
  8
0
100
AcDbBlockEnd
  0
BLOCK
  5
3A3
330
3A2
100
AcDbEntity
  8
0
100
AcDbBlockBegin
  2
POLY20
 70
     0
 71
     0
 10
0.0
 20
0.0
 30
0.0
  3
POLY20
  1

  4
POLY20
  0
LINE
  5
3A5
330
3A2
100
AcDbEntity
  8
LC-007-100-D00-0
 62
     7
370
    50
100
AcDbLine
 10
331.089277
 20
169.363153
 30
0.0
 11
331.089277
 21
169.363153
 31
0.0
  0
LINE
  5
3A6
330
3A2
100
AcDbEntity
  8
LC-007-100-D00-0
 62
     7
370
    50
100
AcDbLine
 10
331.089277
 20
169.363153
 30
0.0
 11
331.213159
 21
169.642718
 31
0.0
  0
LINE
  5
3A7
330
3A2
100
AcDbEntity
  8
LC-007-100-D00-0
 62
     7
370
    50
100
AcDbLine
 10
331.213159
 20
169.642718
 30
0.0
 11
331.213159
 21
169.642718
 31
0.0
  0
LINE
  5
3A8
330
3A2
100
AcDbEntity
  8
LC-007-100-D00-0
 62
     7
370
    50
100
AcDbLine
 10
331.213159
 20
169.642718
 30
0.0
 11
331.422893
 21
169.891222
 31
0.0
  0
ENDBLK
  5
3A4
330
3A2
100
AcDbEntity
  8
0
100
AcDbBlockEnd
  0
BLOCK
  5
3AB
330
3AA
100
AcDbEntity
  8
0
100
AcDbBlockBegin
  2
POLY21
 70
     0
 71
     0
 10
0.0
 20
0.0
 30
0.0
  3
POLY21
  1

  4
POLY21
  0
LINE
  5
3AD
330
3AA
100
AcDbEntity
  8
LC-007-100-D00-0
 62
     7
370
    50
100
AcDbLine
 10
331.139149
 20
169.700161
 30
0.0
 11
331.139149
 21
169.700161
 31
0.0
  0
LINE
  5
3AE
330
3AA
100
AcDbEntity
  8
LC-007-100-D00-0
 62
     7
370
    50
100
AcDbLine
 10
331.139149
 20
169.700161
 30
0.0
 11
331.101038
 21
169.534182
 31
0.0
  0
LINE
  5
3AF
330
3AA
100
AcDbEntity
  8
LC-007-100-D00-0
 62
     7
370
    50
100
AcDbLine
 10
331.101038
 20
169.534182
 30
0.0
 11
331.101038
 21
169.534182
 31
0.0
  0
LINE
  5
3B0
330
3AA
100
AcDbEntity
  8
LC-007-100-D00-0
 62
     7
370
    50
100
AcDbLine
 10
331.101038
 20
169.534182
 30
0.0
 11
331.089277
 21
169.363153
 31
0.0
  0
ENDBLK
  5
3AC
330
3AA
100
AcDbEntity
  8
0
100
AcDbBlockEnd
  0
BLOCK
  5
3B3
330
3B2
100
AcDbEntity
  8
0
100
AcDbBlockBegin
  2
POLY22
 70
     0
 71
     0
 10
0.0
 20
0.0
 30
0.0
  3
POLY22
  1

  4
POLY22
  0
LINE
  5
3B5
330
3B2
100
AcDbEntity
  8
LC-007-100-D00-0
 62
     7
370
    50
100
AcDbLine
 10
331.288477
 20
169.998033
 30
0.0
 11
331.288477
 21
169.998033
 31
0.0
  0
LINE
  5
3B6
330
3B2
100
AcDbEntity
  8
LC-007-100-D00-0
 62
     7
370
    50
100
AcDbLine
 10
331.288477
 20
169.998033
 30
0.0
 11
331.202124
 21
169.856357
 31
0.0
  0
LINE
  5
3B7
330
3B2
100
AcDbEntity
  8
LC-007-100-D00-0
 62
     7
370
    50
100
AcDbLine
 10
331.202124
 20
169.856357
 30
0.0
 11
331.202124
 21
169.856357
 31
0.0
  0
LINE
  5
3B8
330
3B2
100
AcDbEntity
  8
LC-007-100-D00-0
 62
     7
370
    50
100
AcDbLine
 10
331.202124
 20
169.856357
 30
0.0
 11
331.139149
 21
169.700161
 31
0.0
  0
ENDBLK
  5
3B4
330
3B2
100
AcDbEntity
  8
0
100
AcDbBlockEnd
  0
BLOCK
  5
3BB
330
3BA
100
AcDbEntity
  8
0
100
AcDbBlockBegin
  2
POLY23
 70
     0
 71
     0
 10
0.0
 20
0.0
 30
0.0
  3
POLY23
  1

  4
POLY23
  0
LINE
  5
3BD
330
3BA
100
AcDbEntity
  8
LC-007-100-D00-0
 62
     7
370
    50
100
AcDbLine
 10
331.364228
 20
169.940211
 30
0.0
 11
331.364228
 21
169.940211
 31
0.0
  0
LINE
  5
3BE
330
3BA
100
AcDbEntity
  8
LC-007-100-D00-0
 62
     7
370
    50
100
AcDbLine
 10
331.364228
 20
169.940211
 30
0.0
 11
331.24161
 21
169.830811
 31
0.0
  0
LINE
  5
3BF
330
3BA
100
AcDbEntity
  8
LC-007-100-D00-0
 62
     7
370
    50
100
AcDbLine
 10
331.24161
 20
169.830811
 30
0.0
 11
331.24161
 21
169.830811
 31
0.0
  0
LINE
  5
3C0
330
3BA
100
AcDbEntity
  8
LC-007-100-D00-0
 62
     7
370
    50
100
AcDbLine
 10
331.24161
 20
169.830811
 30
0.0
 11
331.139149
 21
169.700161
 31
0.0
  0
ENDBLK
  5
3BC
330
3BA
100
AcDbEntity
  8
0
100
AcDbBlockEnd
  0
BLOCK
  5
3C3
330
3C2
100
AcDbEntity
  8
0
100
AcDbBlockBegin
  2
POLY24
 70
     0
 71
     0
 10
0.0
 20
0.0
 30
0.0
  3
POLY24
  1

  4
POLY24
  0
LINE
  5
3C5
330
3C2
100
AcDbEntity
  8
LC-007-100-D00-0
 62
     7
370
    50
100
AcDbLine
 10
331.995584
 20
170.198844
 30
0.0
 11
331.995584
 21
170.198844
 31
0.0
  0
LINE
  5
3C6
330
3C2
100
AcDbEntity
  8
LC-007-100-D00-0
 62
     7
370
    50
100
AcDbLine
 10
331.995584
 20
170.198844
 30
0.0
 11
332.182453
 21
171.012259
 31
0.0
  0
LINE
  5
3C7
330
3C2
100
AcDbEntity
  8
LC-007-100-D00-0
 62
     7
370
    50
100
AcDbLine
 10
332.182453
 20
171.012259
 30
0.0
 11
332.182453
 21
171.012259
 31
0.0
  0
LINE
  5
3C8
330
3C2
100
AcDbEntity
  8
LC-007-100-D00-0
 62
     7
370
    50
100
AcDbLine
 10
332.182453
 20
171.012259
 30
0.0
 11
332.371372
 21
171.796857
 31
0.0
  0
LINE
  5
3C9
330
3C2
100
AcDbEntity
  8
LC-007-100-D00-0
 62
     7
370
    50
100
AcDbLine
 10
332.371372
 20
171.796857
 30
0.0
 11
332.371372
 21
171.796857
 31
0.0
  0
LINE
  5
3CA
330
3C2
100
AcDbEntity
  8
LC-007-100-D00-0
 62
     7
370
    50
100
AcDbLine
 10
332.371372
 20
171.796857
 30
0.0
 11
332.620819
 21
172.776823
 31
0.0
  0
LINE
  5
3CB
330
3C2
100
AcDbEntity
  8
LC-007-100-D00-0
 62
     7
370
    50
100
AcDbLine
 10
332.620819
 20
172.776823
 30
0.0
 11
332.620819
 21
172.776823
 31
0.0
  0
LINE
  5
3CC
330
3C2
100
AcDbEntity
  8
LC-007-100-D00-0
 62
     7
370
    50
100
AcDbLine
 10
332.620819
 20
172.776823
 30
0.0
 11
332.873296
 21
173.706178
 31
0.0
  0
ENDBLK
  5
3C4
330
3C2
100
AcDbEntity
  8
0
100
AcDbBlockEnd
  0
BLOCK
  5
3CF
330
3CE
100
AcDbEntity
  8
0
100
AcDbBlockBegin
  2
POLY25
 70
     0
 71
     0
 10
0.0
 20
0.0
 30
0.0
  3
POLY25
  1

  4
POLY25
  0
LINE
  5
3D1
330
3CE
100
AcDbEntity
  8
LC-007-100-D00-0
 62
     7
370
    50
100
AcDbLine
 10
332.926143
 20
173.707533
 30
0.0
 11
332.926143
 21
173.707533
 31
0.0
  0
LINE
  5
3D2
330
3CE
100
AcDbEntity
  8
LC-007-100-D00-0
 62
     7
370
    50
100
AcDbLine
 10
332.926143
 20
173.707533
 30
0.0
 11
332.912852
 21
173.707449
 31
0.0
  0
LINE
  5
3D3
330
3CE
100
AcDbEntity
  8
LC-007-100-D00-0
 62
     7
370
    50
100
AcDbLine
 10
332.912852
 20
173.707449
 30
0.0
 11
332.912852
 21
173.707449
 31
0.0
  0
LINE
  5
3D4
330
3CE
100
AcDbEntity
  8
LC-007-100-D00-0
 62
     7
370
    50
100
AcDbLine
 10
332.912852
 20
173.707449
 30
0.0
 11
332.899677
 21
173.707198
 31
0.0
  0
LINE
  5
3D5
330
3CE
100
AcDbEntity
  8
LC-007-100-D00-0
 62
     7
370
    50
100
AcDbLine
 10
332.899677
 20
173.707198
 30
0.0
 11
332.899677
 21
173.707198
 31
0.0
  0
LINE
  5
3D6
330
3CE
100
AcDbEntity
  8
LC-007-100-D00-0
 62
     7
370
    50
100
AcDbLine
 10
332.899677
 20
173.707198
 30
0.0
 11
332.886425
 21
173.706774
 31
0.0
  0
LINE
  5
3D7
330
3CE
100
AcDbEntity
  8
LC-007-100-D00-0
 62
     7
370
    50
100
AcDbLine
 10
332.886425
 20
173.706774
 30
0.0
 11
332.886425
 21
173.706774
 31
0.0
  0
LINE
  5
3D8
330
3CE
100
AcDbEntity
  8
LC-007-100-D00-0
 62
     7
370
    50
100
AcDbLine
 10
332.886425
 20
173.706774
 30
0.0
 11
332.873296
 21
173.706178
 31
0.0
  0
ENDBLK
  5
3D0
330
3CE
100
AcDbEntity
  8
0
100
AcDbBlockEnd
  0
BLOCK
  5
3DB
330
3DA
100
AcDbEntity
  8
0
100
AcDbBlockBegin
  2
POLY26
 70
     0
 71
     0
 10
0.0
 20
0.0
 30
0.0
  3
POLY26
  1

  4
POLY26
  0
LINE
  5
3DD
330
3DA
100
AcDbEntity
  8
LC-007-100-D00-0
 62
     7
370
    50
100
AcDbLine
 10
332.873296
 20
173.706178
 30
0.0
 11
332.873296
 21
173.706178
 31
0.0
  0
LINE
  5
3DE
330
3DA
100
AcDbEntity
  8
LC-007-100-D00-0
 62
     7
370
    50
100
AcDbLine
 10
332.873296
 20
173.706178
 30
0.0
 11
332.804917
 21
173.700315
 31
0.0
  0
LINE
  5
3DF
330
3DA
100
AcDbEntity
  8
LC-007-100-D00-0
 62
     7
370
    50
100
AcDbLine
 10
332.804917
 20
173.700315
 30
0.0
 11
332.804917
 21
173.700315
 31
0.0
  0
LINE
  5
3E0
330
3DA
100
AcDbEntity
  8
LC-007-100-D00-0
 62
     7
370
    50
100
AcDbLine
 10
332.804917
 20
173.700315
 30
0.0
 11
332.736739
 21
173.689932
 31
0.0
  0
LINE
  5
3E1
330
3DA
100
AcDbEntity
  8
LC-007-100-D00-0
 62
     7
370
    50
100
AcDbLine
 10
332.736739
 20
173.689932
 30
0.0
 11
332.736739
 21
173.689932
 31
0.0
  0
LINE
  5
3E2
330
3DA
100
AcDbEntity
  8
LC-007-100-D00-0
 62
     7
370
    50
100
AcDbLine
 10
332.736739
 20
173.689932
 30
0.0
 11
332.669046
 21
173.675156
 31
0.0
  0
LINE
  5
3E3
330
3DA
100
AcDbEntity
  8
LC-007-100-D00-0
 62
     7
370
    50
100
AcDbLine
 10
332.669046
 20
173.675156
 30
0.0
 11
332.669046
 21
173.675156
 31
0.0
  0
LINE
  5
3E4
330
3DA
100
AcDbEntity
  8
LC-007-100-D00-0
 62
     7
370
    50
100
AcDbLine
 10
332.669046
 20
173.675156
 30
0.0
 11
332.627056
 21
173.66373
 31
0.0
  0
LINE
  5
3E5
330
3DA
100
AcDbEntity
  8
LC-007-100-D00-0
 62
     7
370
    50
100
AcDbLine
 10
332.627056
 20
173.66373
 30
0.0
 11
332.627056
 21
173.66373
 31
0.0
  0
LINE
  5
3E6
330
3DA
100
AcDbEntity
  8
LC-007-100-D00-0
 62
     7
370
    50
100
AcDbLine
 10
332.627056
 20
173.66373
 30
0.0
 11
332.580043
 21
173.648841
 31
0.0
  0
LINE
  5
3E7
330
3DA
100
AcDbEntity
  8
LC-007-100-D00-0
 62
     7
370
    50
100
AcDbLine
 10
332.580043
 20
173.648841
 30
0.0
 11
332.580043
 21
173.648841
 31
0.0
  0
LINE
  5
3E8
330
3DA
100
AcDbEntity
  8
LC-007-100-D00-0
 62
     7
370
    50
100
AcDbLine
 10
332.580043
 20
173.648841
 30
0.0
 11
332.528673
 21
173.629969
 31
0.0
  0
LINE
  5
3E9
330
3DA
100
AcDbEntity
  8
LC-007-100-D00-0
 62
     7
370
    50
100
AcDbLine
 10
332.528673
 20
173.629969
 30
0.0
 11
332.528673
 21
173.629969
 31
0.0
  0
LINE
  5
3EA
330
3DA
100
AcDbEntity
  8
LC-007-100-D00-0
 62
     7
370
    50
100
AcDbLine
 10
332.528673
 20
173.629969
 30
0.0
 11
332.473614
 21
173.606595
 31
0.0
  0
LINE
  5
3EB
330
3DA
100
AcDbEntity
  8
LC-007-100-D00-0
 62
     7
370
    50
100
AcDbLine
 10
332.473614
 20
173.606595
 30
0.0
 11
332.473614
 21
173.606595
 31
0.0
  0
LINE
  5
3EC
330
3DA
100
AcDbEntity
  8
LC-007-100-D00-0
 62
     7
370
    50
100
AcDbLine
 10
332.473614
 20
173.606595
 30
0.0
 11
332.381219
 21
173.55949
 31
0.0
  0
LINE
  5
3ED
330
3DA
100
AcDbEntity
  8
LC-007-100-D00-0
 62
     7
370
    50
100
AcDbLine
 10
332.381219
 20
173.55949
 30
0.0
 11
332.381219
 21
173.55949
 31
0.0
  0
LINE
  5
3EE
330
3DA
100
AcDbEntity
  8
LC-007-100-D00-0
 62
     7
370
    50
100
AcDbLine
 10
332.381219
 20
173.55949
 30
0.0
 11
332.293216
 21
173.504264
 31
0.0
  0
LINE
  5
3EF
330
3DA
100
AcDbEntity
  8
LC-007-100-D00-0
 62
     7
370
    50
100
AcDbLine
 10
332.293216
 20
173.504264
 30
0.0
 11
332.293216
 21
173.504264
 31
0.0
  0
LINE
  5
3F0
330
3DA
100
AcDbEntity
  8
LC-007-100-D00-0
 62
     7
370
    50
100
AcDbLine
 10
332.293216
 20
173.504264
 30
0.0
 11
332.253057
 21
173.475179
 31
0.0
  0
LINE
  5
3F1
330
3DA
100
AcDbEntity
  8
LC-007-100-D00-0
 62
     7
370
    50
100
AcDbLine
 10
332.253057
 20
173.475179
 30
0.0
 11
332.253057
 21
173.475179
 31
0.0
  0
LINE
  5
3F2
330
3DA
100
AcDbEntity
  8
LC-007-100-D00-0
 62
     7
370
    50
100
AcDbLine
 10
332.253057
 20
173.475179
 30
0.0
 11
332.210664
 21
173.441432
 31
0.0
  0
LINE
  5
3F3
330
3DA
100
AcDbEntity
  8
LC-007-100-D00-0
 62
     7
370
    50
100
AcDbLine
 10
332.210664
 20
173.441432
 30
0.0
 11
332.210664
 21
173.441432
 31
0.0
  0
LINE
  5
3F4
330
3DA
100
AcDbEntity
  8
LC-007-100-D00-0
 62
     7
370
    50
100
AcDbLine
 10
332.210664
 20
173.441432
 30
0.0
 11
332.191019
 21
173.424618
 31
0.0
  0
LINE
  5
3F5
330
3DA
100
AcDbEntity
  8
LC-007-100-D00-0
 62
     7
370
    50
100
AcDbLine
 10
332.191019
 20
173.424618
 30
0.0
 11
332.191019
 21
173.424618
 31
0.0
  0
LINE
  5
3F6
330
3DA
100
AcDbEntity
  8
LC-007-100-D00-0
 62
     7
370
    50
100
AcDbLine
 10
332.191019
 20
173.424618
 30
0.0
 11
332.171821
 21
173.407401
 31
0.0
  0
LINE
  5
3F7
330
3DA
100
AcDbEntity
  8
LC-007-100-D00-0
 62
     7
370
    50
100
AcDbLine
 10
332.171821
 20
173.407401
 30
0.0
 11
332.171821
 21
173.407401
 31
0.0
  0
LINE
  5
3F8
330
3DA
100
AcDbEntity
  8
LC-007-100-D00-0
 62
     7
370
    50
100
AcDbLine
 10
332.171821
 20
173.407401
 30
0.0
 11
332.162385
 21
173.398636
 31
0.0
  0
LINE
  5
3F9
330
3DA
100
AcDbEntity
  8
LC-007-100-D00-0
 62
     7
370
    50
100
AcDbLine
 10
332.162385
 20
173.398636
 30
0.0
 11
332.162385
 21
173.398636
 31
0.0
  0
LINE
  5
3FA
330
3DA
100
AcDbEntity
  8
LC-007-100-D00-0
 62
     7
370
    50
100
AcDbLine
 10
332.162385
 20
173.398636
 30
0.0
 11
332.153066
 21
173.389775
 31
0.0
  0
LINE
  5
3FB
330
3DA
100
AcDbEntity
  8
LC-007-100-D00-0
 62
     7
370
    50
100
AcDbLine
 10
332.153066
 20
173.389775
 30
0.0
 11
332.153066
 21
173.389775
 31
0.0
  0
LINE
  5
3FC
330
3DA
100
AcDbEntity
  8
LC-007-100-D00-0
 62
     7
370
    50
100
AcDbLine
 10
332.153066
 20
173.389775
 30
0.0
 11
332.140946
 21
173.377931
 31
0.0
  0
LINE
  5
3FD
330
3DA
100
AcDbEntity
  8
LC-007-100-D00-0
 62
     7
370
    50
100
AcDbLine
 10
332.140946
 20
173.377931
 30
0.0
 11
332.140946
 21
173.377931
 31
0.0
  0
LINE
  5
3FE
330
3DA
100
AcDbEntity
  8
LC-007-100-D00-0
 62
     7
370
    50
100
AcDbLine
 10
332.140946
 20
173.377931
 30
0.0
 11
332.134777
 21
173.371758
 31
0.0
  0
ENDBLK
  5
3DC
330
3DA
100
AcDbEntity
  8
0
100
AcDbBlockEnd
  0
BLOCK
  5
401
330
400
100
AcDbEntity
  8
0
100
AcDbBlockBegin
  2
POLY27
 70
     0
 71
     0
 10
0.0
 20
0.0
 30
0.0
  3
POLY27
  1

  4
POLY27
  0
LINE
  5
403
330
400
100
AcDbEntity
  8
LC-007-100-D00-0
 62
     7
370
    50
100
AcDbLine
 10
331.288477
 20
169.998033
 30
0.0
 11
331.288477
 21
169.998033
 31
0.0
  0
LINE
  5
404
330
400
100
AcDbEntity
  8
LC-007-100-D00-0
 62
     7
370
    50
100
AcDbLine
 10
331.288477
 20
169.998033
 30
0.0
 11
331.475346
 21
170.806577
 31
0.0
  0
LINE
  5
405
330
400
100
AcDbEntity
  8
LC-007-100-D00-0
 62
     7
370
    50
100
AcDbLine
 10
331.475346
 20
170.806577
 30
0.0
 11
331.475346
 21
170.806577
 31
0.0
  0
LINE
  5
406
330
400
100
AcDbEntity
  8
LC-007-100-D00-0
 62
     7
370
    50
100
AcDbLine
 10
331.475346
 20
170.806577
 30
0.0
 11
331.664266
 21
171.586344
 31
0.0
  0
LINE
  5
407
330
400
100
AcDbEntity
  8
LC-007-100-D00-0
 62
     7
370
    50
100
AcDbLine
 10
331.664266
 20
171.586344
 30
0.0
 11
331.664266
 21
171.586344
 31
0.0
  0
LINE
  5
408
330
400
100
AcDbEntity
  8
LC-007-100-D00-0
 62
     7
370
    50
100
AcDbLine
 10
331.664266
 20
171.586344
 30
0.0
 11
331.898183
 21
172.501266
 31
0.0
  0
LINE
  5
409
330
400
100
AcDbEntity
  8
LC-007-100-D00-0
 62
     7
370
    50
100
AcDbLine
 10
331.898183
 20
172.501266
 30
0.0
 11
331.898183
 21
172.501266
 31
0.0
  0
LINE
  5
40A
330
400
100
AcDbEntity
  8
LC-007-100-D00-0
 62
     7
370
    50
100
AcDbLine
 10
331.898183
 20
172.501266
 30
0.0
 11
332.134777
 21
173.371758
 31
0.0
  0
ENDBLK
  5
402
330
400
100
AcDbEntity
  8
0
100
AcDbBlockEnd
  0
BLOCK
  5
40D
330
40C
100
AcDbEntity
  8
0
100
AcDbBlockBegin
  2
POLY28
 70
     0
 71
     0
 10
0.0
 20
0.0
 30
0.0
  3
POLY28
  1

  4
POLY28
  0
LINE
  5
40F
330
40C
100
AcDbEntity
  8
LC-007-100-D00-0
 62
     7
370
    50
100
AcDbLine
 10
331.995584
 20
170.198844
 30
0.0
 11
331.995584
 21
170.198844
 31
0.0
  0
LINE
  5
410
330
40C
100
AcDbEntity
  8
LC-007-100-D00-0
 62
     7
370
    50
100
AcDbLine
 10
331.995584
 20
170.198844
 30
0.0
 11
331.800298
 21
170.19544
 31
0.0
  0
LINE
  5
411
330
40C
100
AcDbEntity
  8
LC-007-100-D00-0
 62
     7
370
    50
100
AcDbLine
 10
331.800298
 20
170.19544
 30
0.0
 11
331.800298
 21
170.19544
 31
0.0
  0
LINE
  5
412
330
40C
100
AcDbEntity
  8
LC-007-100-D00-0
 62
     7
370
    50
100
AcDbLine
 10
331.800298
 20
170.19544
 30
0.0
 11
331.612667
 21
170.159506
 31
0.0
  0
ENDBLK
  5
40E
330
40C
100
AcDbEntity
  8
0
100
AcDbBlockEnd
  0
BLOCK
  5
415
330
414
100
AcDbEntity
  8
0
100
AcDbBlockBegin
  2
POLY29
 70
     0
 71
     0
 10
0.0
 20
0.0
 30
0.0
  3
POLY29
  1

  4
POLY29
  0
LINE
  5
417
330
414
100
AcDbEntity
  8
LC-007-100-D00-0
 62
     7
370
    50
100
AcDbLine
 10
328.358094
 20
173.41464
 30
0.0
 11
328.358094
 21
173.41464
 31
0.0
  0
LINE
  5
418
330
414
100
AcDbEntity
  8
LC-007-100-D00-0
 62
     7
370
    50
100
AcDbLine
 10
328.358094
 20
173.41464
 30
0.0
 11
328.429605
 21
173.479326
 31
0.0
  0
LINE
  5
419
330
414
100
AcDbEntity
  8
LC-007-100-D00-0
 62
     7
370
    50
100
AcDbLine
 10
328.429605
 20
173.479326
 30
0.0
 11
328.429605
 21
173.479326
 31
0.0
  0
LINE
  5
41A
330
414
100
AcDbEntity
  8
LC-007-100-D00-0
 62
     7
370
    50
100
AcDbLine
 10
328.429605
 20
173.479326
 30
0.0
 11
328.507099
 21
173.536664
 31
0.0
  0
LINE
  5
41B
330
414
100
AcDbEntity
  8
LC-007-100-D00-0
 62
     7
370
    50
100
AcDbLine
 10
328.507099
 20
173.536664
 30
0.0
 11
328.507099
 21
173.536664
 31
0.0
  0
LINE
  5
41C
330
414
100
AcDbEntity
  8
LC-007-100-D00-0
 62
     7
370
    50
100
AcDbLine
 10
328.507099
 20
173.536664
 30
0.0
 11
328.601324
 21
173.592442
 31
0.0
  0
LINE
  5
41D
330
414
100
AcDbEntity
  8
LC-007-100-D00-0
 62
     7
370
    50
100
AcDbLine
 10
328.601324
 20
173.592442
 30
0.0
 11
328.601324
 21
173.592442
 31
0.0
  0
LINE
  5
41E
330
414
100
AcDbEntity
  8
LC-007-100-D00-0
 62
     7
370
    50
100
AcDbLine
 10
328.601324
 20
173.592442
 30
0.0
 11
328.682907
 21
173.630512
 31
0.0
  0
LINE
  5
41F
330
414
100
AcDbEntity
  8
LC-007-100-D00-0
 62
     7
370
    50
100
AcDbLine
 10
328.682907
 20
173.630512
 30
0.0
 11
328.682907
 21
173.630512
 31
0.0
  0
LINE
  5
420
330
414
100
AcDbEntity
  8
LC-007-100-D00-0
 62
     7
370
    50
100
AcDbLine
 10
328.682907
 20
173.630512
 30
0.0
 11
328.786627
 21
173.667085
 31
0.0
  0
LINE
  5
421
330
414
100
AcDbEntity
  8
LC-007-100-D00-0
 62
     7
370
    50
100
AcDbLine
 10
328.786627
 20
173.667085
 30
0.0
 11
328.786627
 21
173.667085
 31
0.0
  0
LINE
  5
422
330
414
100
AcDbEntity
  8
LC-007-100-D00-0
 62
     7
370
    50
100
AcDbLine
 10
328.786627
 20
173.667085
 30
0.0
 11
328.87355
 21
173.688454
 31
0.0
  0
LINE
  5
423
330
414
100
AcDbEntity
  8
LC-007-100-D00-0
 62
     7
370
    50
100
AcDbLine
 10
328.87355
 20
173.688454
 30
0.0
 11
328.87355
 21
173.688454
 31
0.0
  0
LINE
  5
424
330
414
100
AcDbEntity
  8
LC-007-100-D00-0
 62
     7
370
    50
100
AcDbLine
 10
328.87355
 20
173.688454
 30
0.0
 11
328.968893
 21
173.702707
 31
0.0
  0
LINE
  5
425
330
414
100
AcDbEntity
  8
LC-007-100-D00-0
 62
     7
370
    50
100
AcDbLine
 10
328.968893
 20
173.702707
 30
0.0
 11
328.968893
 21
173.702707
 31
0.0
  0
LINE
  5
426
330
414
100
AcDbEntity
  8
LC-007-100-D00-0
 62
     7
370
    50
100
AcDbLine
 10
328.968893
 20
173.702707
 30
0.0
 11
329.065201
 21
173.707533
 31
0.0
  0
ENDBLK
  5
416
330
414
100
AcDbEntity
  8
0
100
AcDbBlockEnd
  0
BLOCK
  5
429
330
428
100
AcDbEntity
  8
0
100
AcDbBlockBegin
  2
POLY30
 70
     0
 71
     0
 10
0.0
 20
0.0
 30
0.0
  3
POLY30
  1

  4
POLY30
  0
LINE
  5
42B
330
428
100
AcDbEntity
  8
LC-007-100-D00-0
 62
     7
370
    50
100
AcDbLine
 10
328.358094
 20
173.41464
 30
0.0
 11
328.358094
 21
173.41464
 31
0.0
  0
LINE
  5
42C
330
428
100
AcDbEntity
  8
LC-007-100-D00-0
 62
     7
370
    50
100
AcDbLine
 10
328.358094
 20
173.41464
 30
0.0
 11
328.855112
 21
173.408683
 31
0.0
  0
LINE
  5
42D
330
428
100
AcDbEntity
  8
LC-007-100-D00-0
 62
     7
370
    50
100
AcDbLine
 10
328.855112
 20
173.408683
 30
0.0
 11
328.855112
 21
173.408683
 31
0.0
  0
LINE
  5
42E
330
428
100
AcDbEntity
  8
LC-007-100-D00-0
 62
     7
370
    50
100
AcDbLine
 10
328.855112
 20
173.408683
 30
0.0
 11
329.35213
 21
173.402826
 31
0.0
  0
LINE
  5
42F
330
428
100
AcDbEntity
  8
LC-007-100-D00-0
 62
     7
370
    50
100
AcDbLine
 10
329.35213
 20
173.402826
 30
0.0
 11
329.35213
 21
173.402826
 31
0.0
  0
LINE
  5
430
330
428
100
AcDbEntity
  8
LC-007-100-D00-0
 62
     7
370
    50
100
AcDbLine
 10
329.35213
 20
173.402826
 30
0.0
 11
330.748988
 21
173.386875
 31
0.0
  0
LINE
  5
431
330
428
100
AcDbEntity
  8
LC-007-100-D00-0
 62
     7
370
    50
100
AcDbLine
 10
330.748988
 20
173.386875
 30
0.0
 11
330.748988
 21
173.386875
 31
0.0
  0
LINE
  5
432
330
428
100
AcDbEntity
  8
LC-007-100-D00-0
 62
     7
370
    50
100
AcDbLine
 10
330.748988
 20
173.386875
 30
0.0
 11
332.134777
 21
173.371758
 31
0.0
  0
ENDBLK
  5
42A
330
428
100
AcDbEntity
  8
0
100
AcDbBlockEnd
  0
BLOCK
  5
435
330
434
100
AcDbEntity
  8
0
100
AcDbBlockBegin
  2
POLY31
 70
     0
 71
     0
 10
0.0
 20
0.0
 30
0.0
  3
POLY31
  1

  4
POLY31
  0
LINE
  5
437
330
434
100
AcDbEntity
  8
LC-007-100-D00-0
 62
     7
370
    50
100
AcDbLine
 10
311.945797
 20
154.107533
 30
0.0
 11
311.945797
 21
154.107533
 31
0.0
  0
LINE
  5
438
330
434
100
AcDbEntity
  8
LC-007-100-D00-0
 62
     7
370
    50
100
AcDbLine
 10
311.945797
 20
154.107533
 30
0.0
 11
312.571846
 21
155.209426
 31
0.0
  0
LINE
  5
439
330
434
100
AcDbEntity
  8
LC-007-100-D00-0
 62
     7
370
    50
100
AcDbLine
 10
312.571846
 20
155.209426
 30
0.0
 11
312.571846
 21
155.209426
 31
0.0
  0
LINE
  5
43A
330
434
100
AcDbEntity
  8
LC-007-100-D00-0
 62
     7
370
    50
100
AcDbLine
 10
312.571846
 20
155.209426
 30
0.0
 11
313.250756
 21
156.333997
 31
0.0
  0
LINE
  5
43B
330
434
100
AcDbEntity
  8
LC-007-100-D00-0
 62
     7
370
    50
100
AcDbLine
 10
313.250756
 20
156.333997
 30
0.0
 11
313.250756
 21
156.333997
 31
0.0
  0
LINE
  5
43C
330
434
100
AcDbEntity
  8
LC-007-100-D00-0
 62
     7
370
    50
100
AcDbLine
 10
313.250756
 20
156.333997
 30
0.0
 11
314.121834
 21
157.678496
 31
0.0
  0
LINE
  5
43D
330
434
100
AcDbEntity
  8
LC-007-100-D00-0
 62
     7
370
    50
100
AcDbLine
 10
314.121834
 20
157.678496
 30
0.0
 11
314.121834
 21
157.678496
 31
0.0
  0
LINE
  5
43E
330
434
100
AcDbEntity
  8
LC-007-100-D00-0
 62
     7
370
    50
100
AcDbLine
 10
314.121834
 20
157.678496
 30
0.0
 11
315.029516
 21
158.971756
 31
0.0
  0
LINE
  5
43F
330
434
100
AcDbEntity
  8
LC-007-100-D00-0
 62
     7
370
    50
100
AcDbLine
 10
315.029516
 20
158.971756
 30
0.0
 11
315.029516
 21
158.971756
 31
0.0
  0
LINE
  5
440
330
434
100
AcDbEntity
  8
LC-007-100-D00-0
 62
     7
370
    50
100
AcDbLine
 10
315.029516
 20
158.971756
 30
0.0
 11
316.869632
 21
161.29227
 31
0.0
  0
LINE
  5
441
330
434
100
AcDbEntity
  8
LC-007-100-D00-0
 62
     7
370
    50
100
AcDbLine
 10
316.869632
 20
161.29227
 30
0.0
 11
316.869632
 21
161.29227
 31
0.0
  0
LINE
  5
442
330
434
100
AcDbEntity
  8
LC-007-100-D00-0
 62
     7
370
    50
100
AcDbLine
 10
316.869632
 20
161.29227
 30
0.0
 11
318.799701
 21
163.343467
 31
0.0
  0
LINE
  5
443
330
434
100
AcDbEntity
  8
LC-007-100-D00-0
 62
     7
370
    50
100
AcDbLine
 10
318.799701
 20
163.343467
 30
0.0
 11
318.799701
 21
163.343467
 31
0.0
  0
LINE
  5
444
330
434
100
AcDbEntity
  8
LC-007-100-D00-0
 62
     7
370
    50
100
AcDbLine
 10
318.799701
 20
163.343467
 30
0.0
 11
319.79263
 21
164.261814
 31
0.0
  0
LINE
  5
445
330
434
100
AcDbEntity
  8
LC-007-100-D00-0
 62
     7
370
    50
100
AcDbLine
 10
319.79263
 20
164.261814
 30
0.0
 11
319.79263
 21
164.261814
 31
0.0
  0
LINE
  5
446
330
434
100
AcDbEntity
  8
LC-007-100-D00-0
 62
     7
370
    50
100
AcDbLine
 10
319.79263
 20
164.261814
 30
0.0
 11
320.76884
 21
165.080612
 31
0.0
  0
LINE
  5
447
330
434
100
AcDbEntity
  8
LC-007-100-D00-0
 62
     7
370
    50
100
AcDbLine
 10
320.76884
 20
165.080612
 30
0.0
 11
320.76884
 21
165.080612
 31
0.0
  0
LINE
  5
448
330
434
100
AcDbEntity
  8
LC-007-100-D00-0
 62
     7
370
    50
100
AcDbLine
 10
320.76884
 20
165.080612
 30
0.0
 11
321.743734
 21
165.819086
 31
0.0
  0
LINE
  5
449
330
434
100
AcDbEntity
  8
LC-007-100-D00-0
 62
     7
370
    50
100
AcDbLine
 10
321.743734
 20
165.819086
 30
0.0
 11
321.743734
 21
165.819086
 31
0.0
  0
LINE
  5
44A
330
434
100
AcDbEntity
  8
LC-007-100-D00-0
 62
     7
370
    50
100
AcDbLine
 10
321.743734
 20
165.819086
 30
0.0
 11
322.780845
 21
166.521534
 31
0.0
  0
LINE
  5
44B
330
434
100
AcDbEntity
  8
LC-007-100-D00-0
 62
     7
370
    50
100
AcDbLine
 10
322.780845
 20
166.521534
 30
0.0
 11
322.780845
 21
166.521534
 31
0.0
  0
LINE
  5
44C
330
434
100
AcDbEntity
  8
LC-007-100-D00-0
 62
     7
370
    50
100
AcDbLine
 10
322.780845
 20
166.521534
 30
0.0
 11
323.798451
 21
167.130678
 31
0.0
  0
LINE
  5
44D
330
434
100
AcDbEntity
  8
LC-007-100-D00-0
 62
     7
370
    50
100
AcDbLine
 10
323.798451
 20
167.130678
 30
0.0
 11
323.798451
 21
167.130678
 31
0.0
  0
LINE
  5
44E
330
434
100
AcDbEntity
  8
LC-007-100-D00-0
 62
     7
370
    50
100
AcDbLine
 10
323.798451
 20
167.130678
 30
0.0
 11
324.826875
 21
167.668476
 31
0.0
  0
LINE
  5
44F
330
434
100
AcDbEntity
  8
LC-007-100-D00-0
 62
     7
370
    50
100
AcDbLine
 10
324.826875
 20
167.668476
 30
0.0
 11
324.826875
 21
167.668476
 31
0.0
  0
LINE
  5
450
330
434
100
AcDbEntity
  8
LC-007-100-D00-0
 62
     7
370
    50
100
AcDbLine
 10
324.826875
 20
167.668476
 30
0.0
 11
325.898852
 21
168.14829
 31
0.0
  0
LINE
  5
451
330
434
100
AcDbEntity
  8
LC-007-100-D00-0
 62
     7
370
    50
100
AcDbLine
 10
325.898852
 20
168.14829
 30
0.0
 11
325.898852
 21
168.14829
 31
0.0
  0
LINE
  5
452
330
434
100
AcDbEntity
  8
LC-007-100-D00-0
 62
     7
370
    50
100
AcDbLine
 10
325.898852
 20
168.14829
 30
0.0
 11
326.89872
 21
168.523427
 31
0.0
  0
LINE
  5
453
330
434
100
AcDbEntity
  8
LC-007-100-D00-0
 62
     7
370
    50
100
AcDbLine
 10
326.89872
 20
168.523427
 30
0.0
 11
326.89872
 21
168.523427
 31
0.0
  0
LINE
  5
454
330
434
100
AcDbEntity
  8
LC-007-100-D00-0
 62
     7
370
    50
100
AcDbLine
 10
326.89872
 20
168.523427
 30
0.0
 11
328.987684
 21
169.087772
 31
0.0
  0
LINE
  5
455
330
434
100
AcDbEntity
  8
LC-007-100-D00-0
 62
     7
370
    50
100
AcDbLine
 10
328.987684
 20
169.087772
 30
0.0
 11
328.987684
 21
169.087772
 31
0.0
  0
LINE
  5
456
330
434
100
AcDbEntity
  8
LC-007-100-D00-0
 62
     7
370
    50
100
AcDbLine
 10
328.987684
 20
169.087772
 30
0.0
 11
331.089277
 21
169.363153
 31
0.0
  0
ENDBLK
  5
436
330
434
100
AcDbEntity
  8
0
100
AcDbBlockEnd
  0
BLOCK
  5
459
330
458
100
AcDbEntity
  8
0
100
AcDbBlockBegin
  2
POLY32
 70
     0
 71
     0
 10
0.0
 20
0.0
 30
0.0
  3
POLY32
  1

  4
POLY32
  0
LINE
  5
45B
330
458
100
AcDbEntity
  8
LC-007-100-D00-0
 62
     7
370
    50
100
AcDbLine
 10
318.676177
 20
163.732723
 30
0.0
 11
318.676177
 21
163.732723
 31
0.0
  0
LINE
  5
45C
330
458
100
AcDbEntity
  8
LC-007-100-D00-0
 62
     7
370
    50
100
AcDbLine
 10
318.676177
 20
163.732723
 30
0.0
 11
320.104881
 21
165.066612
 31
0.0
  0
LINE
  5
45D
330
458
100
AcDbEntity
  8
LC-007-100-D00-0
 62
     7
370
    50
100
AcDbLine
 10
320.104881
 20
165.066612
 30
0.0
 11
320.104881
 21
165.066612
 31
0.0
  0
LINE
  5
45E
330
458
100
AcDbEntity
  8
LC-007-100-D00-0
 62
     7
370
    50
100
AcDbLine
 10
320.104881
 20
165.066612
 30
0.0
 11
321.718502
 21
166.357399
 31
0.0
  0
LINE
  5
45F
330
458
100
AcDbEntity
  8
LC-007-100-D00-0
 62
     7
370
    50
100
AcDbLine
 10
321.718502
 20
166.357399
 30
0.0
 11
321.718502
 21
166.357399
 31
0.0
  0
LINE
  5
460
330
458
100
AcDbEntity
  8
LC-007-100-D00-0
 62
     7
370
    50
100
AcDbLine
 10
321.718502
 20
166.357399
 30
0.0
 11
323.198516
 21
167.354219
 31
0.0
  0
LINE
  5
461
330
458
100
AcDbEntity
  8
LC-007-100-D00-0
 62
     7
370
    50
100
AcDbLine
 10
323.198516
 20
167.354219
 30
0.0
 11
323.198516
 21
167.354219
 31
0.0
  0
LINE
  5
462
330
458
100
AcDbEntity
  8
LC-007-100-D00-0
 62
     7
370
    50
100
AcDbLine
 10
323.198516
 20
167.354219
 30
0.0
 11
324.854812
 21
168.270519
 31
0.0
  0
LINE
  5
463
330
458
100
AcDbEntity
  8
LC-007-100-D00-0
 62
     7
370
    50
100
AcDbLine
 10
324.854812
 20
168.270519
 30
0.0
 11
324.854812
 21
168.270519
 31
0.0
  0
LINE
  5
464
330
458
100
AcDbEntity
  8
LC-007-100-D00-0
 62
     7
370
    50
100
AcDbLine
 10
324.854812
 20
168.270519
 30
0.0
 11
326.519946
 21
168.990236
 31
0.0
  0
LINE
  5
465
330
458
100
AcDbEntity
  8
LC-007-100-D00-0
 62
     7
370
    50
100
AcDbLine
 10
326.519946
 20
168.990236
 30
0.0
 11
326.519946
 21
168.990236
 31
0.0
  0
LINE
  5
466
330
458
100
AcDbEntity
  8
LC-007-100-D00-0
 62
     7
370
    50
100
AcDbLine
 10
326.519946
 20
168.990236
 30
0.0
 11
328.054185
 21
169.481736
 31
0.0
  0
LINE
  5
467
330
458
100
AcDbEntity
  8
LC-007-100-D00-0
 62
     7
370
    50
100
AcDbLine
 10
328.054185
 20
169.481736
 30
0.0
 11
328.054185
 21
169.481736
 31
0.0
  0
LINE
  5
468
330
458
100
AcDbEntity
  8
LC-007-100-D00-0
 62
     7
370
    50
100
AcDbLine
 10
328.054185
 20
169.481736
 30
0.0
 11
329.591127
 21
169.813875
 31
0.0
  0
LINE
  5
469
330
458
100
AcDbEntity
  8
LC-007-100-D00-0
 62
     7
370
    50
100
AcDbLine
 10
329.591127
 20
169.813875
 30
0.0
 11
329.591127
 21
169.813875
 31
0.0
  0
LINE
  5
46A
330
458
100
AcDbEntity
  8
LC-007-100-D00-0
 62
     7
370
    50
100
AcDbLine
 10
329.591127
 20
169.813875
 30
0.0
 11
331.288477
 21
169.998033
 31
0.0
  0
ENDBLK
  5
45A
330
458
100
AcDbEntity
  8
0
100
AcDbBlockEnd
  0
BLOCK
  5
46D
330
46C
100
AcDbEntity
  8
0
100
AcDbBlockBegin
  2
POLY33
 70
     0
 71
     0
 10
0.0
 20
0.0
 30
0.0
  3
POLY33
  1

  4
POLY33
  0
LINE
  5
46F
330
46C
100
AcDbEntity
  8
LC-007-100-D00-0
 62
     7
370
    50
100
AcDbLine
 10
343.258232
 20
87.394658
 30
0.0
 11
343.258232
 21
87.394658
 31
0.0
  0
LINE
  5
470
330
46C
100
AcDbEntity
  8
LC-007-100-D00-0
 62
     7
370
    50
100
AcDbLine
 10
343.258232
 20
87.394658
 30
0.0
 11
343.117868
 21
87.413486
 31
0.0
  0
LINE
  5
471
330
46C
100
AcDbEntity
  8
LC-007-100-D00-0
 62
     7
370
    50
100
AcDbLine
 10
343.117868
 20
87.413486
 30
0.0
 11
343.117868
 21
87.413486
 31
0.0
  0
LINE
  5
472
330
46C
100
AcDbEntity
  8
LC-007-100-D00-0
 62
     7
370
    50
100
AcDbLine
 10
343.117868
 20
87.413486
 30
0.0
 11
342.976655
 21
87.43943
 31
0.0
  0
LINE
  5
473
330
46C
100
AcDbEntity
  8
LC-007-100-D00-0
 62
     7
370
    50
100
AcDbLine
 10
342.976655
 20
87.43943
 30
0.0
 11
342.976655
 21
87.43943
 31
0.0
  0
LINE
  5
474
330
46C
100
AcDbEntity
  8
LC-007-100-D00-0
 62
     7
370
    50
100
AcDbLine
 10
342.976655
 20
87.43943
 30
0.0
 11
342.848476
 21
87.467814
 31
0.0
  0
LINE
  5
475
330
46C
100
AcDbEntity
  8
LC-007-100-D00-0
 62
     7
370
    50
100
AcDbLine
 10
342.848476
 20
87.467814
 30
0.0
 11
342.848476
 21
87.467814
 31
0.0
  0
LINE
  5
476
330
46C
100
AcDbEntity
  8
LC-007-100-D00-0
 62
     7
370
    50
100
AcDbLine
 10
342.848476
 20
87.467814
 30
0.0
 11
342.720435
 21
87.499678
 31
0.0
  0
LINE
  5
477
330
46C
100
AcDbEntity
  8
LC-007-100-D00-0
 62
     7
370
    50
100
AcDbLine
 10
342.720435
 20
87.499678
 30
0.0
 11
342.720435
 21
87.499678
 31
0.0
  0
LINE
  5
478
330
46C
100
AcDbEntity
  8
LC-007-100-D00-0
 62
     7
370
    50
100
AcDbLine
 10
342.720435
 20
87.499678
 30
0.0
 11
342.617267
 21
87.527217
 31
0.0
  0
LINE
  5
479
330
46C
100
AcDbEntity
  8
LC-007-100-D00-0
 62
     7
370
    50
100
AcDbLine
 10
342.617267
 20
87.527217
 30
0.0
 11
342.617267
 21
87.527217
 31
0.0
  0
LINE
  5
47A
330
46C
100
AcDbEntity
  8
LC-007-100-D00-0
 62
     7
370
    50
100
AcDbLine
 10
342.617267
 20
87.527217
 30
0.0
 11
342.506675
 21
87.557955
 31
0.0
  0
LINE
  5
47B
330
46C
100
AcDbEntity
  8
LC-007-100-D00-0
 62
     7
370
    50
100
AcDbLine
 10
342.506675
 20
87.557955
 30
0.0
 11
342.506675
 21
87.557955
 31
0.0
  0
LINE
  5
47C
330
46C
100
AcDbEntity
  8
LC-007-100-D00-0
 62
     7
370
    50
100
AcDbLine
 10
342.506675
 20
87.557955
 30
0.0
 11
342.460236
 21
87.571105
 31
0.0
  0
LINE
  5
47D
330
46C
100
AcDbEntity
  8
LC-007-100-D00-0
 62
     7
370
    50
100
AcDbLine
 10
342.460236
 20
87.571105
 30
0.0
 11
342.460236
 21
87.571105
 31
0.0
  0
LINE
  5
47E
330
46C
100
AcDbEntity
  8
LC-007-100-D00-0
 62
     7
370
    50
100
AcDbLine
 10
342.460236
 20
87.571105
 30
0.0
 11
342.421065
 21
87.582281
 31
0.0
  0
LINE
  5
47F
330
46C
100
AcDbEntity
  8
LC-007-100-D00-0
 62
     7
370
    50
100
AcDbLine
 10
342.421065
 20
87.582281
 30
0.0
 11
342.421065
 21
87.582281
 31
0.0
  0
LINE
  5
480
330
46C
100
AcDbEntity
  8
LC-007-100-D00-0
 62
     7
370
    50
100
AcDbLine
 10
342.421065
 20
87.582281
 30
0.0
 11
342.375311
 21
87.595453
 31
0.0
  0
LINE
  5
481
330
46C
100
AcDbEntity
  8
LC-007-100-D00-0
 62
     7
370
    50
100
AcDbLine
 10
342.375311
 20
87.595453
 30
0.0
 11
342.375311
 21
87.595453
 31
0.0
  0
LINE
  5
482
330
46C
100
AcDbEntity
  8
LC-007-100-D00-0
 62
     7
370
    50
100
AcDbLine
 10
342.375311
 20
87.595453
 30
0.0
 11
342.351925
 21
87.602271
 31
0.0
  0
ENDBLK
  5
46E
330
46C
100
AcDbEntity
  8
0
100
AcDbBlockEnd
  0
BLOCK
  5
485
330
484
100
AcDbEntity
  8
0
100
AcDbBlockBegin
  2
POLY34
 70
     0
 71
     0
 10
0.0
 20
0.0
 30
0.0
  3
POLY34
  1

  4
POLY34
  0
LINE
  5
487
330
484
100
AcDbEntity
  8
LC-007-100-D00-0
 62
     7
370
    50
100
AcDbLine
 10
343.297207
 20
87.392612
 30
0.0
 11
343.297207
 21
87.392612
 31
0.0
  0
LINE
  5
488
330
484
100
AcDbEntity
  8
LC-007-100-D00-0
 62
     7
370
    50
100
AcDbLine
 10
343.297207
 20
87.392612
 30
0.0
 11
343.287426
 21
87.39274
 31
0.0
  0
LINE
  5
489
330
484
100
AcDbEntity
  8
LC-007-100-D00-0
 62
     7
370
    50
100
AcDbLine
 10
343.287426
 20
87.39274
 30
0.0
 11
343.287426
 21
87.39274
 31
0.0
  0
LINE
  5
48A
330
484
100
AcDbEntity
  8
LC-007-100-D00-0
 62
     7
370
    50
100
AcDbLine
 10
343.287426
 20
87.39274
 30
0.0
 11
343.277693
 21
87.393121
 31
0.0
  0
LINE
  5
48B
330
484
100
AcDbEntity
  8
LC-007-100-D00-0
 62
     7
370
    50
100
AcDbLine
 10
343.277693
 20
87.393121
 30
0.0
 11
343.277693
 21
87.393121
 31
0.0
  0
LINE
  5
48C
330
484
100
AcDbEntity
  8
LC-007-100-D00-0
 62
     7
370
    50
100
AcDbLine
 10
343.277693
 20
87.393121
 30
0.0
 11
343.268001
 21
87.393757
 31
0.0
  0
LINE
  5
48D
330
484
100
AcDbEntity
  8
LC-007-100-D00-0
 62
     7
370
    50
100
AcDbLine
 10
343.268001
 20
87.393757
 30
0.0
 11
343.268001
 21
87.393757
 31
0.0
  0
LINE
  5
48E
330
484
100
AcDbEntity
  8
LC-007-100-D00-0
 62
     7
370
    50
100
AcDbLine
 10
343.268001
 20
87.393757
 30
0.0
 11
343.258232
 21
87.394658
 31
0.0
  0
ENDBLK
  5
486
330
484
100
AcDbEntity
  8
0
100
AcDbBlockEnd
  0
BLOCK
  5
491
330
490
100
AcDbEntity
  8
0
100
AcDbBlockBegin
  2
POLY35
 70
     0
 71
     0
 10
0.0
 20
0.0
 30
0.0
  3
POLY35
  1

  4
POLY35
  0
LINE
  5
493
330
490
100
AcDbEntity
  8
LC-007-100-D00-0
 62
     7
370
    50
100
AcDbLine
 10
311.715735
 20
154.107533
 30
0.0
 11
311.715735
 21
154.107533
 31
0.0
  0
LINE
  5
494
330
490
100
AcDbEntity
  8
LC-007-100-D00-0
 62
     7
370
    50
100
AcDbLine
 10
311.715735
 20
154.107533
 30
0.0
 11
311.928251
 21
154.498621
 31
0.0
  0
LINE
  5
495
330
490
100
AcDbEntity
  8
LC-007-100-D00-0
 62
     7
370
    50
100
AcDbLine
 10
311.928251
 20
154.498621
 30
0.0
 11
311.928251
 21
154.498621
 31
0.0
  0
LINE
  5
496
330
490
100
AcDbEntity
  8
LC-007-100-D00-0
 62
     7
370
    50
100
AcDbLine
 10
311.928251
 20
154.498621
 30
0.0
 11
312.12934
 21
154.861585
 31
0.0
  0
LINE
  5
497
330
490
100
AcDbEntity
  8
LC-007-100-D00-0
 62
     7
370
    50
100
AcDbLine
 10
312.12934
 20
154.861585
 30
0.0
 11
312.12934
 21
154.861585
 31
0.0
  0
LINE
  5
498
330
490
100
AcDbEntity
  8
LC-007-100-D00-0
 62
     7
370
    50
100
AcDbLine
 10
312.12934
 20
154.861585
 30
0.0
 11
312.721953
 21
155.892855
 31
0.0
  0
LINE
  5
499
330
490
100
AcDbEntity
  8
LC-007-100-D00-0
 62
     7
370
    50
100
AcDbLine
 10
312.721953
 20
155.892855
 30
0.0
 11
312.721953
 21
155.892855
 31
0.0
  0
LINE
  5
49A
330
490
100
AcDbEntity
  8
LC-007-100-D00-0
 62
     7
370
    50
100
AcDbLine
 10
312.721953
 20
155.892855
 30
0.0
 11
313.284233
 21
156.821258
 31
0.0
  0
LINE
  5
49B
330
490
100
AcDbEntity
  8
LC-007-100-D00-0
 62
     7
370
    50
100
AcDbLine
 10
313.284233
 20
156.821258
 30
0.0
 11
313.284233
 21
156.821258
 31
0.0
  0
LINE
  5
49C
330
490
100
AcDbEntity
  8
LC-007-100-D00-0
 62
     7
370
    50
100
AcDbLine
 10
313.284233
 20
156.821258
 30
0.0
 11
314.534716
 21
158.726583
 31
0.0
  0
LINE
  5
49D
330
490
100
AcDbEntity
  8
LC-007-100-D00-0
 62
     7
370
    50
100
AcDbLine
 10
314.534716
 20
158.726583
 30
0.0
 11
314.534716
 21
158.726583
 31
0.0
  0
LINE
  5
49E
330
490
100
AcDbEntity
  8
LC-007-100-D00-0
 62
     7
370
    50
100
AcDbLine
 10
314.534716
 20
158.726583
 30
0.0
 11
315.83106
 21
160.493114
 31
0.0
  0
LINE
  5
49F
330
490
100
AcDbEntity
  8
LC-007-100-D00-0
 62
     7
370
    50
100
AcDbLine
 10
315.83106
 20
160.493114
 30
0.0
 11
315.83106
 21
160.493114
 31
0.0
  0
LINE
  5
4A0
330
490
100
AcDbEntity
  8
LC-007-100-D00-0
 62
     7
370
    50
100
AcDbLine
 10
315.83106
 20
160.493114
 30
0.0
 11
317.29798
 21
162.265114
 31
0.0
  0
LINE
  5
4A1
330
490
100
AcDbEntity
  8
LC-007-100-D00-0
 62
     7
370
    50
100
AcDbLine
 10
317.29798
 20
162.265114
 30
0.0
 11
317.29798
 21
162.265114
 31
0.0
  0
LINE
  5
4A2
330
490
100
AcDbEntity
  8
LC-007-100-D00-0
 62
     7
370
    50
100
AcDbLine
 10
317.29798
 20
162.265114
 30
0.0
 11
318.676177
 21
163.732723
 31
0.0
  0
ENDBLK
  5
492
330
490
100
AcDbEntity
  8
0
100
AcDbBlockEnd
  0
BLOCK
  5
4A5
330
4A4
100
AcDbEntity
  8
0
100
AcDbBlockBegin
  2
POLY36
 70
     0
 71
     0
 10
0.0
 20
0.0
 30
0.0
  3
POLY36
  1

  4
POLY36
  0
LINE
  5
4A7
330
4A4
100
AcDbEntity
  8
LC-007-100-D00-0
 62
     7
370
    50
100
AcDbLine
 10
329.065201
 20
54.707533
 30
0.0
 11
329.065201
 21
54.707533
 31
0.0
  0
LINE
  5
4A8
330
4A4
100
AcDbEntity
  8
LC-007-100-D00-0
 62
     7
370
    50
100
AcDbLine
 10
329.065201
 20
54.707533
 30
0.0
 11
328.870309
 21
54.727264
 31
0.0
  0
LINE
  5
4A9
330
4A4
100
AcDbEntity
  8
LC-007-100-D00-0
 62
     7
370
    50
100
AcDbLine
 10
328.870309
 20
54.727264
 30
0.0
 11
328.870309
 21
54.727264
 31
0.0
  0
LINE
  5
4AA
330
4A4
100
AcDbEntity
  8
LC-007-100-D00-0
 62
     7
370
    50
100
AcDbLine
 10
328.870309
 20
54.727264
 30
0.0
 11
328.682907
 21
54.784554
 31
0.0
  0
LINE
  5
4AB
330
4A4
100
AcDbEntity
  8
LC-007-100-D00-0
 62
     7
370
    50
100
AcDbLine
 10
328.682907
 20
54.784554
 30
0.0
 11
328.682907
 21
54.784554
 31
0.0
  0
LINE
  5
4AC
330
4A4
100
AcDbEntity
  8
LC-007-100-D00-0
 62
     7
370
    50
100
AcDbLine
 10
328.682907
 20
54.784554
 30
0.0
 11
328.583685
 21
54.832042
 31
0.0
  0
LINE
  5
4AD
330
4A4
100
AcDbEntity
  8
LC-007-100-D00-0
 62
     7
370
    50
100
AcDbLine
 10
328.583685
 20
54.832042
 30
0.0
 11
328.583685
 21
54.832042
 31
0.0
  0
LINE
  5
4AE
330
4A4
100
AcDbEntity
  8
LC-007-100-D00-0
 62
     7
370
    50
100
AcDbLine
 10
328.583685
 20
54.832042
 30
0.0
 11
328.507099
 21
54.878402
 31
0.0
  0
LINE
  5
4AF
330
4A4
100
AcDbEntity
  8
LC-007-100-D00-0
 62
     7
370
    50
100
AcDbLine
 10
328.507099
 20
54.878402
 30
0.0
 11
328.507099
 21
54.878402
 31
0.0
  0
LINE
  5
4B0
330
4A4
100
AcDbEntity
  8
LC-007-100-D00-0
 62
     7
370
    50
100
AcDbLine
 10
328.507099
 20
54.878402
 30
0.0
 11
328.422169
 21
54.941886
 31
0.0
  0
LINE
  5
4B1
330
4A4
100
AcDbEntity
  8
LC-007-100-D00-0
 62
     7
370
    50
100
AcDbLine
 10
328.422169
 20
54.941886
 30
0.0
 11
328.422169
 21
54.941886
 31
0.0
  0
LINE
  5
4B2
330
4A4
100
AcDbEntity
  8
LC-007-100-D00-0
 62
     7
370
    50
100
AcDbLine
 10
328.422169
 20
54.941886
 30
0.0
 11
328.358094
 21
55.000426
 31
0.0
  0
ENDBLK
  5
4A6
330
4A4
100
AcDbEntity
  8
0
100
AcDbBlockEnd
  0
BLOCK
  5
4B5
330
4B4
100
AcDbEntity
  8
0
100
AcDbBlockBegin
  2
POLY37
 70
     0
 71
     0
 10
0.0
 20
0.0
 30
0.0
  3
POLY37
  1

  4
POLY37
  0
LINE
  5
4B7
330
4B4
100
AcDbEntity
  8
LC-007-100-D00-0
 62
     7
370
    50
100
AcDbLine
 10
332.134777
 20
55.043308
 30
0.0
 11
332.134777
 21
55.043308
 31
0.0
  0
LINE
  5
4B8
330
4B4
100
AcDbEntity
  8
LC-007-100-D00-0
 62
     7
370
    50
100
AcDbLine
 10
332.134777
 20
55.043308
 30
0.0
 11
331.898183
 21
55.913801
 31
0.0
  0
LINE
  5
4B9
330
4B4
100
AcDbEntity
  8
LC-007-100-D00-0
 62
     7
370
    50
100
AcDbLine
 10
331.898183
 20
55.913801
 30
0.0
 11
331.898183
 21
55.913801
 31
0.0
  0
LINE
  5
4BA
330
4B4
100
AcDbEntity
  8
LC-007-100-D00-0
 62
     7
370
    50
100
AcDbLine
 10
331.898183
 20
55.913801
 30
0.0
 11
331.664266
 21
56.828722
 31
0.0
  0
LINE
  5
4BB
330
4B4
100
AcDbEntity
  8
LC-007-100-D00-0
 62
     7
370
    50
100
AcDbLine
 10
331.664266
 20
56.828722
 30
0.0
 11
331.664266
 21
56.828722
 31
0.0
  0
LINE
  5
4BC
330
4B4
100
AcDbEntity
  8
LC-007-100-D00-0
 62
     7
370
    50
100
AcDbLine
 10
331.664266
 20
56.828722
 30
0.0
 11
331.475346
 21
57.608489
 31
0.0
  0
LINE
  5
4BD
330
4B4
100
AcDbEntity
  8
LC-007-100-D00-0
 62
     7
370
    50
100
AcDbLine
 10
331.475346
 20
57.608489
 30
0.0
 11
331.475346
 21
57.608489
 31
0.0
  0
LINE
  5
4BE
330
4B4
100
AcDbEntity
  8
LC-007-100-D00-0
 62
     7
370
    50
100
AcDbLine
 10
331.475346
 20
57.608489
 30
0.0
 11
331.288477
 21
58.417033
 31
0.0
  0
ENDBLK
  5
4B6
330
4B4
100
AcDbEntity
  8
0
100
AcDbBlockEnd
  0
BLOCK
  5
4C1
330
4C0
100
AcDbEntity
  8
0
100
AcDbBlockBegin
  2
POLY38
 70
     0
 71
     0
 10
0.0
 20
0.0
 30
0.0
  3
POLY38
  1

  4
POLY38
  0
LINE
  5
4C3
330
4C0
100
AcDbEntity
  8
LC-007-100-D00-0
 62
     7
370
    50
100
AcDbLine
 10
332.873296
 20
54.708888
 30
0.0
 11
332.873296
 21
54.708888
 31
0.0
  0
LINE
  5
4C4
330
4C0
100
AcDbEntity
  8
LC-007-100-D00-0
 62
     7
370
    50
100
AcDbLine
 10
332.873296
 20
54.708888
 30
0.0
 11
332.791679
 21
54.716414
 31
0.0
  0
LINE
  5
4C5
330
4C0
100
AcDbEntity
  8
LC-007-100-D00-0
 62
     7
370
    50
100
AcDbLine
 10
332.791679
 20
54.716414
 30
0.0
 11
332.791679
 21
54.716414
 31
0.0
  0
LINE
  5
4C6
330
4C0
100
AcDbEntity
  8
LC-007-100-D00-0
 62
     7
370
    50
100
AcDbLine
 10
332.791679
 20
54.716414
 30
0.0
 11
332.710419
 21
54.730349
 31
0.0
  0
LINE
  5
4C7
330
4C0
100
AcDbEntity
  8
LC-007-100-D00-0
 62
     7
370
    50
100
AcDbLine
 10
332.710419
 20
54.730349
 30
0.0
 11
332.710419
 21
54.730349
 31
0.0
  0
LINE
  5
4C8
330
4C0
100
AcDbEntity
  8
LC-007-100-D00-0
 62
     7
370
    50
100
AcDbLine
 10
332.710419
 20
54.730349
 30
0.0
 11
332.629999
 21
54.750479
 31
0.0
  0
LINE
  5
4C9
330
4C0
100
AcDbEntity
  8
LC-007-100-D00-0
 62
     7
370
    50
100
AcDbLine
 10
332.629999
 20
54.750479
 30
0.0
 11
332.629999
 21
54.750479
 31
0.0
  0
LINE
  5
4CA
330
4C0
100
AcDbEntity
  8
LC-007-100-D00-0
 62
     7
370
    50
100
AcDbLine
 10
332.629999
 20
54.750479
 30
0.0
 11
332.550902
 21
54.776591
 31
0.0
  0
LINE
  5
4CB
330
4C0
100
AcDbEntity
  8
LC-007-100-D00-0
 62
     7
370
    50
100
AcDbLine
 10
332.550902
 20
54.776591
 30
0.0
 11
332.550902
 21
54.776591
 31
0.0
  0
LINE
  5
4CC
330
4C0
100
AcDbEntity
  8
LC-007-100-D00-0
 62
     7
370
    50
100
AcDbLine
 10
332.550902
 20
54.776591
 30
0.0
 11
332.473614
 21
54.808471
 31
0.0
  0
LINE
  5
4CD
330
4C0
100
AcDbEntity
  8
LC-007-100-D00-0
 62
     7
370
    50
100
AcDbLine
 10
332.473614
 20
54.808471
 30
0.0
 11
332.473614
 21
54.808471
 31
0.0
  0
LINE
  5
4CE
330
4C0
100
AcDbEntity
  8
LC-007-100-D00-0
 62
     7
370
    50
100
AcDbLine
 10
332.473614
 20
54.808471
 30
0.0
 11
332.381219
 21
54.855577
 31
0.0
  0
LINE
  5
4CF
330
4C0
100
AcDbEntity
  8
LC-007-100-D00-0
 62
     7
370
    50
100
AcDbLine
 10
332.381219
 20
54.855577
 30
0.0
 11
332.381219
 21
54.855577
 31
0.0
  0
LINE
  5
4D0
330
4C0
100
AcDbEntity
  8
LC-007-100-D00-0
 62
     7
370
    50
100
AcDbLine
 10
332.381219
 20
54.855577
 30
0.0
 11
332.293216
 21
54.910802
 31
0.0
  0
LINE
  5
4D1
330
4C0
100
AcDbEntity
  8
LC-007-100-D00-0
 62
     7
370
    50
100
AcDbLine
 10
332.293216
 20
54.910802
 30
0.0
 11
332.293216
 21
54.910802
 31
0.0
  0
LINE
  5
4D2
330
4C0
100
AcDbEntity
  8
LC-007-100-D00-0
 62
     7
370
    50
100
AcDbLine
 10
332.293216
 20
54.910802
 30
0.0
 11
332.251222
 21
54.941281
 31
0.0
  0
LINE
  5
4D3
330
4C0
100
AcDbEntity
  8
LC-007-100-D00-0
 62
     7
370
    50
100
AcDbLine
 10
332.251222
 20
54.941281
 30
0.0
 11
332.251222
 21
54.941281
 31
0.0
  0
LINE
  5
4D4
330
4C0
100
AcDbEntity
  8
LC-007-100-D00-0
 62
     7
370
    50
100
AcDbLine
 10
332.251222
 20
54.941281
 30
0.0
 11
332.210664
 21
54.973635
 31
0.0
  0
LINE
  5
4D5
330
4C0
100
AcDbEntity
  8
LC-007-100-D00-0
 62
     7
370
    50
100
AcDbLine
 10
332.210664
 20
54.973635
 30
0.0
 11
332.210664
 21
54.973635
 31
0.0
  0
LINE
  5
4D6
330
4C0
100
AcDbEntity
  8
LC-007-100-D00-0
 62
     7
370
    50
100
AcDbLine
 10
332.210664
 20
54.973635
 30
0.0
 11
332.19102
 21
54.990447
 31
0.0
  0
LINE
  5
4D7
330
4C0
100
AcDbEntity
  8
LC-007-100-D00-0
 62
     7
370
    50
100
AcDbLine
 10
332.19102
 20
54.990447
 30
0.0
 11
332.19102
 21
54.990447
 31
0.0
  0
LINE
  5
4D8
330
4C0
100
AcDbEntity
  8
LC-007-100-D00-0
 62
     7
370
    50
100
AcDbLine
 10
332.19102
 20
54.990447
 30
0.0
 11
332.171821
 21
55.007665
 31
0.0
  0
LINE
  5
4D9
330
4C0
100
AcDbEntity
  8
LC-007-100-D00-0
 62
     7
370
    50
100
AcDbLine
 10
332.171821
 20
55.007665
 30
0.0
 11
332.171821
 21
55.007665
 31
0.0
  0
LINE
  5
4DA
330
4C0
100
AcDbEntity
  8
LC-007-100-D00-0
 62
     7
370
    50
100
AcDbLine
 10
332.171821
 20
55.007665
 30
0.0
 11
332.162385
 21
55.016431
 31
0.0
  0
LINE
  5
4DB
330
4C0
100
AcDbEntity
  8
LC-007-100-D00-0
 62
     7
370
    50
100
AcDbLine
 10
332.162385
 20
55.016431
 30
0.0
 11
332.162385
 21
55.016431
 31
0.0
  0
LINE
  5
4DC
330
4C0
100
AcDbEntity
  8
LC-007-100-D00-0
 62
     7
370
    50
100
AcDbLine
 10
332.162385
 20
55.016431
 30
0.0
 11
332.153066
 21
55.025292
 31
0.0
  0
LINE
  5
4DD
330
4C0
100
AcDbEntity
  8
LC-007-100-D00-0
 62
     7
370
    50
100
AcDbLine
 10
332.153066
 20
55.025292
 30
0.0
 11
332.153066
 21
55.025292
 31
0.0
  0
LINE
  5
4DE
330
4C0
100
AcDbEntity
  8
LC-007-100-D00-0
 62
     7
370
    50
100
AcDbLine
 10
332.153066
 20
55.025292
 30
0.0
 11
332.140978
 21
55.037104
 31
0.0
  0
LINE
  5
4DF
330
4C0
100
AcDbEntity
  8
LC-007-100-D00-0
 62
     7
370
    50
100
AcDbLine
 10
332.140978
 20
55.037104
 30
0.0
 11
332.140978
 21
55.037104
 31
0.0
  0
LINE
  5
4E0
330
4C0
100
AcDbEntity
  8
LC-007-100-D00-0
 62
     7
370
    50
100
AcDbLine
 10
332.140978
 20
55.037104
 30
0.0
 11
332.134777
 21
55.043308
 31
0.0
  0
ENDBLK
  5
4C2
330
4C0
100
AcDbEntity
  8
0
100
AcDbBlockEnd
  0
BLOCK
  5
4E3
330
4E2
100
AcDbEntity
  8
0
100
AcDbBlockBegin
  2
POLY39
 70
     0
 71
     0
 10
0.0
 20
0.0
 30
0.0
  3
POLY39
  1

  4
POLY39
  0
LINE
  5
4E5
330
4E2
100
AcDbEntity
  8
LC-007-100-D00-0
 62
     7
370
    50
100
AcDbLine
 10
332.873296
 20
54.708888
 30
0.0
 11
332.873296
 21
54.708888
 31
0.0
  0
LINE
  5
4E6
330
4E2
100
AcDbEntity
  8
LC-007-100-D00-0
 62
     7
370
    50
100
AcDbLine
 10
332.873296
 20
54.708888
 30
0.0
 11
332.620819
 21
55.638244
 31
0.0
  0
LINE
  5
4E7
330
4E2
100
AcDbEntity
  8
LC-007-100-D00-0
 62
     7
370
    50
100
AcDbLine
 10
332.620819
 20
55.638244
 30
0.0
 11
332.620819
 21
55.638244
 31
0.0
  0
LINE
  5
4E8
330
4E2
100
AcDbEntity
  8
LC-007-100-D00-0
 62
     7
370
    50
100
AcDbLine
 10
332.620819
 20
55.638244
 30
0.0
 11
332.371372
 21
56.618209
 31
0.0
  0
LINE
  5
4E9
330
4E2
100
AcDbEntity
  8
LC-007-100-D00-0
 62
     7
370
    50
100
AcDbLine
 10
332.371372
 20
56.618209
 30
0.0
 11
332.371372
 21
56.618209
 31
0.0
  0
LINE
  5
4EA
330
4E2
100
AcDbEntity
  8
LC-007-100-D00-0
 62
     7
370
    50
100
AcDbLine
 10
332.371372
 20
56.618209
 30
0.0
 11
332.182453
 21
57.402807
 31
0.0
  0
LINE
  5
4EB
330
4E2
100
AcDbEntity
  8
LC-007-100-D00-0
 62
     7
370
    50
100
AcDbLine
 10
332.182453
 20
57.402807
 30
0.0
 11
332.182453
 21
57.402807
 31
0.0
  0
LINE
  5
4EC
330
4E2
100
AcDbEntity
  8
LC-007-100-D00-0
 62
     7
370
    50
100
AcDbLine
 10
332.182453
 20
57.402807
 30
0.0
 11
331.995584
 21
58.216222
 31
0.0
  0
ENDBLK
  5
4E4
330
4E2
100
AcDbEntity
  8
0
100
AcDbBlockEnd
  0
BLOCK
  5
4EF
330
4EE
100
AcDbEntity
  8
0
100
AcDbBlockBegin
  2
POLY40
 70
     0
 71
     0
 10
0.0
 20
0.0
 30
0.0
  3
POLY40
  1

  4
POLY40
  0
LINE
  5
4F1
330
4EE
100
AcDbEntity
  8
LC-007-100-D00-0
 62
     7
370
    50
100
AcDbLine
 10
343.297207
 20
87.392612
 30
0.0
 11
343.297207
 21
87.392612
 31
0.0
  0
LINE
  5
4F2
330
4EE
100
AcDbEntity
  8
LC-007-100-D00-0
 62
     7
370
    50
100
AcDbLine
 10
343.297207
 20
87.392612
 30
0.0
 11
342.314187
 21
82.946433
 31
0.0
  0
LINE
  5
4F3
330
4EE
100
AcDbEntity
  8
LC-007-100-D00-0
 62
     7
370
    50
100
AcDbLine
 10
342.314187
 20
82.946433
 30
0.0
 11
342.314187
 21
82.946433
 31
0.0
  0
LINE
  5
4F4
330
4EE
100
AcDbEntity
  8
LC-007-100-D00-0
 62
     7
370
    50
100
AcDbLine
 10
342.314187
 20
82.946433
 30
0.0
 11
341.183348
 21
78.669208
 31
0.0
  0
LINE
  5
4F5
330
4EE
100
AcDbEntity
  8
LC-007-100-D00-0
 62
     7
370
    50
100
AcDbLine
 10
341.183348
 20
78.669208
 30
0.0
 11
341.183348
 21
78.669208
 31
0.0
  0
LINE
  5
4F6
330
4EE
100
AcDbEntity
  8
LC-007-100-D00-0
 62
     7
370
    50
100
AcDbLine
 10
341.183348
 20
78.669208
 30
0.0
 11
340.556083
 21
76.574705
 31
0.0
  0
LINE
  5
4F7
330
4EE
100
AcDbEntity
  8
LC-007-100-D00-0
 62
     7
370
    50
100
AcDbLine
 10
340.556083
 20
76.574705
 30
0.0
 11
340.556083
 21
76.574705
 31
0.0
  0
LINE
  5
4F8
330
4EE
100
AcDbEntity
  8
LC-007-100-D00-0
 62
     7
370
    50
100
AcDbLine
 10
340.556083
 20
76.574705
 30
0.0
 11
339.924062
 21
74.623735
 31
0.0
  0
LINE
  5
4F9
330
4EE
100
AcDbEntity
  8
LC-007-100-D00-0
 62
     7
370
    50
100
AcDbLine
 10
339.924062
 20
74.623735
 30
0.0
 11
339.924062
 21
74.623735
 31
0.0
  0
LINE
  5
4FA
330
4EE
100
AcDbEntity
  8
LC-007-100-D00-0
 62
     7
370
    50
100
AcDbLine
 10
339.924062
 20
74.623735
 30
0.0
 11
339.25083
 21
72.696298
 31
0.0
  0
LINE
  5
4FB
330
4EE
100
AcDbEntity
  8
LC-007-100-D00-0
 62
     7
370
    50
100
AcDbLine
 10
339.25083
 20
72.696298
 30
0.0
 11
339.25083
 21
72.696298
 31
0.0
  0
LINE
  5
4FC
330
4EE
100
AcDbEntity
  8
LC-007-100-D00-0
 62
     7
370
    50
100
AcDbLine
 10
339.25083
 20
72.696298
 30
0.0
 11
338.542815
 21
70.814802
 31
0.0
  0
LINE
  5
4FD
330
4EE
100
AcDbEntity
  8
LC-007-100-D00-0
 62
     7
370
    50
100
AcDbLine
 10
338.542815
 20
70.814802
 30
0.0
 11
338.542815
 21
70.814802
 31
0.0
  0
LINE
  5
4FE
330
4EE
100
AcDbEntity
  8
LC-007-100-D00-0
 62
     7
370
    50
100
AcDbLine
 10
338.542815
 20
70.814802
 30
0.0
 11
337.79745
 21
68.97515
 31
0.0
  0
LINE
  5
4FF
330
4EE
100
AcDbEntity
  8
LC-007-100-D00-0
 62
     7
370
    50
100
AcDbLine
 10
337.79745
 20
68.97515
 30
0.0
 11
337.79745
 21
68.97515
 31
0.0
  0
LINE
  5
500
330
4EE
100
AcDbEntity
  8
LC-007-100-D00-0
 62
     7
370
    50
100
AcDbLine
 10
337.79745
 20
68.97515
 30
0.0
 11
337.049316
 21
67.257365
 31
0.0
  0
LINE
  5
501
330
4EE
100
AcDbEntity
  8
LC-007-100-D00-0
 62
     7
370
    50
100
AcDbLine
 10
337.049316
 20
67.257365
 30
0.0
 11
337.049316
 21
67.257365
 31
0.0
  0
LINE
  5
502
330
4EE
100
AcDbEntity
  8
LC-007-100-D00-0
 62
     7
370
    50
100
AcDbLine
 10
337.049316
 20
67.257365
 30
0.0
 11
336.253554
 21
65.556466
 31
0.0
  0
LINE
  5
503
330
4EE
100
AcDbEntity
  8
LC-007-100-D00-0
 62
     7
370
    50
100
AcDbLine
 10
336.253554
 20
65.556466
 30
0.0
 11
336.253554
 21
65.556466
 31
0.0
  0
LINE
  5
504
330
4EE
100
AcDbEntity
  8
LC-007-100-D00-0
 62
     7
370
    50
100
AcDbLine
 10
336.253554
 20
65.556466
 30
0.0
 11
335.453657
 21
63.964819
 31
0.0
  0
LINE
  5
505
330
4EE
100
AcDbEntity
  8
LC-007-100-D00-0
 62
     7
370
    50
100
AcDbLine
 10
335.453657
 20
63.964819
 30
0.0
 11
335.453657
 21
63.964819
 31
0.0
  0
LINE
  5
506
330
4EE
100
AcDbEntity
  8
LC-007-100-D00-0
 62
     7
370
    50
100
AcDbLine
 10
335.453657
 20
63.964819
 30
0.0
 11
334.624714
 21
62.42867
 31
0.0
  0
LINE
  5
507
330
4EE
100
AcDbEntity
  8
LC-007-100-D00-0
 62
     7
370
    50
100
AcDbLine
 10
334.624714
 20
62.42867
 30
0.0
 11
334.624714
 21
62.42867
 31
0.0
  0
LINE
  5
508
330
4EE
100
AcDbEntity
  8
LC-007-100-D00-0
 62
     7
370
    50
100
AcDbLine
 10
334.624714
 20
62.42867
 30
0.0
 11
333.76578
 21
60.94807
 31
0.0
  0
LINE
  5
509
330
4EE
100
AcDbEntity
  8
LC-007-100-D00-0
 62
     7
370
    50
100
AcDbLine
 10
333.76578
 20
60.94807
 30
0.0
 11
333.76578
 21
60.94807
 31
0.0
  0
LINE
  5
50A
330
4EE
100
AcDbEntity
  8
LC-007-100-D00-0
 62
     7
370
    50
100
AcDbLine
 10
333.76578
 20
60.94807
 30
0.0
 11
332.890867
 21
59.546819
 31
0.0
  0
LINE
  5
50B
330
4EE
100
AcDbEntity
  8
LC-007-100-D00-0
 62
     7
370
    50
100
AcDbLine
 10
332.890867
 20
59.546819
 30
0.0
 11
332.890867
 21
59.546819
 31
0.0
  0
LINE
  5
50C
330
4EE
100
AcDbEntity
  8
LC-007-100-D00-0
 62
     7
370
    50
100
AcDbLine
 10
332.890867
 20
59.546819
 30
0.0
 11
331.995584
 21
58.216222
 31
0.0
  0
ENDBLK
  5
4F0
330
4EE
100
AcDbEntity
  8
0
100
AcDbBlockEnd
  0
BLOCK
  5
50F
330
50E
100
AcDbEntity
  8
0
100
AcDbBlockBegin
  2
POLY41
 70
     0
 71
     0
 10
0.0
 20
0.0
 30
0.0
  3
POLY41
  1

  4
POLY41
  0
LINE
  5
511
330
50E
100
AcDbEntity
  8
LC-007-100-D00-0
 62
     7
370
    50
100
AcDbLine
 10
332.873296
 20
54.708888
 30
0.0
 11
332.873296
 21
54.708888
 31
0.0
  0
LINE
  5
512
330
50E
100
AcDbEntity
  8
LC-007-100-D00-0
 62
     7
370
    50
100
AcDbLine
 10
332.873296
 20
54.708888
 30
0.0
 11
332.886425
 21
54.708293
 31
0.0
  0
LINE
  5
513
330
50E
100
AcDbEntity
  8
LC-007-100-D00-0
 62
     7
370
    50
100
AcDbLine
 10
332.886425
 20
54.708293
 30
0.0
 11
332.886425
 21
54.708293
 31
0.0
  0
LINE
  5
514
330
50E
100
AcDbEntity
  8
LC-007-100-D00-0
 62
     7
370
    50
100
AcDbLine
 10
332.886425
 20
54.708293
 30
0.0
 11
332.899677
 21
54.707868
 31
0.0
  0
LINE
  5
515
330
50E
100
AcDbEntity
  8
LC-007-100-D00-0
 62
     7
370
    50
100
AcDbLine
 10
332.899677
 20
54.707868
 30
0.0
 11
332.899677
 21
54.707868
 31
0.0
  0
LINE
  5
516
330
50E
100
AcDbEntity
  8
LC-007-100-D00-0
 62
     7
370
    50
100
AcDbLine
 10
332.899677
 20
54.707868
 30
0.0
 11
332.912852
 21
54.707617
 31
0.0
  0
LINE
  5
517
330
50E
100
AcDbEntity
  8
LC-007-100-D00-0
 62
     7
370
    50
100
AcDbLine
 10
332.912852
 20
54.707617
 30
0.0
 11
332.912852
 21
54.707617
 31
0.0
  0
LINE
  5
518
330
50E
100
AcDbEntity
  8
LC-007-100-D00-0
 62
     7
370
    50
100
AcDbLine
 10
332.912852
 20
54.707617
 30
0.0
 11
332.926143
 21
54.707533
 31
0.0
  0
ENDBLK
  5
510
330
50E
100
AcDbEntity
  8
0
100
AcDbBlockEnd
  0
BLOCK
  5
51B
330
51A
100
AcDbEntity
  8
0
100
AcDbBlockBegin
  2
POLY42
 70
     0
 71
     0
 10
0.0
 20
0.0
 30
0.0
  3
POLY42
  1

  4
POLY42
  0
LINE
  5
51D
330
51A
100
AcDbEntity
  8
LC-007-100-D00-0
 62
     7
370
    50
100
AcDbLine
 10
331.366589
 20
58.472804
 30
0.0
 11
331.366589
 21
58.472804
 31
0.0
  0
LINE
  5
51E
330
51A
100
AcDbEntity
  8
LC-007-100-D00-0
 62
     7
370
    50
100
AcDbLine
 10
331.366589
 20
58.472804
 30
0.0
 11
331.243253
 21
58.583298
 31
0.0
  0
LINE
  5
51F
330
51A
100
AcDbEntity
  8
LC-007-100-D00-0
 62
     7
370
    50
100
AcDbLine
 10
331.243253
 20
58.583298
 30
0.0
 11
331.243253
 21
58.583298
 31
0.0
  0
LINE
  5
520
330
51A
100
AcDbEntity
  8
LC-007-100-D00-0
 62
     7
370
    50
100
AcDbLine
 10
331.243253
 20
58.583298
 30
0.0
 11
331.139149
 21
58.714905
 31
0.0
  0
ENDBLK
  5
51C
330
51A
100
AcDbEntity
  8
0
100
AcDbBlockEnd
  0
BLOCK
  5
523
330
522
100
AcDbEntity
  8
0
100
AcDbBlockBegin
  2
POLY43
 70
     0
 71
     0
 10
0.0
 20
0.0
 30
0.0
  3
POLY43
  1

  4
POLY43
  0
LINE
  5
525
330
522
100
AcDbEntity
  8
LC-007-100-D00-0
 62
     7
370
    50
100
AcDbLine
 10
331.366589
 20
58.472804
 30
0.0
 11
331.366589
 21
58.472804
 31
0.0
  0
LINE
  5
526
330
522
100
AcDbEntity
  8
LC-007-100-D00-0
 62
     7
370
    50
100
AcDbLine
 10
331.366589
 20
58.472804
 30
0.0
 11
331.479006
 21
58.356312
 31
0.0
  0
LINE
  5
527
330
522
100
AcDbEntity
  8
LC-007-100-D00-0
 62
     7
370
    50
100
AcDbLine
 10
331.479006
 20
58.356312
 30
0.0
 11
331.479006
 21
58.356312
 31
0.0
  0
LINE
  5
528
330
522
100
AcDbEntity
  8
LC-007-100-D00-0
 62
     7
370
    50
100
AcDbLine
 10
331.479006
 20
58.356312
 30
0.0
 11
331.612667
 21
58.25556
 31
0.0
  0
ENDBLK
  5
524
330
522
100
AcDbEntity
  8
0
100
AcDbBlockEnd
  0
BLOCK
  5
52B
330
52A
100
AcDbEntity
  8
0
100
AcDbBlockBegin
  2
POLY44
 70
     0
 71
     0
 10
0.0
 20
0.0
 30
0.0
  3
POLY44
  1

  4
POLY44
  0
LINE
  5
52D
330
52A
100
AcDbEntity
  8
LC-007-100-D00-0
 62
     7
370
    50
100
AcDbLine
 10
331.366589
 20
58.472804
 30
0.0
 11
331.366589
 21
58.472804
 31
0.0
  0
LINE
  5
52E
330
52A
100
AcDbEntity
  8
LC-007-100-D00-0
 62
     7
370
    50
100
AcDbLine
 10
331.366589
 20
58.472804
 30
0.0
 11
331.380518
 21
58.484687
 31
0.0
  0
LINE
  5
52F
330
52A
100
AcDbEntity
  8
LC-007-100-D00-0
 62
     7
370
    50
100
AcDbLine
 10
331.380518
 20
58.484687
 30
0.0
 11
331.380518
 21
58.484687
 31
0.0
  0
LINE
  5
530
330
52A
100
AcDbEntity
  8
LC-007-100-D00-0
 62
     7
370
    50
100
AcDbLine
 10
331.380518
 20
58.484687
 30
0.0
 11
331.392446
 21
58.495598
 31
0.0
  0
LINE
  5
531
330
52A
100
AcDbEntity
  8
LC-007-100-D00-0
 62
     7
370
    50
100
AcDbLine
 10
331.392446
 20
58.495598
 30
0.0
 11
331.392446
 21
58.495598
 31
0.0
  0
LINE
  5
532
330
52A
100
AcDbEntity
  8
LC-007-100-D00-0
 62
     7
370
    50
100
AcDbLine
 10
331.392446
 20
58.495598
 30
0.0
 11
331.406561
 21
58.508978
 31
0.0
  0
LINE
  5
533
330
52A
100
AcDbEntity
  8
LC-007-100-D00-0
 62
     7
370
    50
100
AcDbLine
 10
331.406561
 20
58.508978
 30
0.0
 11
331.406561
 21
58.508978
 31
0.0
  0
LINE
  5
534
330
52A
100
AcDbEntity
  8
LC-007-100-D00-0
 62
     7
370
    50
100
AcDbLine
 10
331.406561
 20
58.508978
 30
0.0
 11
331.422893
 21
58.523845
 31
0.0
  0
ENDBLK
  5
52C
330
52A
100
AcDbEntity
  8
0
100
AcDbBlockEnd
  0
BLOCK
  5
537
330
536
100
AcDbEntity
  8
0
100
AcDbBlockBegin
  2
POLY45
 70
     0
 71
     0
 10
0.0
 20
0.0
 30
0.0
  3
POLY45
  1

  4
POLY45
  0
LINE
  5
539
330
536
100
AcDbEntity
  8
LC-007-100-D00-0
 62
     7
370
    50
100
AcDbLine
 10
332.134777
 20
55.043308
 30
0.0
 11
332.134777
 21
55.043308
 31
0.0
  0
LINE
  5
53A
330
536
100
AcDbEntity
  8
LC-007-100-D00-0
 62
     7
370
    50
100
AcDbLine
 10
332.134777
 20
55.043308
 30
0.0
 11
330.748448
 21
55.028185
 31
0.0
  0
LINE
  5
53B
330
536
100
AcDbEntity
  8
LC-007-100-D00-0
 62
     7
370
    50
100
AcDbLine
 10
330.748448
 20
55.028185
 30
0.0
 11
330.748448
 21
55.028185
 31
0.0
  0
LINE
  5
53C
330
536
100
AcDbEntity
  8
LC-007-100-D00-0
 62
     7
370
    50
100
AcDbLine
 10
330.748448
 20
55.028185
 30
0.0
 11
329.35213
 21
55.012241
 31
0.0
  0
LINE
  5
53D
330
536
100
AcDbEntity
  8
LC-007-100-D00-0
 62
     7
370
    50
100
AcDbLine
 10
329.35213
 20
55.012241
 30
0.0
 11
329.35213
 21
55.012241
 31
0.0
  0
LINE
  5
53E
330
536
100
AcDbEntity
  8
LC-007-100-D00-0
 62
     7
370
    50
100
AcDbLine
 10
329.35213
 20
55.012241
 30
0.0
 11
328.855111
 21
55.006383
 31
0.0
  0
LINE
  5
53F
330
536
100
AcDbEntity
  8
LC-007-100-D00-0
 62
     7
370
    50
100
AcDbLine
 10
328.855111
 20
55.006383
 30
0.0
 11
328.855111
 21
55.006383
 31
0.0
  0
LINE
  5
540
330
536
100
AcDbEntity
  8
LC-007-100-D00-0
 62
     7
370
    50
100
AcDbLine
 10
328.855111
 20
55.006383
 30
0.0
 11
328.358094
 21
55.000426
 31
0.0
  0
ENDBLK
  5
538
330
536
100
AcDbEntity
  8
0
100
AcDbBlockEnd
  0
BLOCK
  5
551
330
550
100
AcDbEntity
  8
0
100
AcDbBlockBegin
  2
POLY46
 70
     0
 71
     0
 10
0.0
 20
0.0
 30
0.0
  3
POLY46
  1

  4
POLY46
  0
LINE
  5
553
330
550
100
AcDbEntity
  8
LC-007-100-D00-0
 62
     7
370
    50
100
AcDbLine
 10
402.953578
 20
87.392612
 30
0.0
 11
402.953578
 21
87.392612
 31
0.0
  0
LINE
  5
554
330
550
100
AcDbEntity
  8
LC-007-100-D00-0
 62
     7
370
    50
100
AcDbLine
 10
402.953578
 20
87.392612
 30
0.0
 11
405.389041
 21
94.075423
 31
0.0
  0
LINE
  5
555
330
550
100
AcDbEntity
  8
LC-007-100-D00-0
 62
     7
370
    50
100
AcDbLine
 10
405.389041
 20
94.075423
 30
0.0
 11
405.389041
 21
94.075423
 31
0.0
  0
LINE
  5
556
330
550
100
AcDbEntity
  8
LC-007-100-D00-0
 62
     7
370
    50
100
AcDbLine
 10
405.389041
 20
94.075423
 30
0.0
 11
407.142369
 21
100.540749
 31
0.0
  0
LINE
  5
557
330
550
100
AcDbEntity
  8
LC-007-100-D00-0
 62
     7
370
    50
100
AcDbLine
 10
407.142369
 20
100.540749
 30
0.0
 11
407.142369
 21
100.540749
 31
0.0
  0
LINE
  5
558
330
550
100
AcDbEntity
  8
LC-007-100-D00-0
 62
     7
370
    50
100
AcDbLine
 10
407.142369
 20
100.540749
 30
0.0
 11
408.297822
 21
107.415217
 31
0.0
  0
LINE
  5
559
330
550
100
AcDbEntity
  8
LC-007-100-D00-0
 62
     7
370
    50
100
AcDbLine
 10
408.297822
 20
107.415217
 30
0.0
 11
408.297822
 21
107.415217
 31
0.0
  0
LINE
  5
55A
330
550
100
AcDbEntity
  8
LC-007-100-D00-0
 62
     7
370
    50
100
AcDbLine
 10
408.297822
 20
107.415217
 30
0.0
 11
408.681697
 21
114.202673
 31
0.0
  0
LINE
  5
55B
330
550
100
AcDbEntity
  8
LC-007-100-D00-0
 62
     7
370
    50
100
AcDbLine
 10
408.681697
 20
114.202673
 30
0.0
 11
408.681697
 21
114.202673
 31
0.0
  0
LINE
  5
55C
330
550
100
AcDbEntity
  8
LC-007-100-D00-0
 62
     7
370
    50
100
AcDbLine
 10
408.681697
 20
114.202673
 30
0.0
 11
408.296101
 21
121.015113
 31
0.0
  0
LINE
  5
55D
330
550
100
AcDbEntity
  8
LC-007-100-D00-0
 62
     7
370
    50
100
AcDbLine
 10
408.296101
 20
121.015113
 30
0.0
 11
408.296101
 21
121.015113
 31
0.0
  0
LINE
  5
55E
330
550
100
AcDbEntity
  8
LC-007-100-D00-0
 62
     7
370
    50
100
AcDbLine
 10
408.296101
 20
121.015113
 30
0.0
 11
407.133216
 21
127.915407
 31
0.0
  0
LINE
  5
55F
330
550
100
AcDbEntity
  8
LC-007-100-D00-0
 62
     7
370
    50
100
AcDbLine
 10
407.133216
 20
127.915407
 30
0.0
 11
407.133216
 21
127.915407
 31
0.0
  0
LINE
  5
560
330
550
100
AcDbEntity
  8
LC-007-100-D00-0
 62
     7
370
    50
100
AcDbLine
 10
407.133216
 20
127.915407
 30
0.0
 11
405.382306
 21
134.360773
 31
0.0
  0
LINE
  5
561
330
550
100
AcDbEntity
  8
LC-007-100-D00-0
 62
     7
370
    50
100
AcDbLine
 10
405.382306
 20
134.360773
 30
0.0
 11
405.382306
 21
134.360773
 31
0.0
  0
LINE
  5
562
330
550
100
AcDbEntity
  8
LC-007-100-D00-0
 62
     7
370
    50
100
AcDbLine
 10
405.382306
 20
134.360773
 30
0.0
 11
402.953578
 21
141.022454
 31
0.0
  0
ENDBLK
  5
552
330
550
100
AcDbEntity
  8
0
100
AcDbBlockEnd
  0
BLOCK
  5
565
330
564
100
AcDbEntity
  8
0
100
AcDbBlockBegin
  2
POLY47
 70
     0
 71
     0
 10
0.0
 20
0.0
 30
0.0
  3
POLY47
  1

  4
POLY47
  0
LINE
  5
567
330
564
100
AcDbEntity
  8
LC-007-100-D00-0
 62
     7
370
    50
100
AcDbLine
 10
402.257911
 20
173.707533
 30
0.0
 11
402.257911
 21
173.707533
 31
0.0
  0
LINE
  5
568
330
564
100
AcDbEntity
  8
LC-007-100-D00-0
 62
     7
370
    50
100
AcDbLine
 10
402.257911
 20
173.707533
 30
0.0
 11
402.378473
 21
170.632612
 31
0.0
  0
LINE
  5
569
330
564
100
AcDbEntity
  8
LC-007-100-D00-0
 62
     7
370
    50
100
AcDbLine
 10
402.378473
 20
170.632612
 30
0.0
 11
402.378473
 21
170.632612
 31
0.0
  0
LINE
  5
56A
330
564
100
AcDbEntity
  8
LC-007-100-D00-0
 62
     7
370
    50
100
AcDbLine
 10
402.378473
 20
170.632612
 30
0.0
 11
402.476775
 21
167.609204
 31
0.0
  0
LINE
  5
56B
330
564
100
AcDbEntity
  8
LC-007-100-D00-0
 62
     7
370
    50
100
AcDbLine
 10
402.476775
 20
167.609204
 30
0.0
 11
402.476775
 21
167.609204
 31
0.0
  0
LINE
  5
56C
330
564
100
AcDbEntity
  8
LC-007-100-D00-0
 62
     7
370
    50
100
AcDbLine
 10
402.476775
 20
167.609204
 30
0.0
 11
402.576307
 21
163.985267
 31
0.0
  0
LINE
  5
56D
330
564
100
AcDbEntity
  8
LC-007-100-D00-0
 62
     7
370
    50
100
AcDbLine
 10
402.576307
 20
163.985267
 30
0.0
 11
402.576307
 21
163.985267
 31
0.0
  0
LINE
  5
56E
330
564
100
AcDbEntity
  8
LC-007-100-D00-0
 62
     7
370
    50
100
AcDbLine
 10
402.576307
 20
163.985267
 30
0.0
 11
402.668639
 21
160.002474
 31
0.0
  0
LINE
  5
56F
330
564
100
AcDbEntity
  8
LC-007-100-D00-0
 62
     7
370
    50
100
AcDbLine
 10
402.668639
 20
160.002474
 30
0.0
 11
402.752355
 21
155.860817
 31
0.0
  0
LINE
  5
570
330
564
100
AcDbEntity
  8
LC-007-100-D00-0
 62
     7
370
    50
100
AcDbLine
 10
402.752355
 20
155.860817
 30
0.0
 11
402.829377
 21
151.050311
 31
0.0
  0
LINE
  5
571
330
564
100
AcDbEntity
  8
LC-007-100-D00-0
 62
     7
370
    50
100
AcDbLine
 10
402.829377
 20
151.050311
 30
0.0
 11
402.913491
 21
144.470846
 31
0.0
  0
LINE
  5
572
330
564
100
AcDbEntity
  8
LC-007-100-D00-0
 62
     7
370
    50
100
AcDbLine
 10
402.913491
 20
144.470846
 30
0.0
 11
402.953578
 21
141.022454
 31
0.0
  0
ENDBLK
  5
566
330
564
100
AcDbEntity
  8
0
100
AcDbBlockEnd
  0
BLOCK
  5
575
330
574
100
AcDbEntity
  8
0
100
AcDbBlockBegin
  2
POLY48
 70
     0
 71
     0
 10
0.0
 20
0.0
 30
0.0
  3
POLY48
  1

  4
POLY48
  0
LINE
  5
577
330
574
100
AcDbEntity
  8
LC-007-100-D00-0
 62
     7
370
    50
100
AcDbLine
 10
402.953578
 20
87.392612
 30
0.0
 11
402.913519
 21
83.945891
 31
0.0
  0
LINE
  5
578
330
574
100
AcDbEntity
  8
LC-007-100-D00-0
 62
     7
370
    50
100
AcDbLine
 10
402.913519
 20
83.945891
 30
0.0
 11
402.829467
 21
77.370783
 31
0.0
  0
LINE
  5
579
330
574
100
AcDbEntity
  8
LC-007-100-D00-0
 62
     7
370
    50
100
AcDbLine
 10
402.829467
 20
77.370783
 30
0.0
 11
402.752503
 21
72.564505
 31
0.0
  0
LINE
  5
57A
330
574
100
AcDbEntity
  8
LC-007-100-D00-0
 62
     7
370
    50
100
AcDbLine
 10
402.752503
 20
72.564505
 30
0.0
 11
402.668865
 21
68.423198
 31
0.0
  0
LINE
  5
57B
330
574
100
AcDbEntity
  8
LC-007-100-D00-0
 62
     7
370
    50
100
AcDbLine
 10
402.668865
 20
68.423198
 30
0.0
 11
402.668865
 21
68.423198
 31
0.0
  0
LINE
  5
57C
330
574
100
AcDbEntity
  8
LC-007-100-D00-0
 62
     7
370
    50
100
AcDbLine
 10
402.668865
 20
68.423198
 30
0.0
 11
402.58342
 21
64.713552
 31
0.0
  0
LINE
  5
57D
330
574
100
AcDbEntity
  8
LC-007-100-D00-0
 62
     7
370
    50
100
AcDbLine
 10
402.58342
 20
64.713552
 30
0.0
 11
402.58342
 21
64.713552
 31
0.0
  0
LINE
  5
57E
330
574
100
AcDbEntity
  8
LC-007-100-D00-0
 62
     7
370
    50
100
AcDbLine
 10
402.58342
 20
64.713552
 30
0.0
 11
402.476108
 21
60.783608
 31
0.0
  0
LINE
  5
57F
330
574
100
AcDbEntity
  8
LC-007-100-D00-0
 62
     7
370
    50
100
AcDbLine
 10
402.476108
 20
60.783608
 30
0.0
 11
402.476108
 21
60.783608
 31
0.0
  0
LINE
  5
580
330
574
100
AcDbEntity
  8
LC-007-100-D00-0
 62
     7
370
    50
100
AcDbLine
 10
402.476108
 20
60.783608
 30
0.0
 11
402.361507
 21
57.309905
 31
0.0
  0
LINE
  5
581
330
574
100
AcDbEntity
  8
LC-007-100-D00-0
 62
     7
370
    50
100
AcDbLine
 10
402.361507
 20
57.309905
 30
0.0
 11
402.361507
 21
57.309905
 31
0.0
  0
LINE
  5
582
330
574
100
AcDbEntity
  8
LC-007-100-D00-0
 62
     7
370
    50
100
AcDbLine
 10
402.361507
 20
57.309905
 30
0.0
 11
402.257911
 21
54.707533
 31
0.0
  0
ENDBLK
  5
576
330
574
100
AcDbEntity
  8
0
100
AcDbBlockEnd
  0
BLOCK
  5
5D3
330
5C9
100
AcDbEntity
  8
0
100
AcDbBlockBegin
  2
*D61
 70
     1
 71
     0
 10
0.0
 20
0.0
 30
0.0
  3
*D61
  1

  0
LINE
  5
5CA
330
5C9
100
AcDbEntity
  8
LC-005-003-----0
 62
     2
370
    -2
100
AcDbLine
 10
409.081697
 20
173.707533
 30
0.0
 11
529.370427
 21
173.707533
 31
0.0
  0
LINE
  5
5CB
330
5C9
100
AcDbEntity
  8
LC-005-003-----0
 62
     2
370
    -2
100
AcDbLine
 10
409.081697
 20
54.707533
 30
0.0
 11
529.370427
 21
54.707533
 31
0.0
  0
LINE
  5
5CC
330
5C9
100
AcDbEntity
  8
LC-005-003-----0
 62
     2
370
    -2
100
AcDbLine
 10
525.770427
 20
145.707533
 30
0.0
 11
525.770427
 21
82.707533
 31
0.0
  0
SOLID
  5
5CD
330
5C9
100
AcDbEntity
  8
LC-005-003-----0
 62
     2
100
AcDbTrace
 10
530.437094
 20
145.707533
 30
0.0
 11
521.10376
 21
145.707533
 31
0.0
 12
525.770427
 22
173.707533
 32
0.0
 13
525.770427
 23
173.707533
 33
0.0
  0
SOLID
  5
5CE
330
5C9
100
AcDbEntity
  8
LC-005-003-----0
 62
     2
100
AcDbTrace
 10
521.10376
 20
82.707533
 30
0.0
 11
530.437094
 21
82.707533
 31
0.0
 12
525.770427
 22
54.707533
 32
0.0
 13
525.770427
 23
54.707533
 33
0.0
  0
MTEXT
  5
5CF
330
5C9
100
AcDbEntity
  8
LC-005-003-----0
 62
     2
100
AcDbMText
 10
494.970427
 20
119.394
 30
0.0
 40
28.0
 41
0.0
 71
     5
 72
     1
  1
\A1;119
  7
LCTX15-400-0-0pDIN-Schrift
 11
6.123031769111886E-17
 21
1.0
 31
0.0
 73
     1
 44
1.0
  0
POINT
  5
5D0
330
5C9
100
AcDbEntity
  8
Defpoints
 62
     0
100
AcDbPoint
 10
409.081697
 20
173.707533
 30
0.0
  0
POINT
  5
5D1
330
5C9
100
AcDbEntity
  8
Defpoints
 62
     0
100
AcDbPoint
 10
409.081697
 20
54.707533
 30
0.0
  0
POINT
  5
5D2
330
5C9
100
AcDbEntity
  8
Defpoints
 62
     0
100
AcDbPoint
 10
525.770427
 20
54.707533
 30
0.0
  0
ENDBLK
  5
5D4
330
5C9
100
AcDbEntity
  8
0
100
AcDbBlockEnd
  0
ENDSEC
  0
SECTION
  2
ENTITIES
  0
LINE
  5
34
330
1F
100
AcDbEntity
  8
LC-001-002-----0
 62
     7
370
    25
100
AcDbLine
 10
247.601601
 20
394.829545
 30
0.0
 11
304.853585
 21
394.829545
 31
0.0
  0
LINE
  5
35
330
1F
100
AcDbEntity
  8
LC-001-002-----0
  6
ByBlock
 62
     7
370
    50
100
AcDbLine
 10
419.815463
 20
418.727545
 30
0.0
 11
486.088804
 21
418.727545
 31
0.0
  0
LINE
  5
36
330
1F
100
AcDbEntity
  8
LC-001-002-----0
  6
ByBlock
 62
     7
370
    50
100
AcDbLine
 10
419.815463
 20
418.727545
 30
0.0
 11
407.0999
 21
440.751545
 31
0.0
  0
LINE
  5
37
330
1F
100
AcDbEntity
  8
LC-001-002-----0
  6
ByBlock
 62
     7
370
    50
100
AcDbLine
 10
347.566537
 20
440.751545
 30
0.0
 11
407.0999
 21
440.751545
 31
0.0
  0
LINE
  5
38
330
1F
100
AcDbEntity
  8
LC-001-002-----0
  6
ByBlock
 62
     7
370
    50
100
AcDbLine
 10
251.090666
 20
433.579545
 30
0.0
 11
255.423999
 21
433.579545
 31
0.0
  0
LINE
  5
39
330
1F
100
AcDbEntity
  8
LC-001-002-----0
  6
ByBlock
 62
     7
370
    50
100
AcDbLine
 10
251.090666
 20
436.079545
 30
0.0
 11
254.590666
 21
436.079545
 31
0.0
  0
LINE
  5
3A
330
1F
100
AcDbEntity
  8
LC-001-002-----0
  6
ByBlock
 62
     7
370
    50
100
AcDbLine
 10
341.544983
 20
428.674175
 30
0.0
 11
347.566537
 21
440.751545
 31
0.0
  0
LINE
  5
3B
330
1F
100
AcDbEntity
  8
LC-001-002-----0
  6
ByBlock
 62
     7
370
    50
100
AcDbLine
 10
260.423999
 20
437.329545
 30
0.0
 11
255.423999
 21
433.579545
 31
0.0
  0
LINE
  5
3C
330
1F
100
AcDbEntity
  8
LC-001-002-----0
  6
ByBlock
 62
     7
370
    50
100
AcDbLine
 10
259.590666
 20
439.829545
 30
0.0
 11
254.590666
 21
436.079545
 31
0.0
  0
LINE
  5
3D
330
1F
100
AcDbEntity
  8
LC-001-002-----0
  6
ByBlock
 62
     7
370
    50
100
AcDbLine
 10
260.423999
 20
437.329545
 30
0.0
 11
267.090666
 21
437.329545
 31
0.0
  0
LINE
  5
3E
330
1F
100
AcDbEntity
  8
LC-001-002-----0
  6
ByBlock
 62
     7
370
    50
100
AcDbLine
 10
267.090666
 20
437.329545
 30
0.0
 11
267.090666
 21
434.829545
 31
0.0
  0
LINE
  5
3F
330
1F
100
AcDbEntity
  8
LC-001-002-----0
  6
ByBlock
 62
     7
370
    50
100
AcDbLine
 10
267.090666
 20
432.329545
 30
0.0
 11
340.573982
 21
432.329545
 31
0.0
  0
LINE
  5
40
330
1F
100
AcDbEntity
  8
LC-001-002-----0
  6
ByBlock
 62
     7
370
    50
100
AcDbLine
 10
301.590666
 20
437.329545
 30
0.0
 11
303.090666
 21
437.329545
 31
0.0
  0
INSERT
  5
A1
330
1F
100
AcDbEntity
  8
LC-002-005-----0
 62
     7
370
    25
100
AcDbBlockReference
  2
*X11
 10
0.0
 20
0.0
 30
0.0
  0
LINE
  5
A2
102
{ACAD_REACTORS
330
5DB
102
}
330
1F
100
AcDbEntity
  8
LC-001-002-----0
  6
ByBlock
 62
     7
370
    50
100
AcDbLine
 10
267.090666
 20
437.329545
 30
0.0
 11
259.148853
 21
437.329541
 31
0.0
  0
LINE
  5
A3
102
{ACAD_REACTORS
330
5DB
102
}
330
1F
100
AcDbEntity
  8
LC-001-002-----0
  6
ByBlock
 62
     7
370
    50
100
AcDbLine
 10
259.162425
 20
435.109869
 30
0.0
 11
259.148478
 21
437.329541
 31
0.0
  0
LINE
  5
A4
102
{ACAD_REACTORS
330
5DB
102
}
330
1F
100
AcDbEntity
  8
LC-001-002-----0
  6
ByBlock
 62
     7
370
    50
100
AcDbLine
 10
267.104237
 20
435.169588
 30
0.0
 11
267.090666
 21
437.329545
 31
0.0
  0
LINE
  5
A5
102
{ACAD_REACTORS
330
5DB
102
}
330
1F
100
AcDbEntity
  8
LC-001-002-----0
  6
ByBlock
 62
     7
370
    50
100
AcDbLine
 10
260.091109
 20
434.136393
 30
0.0
 11
259.168604
 21
434.12635
 31
0.0
  0
LINE
  5
A6
330
1F
100
AcDbEntity
  8
LC-001-002-----0
  6
ByBlock
 62
     7
370
    50
100
AcDbLine
 10
251.090666
 20
436.079545
 30
0.0
 11
251.090666
 21
394.829545
 31
0.0
  0
LINE
  5
A7
102
{ACAD_REACTORS
330
5DB
102
}
330
1F
100
AcDbEntity
  8
LC-001-002-----0
  6
ByBlock
 62
     7
370
    50
100
AcDbLine
 10
266.826094
 20
432.869695
 30
0.0
 11
266.467134
 21
434.176455
 31
0.0
  0
LINE
  5
A8
102
{ACAD_REACTORS
330
5DB
102
}
330
1F
100
AcDbEntity
  8
LC-001-002-----0
  6
ByBlock
 62
     7
370
    50
100
AcDbLine
 10
263.638082
 20
432.849664
 30
0.0
 11
263.279122
 21
434.156424
 31
0.0
  0
ARC
  5
AA
102
{ACAD_REACTORS
330
5DB
102
}
330
1F
100
AcDbEntity
  8
LC-003-002-RND-0
 62
     7
370
    50
100
AcDbCircle
 10
266.687238
 20
432.831552
 30
0.0
 40
0.1440000000000948
100
AcDbArc
 50
246.499934
 51
15.36
  0
ARC
  5
AB
102
{ACAD_REACTORS
330
5DB
102
}
330
1F
100
AcDbEntity
  8
LC-003-002-RND-0
 62
     7
370
    50
100
AcDbCircle
 10
263.499226
 20
432.811521
 30
0.0
 40
0.1440000000001854
100
AcDbArc
 50
246.499934
 51
15.36
  0
LINE
  5
AC
102
{ACAD_REACTORS
330
5DB
102
}
330
1F
100
AcDbEntity
  8
LC-001-002-----0
  6
ByBlock
 62
     7
370
    50
100
AcDbLine
 10
259.168604
 20
434.12635
 30
0.0
 11
259.162425
 21
435.109869
 31
0.0
  0
LINE
  5
AD
102
{ACAD_REACTORS
330
5DB
102
}
330
1F
100
AcDbEntity
  8
LC-001-002-----0
  6
ByBlock
 62
     7
370
    50
100
AcDbLine
 10
266.467134
 20
434.176455
 30
0.0
 11
267.110417
 21
434.186069
 31
0.0
  0
LINE
  5
AE
102
{ACAD_REACTORS
330
5DB
102
}
330
1F
100
AcDbEntity
  8
LC-001-002-----0
  6
ByBlock
 62
     7
370
    50
100
AcDbLine
 10
267.110417
 20
434.186069
 30
0.0
 11
267.104237
 21
435.169588
 31
0.0
  0
LINE
  5
AF
102
{ACAD_REACTORS
330
5DB
102
}
330
1F
100
AcDbEntity
  8
LC-001-002-----0
  6
ByBlock
 62
     7
370
    50
100
AcDbLine
 10
260.091109
 20
434.136393
 30
0.0
 11
263.441806
 21
432.679464
 31
0.0
  0
CIRCLE
  5
B0
330
1F
100
AcDbEntity
  8
LC-001-002-----0
  6
ByBlock
 62
     7
370
    50
100
AcDbCircle
 10
356.155273
 20
382.420613
 30
0.0
 40
40.0
  0
LINE
  5
B1
330
1F
100
AcDbEntity
  8
LC-001-002-----0
  6
ByBlock
 62
     7
370
    50
100
AcDbLine
 10
251.090666
 20
356.079545
 30
0.0
 11
255.423999
 21
356.079545
 31
0.0
  0
LINE
  5
B2
330
1F
100
AcDbEntity
  8
LC-001-002-----0
  6
ByBlock
 62
     7
370
    50
100
AcDbLine
 10
251.090666
 20
353.579545
 30
0.0
 11
254.590666
 21
353.579545
 31
0.0
  0
LINE
  5
B3
330
1F
100
AcDbEntity
  8
LC-001-002-----0
  6
ByBlock
 62
     7
370
    50
100
AcDbLine
 10
259.590666
 20
349.829545
 30
0.0
 11
254.590666
 21
353.579545
 31
0.0
  0
LINE
  5
B4
330
1F
100
AcDbEntity
  8
LC-001-002-----0
  6
ByBlock
 62
     7
370
    50
100
AcDbLine
 10
260.423999
 20
352.329545
 30
0.0
 11
255.423999
 21
356.079545
 31
0.0
  0
LINE
  5
B5
330
1F
100
AcDbEntity
  8
LC-001-002-----0
  6
ByBlock
 62
     7
370
    50
100
AcDbLine
 10
260.423999
 20
352.329545
 30
0.0
 11
267.090666
 21
352.329545
 31
0.0
  0
LINE
  5
B6
330
1F
100
AcDbEntity
  8
LC-001-002-----0
  6
ByBlock
 62
     7
370
    50
100
AcDbLine
 10
259.590666
 20
349.829545
 30
0.0
 11
267.590666
 21
349.829545
 31
0.0
  0
LINE
  5
B7
330
1F
100
AcDbEntity
  8
LC-001-002-----0
  6
ByBlock
 62
     7
370
    50
100
AcDbLine
 10
269.590666
 20
351.829545
 30
0.0
 11
269.590666
 21
354.829545
 31
0.0
  0
LINE
  5
B8
330
1F
100
AcDbEntity
  8
LC-001-002-----0
  6
ByBlock
 62
     7
370
    50
100
AcDbLine
 10
267.090666
 20
375.413545
 30
0.0
 11
267.090666
 21
377.913545
 31
0.0
  0
LINE
  5
B9
330
1F
100
AcDbEntity
  8
LC-001-002-----0
  6
ByBlock
 62
     7
370
    50
100
AcDbLine
 10
267.090666
 20
357.329545
 30
0.0
 11
303.180047
 21
357.329545
 31
0.0
  0
LINE
  5
BA
330
1F
100
AcDbEntity
  8
LC-001-002-----0
  6
ByBlock
 62
     7
370
    50
100
AcDbLine
 10
269.590666
 20
354.829545
 30
0.0
 11
301.590666
 21
354.829545
 31
0.0
  0
LINE
  5
BB
102
{ACAD_REACTORS
330
5D5
102
}
330
1F
100
AcDbEntity
  8
LC-001-002-----0
  6
ByBlock
 62
     7
370
    50
100
AcDbLine
 10
251.088745
 20
355.558204
 30
0.0
 11
251.088953
 21
394.828922
 31
0.0
  0
LINE
  5
BC
330
1F
100
AcDbEntity
  8
LC-001-002-----0
  6
ByBlock
 62
     7
370
    50
100
AcDbLine
 10
303.090666
 20
437.329545
 30
0.0
 11
303.090666
 21
434.829545
 31
0.0
  0
LINE
  5
BD
330
1F
100
AcDbEntity
  8
LC-001-002-----0
  6
ByBlock
 62
     7
370
    50
100
AcDbLine
 10
486.088804
 20
348.751545
 30
0.0
 11
486.088804
 21
347.716423
 31
0.0
  0
INSERT
  5
11B
330
1F
100
AcDbEntity
  8
LC-002-005-----0
 62
     7
370
    25
100
AcDbBlockReference
  2
*X22
 10
0.0
 20
0.0
 30
0.0
  0
LINE
  5
11C
330
1F
100
AcDbEntity
  8
LC-001-002-----0
  6
ByBlock
 62
     7
370
    50
100
AcDbLine
 10
309.005037
 20
353.265575
 30
0.0
 11
324.726539
 21
349.790572
 31
0.0
  0
LINE
  5
11D
102
{ACAD_REACTORS
330
5D5
102
}
330
1F
100
AcDbEntity
  8
LC-001-002-----0
  6
ByBlock
 62
     7
370
    50
100
AcDbLine
 10
251.088734
 20
353.579545
 30
0.0
 11
251.088748
 21
356.079545
 31
0.0
  0
ARC
  5
11F
330
1F
100
AcDbEntity
  8
LC-004-001-----0
 62
     7
370
    50
100
AcDbCircle
 10
310.399138
 20
356.061261
 30
0.0
 40
3.124000000000025
100
AcDbArc
 50
153.496315
 51
243.5
  0
ARC
  5
120
330
1F
100
AcDbEntity
  8
LC-003-002-RND-0
 62
     7
370
    50
100
AcDbCircle
 10
263.499226
 20
356.84757
 30
0.0
 40
0.1439999999999564
100
AcDbArc
 50
344.64
 51
113.500066
  0
LINE
  5
121
102
{ACAD_REACTORS
330
5DA
102
}
330
1F
100
AcDbEntity
  8
LC-001-002-----0
  6
ByBlock
 62
     7
370
    50
100
AcDbLine
 10
267.090666
 20
352.329545
 30
0.0
 11
259.148853
 21
352.329549
 31
0.0
  0
LINE
  5
122
102
{ACAD_REACTORS
330
5DA
102
}
330
1F
100
AcDbEntity
  8
LC-001-002-----0
  6
ByBlock
 62
     7
370
    50
100
AcDbLine
 10
259.162425
 20
354.549222
 30
0.0
 11
259.148478
 21
352.329549
 31
0.0
  0
LINE
  5
123
102
{ACAD_REACTORS
330
5DA
102
}
330
1F
100
AcDbEntity
  8
LC-001-002-----0
  6
ByBlock
 62
     7
370
    50
100
AcDbLine
 10
267.104237
 20
354.489503
 30
0.0
 11
267.090666
 21
352.329545
 31
0.0
  0
LINE
  5
124
102
{ACAD_REACTORS
330
5DA
102
}
330
1F
100
AcDbEntity
  8
LC-001-002-----0
  6
ByBlock
 62
     7
370
    50
100
AcDbLine
 10
260.091109
 20
355.522697
 30
0.0
 11
259.168604
 21
355.532741
 31
0.0
  0
LINE
  5
125
102
{ACAD_REACTORS
330
5DA
102
}
330
1F
100
AcDbEntity
  8
LC-001-002-----0
  6
ByBlock
 62
     7
370
    50
100
AcDbLine
 10
266.826094
 20
356.789396
 30
0.0
 11
266.467134
 21
355.482635
 31
0.0
  0
LINE
  5
126
102
{ACAD_REACTORS
330
5DA
102
}
330
1F
100
AcDbEntity
  8
LC-001-002-----0
  6
ByBlock
 62
     7
370
    50
100
AcDbLine
 10
263.638082
 20
356.809427
 30
0.0
 11
263.279122
 21
355.502666
 31
0.0
  0
LINE
  5
127
330
1F
100
AcDbEntity
  8
LC-001-002-----0
  6
ByBlock
 62
     7
370
    50
100
AcDbLine
 10
421.258838
 20
421.227545
 30
0.0
 11
480.621804
 21
421.227545
 31
0.0
  0
LINE
  5
128
330
1F
100
AcDbEntity
  8
LC-001-002-----0
 62
     7
370
    25
100
AcDbLine
 10
418.452443
 20
383.739545
 30
0.0
 11
486.088804
 21
383.739545
 31
0.0
  0
LINE
  5
129
330
1F
100
AcDbEntity
  8
LC-001-002-----0
  6
ByBlock
 62
     7
370
    50
100
AcDbLine
 10
420.992137
 20
346.251545
 30
0.0
 11
480.621804
 21
346.251545
 31
0.0
  0
LINE
  5
12A
102
{ACAD_REACTORS
330
5DB
102
}
330
1F
100
AcDbEntity
  8
LC-001-002-----0
  6
ByBlock
 62
     7
370
    50
100
AcDbLine
 10
263.279122
 20
434.156424
 30
0.0
 11
266.629818
 21
432.699495
 31
0.0
  0
ARC
  5
12B
330
1F
100
AcDbEntity
  8
LC-003-002-RND-0
 62
     7
370
    50
100
AcDbCircle
 10
267.590666
 20
437.829545
 30
0.0
 40
2.0
100
AcDbArc
 50
0.0
 51
90.0
  0
LINE
  5
12C
330
1F
100
AcDbEntity
  8
LC-001-002-----0
  6
ByBlock
 62
     7
370
    50
100
AcDbLine
 10
486.088804
 20
419.762667
 30
0.0
 11
486.088804
 21
348.751545
 31
0.0
  0
ARC
  5
12D
102
{ACAD_REACTORS
330
5DA
102
}
330
1F
100
AcDbEntity
  8
LC-003-002-RND-0
 62
     7
370
    50
100
AcDbCircle
 10
266.687238
 20
356.827539
 30
0.0
 40
0.1439999999999564
100
AcDbArc
 50
344.64
 51
113.500066
  0
LINE
  5
12E
330
1F
100
AcDbEntity
  8
LC-001-002-----0
  6
ByBlock
 62
     7
370
    50
100
AcDbLine
 10
341.090666
 20
434.829545
 30
0.0
 11
345.953109
 21
443.251545
 31
0.0
  0
LINE
  5
12F
330
1F
100
AcDbEntity
  8
LC-001-002-----0
  6
ByBlock
 62
     7
370
    50
100
AcDbLine
 10
421.258838
 20
421.227545
 30
0.0
 11
408.543276
 21
443.251545
 31
0.0
  0
ARC
  5
130
102
{ACAD_REACTORS
330
5DA
102
}
330
1F
100
AcDbEntity
  8
LC-003-002-RND-0
 62
     7
370
    50
100
AcDbCircle
 10
263.499226
 20
356.84757
 30
0.0
 40
0.1439999999999564
100
AcDbArc
 50
344.64
 51
113.500066
  0
LINE
  5
131
330
1F
100
AcDbEntity
  8
LC-001-002-----0
  6
ByBlock
 62
     7
370
    50
100
AcDbLine
 10
345.953109
 20
443.251545
 30
0.0
 11
408.543276
 21
443.251545
 31
0.0
  0
LINE
  5
132
330
1F
100
AcDbEntity
  8
LC-001-002-----0
  6
ByBlock
 62
     7
370
    50
100
AcDbLine
 10
255.423999
 20
433.579545
 30
0.0
 11
255.423999
 21
356.079545
 31
0.0
  0
LINE
  5
133
330
1F
100
AcDbEntity
  8
LC-001-002-----0
  6
ByBlock
 62
     7
370
    50
100
AcDbLine
 10
267.090666
 20
434.829545
 30
0.0
 11
267.090666
 21
352.329545
 31
0.0
  0
LINE
  5
134
330
1F
100
AcDbEntity
  8
LC-001-002-----0
  6
ByBlock
 62
     7
370
    50
100
AcDbLine
 10
420.549874
 20
348.751545
 30
0.0
 11
486.088804
 21
348.751545
 31
0.0
  0
LINE
  5
135
330
1F
100
AcDbEntity
  8
LC-001-002-----0
  6
ByBlock
 62
     7
370
    50
100
AcDbLine
 10
480.621804
 20
346.251545
 30
0.0
 11
486.088804
 21
347.716423
 31
0.0
  0
LINE
  5
136
330
1F
100
AcDbEntity
  8
LC-001-002-----0
  6
ByBlock
 62
     7
370
    50
100
AcDbLine
 10
480.621804
 20
421.227545
 30
0.0
 11
486.088804
 21
419.762667
 31
0.0
  0
LINE
  5
137
330
1F
100
AcDbEntity
  8
LC-001-002-----0
  6
ByBlock
 62
     7
370
    50
100
AcDbLine
 10
320.666741
 20
338.251545
 30
0.0
 11
399.088804
 21
338.251545
 31
0.0
  0
LINE
  5
138
330
1F
100
AcDbEntity
  8
LC-001-002-----0
  6
ByBlock
 62
     7
370
    50
100
AcDbLine
 10
305.856508
 20
356.597312
 30
0.0
 11
321.702275
 21
340.751545
 31
0.0
  0
ARC
  5
139
330
1F
100
AcDbEntity
  8
LC-003-002-RND-0
 62
     7
370
    50
100
AcDbCircle
 10
267.590666
 20
351.829545
 30
0.0
 40
2.0
100
AcDbArc
 50
270.0
 51
0.0
  0
LINE
  5
13A
102
{ACAD_REACTORS
330
5DA
102
}
330
1F
100
AcDbEntity
  8
LC-001-002-----0
  6
ByBlock
 62
     7
370
    50
100
AcDbLine
 10
259.168604
 20
355.532741
 30
0.0
 11
259.162425
 21
354.549222
 31
0.0
  0
ARC
  5
13B
330
1F
100
AcDbEntity
  8
LC-001-002-----0
  6
ByBlock
 62
     7
370
    25
100
AcDbCircle
 10
356.155273
 20
382.420613
 30
0.0
 40
33.27566379103727
100
AcDbArc
 50
293.969689
 51
109.480177
  0
LINE
  5
13C
330
1F
100
AcDbEntity
  8
LC-001-002-----0
  6
ByBlock
 62
     7
370
    50
100
AcDbLine
 10
305.50479
 20
361.992252
 30
0.0
 11
306.905287
 21
361.293989
 31
0.0
  0
LINE
  5
13D
330
1F
100
AcDbEntity
  8
LC-001-002-----0
  6
ByBlock
 62
     7
370
    50
100
AcDbLine
 10
307.777977
 20
359.543645
 30
0.0
 11
307.257733
 21
358.500197
 31
0.0
  0
LINE
  5
13E
330
1F
100
AcDbEntity
  8
LC-001-002-----0
  6
ByBlock
 62
     7
370
    50
100
AcDbLine
 10
306.821388
 20
358.500197
 30
0.0
 11
307.257733
 21
358.500197
 31
0.0
  0
LINE
  5
13F
330
1F
100
AcDbEntity
  8
LC-001-002-----0
  6
ByBlock
 62
     7
370
    50
100
AcDbLine
 10
306.905287
 20
361.293989
 30
0.0
 11
307.777977
 21
359.543645
 31
0.0
  0
LINE
  5
140
330
1F
100
AcDbEntity
  8
LC-001-002-----0
 62
     7
370
    25
100
AcDbLine
 10
321.180487
 20
398.683812
 30
0.0
 11
343.546913
 21
387.532324
 31
0.0
  0
LINE
  5
141
330
1F
100
AcDbEntity
  8
LC-004-001-----0
 62
     7
370
    50
100
AcDbLine
 10
345.944508
 20
427.353342
 30
0.0
 11
348.731992
 21
432.945072
 31
0.0
  0
LINE
  5
142
330
1F
100
AcDbEntity
  8
LC-004-001-----0
 62
     7
370
    50
100
AcDbLine
 10
346.295016
 20
426.305896
 30
0.0
 11
349.082501
 21
431.897625
 31
0.0
  0
LINE
  5
143
330
1F
100
AcDbEntity
  8
LC-004-001-----0
 62
     7
370
    50
100
AcDbLine
 10
346.370372
 20
421.205348
 30
0.0
 11
351.179332
 21
430.852183
 31
0.0
  0
LINE
  5
144
330
1F
100
AcDbEntity
  8
LC-001-002-----0
  6
ByBlock
 62
     7
370
    50
100
AcDbLine
 10
351.18176
 20
430.850973
 30
0.0
 11
349.084928
 21
431.896415
 31
0.0
  0
LINE
  5
145
330
1F
100
AcDbEntity
  8
LC-001-002-----0
  6
ByBlock
 62
     7
370
    50
100
AcDbLine
 10
346.297084
 20
426.304865
 30
0.0
 11
339.307647
 21
429.78967
 31
0.0
  0
LINE
  5
146
330
1F
100
AcDbEntity
  8
LC-001-002-----0
  6
ByBlock
 62
     7
370
    50
100
AcDbLine
 10
339.307647
 20
429.78967
 30
0.0
 11
340.573982
 21
432.329545
 31
0.0
  0
LINE
  5
147
330
1F
100
AcDbEntity
  8
LC-001-002-----0
  6
ByBlock
 62
     7
370
    50
100
AcDbLine
 10
340.004608
 20
431.187557
 30
0.0
 11
337.907777
 21
432.232999
 31
0.0
  0
LINE
  5
148
330
1F
100
AcDbEntity
  8
LC-001-002-----0
  6
ByBlock
 62
     7
370
    50
100
AcDbLine
 10
337.907777
 20
432.232999
 30
0.0
 11
326.401222
 21
409.15442
 31
0.0
  0
LINE
  5
149
330
1F
100
AcDbEntity
  8
LC-001-002-----0
  6
ByBlock
 62
     7
370
    50
100
AcDbLine
 10
336.513855
 20
429.437224
 30
0.0
 11
347.696955
 21
423.861536
 31
0.0
  0
INSERT
  5
156
102
{ACAD_REACTORS
330
5DB
102
}
330
1F
100
AcDbEntity
  8
LC-002-005-----0
 62
     7
370
    25
100
AcDbBlockReference
  2
*X33
 10
0.0
 20
0.0
 30
0.0
  0
LINE
  5
157
330
1F
100
AcDbEntity
  8
LC-001-002-----0
  6
ByBlock
 62
     7
370
    50
100
AcDbLine
 10
345.944508
 20
427.353342
 30
0.0
 11
343.148733
 21
428.747264
 31
0.0
  0
LINE
  5
158
330
1F
100
AcDbEntity
  8
LC-001-002-----0
  6
ByBlock
 62
     7
370
    50
100
AcDbLine
 10
360.80367
 20
422.1496
 30
0.0
 11
362.362432
 21
425.276496
 31
0.0
  0
LINE
  5
159
330
1F
100
AcDbEntity
  8
LC-001-002-----0
  6
ByBlock
 62
     7
370
    50
100
AcDbLine
 10
350.125735
 20
435.740936
 30
0.0
 11
362.362432
 21
425.276496
 31
0.0
  0
LINE
  5
15A
330
1F
100
AcDbEntity
  8
LC-001-002-----0
  6
ByBlock
 62
     7
370
    50
100
AcDbLine
 10
348.731813
 20
432.945161
 30
0.0
 11
361.842139
 21
424.22687
 31
0.0
  0
LINE
  5
15B
330
1F
100
AcDbEntity
  8
LC-004-001-----0
 62
     7
370
    50
100
AcDbLine
 10
343.148733
 20
428.747264
 30
0.0
 11
345.936128
 21
434.338814
 31
0.0
  0
ARC
  5
15C
330
1F
100
AcDbEntity
  8
LC-004-001-----0
 62
     7
370
    50
100
AcDbCircle
 10
348.731992
 20
432.945072
 30
0.0
 40
3.124000000000048
100
AcDbArc
 50
63.5
 51
153.503685
  0
LINE
  5
15D
330
1F
100
AcDbEntity
  8
LC-001-002-----0
  6
ByBlock
 62
     7
370
    50
100
AcDbLine
 10
321.702275
 20
340.751545
 30
0.0
 11
398.646541
 21
340.751545
 31
0.0
  0
LINE
  5
15E
102
{ACAD_REACTORS
330
5D8
102
}
330
1F
100
AcDbEntity
  8
LC-004-001-----0
 62
     7
370
    50
100
AcDbLine
 10
319.291636
 20
366.894111
 30
0.0
 11
313.543172
 21
355.366353
 31
0.0
  0
LINE
  5
15F
102
{ACAD_REACTORS
330
5D8
102
}
330
1F
100
AcDbEntity
  8
LC-001-002-----0
  6
ByBlock
 62
     7
370
    50
100
AcDbLine
 10
304.453389
 20
365.134498
 30
0.0
 11
316.898457
 21
390.095401
 31
0.0
  0
LINE
  5
160
102
{ACAD_REACTORS
330
5D8
102
}
330
1F
100
AcDbEntity
  8
LC-001-002-----0
  6
ByBlock
 62
     7
370
    50
100
AcDbLine
 10
327.223665
 20
354.798845
 30
0.0
 11
324.726268
 21
349.790657
 31
0.0
  0
LINE
  5
161
330
1F
100
AcDbEntity
  8
LC-001-002-----0
  6
ByBlock
 62
     7
370
    50
100
AcDbLine
 10
310.398692
 20
356.061445
 30
0.0
 11
325.251417
 21
350.837862
 31
0.0
  0
LINE
  5
162
102
{ACAD_REACTORS
330
5DA
102
}
330
1F
100
AcDbEntity
  8
LC-001-002-----0
  6
ByBlock
 62
     7
370
    50
100
AcDbLine
 10
266.467134
 20
355.482635
 30
0.0
 11
267.110417
 21
355.473021
 31
0.0
  0
LINE
  5
163
102
{ACAD_REACTORS
330
5DA
102
}
330
1F
100
AcDbEntity
  8
LC-001-002-----0
  6
ByBlock
 62
     7
370
    50
100
AcDbLine
 10
267.110417
 20
355.473021
 30
0.0
 11
267.104237
 21
354.489503
 31
0.0
  0
LINE
  5
164
330
1F
100
AcDbEntity
  8
LC-004-001-----0
 62
     7
370
    50
100
AcDbLine
 10
310.391305
 20
363.046648
 30
0.0
 11
307.603188
 21
357.455459
 31
0.0
  0
LINE
  5
165
330
1F
100
AcDbEntity
  8
LC-004-001-----0
 62
     7
370
    50
100
AcDbLine
 10
313.187079
 20
361.652724
 30
0.0
 11
310.398872
 21
356.061355
 31
0.0
  0
LINE
  5
166
330
1F
100
AcDbEntity
  8
LC-001-002-----0
  6
ByBlock
 62
     7
370
    50
100
AcDbLine
 10
313.187079
 20
361.652724
 30
0.0
 11
310.391305
 21
363.046648
 31
0.0
  0
LINE
  5
167
330
1F
100
AcDbEntity
  8
LC-001-002-----0
  6
ByBlock
 62
     7
370
    50
100
AcDbLine
 10
314.236617
 20
362.002133
 30
0.0
 11
307.247182
 21
365.486943
 31
0.0
  0
LINE
  5
168
330
1F
100
AcDbEntity
  8
LC-004-001-----0
 62
     7
370
    50
100
AcDbLine
 10
314.234549
 20
362.003164
 30
0.0
 11
311.446342
 21
356.411796
 31
0.0
  0
LINE
  5
169
330
1F
100
AcDbEntity
  8
LC-001-002-----0
  6
ByBlock
 62
     7
370
    50
100
AcDbLine
 10
313.5456
 20
355.365142
 30
0.0
 11
311.448769
 21
356.410585
 31
0.0
  0
LINE
  5
16A
330
1F
100
AcDbEntity
  8
LC-001-002-----0
  6
ByBlock
 62
     7
370
    50
100
AcDbLine
 10
307.247182
 20
365.486943
 30
0.0
 11
303.180047
 21
357.329545
 31
0.0
  0
LINE
  5
16B
330
1F
100
AcDbEntity
  8
LC-001-002-----0
  6
ByBlock
 62
     7
370
    50
100
AcDbLine
 10
306.55022
 20
364.089056
 30
0.0
 11
304.453389
 21
365.134498
 31
0.0
  0
LINE
  5
16C
330
1F
100
AcDbEntity
  8
LC-001-002-----0
  6
ByBlock
 62
     7
370
    50
100
AcDbLine
 10
306.821388
 20
358.500197
 30
0.0
 11
305.869432
 21
356.590868
 31
0.0
  0
LINE
  5
16D
330
1F
100
AcDbEntity
  8
LC-001-002-----0
  6
ByBlock
 62
     7
370
    50
100
AcDbLine
 10
305.847313
 20
367.930272
 30
0.0
 11
317.030409
 21
362.354577
 31
0.0
  0
LINE
  5
16E
330
1F
100
AcDbEntity
  8
LC-001-002-----0
  6
ByBlock
 62
     7
370
    50
100
AcDbLine
 10
419.815463
 20
418.727545
 30
0.0
 11
419.815463
 21
348.751545
 31
0.0
  0
LINE
  5
16F
330
1F
100
AcDbEntity
  8
LC-001-002-----0
  6
ByBlock
 62
     7
370
    50
100
AcDbLine
 10
301.590666
 20
352.329545
 30
0.0
 11
301.590666
 21
354.829545
 31
0.0
  0
ARC
  5
170
330
1F
100
AcDbEntity
  8
LC-001-002-----0
  6
ByBlock
 62
     7
370
    25
100
AcDbCircle
 10
356.155273
 20
382.420613
 30
0.0
 40
23.42999999999989
100
AcDbArc
 50
139.63958
 51
303.371826
  0
ARC
  5
171
330
1F
100
AcDbEntity
  8
LC-001-002-----0
  6
ByBlock
 62
     7
370
    25
100
AcDbCircle
 10
356.155273
 20
382.420613
 30
0.0
 40
7.810000000000326
100
AcDbArc
 50
17.910898
 51
153.5
  0
LINE
  5
172
102
{ACAD_REACTORS
330
5DA
102
}
330
1F
100
AcDbEntity
  8
LC-001-002-----0
  6
ByBlock
 62
     7
370
    50
100
AcDbLine
 10
260.091109
 20
355.522697
 30
0.0
 11
263.441806
 21
356.979626
 31
0.0
  0
LINE
  5
173
330
1F
100
AcDbEntity
  8
LC-001-002-----0
  6
ByBlock
 62
     7
370
    50
100
AcDbLine
 10
301.590666
 20
352.329545
 30
0.0
 11
303.090666
 21
352.329545
 31
0.0
  0
LINE
  5
174
102
{ACAD_REACTORS
330
5DA
102
}
330
1F
100
AcDbEntity
  8
LC-001-002-----0
  6
ByBlock
 62
     7
370
    50
100
AcDbLine
 10
263.279122
 20
355.502666
 30
0.0
 11
266.629818
 21
356.959595
 31
0.0
  0
LINE
  5
175
330
1F
100
AcDbEntity
  8
LC-001-002-----0
  6
ByBlock
 62
     7
370
    50
100
AcDbLine
 10
269.590666
 20
437.829545
 30
0.0
 11
269.590666
 21
434.829545
 31
0.0
  0
LINE
  5
176
330
1F
100
AcDbEntity
  8
LC-001-002-----0
  6
ByBlock
 62
     7
370
    50
100
AcDbLine
 10
301.590666
 20
437.329545
 30
0.0
 11
301.590666
 21
434.829545
 31
0.0
  0
LINE
  5
177
330
1F
100
AcDbEntity
  8
LC-001-002-----0
  6
ByBlock
 62
     7
370
    50
100
AcDbLine
 10
303.090666
 20
434.829545
 30
0.0
 11
341.090666
 21
434.829545
 31
0.0
  0
LINE
  5
178
330
1F
100
AcDbEntity
  8
LC-001-002-----0
  6
ByBlock
 62
     7
370
    50
100
AcDbLine
 10
303.090666
 20
352.329545
 30
0.0
 11
303.090666
 21
354.829545
 31
0.0
  0
INSERT
  5
187
330
1F
100
AcDbEntity
  8
LC-002-005-----0
 62
     7
370
    25
100
AcDbBlockReference
  2
*X44
 10
0.0
 20
0.0
 30
0.0
  0
INSERT
  5
19B
330
1F
100
AcDbEntity
  8
LC-002-005-----0
 62
     7
370
    25
100
AcDbBlockReference
  2
*X55
 10
0.0
 20
0.0
 30
0.0
  0
INSERT
  5
1A7
330
1F
100
AcDbEntity
  8
LC-002-005-----0
 62
     7
370
    25
100
AcDbBlockReference
  2
*X66
 10
0.0
 20
0.0
 30
0.0
  0
INSERT
  5
1B2
330
1F
100
AcDbEntity
  8
LC-002-005-----0
 62
     7
370
    25
100
AcDbBlockReference
  2
*X77
 10
0.0
 20
0.0
 30
0.0
  0
LINE
  5
1B3
330
1F
100
AcDbEntity
  8
LC-001-002-----0
  6
ByBlock
 62
     7
370
    50
100
AcDbLine
 10
259.590666
 20
439.829545
 30
0.0
 11
267.590666
 21
439.829545
 31
0.0
  0
LINE
  5
1B4
330
1F
100
AcDbEntity
  8
LC-001-002-----0
  6
ByBlock
 62
     7
370
    50
100
AcDbLine
 10
269.590666
 20
434.829545
 30
0.0
 11
301.590666
 21
434.829545
 31
0.0
  0
LINE
  5
1B5
330
1F
100
AcDbEntity
  8
LC-001-002-----0
  6
ByBlock
 62
     7
370
    50
100
AcDbLine
 10
420.992137
 20
346.251545
 30
0.0
 11
399.088804
 21
338.251545
 31
0.0
  0
LINE
  5
1B6
330
1F
100
AcDbEntity
  8
LC-001-002-----0
  6
ByBlock
 62
     7
370
    50
100
AcDbLine
 10
420.549874
 20
348.751545
 30
0.0
 11
398.646541
 21
340.751545
 31
0.0
  0
LINE
  5
1B7
330
1F
100
AcDbEntity
  8
LC-001-002-----0
  6
ByBlock
 62
     7
370
    50
100
AcDbLine
 10
304.088741
 20
354.829545
 30
0.0
 11
320.666741
 21
338.251545
 31
0.0
  0
LINE
  5
1B8
330
1F
100
AcDbEntity
  8
LC-001-002-----0
  6
ByBlock
 62
     7
370
    50
100
AcDbLine
 10
303.090666
 20
354.829545
 30
0.0
 11
304.088745
 21
354.829545
 31
0.0
  0
INSERT
  5
1C4
102
{ACAD_REACTORS
330
5DA
102
}
330
1F
100
AcDbEntity
  8
LC-002-005-----0
 62
     7
370
    25
100
AcDbBlockReference
  2
*X88
 10
0.0
 20
0.0
 30
0.0
  0
LINE
  5
1C5
330
1F
100
AcDbEntity
  8
LC-001-002-----0
  6
ByBlock
 62
     7
370
    50
100
AcDbLine
 10
360.669093
 20
460.251545
 30
0.0
 11
402.012238
 21
460.251545
 31
0.0
  0
LINE
  5
1C6
330
1F
100
AcDbEntity
  8
LC-001-002-----0
  6
ByBlock
 62
     7
370
    50
100
AcDbLine
 10
406.590666
 20
456.501545
 30
0.0
 11
406.590666
 21
445.251545
 31
0.0
  0
LINE
  5
1C7
330
1F
100
AcDbEntity
  8
LC-001-002-----0
 62
     7
370
    25
100
AcDbLine
 10
381.340666
 20
460.251545
 30
0.0
 11
381.340666
 21
456.501545
 31
0.0
  0
LINE
  5
1C8
330
1F
100
AcDbEntity
  8
LC-001-002-----0
  6
ByBlock
 62
     7
370
    50
100
AcDbLine
 10
356.090666
 20
456.501545
 30
0.0
 11
356.090666
 21
445.251545
 31
0.0
  0
LINE
  5
1C9
330
1F
100
AcDbEntity
  8
LC-001-002-----0
  6
ByBlock
 62
     7
370
    50
100
AcDbLine
 10
356.090666
 20
445.251545
 30
0.0
 11
406.590666
 21
445.251545
 31
0.0
  0
LINE
  5
1CA
330
1F
100
AcDbEntity
  8
LC-001-002-----0
  6
ByBlock
 62
     7
370
    50
100
AcDbLine
 10
404.350563
 20
445.251545
 30
0.0
 11
404.350563
 21
443.251545
 31
0.0
  0
LINE
  5
1CB
330
1F
100
AcDbEntity
  8
LC-001-002-----0
  6
ByBlock
 62
     7
370
    50
100
AcDbLine
 10
358.330768
 20
445.251545
 30
0.0
 11
358.330768
 21
443.251545
 31
0.0
  0
LINE
  5
1CC
330
1F
100
AcDbEntity
  8
LC-001-002-----0
  6
ByBlock
 62
     7
370
    50
100
AcDbLine
 10
356.090666
 20
447.251545
 30
0.0
 11
406.590666
 21
447.251545
 31
0.0
  0
LINE
  5
1CD
330
1F
100
AcDbEntity
  8
LC-001-002-----0
  6
ByBlock
 62
     7
370
    50
100
AcDbLine
 10
404.840666
 20
458.251545
 30
0.0
 11
404.840666
 21
447.251545
 31
0.0
  0
LINE
  5
1CE
330
1F
100
AcDbEntity
  8
LC-001-002-----0
  6
ByBlock
 62
     7
370
    50
100
AcDbLine
 10
357.840666
 20
458.251545
 30
0.0
 11
367.590666
 21
458.251545
 31
0.0
  0
LINE
  5
1CF
330
1F
100
AcDbEntity
  8
LC-001-002-----0
  6
ByBlock
 62
     7
370
    50
100
AcDbLine
 10
406.590666
 20
456.501545
 30
0.0
 11
403.426452
 21
459.665759
 31
0.0
  0
LINE
  5
1D0
330
1F
100
AcDbEntity
  8
LC-001-002-----0
  6
ByBlock
 62
     7
370
    50
100
AcDbLine
 10
357.840666
 20
458.251545
 30
0.0
 11
357.840666
 21
447.251545
 31
0.0
  0
LINE
  5
1D1
330
1F
100
AcDbEntity
  8
LC-001-002-----0
  6
ByBlock
 62
     7
370
    50
100
AcDbLine
 10
356.090666
 20
456.501545
 30
0.0
 11
359.254879
 21
459.665759
 31
0.0
  0
ARC
  5
1D2
330
1F
100
AcDbEntity
  8
LC-003-002-RND-0
 62
     7
370
    50
100
AcDbCircle
 10
360.669093
 20
458.251545
 30
0.0
 40
2.0
100
AcDbArc
 50
90.0
 51
135.0
  0
ARC
  5
1D3
330
1F
100
AcDbEntity
  8
LC-003-002-RND-0
 62
     7
370
    50
100
AcDbCircle
 10
402.012238
 20
458.251545
 30
0.0
 40
2.000000000000016
100
AcDbArc
 50
45.0
 51
90.0
  0
LINE
  5
1D4
330
1F
100
AcDbEntity
  8
LC-001-002-----0
  6
ByBlock
 62
     7
370
    50
100
AcDbLine
 10
383.340666
 20
458.251545
 30
0.0
 11
383.340666
 21
447.251545
 31
0.0
  0
LINE
  5
1D5
330
1F
100
AcDbEntity
  8
LC-001-002-----0
  6
ByBlock
 62
     7
370
    50
100
AcDbLine
 10
379.340666
 20
458.251545
 30
0.0
 11
379.340666
 21
447.251545
 31
0.0
  0
LINE
  5
1D6
330
1F
100
AcDbEntity
  8
LC-001-002-----0
 62
     7
370
    25
100
AcDbLine
 10
381.340666
 20
447.251545
 30
0.0
 11
381.340666
 21
443.251545
 31
0.0
  0
LINE
  5
1D7
330
1F
100
AcDbEntity
  8
LC-001-002-----0
  6
ByBlock
 62
     7
370
    50
100
AcDbLine
 10
381.340666
 20
456.501545
 30
0.0
 11
381.340666
 21
447.251545
 31
0.0
  0
LINE
  5
1D8
330
1F
100
AcDbEntity
  8
LC-001-002-----0
  6
ByBlock
 62
     7
370
    50
100
AcDbLine
 10
394.090666
 20
456.501545
 30
0.0
 11
394.090666
 21
447.251545
 31
0.0
  0
LINE
  5
1D9
330
1F
100
AcDbEntity
  8
LC-001-002-----0
  6
ByBlock
 62
     7
370
    50
100
AcDbLine
 10
395.090666
 20
458.251545
 30
0.0
 11
395.090666
 21
447.251545
 31
0.0
  0
LINE
  5
1DA
330
1F
100
AcDbEntity
  8
LC-001-002-----0
  6
ByBlock
 62
     7
370
    50
100
AcDbLine
 10
393.090666
 20
458.251545
 30
0.0
 11
393.090666
 21
447.251545
 31
0.0
  0
LINE
  5
1DB
330
1F
100
AcDbEntity
  8
LC-001-002-----0
  6
ByBlock
 62
     7
370
    50
100
AcDbLine
 10
395.090666
 20
458.251545
 30
0.0
 11
404.840666
 21
458.251545
 31
0.0
  0
LINE
  5
1DC
330
1F
100
AcDbEntity
  8
LC-001-002-----0
  6
ByBlock
 62
     7
370
    50
100
AcDbLine
 10
379.340666
 20
458.251545
 30
0.0
 11
381.340666
 21
456.501545
 31
0.0
  0
LINE
  5
1DD
330
1F
100
AcDbEntity
  8
LC-001-002-----0
  6
ByBlock
 62
     7
370
    50
100
AcDbLine
 10
381.340666
 20
456.501545
 30
0.0
 11
383.340666
 21
458.251545
 31
0.0
  0
LINE
  5
1DE
330
1F
100
AcDbEntity
  8
LC-001-002-----0
  6
ByBlock
 62
     7
370
    50
100
AcDbLine
 10
383.340666
 20
458.251545
 30
0.0
 11
393.090666
 21
458.251545
 31
0.0
  0
LINE
  5
1DF
330
1F
100
AcDbEntity
  8
LC-001-002-----0
  6
ByBlock
 62
     7
370
    50
100
AcDbLine
 10
393.090666
 20
458.251545
 30
0.0
 11
394.090666
 21
456.501545
 31
0.0
  0
LINE
  5
1E0
330
1F
100
AcDbEntity
  8
LC-001-002-----0
  6
ByBlock
 62
     7
370
    50
100
AcDbLine
 10
394.090666
 20
456.501545
 30
0.0
 11
395.090666
 21
458.251545
 31
0.0
  0
LINE
  5
1E1
330
1F
100
AcDbEntity
  8
LC-001-002-----0
  6
ByBlock
 62
     7
370
    50
100
AcDbLine
 10
369.590666
 20
458.251545
 30
0.0
 11
369.590666
 21
447.251545
 31
0.0
  0
LINE
  5
1E2
330
1F
100
AcDbEntity
  8
LC-001-002-----0
  6
ByBlock
 62
     7
370
    50
100
AcDbLine
 10
367.590666
 20
458.251545
 30
0.0
 11
367.590666
 21
447.251545
 31
0.0
  0
LINE
  5
1E3
330
1F
100
AcDbEntity
  8
LC-001-002-----0
  6
ByBlock
 62
     7
370
    50
100
AcDbLine
 10
368.590666
 20
456.501545
 30
0.0
 11
368.590666
 21
447.251545
 31
0.0
  0
LINE
  5
1E4
330
1F
100
AcDbEntity
  8
LC-001-002-----0
  6
ByBlock
 62
     7
370
    50
100
AcDbLine
 10
369.590666
 20
458.251545
 30
0.0
 11
368.590666
 21
456.501545
 31
0.0
  0
LINE
  5
1E5
330
1F
100
AcDbEntity
  8
LC-001-002-----0
  6
ByBlock
 62
     7
370
    50
100
AcDbLine
 10
368.590666
 20
456.501545
 30
0.0
 11
367.590666
 21
458.251545
 31
0.0
  0
LINE
  5
1E6
330
1F
100
AcDbEntity
  8
LC-001-002-----0
  6
ByBlock
 62
     7
370
    50
100
AcDbLine
 10
369.590666
 20
458.251545
 30
0.0
 11
379.340666
 21
458.251545
 31
0.0
  0
DIMENSION
  5
1EA
330
1F
100
AcDbEntity
  8
LC-005-003-----0
 62
     7
370
    25
100
AcDbDimension
  2
*D9
 10
506.891177
 20
346.251545
 30
0.0
 11
476.091177
 21
383.739545
 31
0.0
 70
   160
  1
DN70
 71
     5
 42
74.976
 53
90.0
  3
LC-DIM-L-0140-02-02
100
AcDbAlignedDimension
 13
480.621804
 23
421.227545
 33
0.0
 14
480.621804
 24
346.251545
 34
0.0
 50
90.0
100
AcDbRotatedDimension
  0
DIMENSION
  5
1F8
330
1F
100
AcDbEntity
  8
LC-005-003-----0
 62
     7
370
    25
100
AcDbDimension
  2
*D10
 10
232.491177
 20
356.079545
 30
0.0
 11
201.691177
 21
394.829545
 31
0.0
 70
   160
  1
DN70
 71
     5
 42
77.5
 53
90.0
  3
LC-DIM-L-0140-02-02
100
AcDbAlignedDimension
 13
251.090666
 23
433.579545
 33
0.0
 14
251.088748
 24
356.079545
 34
0.0
 50
90.0
100
AcDbRotatedDimension
  0
DIMENSION
  5
205
330
1F
100
AcDbEntity
  8
LC-005-003-----0
 62
     7
370
    25
100
AcDbDimension
  2
*D11
 10
193.291177
 20
460.251545
 30
0.0
 11
162.491177
 21
399.251545
 31
0.0
 70
   160
  1
127
 71
     5
 42
122.0
 53
90.0
  3
LC-DIM-L-0140-02-02
100
AcDbAlignedDimension
 13
320.666741
 23
338.251545
 33
0.0
 14
360.669093
 24
460.251545
 34
0.0
 50
90.0
100
AcDbRotatedDimension
  0
DIMENSION
  5
212
330
1F
100
AcDbEntity
  8
LC-005-003-----0
 62
     7
370
    25
100
AcDbDimension
  2
*D12
 10
486.088804
 20
272.63
 30
0.0
 11
368.588769
 21
303.43
 31
0.0
 70
   160
 71
     5
 42
235.00007
  3
LC-DIM-L-0140-02-02
100
AcDbAlignedDimension
 13
251.088734
 23
353.579545
 33
0.0
 14
486.088804
 24
348.751545
 34
0.0
100
AcDbRotatedDimension
  0
LINE
  5
220
102
{ACAD_REACTORS
330
5DD
102
}
330
1F
100
AcDbEntity
  8
LC-006-101-D00-0
 62
     7
370
    25
100
AcDbLine
 10
341.159511
 20
114.207533
 30
0.0
 11
249.228575
 21
114.207533
 31
0.0
  0
LINE
  5
222
102
{ACAD_REACTORS
330
5DC
102
}
330
1F
100
AcDbEntity
  8
LC-007-100-D00-0
 62
     7
370
    50
100
AcDbLine
 10
249.606281
 20
76.707533
 30
0.0
 11
248.234691
 21
76.707533
 31
0.0
  0
LINE
  5
223
102
{ACAD_REACTORS
330
5DC
102
}
330
1F
100
AcDbEntity
  8
LC-007-100-D00-0
 62
     7
370
    50
100
AcDbLine
 10
250.247237
 20
151.707533
 30
0.0
 11
248.607089
 21
151.707533
 31
0.0
  0
LINE
  5
224
102
{ACAD_REACTORS
330
5D6
102
}
330
1F
100
AcDbEntity
  8
LC-006-101-D00-0
 62
     7
370
    25
100
AcDbLine
 10
409.081697
 20
114.207533
 30
0.0
 11
480.970427
 21
114.207533
 31
0.0
  0
LINE
  5
225
102
{ACAD_REACTORS
330
5D7
102
}
330
1F
100
AcDbEntity
  8
LC-006-101-D00-0
 62
     7
370
    25
100
AcDbLine
 10
382.981304
 20
141.714634
 30
0.0
 11
382.981304
 21
86.700433
 31
0.0
  0
LINE
  5
226
102
{ACAD_REACTORS
330
5DD
102
}
330
1F
100
AcDbEntity
  8
LC-007-100-D00-0
 62
     7
370
    50
100
AcDbLine
 10
328.358094
 20
114.207533
 30
0.0
 11
301.588791
 21
114.207533
 31
0.0
  0
LINE
  5
227
102
{ACAD_REACTORS
330
5DD
102
}
330
1F
100
AcDbEntity
  8
LC-007-100-D00-0
 62
     7
370
    50
100
AcDbLine
 10
251.088791
 20
114.207533
 30
0.0
 11
267.288791
 21
114.207533
 31
0.0
  0
LINE
  5
228
102
{ACAD_REACTORS
330
5DD
102
}
330
1F
100
AcDbEntity
  8
LC-007-100-D00-0
 62
     7
370
    50
100
AcDbLine
 10
254.360364
 20
74.307533
 30
0.0
 11
258.960364
 21
69.707533
 31
0.0
  0
LINE
  5
229
102
{ACAD_REACTORS
330
5DD
102
}
330
1F
100
AcDbEntity
  8
LC-007-100-D00-0
 62
     7
370
    50
100
AcDbLine
 10
258.960364
 20
69.707533
 30
0.0
 11
267.288791
 21
69.707533
 31
0.0
  0
LINE
  5
22A
102
{ACAD_REACTORS
330
5DD
102
}
330
1F
100
AcDbEntity
  8
LC-007-100-D00-0
 62
     7
370
    50
100
AcDbLine
 10
268.788791
 20
72.807533
 30
0.0
 11
268.788791
 21
71.207533
 31
0.0
  0
LINE
  5
22B
102
{ACAD_REACTORS
330
5DD
102
}
330
1F
100
AcDbEntity
  8
LC-007-100-D00-0
 62
     7
370
    50
100
AcDbLine
 10
302.588791
 20
74.307533
 30
0.0
 11
302.052893
 21
72.307533
 31
0.0
  0
LINE
  5
22C
102
{ACAD_REACTORS
330
5DD
102
}
330
1F
100
AcDbEntity
  8
LC-007-100-D00-0
 62
     7
370
    50
100
AcDbLine
 10
302.052893
 20
72.307533
 30
0.0
 11
301.588791
 21
72.307533
 31
0.0
  0
LINE
  5
22D
102
{ACAD_REACTORS
330
5DD
102
}
330
1F
100
AcDbEntity
  8
LC-007-100-D00-0
 62
     7
370
    50
100
AcDbLine
 10
301.088791
 20
72.807533
 30
0.0
 11
301.088791
 21
73.807533
 31
0.0
  0
LINE
  5
22E
102
{ACAD_REACTORS
330
5DD
102
}
330
1F
100
AcDbEntity
  8
LC-007-100-D00-0
 62
     7
370
    50
100
AcDbLine
 10
321.261852
 20
74.307533
 30
0.0
 11
302.588791
 21
74.307533
 31
0.0
  0
LINE
  5
22F
102
{ACAD_REACTORS
330
5DD
102
}
330
1F
100
AcDbEntity
  8
LC-007-100-D00-0
 62
     7
370
    50
100
AcDbLine
 10
300.588791
 20
74.307533
 30
0.0
 11
270.288791
 21
74.307533
 31
0.0
  0
LINE
  5
230
102
{ACAD_REACTORS
330
5DD
102
}
330
1F
100
AcDbEntity
  8
LC-007-100-D00-0
 62
     7
370
    50
100
AcDbLine
 10
318.676174
 20
64.682347
 30
0.0
 11
318.676174
 21
64.682347
 31
0.0
  0
LINE
  5
231
102
{ACAD_REACTORS
330
5DD
102
}
330
1F
100
AcDbEntity
  8
LC-007-100-D00-0
 62
     7
370
    50
100
AcDbLine
 10
343.297207
 20
87.392612
 30
0.0
 11
353.588804
 21
87.392612
 31
0.0
  0
LINE
  5
232
102
{ACAD_REACTORS
330
5DD
102
}
330
1F
100
AcDbEntity
  8
LC-007-100-D00-0
 62
     7
370
    50
100
AcDbLine
 10
343.297207
 20
141.022454
 30
0.0
 11
353.588804
 21
141.022454
 31
0.0
  0
LINE
  5
233
102
{ACAD_REACTORS
330
5DD
102
}
330
1F
100
AcDbEntity
  8
LC-007-100-D00-0
 62
     7
370
    50
100
AcDbLine
 10
332.926143
 20
173.707533
 30
0.0
 11
353.588804
 21
173.707533
 31
0.0
  0
LINE
  5
234
102
{ACAD_REACTORS
330
5DD
102
}
330
1F
100
AcDbEntity
  8
LC-007-100-D00-0
 62
     7
370
    50
100
AcDbLine
 10
324.760207
 20
119.207533
 30
0.0
 11
335.088791
 21
114.512722
 31
0.0
  0
LINE
  5
235
102
{ACAD_REACTORS
330
5DD
102
}
330
1F
100
AcDbEntity
  8
LC-007-100-D00-0
 62
     7
370
    50
100
AcDbLine
 10
324.760207
 20
119.207533
 30
0.0
 11
324.760207
 21
117.207533
 31
0.0
  0
LINE
  5
236
102
{ACAD_REACTORS
330
5DD
102
}
330
1F
100
AcDbEntity
  8
LC-007-100-D00-0
 62
     7
370
    50
100
AcDbLine
 10
335.088791
 20
113.902344
 30
0.0
 11
324.760207
 21
109.207533
 31
0.0
  0
LINE
  5
237
102
{ACAD_REACTORS
330
5DD
102
}
330
1F
100
AcDbEntity
  8
LC-007-100-D00-0
 62
     7
370
    50
100
AcDbLine
 10
324.760207
 20
111.207533
 30
0.0
 11
324.760207
 21
109.207533
 31
0.0
  0
LINE
  5
238
102
{ACAD_REACTORS
330
5DD
102
}
330
1F
100
AcDbEntity
  8
LC-007-100-D00-0
 62
     7
370
    50
100
AcDbLine
 10
307.088791
 20
112.207533
 30
0.0
 11
323.760207
 21
112.207533
 31
0.0
  0
LINE
  5
239
102
{ACAD_REACTORS
330
5DD
102
}
330
1F
100
AcDbEntity
  8
LC-007-100-D00-0
 62
     7
370
    50
100
AcDbLine
 10
307.088791
 20
116.207533
 30
0.0
 11
307.088791
 21
112.207533
 31
0.0
  0
LINE
  5
23A
102
{ACAD_REACTORS
330
5DD
102
}
330
1F
100
AcDbEntity
  8
LC-007-100-D00-0
 62
     7
370
    50
100
AcDbLine
 10
307.088791
 20
116.207533
 30
0.0
 11
323.760207
 21
116.207533
 31
0.0
  0
LINE
  5
23B
102
{ACAD_REACTORS
330
5DD
102
}
330
1F
100
AcDbEntity
  8
LC-007-100-D00-0
 62
     7
370
    50
100
AcDbLine
 10
335.088791
 20
114.512722
 30
0.0
 11
335.088791
 21
113.902344
 31
0.0
  0
LINE
  5
23C
102
{ACAD_REACTORS
330
5DD
102
}
330
1F
100
AcDbEntity
  8
LC-007-100-D00-0
 62
     7
370
    50
100
AcDbLine
 10
342.351925
 20
87.602271
 30
0.0
 11
342.351925
 21
140.812796
 31
0.0
  0
LINE
  5
23D
102
{ACAD_REACTORS
330
5DD
102
}
330
1F
100
AcDbEntity
  8
LC-007-100-D00-0
 62
     7
370
    50
100
AcDbLine
 10
318.676174
 20
163.732719
 30
0.0
 11
318.676174
 21
163.732719
 31
0.0
  0
LINE
  5
23E
102
{ACAD_REACTORS
330
5DD
102
}
330
1F
100
AcDbEntity
  8
LC-007-100-D00-0
 62
     7
370
    50
100
AcDbLine
 10
343.258232
 20
87.394658
 30
0.0
 11
343.258232
 21
141.020409
 31
0.0
  0
LINE
  5
23F
102
{ACAD_REACTORS
330
5DD
102
}
330
1F
100
AcDbEntity
  8
LC-007-100-D00-0
 62
     7
370
    50
100
AcDbLine
 10
318.676177
 20
163.732723
 30
0.0
 11
328.358094
 21
173.41464
 31
0.0
  0
LINE
  5
240
102
{ACAD_REACTORS
330
5DD
102
}
330
1F
100
AcDbEntity
  8
LC-007-100-D00-0
 62
     7
370
    50
100
AcDbLine
 10
251.088791
 20
154.107533
 30
0.0
 11
251.088791
 21
74.307533
 31
0.0
  0
LINE
  5
241
102
{ACAD_REACTORS
330
5DD
102
}
330
1F
100
AcDbEntity
  8
LC-007-100-D00-0
 62
     7
370
    50
100
AcDbLine
 10
254.360364
 20
154.107533
 30
0.0
 11
258.960364
 21
158.707533
 31
0.0
  0
LINE
  5
242
102
{ACAD_REACTORS
330
5DD
102
}
330
1F
100
AcDbEntity
  8
LC-007-100-D00-0
 62
     7
370
    50
100
AcDbLine
 10
258.960364
 20
158.707533
 30
0.0
 11
258.960364
 21
114.207533
 31
0.0
  0
LINE
  5
243
102
{ACAD_REACTORS
330
5DD
102
}
330
1F
100
AcDbEntity
  8
LC-007-100-D00-0
 62
     7
370
    50
100
AcDbLine
 10
254.360364
 20
154.107533
 30
0.0
 11
254.360364
 21
114.207533
 31
0.0
  0
LINE
  5
244
102
{ACAD_REACTORS
330
5DD
102
}
330
1F
100
AcDbEntity
  8
LC-007-100-D00-0
 62
     7
370
    50
100
AcDbLine
 10
254.360364
 20
114.207533
 30
0.0
 11
254.360364
 21
74.307533
 31
0.0
  0
LINE
  5
245
102
{ACAD_REACTORS
330
5DD
102
}
330
1F
100
AcDbEntity
  8
LC-007-100-D00-0
 62
     7
370
    50
100
AcDbLine
 10
251.088791
 20
154.107533
 30
0.0
 11
254.360364
 21
154.107533
 31
0.0
  0
LINE
  5
246
102
{ACAD_REACTORS
330
5DD
102
}
330
1F
100
AcDbEntity
  8
LC-007-100-D00-0
 62
     7
370
    50
100
AcDbLine
 10
251.088791
 20
74.307533
 30
0.0
 11
254.360364
 21
74.307533
 31
0.0
  0
LINE
  5
247
102
{ACAD_REACTORS
330
5DD
102
}
330
1F
100
AcDbEntity
  8
LC-007-100-D00-0
 62
     7
370
    50
100
AcDbLine
 10
302.052893
 20
156.107533
 30
0.0
 11
301.588791
 21
156.107533
 31
0.0
  0
LINE
  5
248
102
{ACAD_REACTORS
330
5DD
102
}
330
1F
100
AcDbEntity
  8
LC-007-100-D00-0
 62
     7
370
    50
100
AcDbLine
 10
321.261852
 20
154.107533
 30
0.0
 11
302.588791
 21
154.107533
 31
0.0
  0
LINE
  5
249
102
{ACAD_REACTORS
330
5DD
102
}
330
1F
100
AcDbEntity
  8
LC-007-100-D00-0
 62
     7
370
    50
100
AcDbLine
 10
302.588791
 20
154.107533
 30
0.0
 11
302.052893
 21
156.107533
 31
0.0
  0
LINE
  5
24A
102
{ACAD_REACTORS
330
5DD
102
}
330
1F
100
AcDbEntity
  8
LC-007-100-D00-0
 62
     7
370
    50
100
AcDbLine
 10
300.588791
 20
154.107533
 30
0.0
 11
270.288791
 21
154.107533
 31
0.0
  0
LINE
  5
24B
102
{ACAD_REACTORS
330
5DD
102
}
330
1F
100
AcDbEntity
  8
LC-007-100-D00-0
 62
     7
370
    50
100
AcDbLine
 10
301.088791
 20
154.607533
 30
0.0
 11
301.088791
 21
155.607533
 31
0.0
  0
LINE
  5
24C
102
{ACAD_REACTORS
330
5DD
102
}
330
1F
100
AcDbEntity
  8
LC-007-100-D00-0
 62
     7
370
    50
100
AcDbLine
 10
267.288791
 20
114.207533
 30
0.0
 11
267.288791
 21
69.707533
 31
0.0
  0
LINE
  5
24D
102
{ACAD_REACTORS
330
5DD
102
}
330
1F
100
AcDbEntity
  8
LC-007-100-D00-0
 62
     7
370
    50
100
AcDbLine
 10
258.960364
 20
114.207533
 30
0.0
 11
258.960364
 21
69.707533
 31
0.0
  0
LINE
  5
24E
102
{ACAD_REACTORS
330
5DD
102
}
330
1F
100
AcDbEntity
  8
LC-007-100-D00-0
 62
     7
370
    50
100
AcDbLine
 10
258.960364
 20
158.707533
 30
0.0
 11
267.288791
 21
158.707533
 31
0.0
  0
LINE
  5
24F
102
{ACAD_REACTORS
330
5DD
102
}
330
1F
100
AcDbEntity
  8
LC-007-100-D00-0
 62
     7
370
    50
100
AcDbLine
 10
300.588791
 20
74.307533
 30
0.0
 11
300.588791
 21
154.107533
 31
0.0
  0
LINE
  5
250
102
{ACAD_REACTORS
330
5DD
102
}
330
1F
100
AcDbEntity
  8
LC-007-100-D00-0
 62
     7
370
    50
100
AcDbLine
 10
268.788791
 20
114.207533
 30
0.0
 11
268.788791
 21
72.807533
 31
0.0
  0
LINE
  5
251
102
{ACAD_REACTORS
330
5DD
102
}
330
1F
100
AcDbEntity
  8
LC-007-100-D00-0
 62
     7
370
    50
100
AcDbLine
 10
270.288791
 20
114.207533
 30
0.0
 11
270.288791
 21
74.307533
 31
0.0
  0
LINE
  5
252
102
{ACAD_REACTORS
330
5DD
102
}
330
1F
100
AcDbEntity
  8
LC-007-100-D00-0
 62
     7
370
    50
100
AcDbLine
 10
270.288791
 20
154.107533
 30
0.0
 11
270.288791
 21
114.207533
 31
0.0
  0
LINE
  5
253
102
{ACAD_REACTORS
330
5DD
102
}
330
1F
100
AcDbEntity
  8
LC-007-100-D00-0
 62
     7
370
    50
100
AcDbLine
 10
268.788791
 20
155.607533
 30
0.0
 11
268.788791
 21
114.207533
 31
0.0
  0
LINE
  5
254
102
{ACAD_REACTORS
330
5DD
102
}
330
1F
100
AcDbEntity
  8
LC-007-100-D00-0
 62
     7
370
    50
100
AcDbLine
 10
268.788791
 20
157.207533
 30
0.0
 11
268.788791
 21
155.607533
 31
0.0
  0
LINE
  5
255
102
{ACAD_REACTORS
330
5DD
102
}
330
1F
100
AcDbEntity
  8
LC-007-100-D00-0
 62
     7
370
    50
100
AcDbLine
 10
267.288791
 20
158.707533
 30
0.0
 11
267.288791
 21
114.207533
 31
0.0
  0
LINE
  5
256
102
{ACAD_REACTORS
330
5DD
102
}
330
1F
100
AcDbEntity
  8
LC-007-100-D00-0
 62
     7
370
    50
100
AcDbLine
 10
302.588791
 20
74.307533
 30
0.0
 11
302.588791
 21
114.207533
 31
0.0
  0
LINE
  5
257
102
{ACAD_REACTORS
330
5DD
102
}
330
1F
100
AcDbEntity
  8
LC-007-100-D00-0
 62
     7
370
    50
100
AcDbLine
 10
302.588791
 20
114.207533
 30
0.0
 11
302.588791
 21
154.107533
 31
0.0
  0
LINE
  5
258
102
{ACAD_REACTORS
330
5DD
102
}
330
1F
100
AcDbEntity
  8
LC-007-100-D00-0
 62
     7
370
    50
100
AcDbLine
 10
332.926143
 20
54.707533
 30
0.0
 11
353.588804
 21
54.707533
 31
0.0
  0
LINE
  5
259
102
{ACAD_REACTORS
330
5DD
102
}
330
1F
100
AcDbEntity
  8
LC-007-100-D00-0
 62
     7
370
    50
100
AcDbLine
 10
318.676177
 20
64.682343
 30
0.0
 11
328.358094
 21
55.000426
 31
0.0
  0
LINE
  5
25A
102
{ACAD_REACTORS
330
5DD
102
}
330
1F
100
AcDbEntity
  8
LC-007-100-D00-0
 62
     7
370
    50
100
AcDbLine
 10
329.065201
 20
173.707533
 30
0.0
 11
332.926143
 21
173.707533
 31
0.0
  0
LINE
  5
25B
102
{ACAD_REACTORS
330
5DD
102
}
330
1F
100
AcDbEntity
  8
LC-007-100-D00-0
 62
     7
370
    50
100
AcDbLine
 10
332.926143
 20
54.707533
 30
0.0
 11
329.065201
 21
54.707533
 31
0.0
  0
ARC
  5
25C
102
{ACAD_REACTORS
330
5DD
102
}
330
1F
100
AcDbEntity
  8
LC-007-100-D00-0
 62
     7
370
    50
100
AcDbCircle
 10
270.288791
 20
72.807533
 30
0.0
 40
1.5
100
AcDbArc
 50
90.0
 51
180.0
  0
ARC
  5
25D
102
{ACAD_REACTORS
330
5DD
102
}
330
1F
100
AcDbEntity
  8
LC-007-100-D00-0
 62
     7
370
    50
100
AcDbCircle
 10
267.288791
 20
71.207533
 30
0.0
 40
1.5
100
AcDbArc
 50
270.0
 51
0.0
  0
ARC
  5
25E
102
{ACAD_REACTORS
330
5DD
102
}
330
1F
100
AcDbEntity
  8
LC-007-100-D00-0
 62
     7
370
    50
100
AcDbCircle
 10
301.588791
 20
72.807533
 30
0.0
 40
0.5
100
AcDbArc
 50
180.0
 51
270.0
  0
ARC
  5
25F
102
{ACAD_REACTORS
330
5DD
102
}
330
1F
100
AcDbEntity
  8
LC-007-100-D00-0
 62
     7
370
    50
100
AcDbCircle
 10
300.588791
 20
73.807533
 30
0.0
 40
0.5
100
AcDbArc
 50
0.0
 51
90.0
  0
ARC
  5
260
102
{ACAD_REACTORS
330
5DD
102
}
330
1F
100
AcDbEntity
  8
LC-007-100-D00-0
 62
     7
370
    50
100
AcDbCircle
 10
323.760207
 20
117.207533
 30
0.0
 40
1.0
100
AcDbArc
 50
270.0
 51
0.0
  0
ARC
  5
261
102
{ACAD_REACTORS
330
5DD
102
}
330
1F
100
AcDbEntity
  8
LC-007-100-D00-0
 62
     7
370
    50
100
AcDbCircle
 10
323.760207
 20
111.207533
 30
0.0
 40
1.0
100
AcDbArc
 50
360.0
 51
90.0
  0
ARC
  5
262
102
{ACAD_REACTORS
330
5DD
102
}
330
1F
100
AcDbEntity
  8
LC-007-100-D00-0
 62
     7
370
    50
100
AcDbCircle
 10
270.288791
 20
155.607533
 30
0.0
 40
1.5
100
AcDbArc
 50
180.0
 51
270.0
  0
ARC
  5
263
102
{ACAD_REACTORS
330
5DD
102
}
330
1F
100
AcDbEntity
  8
LC-007-100-D00-0
 62
     7
370
    50
100
AcDbCircle
 10
300.588791
 20
154.607533
 30
0.0
 40
0.5
100
AcDbArc
 50
270.0
 51
0.0
  0
ARC
  5
264
102
{ACAD_REACTORS
330
5DD
102
}
330
1F
100
AcDbEntity
  8
LC-007-100-D00-0
 62
     7
370
    50
100
AcDbCircle
 10
301.588791
 20
155.607533
 30
0.0
 40
0.5
100
AcDbArc
 50
90.0
 51
180.0
  0
ARC
  5
265
102
{ACAD_REACTORS
330
5DD
102
}
330
1F
100
AcDbEntity
  8
LC-007-100-D00-0
 62
     7
370
    50
100
AcDbCircle
 10
267.288791
 20
157.207533
 30
0.0
 40
1.5
100
AcDbArc
 50
0.0
 51
90.0
  0
INSERT
  5
28D
102
{ACAD_REACTORS
330
5DD
102
}
330
1F
100
AcDbEntity
  8
LC-007-100-D00-0
 62
     7
370
    50
100
AcDbBlockReference
  2
POLY1
 10
0.0
 20
0.0
 30
0.0
  0
INSERT
  5
2A5
102
{ACAD_REACTORS
330
5DD
102
}
330
1F
100
AcDbEntity
  8
LC-007-100-D00-0
 62
     7
370
    50
100
AcDbBlockReference
  2
POLY2
 10
0.0
 20
0.0
 30
0.0
  0
INSERT
  5
2AD
102
{ACAD_REACTORS
330
5DD
102
}
330
1F
100
AcDbEntity
  8
LC-007-100-D00-0
 62
     7
370
    50
100
AcDbBlockReference
  2
POLY3
 10
0.0
 20
0.0
 30
0.0
  0
INSERT
  5
2B5
102
{ACAD_REACTORS
330
5DD
102
}
330
1F
100
AcDbEntity
  8
LC-007-100-D00-0
 62
     7
370
    50
100
AcDbBlockReference
  2
POLY4
 10
0.0
 20
0.0
 30
0.0
  0
INSERT
  5
2BD
102
{ACAD_REACTORS
330
5DD
102
}
330
1F
100
AcDbEntity
  8
LC-007-100-D00-0
 62
     7
370
    50
100
AcDbBlockReference
  2
POLY5
 10
0.0
 20
0.0
 30
0.0
  0
INSERT
  5
2C5
102
{ACAD_REACTORS
330
5DD
102
}
330
1F
100
AcDbEntity
  8
LC-007-100-D00-0
 62
     7
370
    50
100
AcDbBlockReference
  2
POLY6
 10
0.0
 20
0.0
 30
0.0
  0
INSERT
  5
2CD
102
{ACAD_REACTORS
330
5DD
102
}
330
1F
100
AcDbEntity
  8
LC-007-100-D00-0
 62
     7
370
    50
100
AcDbBlockReference
  2
POLY7
 10
0.0
 20
0.0
 30
0.0
  0
INSERT
  5
2E1
102
{ACAD_REACTORS
330
5DD
102
}
330
1F
100
AcDbEntity
  8
LC-007-100-D00-0
 62
     7
370
    50
100
AcDbBlockReference
  2
POLY8
 10
0.0
 20
0.0
 30
0.0
  0
INSERT
  5
2E9
102
{ACAD_REACTORS
330
5DD
102
}
330
1F
100
AcDbEntity
  8
LC-007-100-D00-0
 62
     7
370
    50
100
AcDbBlockReference
  2
POLY9
 10
0.0
 20
0.0
 30
0.0
  0
INSERT
  5
2FD
102
{ACAD_REACTORS
330
5DD
102
}
330
1F
100
AcDbEntity
  8
LC-007-100-D00-0
 62
     7
370
    50
100
AcDbBlockReference
  2
POLY10
 10
0.0
 20
0.0
 30
0.0
  0
INSERT
  5
329
102
{ACAD_REACTORS
330
5DD
102
}
330
1F
100
AcDbEntity
  8
LC-007-100-D00-0
 62
     7
370
    50
100
AcDbBlockReference
  2
POLY11
 10
0.0
 20
0.0
 30
0.0
  0
INSERT
  5
341
102
{ACAD_REACTORS
330
5DD
102
}
330
1F
100
AcDbEntity
  8
LC-007-100-D00-0
 62
     7
370
    50
100
AcDbBlockReference
  2
POLY12
 10
0.0
 20
0.0
 30
0.0
  0
INSERT
  5
34D
102
{ACAD_REACTORS
330
5DD
102
}
330
1F
100
AcDbEntity
  8
LC-007-100-D00-0
 62
     7
370
    50
100
AcDbBlockReference
  2
POLY13
 10
0.0
 20
0.0
 30
0.0
  0
INSERT
  5
365
102
{ACAD_REACTORS
330
5DD
102
}
330
1F
100
AcDbEntity
  8
LC-007-100-D00-0
 62
     7
370
    50
100
AcDbBlockReference
  2
POLY14
 10
0.0
 20
0.0
 30
0.0
  0
INSERT
  5
36D
102
{ACAD_REACTORS
330
5DD
102
}
330
1F
100
AcDbEntity
  8
LC-007-100-D00-0
 62
     7
370
    50
100
AcDbBlockReference
  2
POLY15
 10
0.0
 20
0.0
 30
0.0
  0
INSERT
  5
375
102
{ACAD_REACTORS
330
5DD
102
}
330
1F
100
AcDbEntity
  8
LC-007-100-D00-0
 62
     7
370
    50
100
AcDbBlockReference
  2
POLY16
 10
0.0
 20
0.0
 30
0.0
  0
INSERT
  5
37D
102
{ACAD_REACTORS
330
5DD
102
}
330
1F
100
AcDbEntity
  8
LC-007-100-D00-0
 62
     7
370
    50
100
AcDbBlockReference
  2
POLY17
 10
0.0
 20
0.0
 30
0.0
  0
INSERT
  5
385
102
{ACAD_REACTORS
330
5DD
102
}
330
1F
100
AcDbEntity
  8
LC-007-100-D00-0
 62
     7
370
    50
100
AcDbBlockReference
  2
POLY18
 10
0.0
 20
0.0
 30
0.0
  0
INSERT
  5
3A1
102
{ACAD_REACTORS
330
5DD
102
}
330
1F
100
AcDbEntity
  8
LC-007-100-D00-0
 62
     7
370
    50
100
AcDbBlockReference
  2
POLY19
 10
0.0
 20
0.0
 30
0.0
  0
INSERT
  5
3A9
102
{ACAD_REACTORS
330
5DD
102
}
330
1F
100
AcDbEntity
  8
LC-007-100-D00-0
 62
     7
370
    50
100
AcDbBlockReference
  2
POLY20
 10
0.0
 20
0.0
 30
0.0
  0
INSERT
  5
3B1
102
{ACAD_REACTORS
330
5DD
102
}
330
1F
100
AcDbEntity
  8
LC-007-100-D00-0
 62
     7
370
    50
100
AcDbBlockReference
  2
POLY21
 10
0.0
 20
0.0
 30
0.0
  0
INSERT
  5
3B9
102
{ACAD_REACTORS
330
5DD
102
}
330
1F
100
AcDbEntity
  8
LC-007-100-D00-0
 62
     7
370
    50
100
AcDbBlockReference
  2
POLY22
 10
0.0
 20
0.0
 30
0.0
  0
INSERT
  5
3C1
102
{ACAD_REACTORS
330
5DD
102
}
330
1F
100
AcDbEntity
  8
LC-007-100-D00-0
 62
     7
370
    50
100
AcDbBlockReference
  2
POLY23
 10
0.0
 20
0.0
 30
0.0
  0
INSERT
  5
3CD
102
{ACAD_REACTORS
330
5DD
102
}
330
1F
100
AcDbEntity
  8
LC-007-100-D00-0
 62
     7
370
    50
100
AcDbBlockReference
  2
POLY24
 10
0.0
 20
0.0
 30
0.0
  0
INSERT
  5
3D9
102
{ACAD_REACTORS
330
5DD
102
}
330
1F
100
AcDbEntity
  8
LC-007-100-D00-0
 62
     7
370
    50
100
AcDbBlockReference
  2
POLY25
 10
0.0
 20
0.0
 30
0.0
  0
INSERT
  5
3FF
102
{ACAD_REACTORS
330
5DD
102
}
330
1F
100
AcDbEntity
  8
LC-007-100-D00-0
 62
     7
370
    50
100
AcDbBlockReference
  2
POLY26
 10
0.0
 20
0.0
 30
0.0
  0
INSERT
  5
40B
102
{ACAD_REACTORS
330
5DD
102
}
330
1F
100
AcDbEntity
  8
LC-007-100-D00-0
 62
     7
370
    50
100
AcDbBlockReference
  2
POLY27
 10
0.0
 20
0.0
 30
0.0
  0
INSERT
  5
413
102
{ACAD_REACTORS
330
5DD
102
}
330
1F
100
AcDbEntity
  8
LC-007-100-D00-0
 62
     7
370
    50
100
AcDbBlockReference
  2
POLY28
 10
0.0
 20
0.0
 30
0.0
  0
INSERT
  5
427
102
{ACAD_REACTORS
330
5DD
102
}
330
1F
100
AcDbEntity
  8
LC-007-100-D00-0
 62
     7
370
    50
100
AcDbBlockReference
  2
POLY29
 10
0.0
 20
0.0
 30
0.0
  0
INSERT
  5
433
102
{ACAD_REACTORS
330
5DD
102
}
330
1F
100
AcDbEntity
  8
LC-007-100-D00-0
 62
     7
370
    50
100
AcDbBlockReference
  2
POLY30
 10
0.0
 20
0.0
 30
0.0
  0
INSERT
  5
457
102
{ACAD_REACTORS
330
5DD
102
}
330
1F
100
AcDbEntity
  8
LC-007-100-D00-0
 62
     7
370
    50
100
AcDbBlockReference
  2
POLY31
 10
0.0
 20
0.0
 30
0.0
  0
INSERT
  5
46B
102
{ACAD_REACTORS
330
5DD
102
}
330
1F
100
AcDbEntity
  8
LC-007-100-D00-0
 62
     7
370
    50
100
AcDbBlockReference
  2
POLY32
 10
0.0
 20
0.0
 30
0.0
  0
INSERT
  5
483
102
{ACAD_REACTORS
330
5DD
102
}
330
1F
100
AcDbEntity
  8
LC-007-100-D00-0
 62
     7
370
    50
100
AcDbBlockReference
  2
POLY33
 10
0.0
 20
0.0
 30
0.0
  0
INSERT
  5
48F
102
{ACAD_REACTORS
330
5DD
102
}
330
1F
100
AcDbEntity
  8
LC-007-100-D00-0
 62
     7
370
    50
100
AcDbBlockReference
  2
POLY34
 10
0.0
 20
0.0
 30
0.0
  0
INSERT
  5
4A3
102
{ACAD_REACTORS
330
5DD
102
}
330
1F
100
AcDbEntity
  8
LC-007-100-D00-0
 62
     7
370
    50
100
AcDbBlockReference
  2
POLY35
 10
0.0
 20
0.0
 30
0.0
  0
INSERT
  5
4B3
102
{ACAD_REACTORS
330
5DD
102
}
330
1F
100
AcDbEntity
  8
LC-007-100-D00-0
 62
     7
370
    50
100
AcDbBlockReference
  2
POLY36
 10
0.0
 20
0.0
 30
0.0
  0
INSERT
  5
4BF
102
{ACAD_REACTORS
330
5DD
102
}
330
1F
100
AcDbEntity
  8
LC-007-100-D00-0
 62
     7
370
    50
100
AcDbBlockReference
  2
POLY37
 10
0.0
 20
0.0
 30
0.0
  0
INSERT
  5
4E1
102
{ACAD_REACTORS
330
5DD
102
}
330
1F
100
AcDbEntity
  8
LC-007-100-D00-0
 62
     7
370
    50
100
AcDbBlockReference
  2
POLY38
 10
0.0
 20
0.0
 30
0.0
  0
INSERT
  5
4ED
102
{ACAD_REACTORS
330
5DD
102
}
330
1F
100
AcDbEntity
  8
LC-007-100-D00-0
 62
     7
370
    50
100
AcDbBlockReference
  2
POLY39
 10
0.0
 20
0.0
 30
0.0
  0
INSERT
  5
50D
102
{ACAD_REACTORS
330
5DD
102
}
330
1F
100
AcDbEntity
  8
LC-007-100-D00-0
 62
     7
370
    50
100
AcDbBlockReference
  2
POLY40
 10
0.0
 20
0.0
 30
0.0
  0
INSERT
  5
519
102
{ACAD_REACTORS
330
5DD
102
}
330
1F
100
AcDbEntity
  8
LC-007-100-D00-0
 62
     7
370
    50
100
AcDbBlockReference
  2
POLY41
 10
0.0
 20
0.0
 30
0.0
  0
INSERT
  5
521
102
{ACAD_REACTORS
330
5DD
102
}
330
1F
100
AcDbEntity
  8
LC-007-100-D00-0
 62
     7
370
    50
100
AcDbBlockReference
  2
POLY42
 10
0.0
 20
0.0
 30
0.0
  0
INSERT
  5
529
102
{ACAD_REACTORS
330
5DD
102
}
330
1F
100
AcDbEntity
  8
LC-007-100-D00-0
 62
     7
370
    50
100
AcDbBlockReference
  2
POLY43
 10
0.0
 20
0.0
 30
0.0
  0
INSERT
  5
535
102
{ACAD_REACTORS
330
5DD
102
}
330
1F
100
AcDbEntity
  8
LC-007-100-D00-0
 62
     7
370
    50
100
AcDbBlockReference
  2
POLY44
 10
0.0
 20
0.0
 30
0.0
  0
INSERT
  5
541
102
{ACAD_REACTORS
330
5DD
102
}
330
1F
100
AcDbEntity
  8
LC-007-100-D00-0
 62
     7
370
    50
100
AcDbBlockReference
  2
POLY45
 10
0.0
 20
0.0
 30
0.0
  0
LINE
  5
542
102
{ACAD_REACTORS
330
5D6
102
}
330
1F
100
AcDbEntity
  8
LC-007-100-D00-0
 62
     7
370
    50
100
AcDbLine
 10
431.081697
 20
76.707533
 30
0.0
 11
409.081697
 21
54.707533
 31
0.0
  0
LINE
  5
543
102
{ACAD_REACTORS
330
5D6
102
}
330
1F
100
AcDbEntity
  8
LC-007-100-D00-0
 62
     7
370
    50
100
AcDbLine
 10
402.953578
 20
87.392612
 30
0.0
 11
356.588804
 21
87.392612
 31
0.0
  0
LINE
  5
544
102
{ACAD_REACTORS
330
5D6
102
}
330
1F
100
AcDbEntity
  8
LC-007-100-D00-0
 62
     7
370
    50
100
AcDbLine
 10
482.522978
 20
88.084341
 30
0.0
 11
482.522978
 21
76.707533
 31
0.0
  0
LINE
  5
545
102
{ACAD_REACTORS
330
5D6
102
}
330
1F
100
AcDbEntity
  8
LC-007-100-D00-0
 62
     7
370
    50
100
AcDbLine
 10
431.081697
 20
76.707533
 30
0.0
 11
482.522978
 21
76.707533
 31
0.0
  0
LINE
  5
546
102
{ACAD_REACTORS
330
5D6
102
}
330
1F
100
AcDbEntity
  8
LC-007-100-D00-0
 62
     7
370
    50
100
AcDbLine
 10
486.088804
 20
77.662993
 30
0.0
 11
486.088804
 21
88.084341
 31
0.0
  0
LINE
  5
547
102
{ACAD_REACTORS
330
5D6
102
}
330
1F
100
AcDbEntity
  8
LC-007-100-D00-0
 62
     7
370
    50
100
AcDbLine
 10
486.088804
 20
77.662993
 30
0.0
 11
482.522978
 21
76.707533
 31
0.0
  0
LINE
  5
548
102
{ACAD_REACTORS
330
5D6
102
}
330
1F
100
AcDbEntity
  8
LC-007-100-D00-0
 62
     7
370
    50
100
AcDbLine
 10
431.081697
 20
76.707533
 30
0.0
 11
431.081697
 21
151.707533
 31
0.0
  0
LINE
  5
549
102
{ACAD_REACTORS
330
5D6
102
}
330
1F
100
AcDbEntity
  8
LC-007-100-D00-0
 62
     7
370
    50
100
AcDbLine
 10
402.257911
 20
173.707533
 30
0.0
 11
356.588804
 21
173.707533
 31
0.0
  0
LINE
  5
54A
102
{ACAD_REACTORS
330
5D6
102
}
330
1F
100
AcDbEntity
  8
LC-007-100-D00-0
 62
     7
370
    50
100
AcDbLine
 10
402.257911
 20
173.707533
 30
0.0
 11
409.081697
 21
173.707533
 31
0.0
  0
LINE
  5
54B
102
{ACAD_REACTORS
330
5D6
102
}
330
1F
100
AcDbEntity
  8
LC-007-100-D00-0
 62
     7
370
    50
100
AcDbLine
 10
402.257911
 20
54.707533
 30
0.0
 11
356.588804
 21
54.707533
 31
0.0
  0
LINE
  5
54C
102
{ACAD_REACTORS
330
5D6
102
}
330
1F
100
AcDbEntity
  8
LC-007-100-D00-0
 62
     7
370
    50
100
AcDbLine
 10
402.257911
 20
54.707533
 30
0.0
 11
409.081697
 21
54.707533
 31
0.0
  0
LINE
  5
54D
102
{ACAD_REACTORS
330
5D6
102
}
330
1F
100
AcDbEntity
  8
LC-007-100-D00-0
 62
     7
370
    50
100
AcDbLine
 10
431.081697
 20
151.707533
 30
0.0
 11
409.081697
 21
173.707533
 31
0.0
  0
LINE
  5
54E
102
{ACAD_REACTORS
330
5D6
102
}
330
1F
100
AcDbEntity
  8
LC-007-100-D00-0
 62
     7
370
    50
100
AcDbLine
 10
402.953578
 20
141.022454
 30
0.0
 11
356.588804
 21
141.022454
 31
0.0
  0
LINE
  5
54F
102
{ACAD_REACTORS
330
5D6
102
}
330
1F
100
AcDbEntity
  8
LC-007-100-D00-0
 62
     7
370
    50
100
AcDbLine
 10
431.081697
 20
151.707533
 30
0.0
 11
480.970427
 21
151.707533
 31
0.0
  0
INSERT
  5
563
102
{ACAD_REACTORS
330
5D6
102
}
330
1F
100
AcDbEntity
  8
LC-007-100-D00-0
 62
     7
370
    50
100
AcDbBlockReference
  2
POLY46
 10
0.0
 20
0.0
 30
0.0
  0
INSERT
  5
573
102
{ACAD_REACTORS
330
5D6
102
}
330
1F
100
AcDbEntity
  8
LC-007-100-D00-0
 62
     7
370
    50
100
AcDbBlockReference
  2
POLY47
 10
0.0
 20
0.0
 30
0.0
  0
INSERT
  5
583
102
{ACAD_REACTORS
330
5D6
102
}
330
1F
100
AcDbEntity
  8
LC-007-100-D00-0
 62
     7
370
    50
100
AcDbBlockReference
  2
POLY48
 10
0.0
 20
0.0
 30
0.0
  0
LINE
  5
584
102
{ACAD_REACTORS
330
5D7
102
}
330
1F
100
AcDbEntity
  8
LC-006-101-D00-0
 62
     7
370
    25
100
AcDbLine
 10
410.488405
 20
114.207533
 30
0.0
 11
355.474203
 21
114.207533
 31
0.0
  0
LINE
  5
585
102
{ACAD_REACTORS
330
5D7
102
}
330
1F
100
AcDbEntity
  8
LC-007-100-D00-0
 62
     7
370
    50
100
AcDbLine
 10
357.974849
 20
114.207533
 30
0.0
 11
359.12955
 21
116.207533
 31
0.0
  0
LINE
  5
586
102
{ACAD_REACTORS
330
5D7
102
}
330
1F
100
AcDbEntity
  8
LC-007-100-D00-0
 62
     7
370
    50
100
AcDbLine
 10
359.12955
 20
112.207533
 30
0.0
 11
357.974849
 21
114.207533
 31
0.0
  0
LINE
  5
587
102
{ACAD_REACTORS
330
5D7
102
}
330
1F
100
AcDbEntity
  8
LC-007-100-D00-0
 62
     7
370
    50
100
AcDbLine
 10
359.566565
 20
112.207533
 30
0.0
 11
359.12955
 21
112.207533
 31
0.0
  0
LINE
  5
588
102
{ACAD_REACTORS
330
5D7
102
}
330
1F
100
AcDbEntity
  8
LC-007-100-D00-0
 62
     7
370
    50
100
AcDbLine
 10
380.981304
 20
90.355779
 30
0.0
 11
380.981304
 21
90.792794
 31
0.0
  0
LINE
  5
589
102
{ACAD_REACTORS
330
5D7
102
}
330
1F
100
AcDbEntity
  8
LC-007-100-D00-0
 62
     7
370
    50
100
AcDbLine
 10
382.981304
 20
89.201078
 30
0.0
 11
380.981304
 21
90.355779
 31
0.0
  0
LINE
  5
58A
102
{ACAD_REACTORS
330
5D7
102
}
330
1F
100
AcDbEntity
  8
LC-007-100-D00-0
 62
     7
370
    50
100
AcDbLine
 10
384.981304
 20
90.355779
 30
0.0
 11
382.981304
 21
89.201078
 31
0.0
  0
LINE
  5
58B
102
{ACAD_REACTORS
330
5D7
102
}
330
1F
100
AcDbEntity
  8
LC-007-100-D00-0
 62
     7
370
    50
100
AcDbLine
 10
384.981304
 20
90.792794
 30
0.0
 11
384.981304
 21
90.355779
 31
0.0
  0
LINE
  5
58C
102
{ACAD_REACTORS
330
5D7
102
}
330
1F
100
AcDbEntity
  8
LC-007-100-D00-0
 62
     7
370
    50
100
AcDbLine
 10
367.52978
 20
95.927582
 30
0.0
 11
365.29907
 21
96.525299
 31
0.0
  0
LINE
  5
58D
102
{ACAD_REACTORS
330
5D7
102
}
330
1F
100
AcDbEntity
  8
LC-007-100-D00-0
 62
     7
370
    50
100
AcDbLine
 10
364.701353
 20
98.756009
 30
0.0
 11
365.01037
 21
99.065026
 31
0.0
  0
LINE
  5
58E
102
{ACAD_REACTORS
330
5D7
102
}
330
1F
100
AcDbEntity
  8
LC-007-100-D00-0
 62
     7
370
    50
100
AcDbLine
 10
365.29907
 20
96.525299
 30
0.0
 11
364.701353
 21
98.756009
 31
0.0
  0
LINE
  5
58F
102
{ACAD_REACTORS
330
5D7
102
}
330
1F
100
AcDbEntity
  8
LC-007-100-D00-0
 62
     7
370
    50
100
AcDbLine
 10
398.123811
 20
132.178467
 30
0.0
 11
398.432828
 21
132.487484
 31
0.0
  0
LINE
  5
590
102
{ACAD_REACTORS
330
5D7
102
}
330
1F
100
AcDbEntity
  8
LC-007-100-D00-0
 62
     7
370
    50
100
AcDbLine
 10
398.432828
 20
132.487484
 30
0.0
 11
400.663538
 21
131.889767
 31
0.0
  0
LINE
  5
591
102
{ACAD_REACTORS
330
5D7
102
}
330
1F
100
AcDbEntity
  8
LC-007-100-D00-0
 62
     7
370
    50
100
AcDbLine
 10
367.838797
 20
96.236599
 30
0.0
 11
367.52978
 21
95.927582
 31
0.0
  0
LINE
  5
592
102
{ACAD_REACTORS
330
5D7
102
}
330
1F
100
AcDbEntity
  8
LC-007-100-D00-0
 62
     7
370
    50
100
AcDbLine
 10
400.663538
 20
96.525299
 30
0.0
 11
398.432828
 21
95.927582
 31
0.0
  0
LINE
  5
593
102
{ACAD_REACTORS
330
5D7
102
}
330
1F
100
AcDbEntity
  8
LC-007-100-D00-0
 62
     7
370
    50
100
AcDbLine
 10
398.432828
 20
95.927582
 30
0.0
 11
398.123811
 21
96.236599
 31
0.0
  0
LINE
  5
594
102
{ACAD_REACTORS
330
5D7
102
}
330
1F
100
AcDbEntity
  8
LC-007-100-D00-0
 62
     7
370
    50
100
AcDbLine
 10
400.952238
 20
99.065026
 30
0.0
 11
401.261255
 21
98.756009
 31
0.0
  0
LINE
  5
595
102
{ACAD_REACTORS
330
5D7
102
}
330
1F
100
AcDbEntity
  8
LC-007-100-D00-0
 62
     7
370
    50
100
AcDbLine
 10
401.261255
 20
98.756009
 30
0.0
 11
400.663538
 21
96.525299
 31
0.0
  0
LINE
  5
596
102
{ACAD_REACTORS
330
5D7
102
}
330
1F
100
AcDbEntity
  8
LC-007-100-D00-0
 62
     7
370
    50
100
AcDbLine
 10
400.663538
 20
131.889767
 30
0.0
 11
401.261255
 21
129.659057
 31
0.0
  0
LINE
  5
597
102
{ACAD_REACTORS
330
5D7
102
}
330
1F
100
AcDbEntity
  8
LC-007-100-D00-0
 62
     7
370
    50
100
AcDbLine
 10
401.261255
 20
129.659057
 30
0.0
 11
400.952238
 21
129.35004
 31
0.0
  0
LINE
  5
598
102
{ACAD_REACTORS
330
5D7
102
}
330
1F
100
AcDbEntity
  8
LC-007-100-D00-0
 62
     7
370
    50
100
AcDbLine
 10
406.833059
 20
112.207533
 30
0.0
 11
406.396043
 21
112.207533
 31
0.0
  0
LINE
  5
599
102
{ACAD_REACTORS
330
5D7
102
}
330
1F
100
AcDbEntity
  8
LC-007-100-D00-0
 62
     7
370
    50
100
AcDbLine
 10
407.987759
 20
114.207533
 30
0.0
 11
406.833059
 21
112.207533
 31
0.0
  0
LINE
  5
59A
102
{ACAD_REACTORS
330
5D7
102
}
330
1F
100
AcDbEntity
  8
LC-007-100-D00-0
 62
     7
370
    50
100
AcDbLine
 10
406.396043
 20
116.207533
 30
0.0
 11
406.833059
 21
116.207533
 31
0.0
  0
LINE
  5
59B
102
{ACAD_REACTORS
330
5D7
102
}
330
1F
100
AcDbEntity
  8
LC-007-100-D00-0
 62
     7
370
    50
100
AcDbLine
 10
406.833059
 20
116.207533
 30
0.0
 11
407.987759
 21
114.207533
 31
0.0
  0
LINE
  5
59C
102
{ACAD_REACTORS
330
5D7
102
}
330
1F
100
AcDbEntity
  8
LC-007-100-D00-0
 62
     7
370
    50
100
AcDbLine
 10
382.981304
 20
139.213988
 30
0.0
 11
384.981304
 21
138.059288
 31
0.0
  0
LINE
  5
59D
102
{ACAD_REACTORS
330
5D7
102
}
330
1F
100
AcDbEntity
  8
LC-007-100-D00-0
 62
     7
370
    50
100
AcDbLine
 10
384.981304
 20
138.059288
 30
0.0
 11
384.981304
 21
137.622272
 31
0.0
  0
LINE
  5
59E
102
{ACAD_REACTORS
330
5D7
102
}
330
1F
100
AcDbEntity
  8
LC-007-100-D00-0
 62
     7
370
    50
100
AcDbLine
 10
364.701353
 20
129.659057
 30
0.0
 11
365.29907
 21
131.889767
 31
0.0
  0
LINE
  5
59F
102
{ACAD_REACTORS
330
5D7
102
}
330
1F
100
AcDbEntity
  8
LC-007-100-D00-0
 62
     7
370
    50
100
AcDbLine
 10
365.01037
 20
129.35004
 30
0.0
 11
364.701353
 21
129.659057
 31
0.0
  0
LINE
  5
5A0
102
{ACAD_REACTORS
330
5D7
102
}
330
1F
100
AcDbEntity
  8
LC-007-100-D00-0
 62
     7
370
    50
100
AcDbLine
 10
359.12955
 20
116.207533
 30
0.0
 11
359.566565
 21
116.207533
 31
0.0
  0
LINE
  5
5A1
102
{ACAD_REACTORS
330
5D7
102
}
330
1F
100
AcDbEntity
  8
LC-007-100-D00-0
 62
     7
370
    50
100
AcDbLine
 10
380.981304
 20
138.059288
 30
0.0
 11
382.981304
 21
139.213988
 31
0.0
  0
LINE
  5
5A2
102
{ACAD_REACTORS
330
5D7
102
}
330
1F
100
AcDbEntity
  8
LC-007-100-D00-0
 62
     7
370
    50
100
AcDbLine
 10
380.981304
 20
137.622272
 30
0.0
 11
380.981304
 21
138.059288
 31
0.0
  0
LINE
  5
5A3
102
{ACAD_REACTORS
330
5D7
102
}
330
1F
100
AcDbEntity
  8
LC-007-100-D00-0
 62
     7
370
    50
100
AcDbLine
 10
365.29907
 20
131.889767
 30
0.0
 11
367.52978
 21
132.487484
 31
0.0
  0
LINE
  5
5A4
102
{ACAD_REACTORS
330
5D7
102
}
330
1F
100
AcDbEntity
  8
LC-007-100-D00-0
 62
     7
370
    50
100
AcDbLine
 10
367.52978
 20
132.487484
 30
0.0
 11
367.838797
 21
132.178467
 31
0.0
  0
ARC
  5
5A5
102
{ACAD_REACTORS
330
5D7
102
}
330
1F
100
AcDbEntity
  8
LC-007-100-D00-0
 62
     7
370
    50
100
AcDbCircle
 10
382.981304
 20
114.207533
 30
0.0
 40
25.00645507427709
100
AcDbArc
 50
180.0
 51
225.0
  0
ARC
  5
5A6
102
{ACAD_REACTORS
330
5D7
102
}
330
1F
100
AcDbEntity
  8
LC-007-100-D00-0
 62
     7
370
    50
100
AcDbCircle
 10
382.981304
 20
114.207533
 30
0.0
 40
23.50000000000002
100
AcDbArc
 50
184.882142
 51
220.117858
  0
ARC
  5
5A7
102
{ACAD_REACTORS
330
5D7
102
}
330
1F
100
AcDbEntity
  8
LC-007-100-D00-0
 62
     7
370
    50
100
AcDbCircle
 10
382.981304
 20
114.207533
 30
0.0
 40
25.00645507427709
100
AcDbArc
 50
270.0
 51
315.0
  0
ARC
  5
5A8
102
{ACAD_REACTORS
330
5D7
102
}
330
1F
100
AcDbEntity
  8
LC-007-100-D00-0
 62
     7
370
    50
100
AcDbCircle
 10
382.981304
 20
114.207533
 30
0.0
 40
25.00645507427709
100
AcDbArc
 50
225.0
 51
270.0
  0
ARC
  5
5A9
102
{ACAD_REACTORS
330
5D7
102
}
330
1F
100
AcDbEntity
  8
LC-007-100-D00-0
 62
     7
370
    50
100
AcDbCircle
 10
382.981304
 20
114.207533
 30
0.0
 40
23.50000000000009
100
AcDbArc
 50
229.882142
 51
265.117858
  0
ARC
  5
5AA
102
{ACAD_REACTORS
330
5D7
102
}
330
1F
100
AcDbEntity
  8
LC-007-100-D00-0
 62
     7
370
    50
100
AcDbCircle
 10
382.981304
 20
114.207533
 30
0.0
 40
23.50000000000001
100
AcDbArc
 50
274.882142
 51
310.117858
  0
ARC
  5
5AB
102
{ACAD_REACTORS
330
5D7
102
}
330
1F
100
AcDbEntity
  8
LC-007-100-D00-0
 62
     7
370
    50
100
AcDbCircle
 10
382.981304
 20
114.207533
 30
0.0
 40
25.00645507427709
100
AcDbArc
 50
315.0
 51
0.0
  0
ARC
  5
5AC
102
{ACAD_REACTORS
330
5D7
102
}
330
1F
100
AcDbEntity
  8
LC-007-100-D00-0
 62
     7
370
    50
100
AcDbCircle
 10
382.981304
 20
114.207533
 30
0.0
 40
23.50000000000001
100
AcDbArc
 50
319.882142
 51
355.117858
  0
ARC
  5
5AD
102
{ACAD_REACTORS
330
5D7
102
}
330
1F
100
AcDbEntity
  8
LC-007-100-D00-0
 62
     7
370
    50
100
AcDbCircle
 10
382.981304
 20
114.207533
 30
0.0
 40
25.00645507427714
100
AcDbArc
 50
0.0
 51
45.0
  0
ARC
  5
5AE
102
{ACAD_REACTORS
330
5D7
102
}
330
1F
100
AcDbEntity
  8
LC-007-100-D00-0
 62
     7
370
    50
100
AcDbCircle
 10
382.981304
 20
114.207533
 30
0.0
 40
23.49999999999996
100
AcDbArc
 50
4.882142
 51
40.117858
  0
ARC
  5
5AF
102
{ACAD_REACTORS
330
5D7
102
}
330
1F
100
AcDbEntity
  8
LC-007-100-D00-0
 62
     7
370
    50
100
AcDbCircle
 10
382.981304
 20
114.207533
 30
0.0
 40
25.00645507427702
100
AcDbArc
 50
45.0
 51
90.0
  0
ARC
  5
5B0
102
{ACAD_REACTORS
330
5D7
102
}
330
1F
100
AcDbEntity
  8
LC-007-100-D00-0
 62
     7
370
    50
100
AcDbCircle
 10
382.981304
 20
114.207533
 30
0.0
 40
23.50000000000674
100
AcDbArc
 50
49.882142
 51
85.117858
  0
ARC
  5
5B1
102
{ACAD_REACTORS
330
5D7
102
}
330
1F
100
AcDbEntity
  8
LC-007-100-D00-0
 62
     7
370
    50
100
AcDbCircle
 10
382.981304
 20
114.207533
 30
0.0
 40
25.00645507427703
100
AcDbArc
 50
90.0
 51
135.0
  0
ARC
  5
5B2
102
{ACAD_REACTORS
330
5D7
102
}
330
1F
100
AcDbEntity
  8
LC-007-100-D00-0
 62
     7
370
    50
100
AcDbCircle
 10
382.981304
 20
114.207533
 30
0.0
 40
25.00645507427705
100
AcDbArc
 50
135.0
 51
180.0
  0
ARC
  5
5B3
102
{ACAD_REACTORS
330
5D7
102
}
330
1F
100
AcDbEntity
  8
LC-007-100-D00-0
 62
     7
370
    50
100
AcDbCircle
 10
382.981304
 20
114.207533
 30
0.0
 40
23.50000000000006
100
AcDbArc
 50
139.882142
 51
175.117858
  0
ARC
  5
5B4
102
{ACAD_REACTORS
330
5D7
102
}
330
1F
100
AcDbEntity
  8
LC-007-100-D00-0
 62
     7
370
    50
100
AcDbCircle
 10
382.981304
 20
114.207533
 30
0.0
 40
23.5000000000034
100
AcDbArc
 50
94.882142
 51
130.117858
  0
CIRCLE
  5
5B5
102
{ACAD_REACTORS
330
5D7
102
}
330
1F
100
AcDbEntity
  8
LC-007-100-D00-0
 62
     7
370
    50
100
AcDbCircle
 10
382.981304
 20
114.207533
 30
0.0
 40
22.62294788908696
  0
CIRCLE
  5
5B6
102
{ACAD_REACTORS
330
5D7
102
}
330
1F
100
AcDbEntity
  8
LC-007-100-D00-0
 62
     7
370
    50
100
AcDbCircle
 10
382.981304
 20
114.207533
 30
0.0
 40
20.2064550742632
  0
CIRCLE
  5
5B7
102
{ACAD_REACTORS
330
5D7
102
}
330
1F
100
AcDbEntity
  8
LC-007-100-D00-0
 62
     7
370
    50
100
AcDbCircle
 10
382.981304
 20
114.207533
 30
0.0
 40
17.60837886290989
  0
LINE
  5
5B8
102
{ACAD_REACTORS
330
5D9
102
}
330
1F
100
AcDbEntity
  8
LC-007-100-D00-0
 62
     7
370
    50
100
AcDbLine
 10
353.588804
 20
87.392612
 30
0.0
 11
353.588804
 21
141.022454
 31
0.0
  0
LINE
  5
5B9
102
{ACAD_REACTORS
330
5D9
102
}
330
1F
100
AcDbEntity
  8
LC-007-100-D00-0
 62
     7
370
    50
100
AcDbLine
 10
356.588804
 20
87.392612
 30
0.0
 11
356.588804
 21
141.022454
 31
0.0
  0
LINE
  5
5BA
102
{ACAD_REACTORS
330
5D9
102
}
330
1F
100
AcDbEntity
  8
LC-007-100-D00-0
 62
     7
370
    50
100
AcDbLine
 10
356.588804
 20
87.392612
 30
0.0
 11
356.588804
 21
53.819474
 31
0.0
  0
LINE
  5
5BB
102
{ACAD_REACTORS
330
5D9
102
}
330
1F
100
AcDbEntity
  8
LC-007-100-D00-0
 62
     7
370
    50
100
AcDbLine
 10
353.588804
 20
87.392612
 30
0.0
 11
353.588804
 21
53.819474
 31
0.0
  0
LINE
  5
5BC
102
{ACAD_REACTORS
330
5D9
102
}
330
1F
100
AcDbEntity
  8
LC-007-100-D00-0
 62
     7
370
    50
100
AcDbLine
 10
356.588804
 20
53.819474
 30
0.0
 11
356.588804
 21
53.707533
 31
0.0
  0
LINE
  5
5BD
102
{ACAD_REACTORS
330
5D9
102
}
330
1F
100
AcDbEntity
  8
LC-007-100-D00-0
 62
     7
370
    50
100
AcDbLine
 10
353.588804
 20
53.819474
 30
0.0
 11
353.588804
 21
53.707533
 31
0.0
  0
LINE
  5
5BE
102
{ACAD_REACTORS
330
5D9
102
}
330
1F
100
AcDbEntity
  8
LC-007-100-D00-0
 62
     7
370
    50
100
AcDbLine
 10
353.588804
 20
174.595593
 30
0.0
 11
353.588804
 21
141.022454
 31
0.0
  0
LINE
  5
5BF
102
{ACAD_REACTORS
330
5D9
102
}
330
1F
100
AcDbEntity
  8
LC-007-100-D00-0
 62
     7
370
    50
100
AcDbLine
 10
356.588804
 20
174.595593
 30
0.0
 11
356.588804
 21
141.022454
 31
0.0
  0
LINE
  5
5C0
102
{ACAD_REACTORS
330
5D9
102
}
330
1F
100
AcDbEntity
  8
LC-007-100-D00-0
 62
     7
370
    50
100
AcDbLine
 10
353.588804
 20
174.707533
 30
0.0
 11
353.588804
 21
174.595593
 31
0.0
  0
LINE
  5
5C1
102
{ACAD_REACTORS
330
5D9
102
}
330
1F
100
AcDbEntity
  8
LC-007-100-D00-0
 62
     7
370
    50
100
AcDbLine
 10
356.588804
 20
174.707533
 30
0.0
 11
356.588804
 21
174.595593
 31
0.0
  0
LINE
  5
5C2
102
{ACAD_REACTORS
330
5D9
102
}
330
1F
100
AcDbEntity
  8
LC-007-100-D00-0
 62
     7
370
    50
100
AcDbLine
 10
354.588804
 20
52.707533
 30
0.0
 11
355.588804
 21
52.707533
 31
0.0
  0
LINE
  5
5C3
102
{ACAD_REACTORS
330
5D9
102
}
330
1F
100
AcDbEntity
  8
LC-007-100-D00-0
 62
     7
370
    50
100
AcDbLine
 10
354.588804
 20
175.707533
 30
0.0
 11
355.588804
 21
175.707533
 31
0.0
  0
ARC
  5
5C4
102
{ACAD_REACTORS
330
5D9
102
}
330
1F
100
AcDbEntity
  8
LC-007-100-D00-0
 62
     7
370
    50
100
AcDbCircle
 10
355.588804
 20
174.707533
 30
0.0
 40
1.0
100
AcDbArc
 50
0.0
 51
90.0
  0
ARC
  5
5C5
102
{ACAD_REACTORS
330
5D9
102
}
330
1F
100
AcDbEntity
  8
LC-007-100-D00-0
 62
     7
370
    50
100
AcDbCircle
 10
355.588804
 20
53.707533
 30
0.0
 40
1.0
100
AcDbArc
 50
270.0
 51
0.0
  0
ARC
  5
5C6
102
{ACAD_REACTORS
330
5D9
102
}
330
1F
100
AcDbEntity
  8
LC-007-100-D00-0
 62
     7
370
    50
100
AcDbCircle
 10
354.588804
 20
53.707533
 30
0.0
 40
1.0
100
AcDbArc
 50
180.0
 51
270.0
  0
ARC
  5
5C7
102
{ACAD_REACTORS
330
5D9
102
}
330
1F
100
AcDbEntity
  8
LC-007-100-D00-0
 62
     7
370
    50
100
AcDbCircle
 10
354.588804
 20
174.707533
 30
0.0
 40
1.0
100
AcDbArc
 50
90.0
 51
180.0
  0
DIMENSION
  5
5C8
330
1F
100
AcDbEntity
  8
LC-005-003-----0
 62
     7
370
    25
100
AcDbDimension
  2
*D61
 10
525.770427
 20
54.707533
 30
0.0
 11
494.970427
 21
119.394
 31
0.0
 70
   160
 71
     5
 42
119.0
 53
90.0
  3
LC-DIM-L-0140-02-02
100
AcDbAlignedDimension
 13
409.081697
 23
173.707533
 33
0.0
 14
409.081697
 24
54.707533
 34
0.0
 50
90.0
100
AcDbRotatedDimension
  0
ENDSEC
  0
SECTION
  2
OBJECTS
  0
DICTIONARY
  5
C
330
0
100
AcDbDictionary
281
     1
  3
ACAD_GROUP
350
D
  3
ACAD_LAYOUT
350
1A
  3
ACAD_MLINESTYLE
350
17
  3
ACAD_PLOTSETTINGS
350
19
  3
ACAD_PLOTSTYLENAME
350
E
  0
DICTIONARY
  5
D
102
{ACAD_REACTORS
330
C
102
}
330
C
100
AcDbDictionary
281
     1
  3
LCGROUP107
350
5D8
  3
LCGROUP144
350
5DB
  3
LCGROUP146
350
5DA
  3
LCGROUP193
350
5DC
  3
LCGROUP204
350
5DD
  3
LCGROUP324
350
5D6
  3
LCGROUP351
350
5D7
  3
LCGROUP38
350
5D5
  3
LCGROUP404
350
5D9
  0
DICTIONARY
  5
1A
102
{ACAD_REACTORS
330
C
102
}
330
C
100
AcDbDictionary
281
     1
  3
Layout1
350
1E
  3
Layout2
350
26
  3
Model
350
22
  0
DICTIONARY
  5
17
102
{ACAD_REACTORS
330
C
102
}
330
C
100
AcDbDictionary
281
     1
  3
Standard
350
18
  0
DICTIONARY
  5
19
102
{ACAD_REACTORS
330
C
102
}
330
C
100
AcDbDictionary
281
     1
  0
ACDBDICTIONARYWDFLT
  5
E
102
{ACAD_REACTORS
330
C
102
}
330
C
100
AcDbDictionary
281
     1
  3
Normal
350
F
100
AcDbDictionaryWithDefault
340
F
  0
GROUP
  5
5D8
102
{ACAD_REACTORS
330
D
102
}
330
D
100
AcDbGroup
300
GRP107
 70
     1
 71
     1
340
15E
340
15F
340
160
  0
GROUP
  5
5DB
102
{ACAD_REACTORS
330
D
102
}
330
D
100
AcDbGroup
300
GRP144
 70
     1
 71
     1
340
A2
340
A3
340
A4
340
A5
340
A7
340
A8
340
AA
340
AB
340
AC
340
AD
340
AE
340
AF
340
12A
340
156
  0
GROUP
  5
5DA
102
{ACAD_REACTORS
330
D
102
}
330
D
100
AcDbGroup
300
GRP146
 70
     1
 71
     1
340
121
340
122
340
123
340
124
340
125
340
126
340
12D
340
130
340
13A
340
162
340
163
340
172
340
174
340
1C4
  0
GROUP
  5
5DC
102
{ACAD_REACTORS
330
D
102
}
330
D
100
AcDbGroup
300
Drfsicht1
 70
     1
 71
     1
340
222
340
223
  0
GROUP
  5
5DD
102
{ACAD_REACTORS
330
D
102
}
330
D
100
AcDbGroup
300
KörperMuffenteil__3-LCMaster-LCGROUP200
 70
     1
 71
     1
340
220
340
226
340
227
340
228
340
229
340
22A
340
22B
340
22C
340
22D
340
22E
340
22F
340
230
340
231
340
232
340
233
340
234
340
235
340
236
340
237
340
238
340
239
340
23A
340
23B
340
23C
340
23D
340
23E
340
23F
340
240
340
241
340
242
340
243
340
244
340
245
340
246
340
247
340
248
340
249
340
24A
340
24B
340
24C
340
24D
340
24E
340
24F
340
250
340
251
340
252
340
253
340
254
340
255
340
256
340
257
340
258
340
259
340
25A
340
25B
340
25C
340
25D
340
25E
340
25F
340
260
340
261
340
262
340
263
340
264
340
265
340
28D
340
2A5
340
2AD
340
2B5
340
2BD
340
2C5
340
2CD
340
2E1
340
2E9
340
2FD
340
329
340
341
340
34D
340
365
340
36D
340
375
340
37D
340
385
340
3A1
340
3A9
340
3B1
340
3B9
340
3C1
340
3CD
340
3D9
340
3FF
340
40B
340
413
340
427
340
433
340
457
340
46B
340
483
340
48F
340
4A3
340
4B3
340
4BF
340
4E1
340
4ED
340
50D
340
519
340
521
340
529
340
535
340
541
  0
GROUP
  5
5D6
102
{ACAD_REACTORS
330
D
102
}
330
D
100
AcDbGroup
300
KörperRohrteil__4-LCMaster-LCGROUP200
 70
     1
 71
     1
340
224
340
542
340
543
340
544
340
545
340
546
340
547
340
548
340
549
340
54A
340
54B
340
54C
340
54D
340
54E
340
54F
340
563
340
573
340
583
  0
GROUP
  5
5D7
102
{ACAD_REACTORS
330
D
102
}
330
D
100
AcDbGroup
300
Blindkappe5_4__1-LCMaster-LCGROUP200
 70
     1
 71
     1
340
225
340
584
340
585
340
586
340
587
340
588
340
589
340
58A
340
58B
340
58C
340
58D
340
58E
340
58F
340
590
340
591
340
592
340
593
340
594
340
595
340
596
340
597
340
598
340
599
340
59A
340
59B
340
59C
340
59D
340
59E
340
59F
340
5A0
340
5A1
340
5A2
340
5A3
340
5A4
340
5A5
340
5A6
340
5A7
340
5A8
340
5A9
340
5AA
340
5AB
340
5AC
340
5AD
340
5AE
340
5AF
340
5B0
340
5B1
340
5B2
340
5B3
340
5B4
340
5B5
340
5B6
340
5B7
  0
GROUP
  5
5D5
102
{ACAD_REACTORS
330
D
102
}
330
D
100
AcDbGroup
300
GRP38
 70
     1
 71
     1
340
BB
340
11D
  0
GROUP
  5
5D9
102
{ACAD_REACTORS
330
D
102
}
330
D
100
AcDbGroup
300
Schweißnaht__2-LCMaster-LCGROUP200
 70
     1
 71
     1
340
5B8
340
5B9
340
5BA
340
5BB
340
5BC
340
5BD
340
5BE
340
5BF
340
5C0
340
5C1
340
5C2
340
5C3
340
5C4
340
5C5
340
5C6
340
5C7
  0
LAYOUT
  5
1E
102
{ACAD_REACTORS
330
1A
102
}
330
1A
100
AcDbPlotSettings
  1

  2

  4

  6

 40
0.0
 41
0.0
 42
0.0
 43
0.0
 44
0.0
 45
0.0
 46
0.0
 47
0.0
 48
0.0
 49
0.0
140
0.0
141
0.0
142
1.0
143
1.0
 70
   688
 72
     0
 73
     0
 74
     5
  7

 75
    16
147
1.0
148
0.0
149
0.0
100
AcDbLayout
  1
Layout1
 70
     1
 71
     1
 10
0.0
 20
0.0
 11
840.0
 21
594.0
 12
0.0
 22
0.0
 32
0.0
 14
0.0
 24
0.0
 34
0.0
 15
840.0
 25
594.0
 35
0.0
146
0.0
 13
0.0
 23
0.0
 33
0.0
 16
1.0
 26
0.0
 36
0.0
 17
0.0
 27
1.0
 37
0.0
 76
     0
330
1B
  0
LAYOUT
  5
26
102
{ACAD_REACTORS
330
1A
102
}
330
1A
100
AcDbPlotSettings
  1

  2

  4

  6

 40
0.0
 41
0.0
 42
0.0
 43
0.0
 44
0.0
 45
0.0
 46
0.0
 47
0.0
 48
0.0
 49
0.0
140
0.0
141
0.0
142
1.0
143
1.0
 70
   688
 72
     0
 73
     0
 74
     5
  7

 75
    16
147
1.0
148
0.0
149
0.0
100
AcDbLayout
  1
Layout2
 70
     1
 71
     2
 10
0.0
 20
0.0
 11
0.0
 21
0.0
 12
0.0
 22
0.0
 32
0.0
 14
0.0
 24
0.0
 34
0.0
 15
0.0
 25
0.0
 35
0.0
146
0.0
 13
0.0
 23
0.0
 33
0.0
 16
1.0
 26
0.0
 36
0.0
 17
0.0
 27
1.0
 37
0.0
 76
     0
330
23
  0
LAYOUT
  5
22
102
{ACAD_REACTORS
330
1A
102
}
330
1A
100
AcDbPlotSettings
  1

  2

  4

  6

 40
0.0
 41
0.0
 42
0.0
 43
0.0
 44
0.0
 45
0.0
 46
0.0
 47
0.0
 48
0.0
 49
0.0
140
0.0
141
0.0
142
1.0
143
1.0
 70
  1776
 72
     0
 73
     0
 74
     0
  7

 75
     0
147
1.0
148
0.0
149
0.0
100
AcDbLayout
  1
Model
 70
     1
 71
     0
 10
0.0
 20
0.0
 11
840.0
 21
594.0
 12
0.0
 22
0.0
 32
0.0
 14
0.0
 24
0.0
 34
0.0
 15
840.0
 25
594.0
 35
0.0
146
0.0
 13
0.0
 23
0.0
 33
0.0
 16
1.0
 26
0.0
 36
0.0
 17
0.0
 27
1.0
 37
0.0
 76
     0
330
1F
  0
MLINESTYLE
  5
18
102
{ACAD_REACTORS
330
17
102
}
330
17
100
AcDbMlineStyle
  2
Standard
 70
     0
  3

 62
   256
 51
90.0
 52
90.0
 71
     2
 49
0.5
 62
   256
  6
BYLAYER
 49
-0.5
 62
   256
  6
BYLAYER
  0
ACDBPLACEHOLDER
  5
F
102
{ACAD_REACTORS
330
E
102
}
330
E
  0
ENDSEC
  0
EOF
