  0
SECTION
  2
HEADER
  9
$ACADVER
  1
AC1015
  9
$ACADMAINTVER
 70
     6
  9
$DWGCODEPAGE
  3
ANSI_1252
  9
$INSBASE
 10
0.0
 20
0.0
 30
0.0
  9
$EXTMIN
 10
-46.539387
 20
-199.56
 30
0.0
  9
$EXTMAX
 10
793.460613
 20
394.44
 30
0.0
  9
$LIMMIN
 10
-46.539387
 20
-199.56
  9
$LIMMAX
 10
793.460613
 20
394.44
  9
$ORTHOMODE
 70
     0
  9
$REGENMODE
 70
     1
  9
$FILLMODE
 70
     1
  9
$QTEXTMODE
 70
     0
  9
$MIRRTEXT
 70
     1
  9
$LTSCALE
 40
2.0
  9
$ATTMODE
 70
     1
  9
$TEXTSIZE
 40
2.5
  9
$TRACEWID
 40
1.0
  9
$TEXTSTYLE
  7
Standard
  9
$CLAYER
  8
0
  9
$CELTYPE
  6
ByLayer
  9
$CECOLOR
 62
     7
  9
$CELTSCALE
 40
1.0
  9
$DISPSILH
 70
     0
  9
$DIMSCALE
 40
2.0
  9
$DIMASZ
 40
3.5
  9
$DIMEXO
 40
0.625
  9
$DIMDLI
 40
3.75
  9
$DIMRND
 40
0.0
  9
$DIMDLE
 40
0.0
  9
$DIMEXE
 40
1.25
  9
$DIMTP
 40
0.0
  9
$DIMTM
 40
0.0
  9
$DIMTXT
 40
3.5
  9
$DIMCEN
 40
2.5
  9
$DIMTSZ
 40
0.0
  9
$DIMTOL
 70
     0
  9
$DIMLIM
 70
     0
  9
$DIMTIH
 70
     0
  9
$DIMTOH
 70
     0
  9
$DIMSE1
 70
     0
  9
$DIMSE2
 70
     0
  9
$DIMTAD
 70
     1
  9
$DIMZIN
 70
     8
  9
$DIMBLK
  1

  9
$DIMASO
 70
     1
  9
$DIMSHO
 70
     1
  9
$DIMPOST
  1

  9
$DIMAPOST
  1

  9
$DIMALT
 70
     0
  9
$DIMALTD
 70
     3
  9
$DIMALTF
 40
0.03937
  9
$DIMLFAC
 40
1.0
  9
$DIMTOFL
 70
     1
  9
$DIMTVP
 40
0.0
  9
$DIMTIX
 70
     0
  9
$DIMSOXD
 70
     0
  9
$DIMSAH
 70
     0
  9
$DIMBLK1
  1

  9
$DIMBLK2
  1

  9
$DIMSTYLE
  2
ISO-25
  9
$DIMCLRD
 70
     0
  9
$DIMCLRE
 70
     0
  9
$DIMCLRT
 70
     0
  9
$DIMTFAC
 40
1.0
  9
$DIMGAP
 40
0.625
  9
$DIMJUST
 70
     0
  9
$DIMSD1
 70
     0
  9
$DIMSD2
 70
     0
  9
$DIMTOLJ
 70
     0
  9
$DIMTZIN
 70
     8
  9
$DIMALTZ
 70
     0
  9
$DIMALTTZ
 70
     0
  9
$DIMUPT
 70
     0
  9
$DIMDEC
 70
     2
  9
$DIMTDEC
 70
     2
  9
$DIMALTU
 70
     2
  9
$DIMALTTD
 70
     3
  9
$DIMTXSTY
  7
Standard
  9
$DIMAUNIT
 70
     0
  9
$DIMADEC
 70
     0
  9
$DIMALTRND
 40
0.0
  9
$DIMAZIN
 70
     0
  9
$DIMDSEP
 70
    44
  9
$DIMATFIT
 70
     3
  9
$DIMFRAC
 70
     0
  9
$DIMLDRBLK
  1

  9
$DIMLUNIT
 70
     2
  9
$DIMLWD
 70
    -2
  9
$DIMLWE
 70
    -2
  9
$DIMTMOVE
 70
     0
  9
$LUNITS
 70
     2
  9
$LUPREC
 70
     4
  9
$SKETCHINC
 40
1.0
  9
$FILLETRAD
 40
10.0
  9
$AUNITS
 70
     0
  9
$AUPREC
 70
     0
  9
$MENU
  1
.
  9
$ELEVATION
 40
0.0
  9
$PELEVATION
 40
0.0
  9
$THICKNESS
 40
0.0
  9
$LIMCHECK
 70
     0
  9
$CHAMFERA
 40
10.0
  9
$CHAMFERB
 40
10.0
  9
$CHAMFERC
 40
20.0
  9
$CHAMFERD
 40
0.0
  9
$SKPOLY
 70
     0
  9
$TDCREATE
 40
2456906.285573334
  9
$TDUCREATE
 40
2456906.20224
  9
$TDUPDATE
 40
2456906.285573345
  9
$TDUUPDATE
 40
2456906.202240012
  9
$TDINDWG
 40
0.0000000116
  9
$TDUSRTIMER
 40
0.0000000116
  9
$USRTIMER
 70
     1
  9
$ANGBASE
 50
0.0
  9
$ANGDIR
 70
     0
  9
$PDMODE
 70
     0
  9
$PDSIZE
 40
0.0
  9
$PLINEWID
 40
0.0
  9
$SPLFRAME
 70
     0
  9
$SPLINETYPE
 70
     6
  9
$SPLINESEGS
 70
     8
  9
$HANDSEED
  5
2E9
  9
$SURFTAB1
 70
     6
  9
$SURFTAB2
 70
     6
  9
$SURFTYPE
 70
     6
  9
$SURFU
 70
     6
  9
$SURFV
 70
     6
  9
$UCSBASE
  2

  9
$UCSNAME
  2

  9
$UCSORG
 10
0.0
 20
0.0
 30
0.0
  9
$UCSXDIR
 10
1.0
 20
0.0
 30
0.0
  9
$UCSYDIR
 10
0.0
 20
1.0
 30
0.0
  9
$UCSORTHOREF
  2

  9
$UCSORTHOVIEW
 70
     0
  9
$UCSORGTOP
 10
0.0
 20
0.0
 30
0.0
  9
$UCSORGBOTTOM
 10
0.0
 20
0.0
 30
0.0
  9
$UCSORGLEFT
 10
0.0
 20
0.0
 30
0.0
  9
$UCSORGRIGHT
 10
0.0
 20
0.0
 30
0.0
  9
$UCSORGFRONT
 10
0.0
 20
0.0
 30
0.0
  9
$UCSORGBACK
 10
0.0
 20
0.0
 30
0.0
  9
$PUCSBASE
  2

  9
$PUCSNAME
  2

  9
$PUCSORG
 10
0.0
 20
0.0
 30
0.0
  9
$PUCSXDIR
 10
1.0
 20
0.0
 30
0.0
  9
$PUCSYDIR
 10
0.0
 20
1.0
 30
0.0
  9
$PUCSORTHOREF
  2

  9
$PUCSORTHOVIEW
 70
     0
  9
$PUCSORGTOP
 10
0.0
 20
0.0
 30
0.0
  9
$PUCSORGBOTTOM
 10
0.0
 20
0.0
 30
0.0
  9
$PUCSORGLEFT
 10
0.0
 20
0.0
 30
0.0
  9
$PUCSORGRIGHT
 10
0.0
 20
0.0
 30
0.0
  9
$PUCSORGFRONT
 10
0.0
 20
0.0
 30
0.0
  9
$PUCSORGBACK
 10
0.0
 20
0.0
 30
0.0
  9
$USERI1
 70
     0
  9
$USERI2
 70
     0
  9
$USERI3
 70
     0
  9
$USERI4
 70
     0
  9
$USERI5
 70
     0
  9
$USERR1
 40
0.0
  9
$USERR2
 40
0.0
  9
$USERR3
 40
0.0
  9
$USERR4
 40
0.0
  9
$USERR5
 40
0.0
  9
$WORLDVIEW
 70
     1
  9
$SHADEDGE
 70
     3
  9
$SHADEDIF
 70
    70
  9
$TILEMODE
 70
     1
  9
$MAXACTVP
 70
    64
  9
$PINSBASE
 10
0.0
 20
0.0
 30
0.0
  9
$PLIMCHECK
 70
     0
  9
$PEXTMIN
 10
-46.539387
 20
-199.56
 30
0.0
  9
$PEXTMAX
 10
793.460613
 20
394.44
 30
0.0
  9
$PLIMMIN
 10
-46.539387
 20
-199.56
  9
$PLIMMAX
 10
793.460613
 20
394.44
  9
$UNITMODE
 70
     0
  9
$VISRETAIN
 70
     1
  9
$PLINEGEN
 70
     0
  9
$PSLTSCALE
 70
     1
  9
$TREEDEPTH
 70
  3020
  9
$CMLSTYLE
  2
Standard
  9
$CMLJUST
 70
     0
  9
$CMLSCALE
 40
20.0
  9
$PROXYGRAPHICS
 70
     1
  9
$MEASUREMENT
 70
     1
  9
$CELWEIGHT
370
    -1
  9
$ENDCAPS
280
     0
  9
$JOINSTYLE
280
     0
  9
$LWDISPLAY
290
     0
  9
$INSUNITS
 70
     4
  9
$HYPERLINKBASE
  1

  9
$STYLESHEET
  1

  9
$XEDIT
290
     1
  9
$CEPSNTYPE
380
     0
  9
$PSTYLEMODE
290
     1
  9
$FINGERPRINTGUID
  2
{FAEB1C30-E019-11D5-929B-00C0DF256EC4}
  9
$VERSIONGUID
  2
{FAEB1C32-E019-11D5-929B-00C0DF256EC4}
  9
$EXTNAMES
290
     1
  9
$PSVPSCALE
 40
0.0
  9
$OLESTARTUP
290
     0
  0
ENDSEC
  0
SECTION
  2
CLASSES
  0
CLASS
  1
ACDBDICTIONARYWDFLT
  2
AcDbDictionaryWithDefault
  3
ObjectDBX Classes
 90
        0
280
     0
281
     0
  0
CLASS
  1
ACDBPLACEHOLDER
  2
AcDbPlaceHolder
  3
ObjectDBX Classes
 90
        0
280
     0
281
     0
  0
CLASS
  1
LAYOUT
  2
AcDbLayout
  3
ObjectDBX Classes
 90
        0
280
     0
281
     0
  0
ENDSEC
  0
SECTION
  2
TABLES
  0
TABLE
  2
VPORT
  5
8
330
0
100
AcDbSymbolTable
 70
     2
  0
VPORT
  5
29
330
8
100
AcDbSymbolTableRecord
100
AcDbViewportTableRecord
  2
*ACTIVE
 70
     0
 10
0.0
 20
0.0
 11
1.0
 21
1.0
 12
373.460613
 22
97.44
 13
0.0
 23
0.0
 14
1.0
 24
1.0
 15
0.0
 25
0.0
 16
0.0
 26
0.0
 36
1.0
 17
0.0
 27
0.0
 37
0.0
 40
594.0
 41
1.414141
 42
50.0
 43
0.0
 44
0.0
 50
0.0
 51
0.0
 71
    16
 72
   100
 73
     1
 74
     0
 75
     0
 76
     0
 77
     0
 78
     0
281
     0
 65
     0
110
0.0
120
0.0
130
0.0
111
1.0
121
0.0
131
0.0
112
0.0
122
1.0
132
0.0
 79
     0
146
0.0
  0
ENDTAB
  0
TABLE
  2
LTYPE
  5
5
330
0
100
AcDbSymbolTable
 70
     4
  0
LTYPE
  5
14
330
5
100
AcDbSymbolTableRecord
100
AcDbLinetypeTableRecord
  2
ByBlock
 70
     0
  3

 72
    65
 73
     0
 40
0.0
  0
LTYPE
  5
15
330
5
100
AcDbSymbolTableRecord
100
AcDbLinetypeTableRecord
  2
ByLayer
 70
     0
  3

 72
    65
 73
     0
 40
0.0
  0
LTYPE
  5
16
330
5
100
AcDbSymbolTableRecord
100
AcDbLinetypeTableRecord
  2
Continuous
 70
     0
  3
Solid line
 72
    65
 73
     0
 40
0.0
  0
LTYPE
  5
2A
330
5
100
AcDbSymbolTableRecord
100
AcDbLinetypeTableRecord
  2
DASHED
 70
     0
  3
__ __ __ __ __
 72
    65
 73
     2
 40
6.25
 49
5.0
 74
     4
 75
     0
340
0
 46
1.0
 50
0.0
 44
0.0
 45
0.0
 49
-1.25
 74
     4
 75
     0
340
0
 46
1.0
 50
0.0
 44
0.0
 45
0.0
  0
LTYPE
  5
30
330
5
100
AcDbSymbolTableRecord
100
AcDbLinetypeTableRecord
  2
DASHDOT
 70
     0
  3
__ . __ . __ . __ . __
 72
    65
 73
     4
 40
7.5
 49
5.0
 74
     4
 75
     0
340
0
 46
1.0
 50
0.0
 44
0.0
 45
0.0
 49
-1.25
 74
     4
 75
     0
340
0
 46
1.0
 50
0.0
 44
0.0
 45
0.0
 49
0.0
 74
     4
 75
     0
340
0
 46
1.0
 50
0.0
 44
0.0
 45
0.0
 49
-1.25
 74
     4
 75
     0
340
0
 46
1.0
 50
0.0
 44
0.0
 45
0.0
  0
LTYPE
  5
1B6
330
5
100
AcDbSymbolTableRecord
100
AcDbLinetypeTableRecord
  2
DIVIDE
 70
     0
  3
__ . . __ . . __ . . __
 72
    65
 73
     6
 40
8.75
 49
5.0
 74
     4
 75
     0
340
0
 46
1.0
 50
0.0
 44
0.0
 45
0.0
 49
-1.25
 74
     4
 75
     0
340
0
 46
1.0
 50
0.0
 44
0.0
 45
0.0
 49
0.0
 74
     4
 75
     0
340
0
 46
1.0
 50
0.0
 44
0.0
 45
0.0
 49
-1.25
 74
     4
 75
     0
340
0
 46
1.0
 50
0.0
 44
0.0
 45
0.0
 49
0.0
 74
     4
 75
     0
340
0
 46
1.0
 50
0.0
 44
0.0
 45
0.0
 49
-1.25
 74
     4
 75
     0
340
0
 46
1.0
 50
0.0
 44
0.0
 45
0.0
  0
ENDTAB
  0
TABLE
  2
LAYER
  5
2
330
0
100
AcDbSymbolTable
 70
    12
  0
LAYER
  5
10
330
2
100
AcDbSymbolTableRecord
100
AcDbLayerTableRecord
  2
0
 70
     0
 62
     7
  6
Continuous
370
    -3
390
F
  0
LAYER
  5
2B
330
2
100
AcDbSymbolTableRecord
100
AcDbLayerTableRecord
  2
LC-INFO-1-2-mm-A3-0
 70
     1
 62
     7
  6
ByBlock
370
    -3
390
F
  0
LAYER
  5
2C
330
2
100
AcDbSymbolTableRecord
100
AcDbLayerTableRecord
  2
LC-CUT-HIDDEN
 70
     0
 62
     7
  6
DASHED
370
    -3
390
F
  0
LAYER
  5
2D
330
2
100
AcDbSymbolTableRecord
100
AcDbLayerTableRecord
  2
LC-VIEWPORT
 70
     0
 62
     7
  6
ByBlock
370
    -3
390
F
  0
LAYER
  5
2E
330
2
100
AcDbSymbolTableRecord
100
AcDbLayerTableRecord
  2
LC-3D-HIDDEN
 70
     0
 62
     9
  6
DASHED
370
    -3
390
F
  0
LAYER
  5
31
330
2
100
AcDbSymbolTableRecord
100
AcDbLayerTableRecord
  2
LC-001-002-----0
 70
     0
 62
     2
  6
DASHDOT
370
    -3
390
F
  0
LAYER
  5
46
330
2
100
AcDbSymbolTableRecord
100
AcDbLayerTableRecord
  2
LC-002-001-----0
 70
     0
 62
     1
  6
ByBlock
370
    -3
390
F
  0
LAYER
  5
AA
330
2
100
AcDbSymbolTableRecord
100
AcDbLayerTableRecord
  2
LC-003-005-----0
 70
     0
 62
     2
  6
ByBlock
370
    -3
390
F
  0
LAYER
  5
169
330
2
100
AcDbSymbolTableRecord
100
AcDbLayerTableRecord
  2
LC-004-003-----0
 70
     0
 62
     2
  6
ByBlock
370
    -3
390
F
  0
LAYER
  5
16B
330
2
100
AcDbSymbolTableRecord
100
AcDbLayerTableRecord
  2
Defpoints
 70
     0
 62
     7
  6
Continuous
290
     0
370
    -3
390
F
  0
LAYER
  5
1B1
330
2
100
AcDbSymbolTableRecord
100
AcDbLayerTableRecord
  2
LC-005-101-D00-0
 70
     0
 62
     2
  6
DASHDOT
370
    -3
390
F
  0
LAYER
  5
1B8
330
2
100
AcDbSymbolTableRecord
100
AcDbLayerTableRecord
  2
LC-006-100-D00-0
 70
     0
 62
    44
  6
ByBlock
370
    -3
390
F
  0
ENDTAB
  0
TABLE
  2
STYLE
  5
3
330
0
100
AcDbSymbolTable
 70
     3
  0
STYLE
  5
11
330
3
100
AcDbSymbolTableRecord
100
AcDbTextStyleTableRecord
  2
Standard
 70
     0
 40
0.0
 41
1.0
 50
0.0
 71
     0
 42
2.5
  3
txt
  4

  0
STYLE
  5
2F
330
3
100
AcDbSymbolTableRecord
100
AcDbTextStyleTableRecord
  2
LCTX15-400-0-0-Arial
 70
     0
 40
0.0
 41
0.9
 50
0.0
 71
     0
 42
3.5
  3

  4

1001
ACAD
1000
Arial
1071
 16777218
  0
STYLE
  5
167
330
3
100
AcDbSymbolTableRecord
100
AcDbTextStyleTableRecord
  2
LCTX15-400-0-0pDIN-Schrift
 70
     0
 40
2.5
 41
0.8
 50
15.0
 71
     0
 42
3.5
  3
STANDARD
  4

  0
ENDTAB
  0
TABLE
  2
VIEW
  5
6
330
0
100
AcDbSymbolTable
 70
     0
  0
ENDTAB
  0
TABLE
  2
UCS
  5
7
330
0
100
AcDbSymbolTable
 70
     0
  0
ENDTAB
  0
TABLE
  2
APPID
  5
9
330
0
100
AcDbSymbolTable
 70
     1
  0
APPID
  5
12
330
9
100
AcDbSymbolTableRecord
100
AcDbRegAppTableRecord
  2
ACAD
 70
     0
  0
ENDTAB
  0
TABLE
  2
DIMSTYLE
  5
A
330
0
100
AcDbSymbolTable
 70
     2
100
AcDbDimStyleTable
  0
DIMSTYLE
105
27
330
A
100
AcDbSymbolTableRecord
100
AcDbDimStyleTableRecord
  2
ISO-25
 70
     0
 41
2.5
 42
0.625
 43
3.75
 44
1.25
 73
     0
 74
     0
 77
     1
 78
     8
140
2.5
141
2.5
143
0.03937
147
0.625
171
     3
172
     1
271
     2
272
     2
274
     3
278
    44
283
     0
284
     8
340
11
  0
DIMSTYLE
105
168
102
{ACAD_REACTORS
330
16A
330
178
330
187
330
195
330
1A4
330
2D6
102
}
330
A
100
AcDbSymbolTableRecord
100
AcDbDimStyleTableRecord
  2
LC-DIM-L-0140-02-02
 70
     0
 40
2.0
 41
14.0
 42
0.0
 43
7.5
 44
1.8
 73
     0
 74
     0
 77
     1
 78
     8
 79
     2
140
14.0
141
0.0
146
0.71
147
1.5
176
     2
177
     2
178
     2
179
     2
271
     2
278
    44
289
     1
340
167
  0
ENDTAB
  0
TABLE
  2
BLOCK_RECORD
  5
1
330
0
100
AcDbSymbolTable
 70
    23
  0
BLOCK_RECORD
  5
1F
330
1
100
AcDbSymbolTableRecord
100
AcDbBlockTableRecord
  2
*Model_Space
340
22
  0
BLOCK_RECORD
  5
1B
330
1
100
AcDbSymbolTableRecord
100
AcDbBlockTableRecord
  2
*Paper_Space
340
1E
  0
BLOCK_RECORD
  5
23
330
1
100
AcDbSymbolTableRecord
100
AcDbBlockTableRecord
  2
*Paper_Space0
340
26
  0
BLOCK_RECORD
  5
A7
330
1
100
AcDbSymbolTableRecord
100
AcDbBlockTableRecord
  2
*X11
340
0
102
{BLKREFS
331
DE
102
}
  0
BLOCK_RECORD
  5
DF
330
1
100
AcDbSymbolTableRecord
100
AcDbBlockTableRecord
  2
*X22
340
0
102
{BLKREFS
331
112
102
}
  0
BLOCK_RECORD
  5
113
330
1
100
AcDbSymbolTableRecord
100
AcDbBlockTableRecord
  2
*X33
340
0
102
{BLKREFS
331
11D
102
}
  0
BLOCK_RECORD
  5
11E
330
1
100
AcDbSymbolTableRecord
100
AcDbBlockTableRecord
  2
*X44
340
0
102
{BLKREFS
331
127
102
}
  0
BLOCK_RECORD
  5
128
330
1
100
AcDbSymbolTableRecord
100
AcDbBlockTableRecord
  2
*X55
340
0
102
{BLKREFS
331
131
102
}
  0
BLOCK_RECORD
  5
132
330
1
100
AcDbSymbolTableRecord
100
AcDbBlockTableRecord
  2
*X66
340
0
102
{BLKREFS
331
13B
102
}
  0
BLOCK_RECORD
  5
13C
330
1
100
AcDbSymbolTableRecord
100
AcDbBlockTableRecord
  2
*X77
340
0
102
{BLKREFS
331
146
102
}
  0
BLOCK_RECORD
  5
147
330
1
100
AcDbSymbolTableRecord
100
AcDbBlockTableRecord
  2
*X88
340
0
102
{BLKREFS
331
154
102
}
  0
BLOCK_RECORD
  5
155
330
1
100
AcDbSymbolTableRecord
100
AcDbBlockTableRecord
  2
*X99
340
0
102
{BLKREFS
331
15C
102
}
  0
BLOCK_RECORD
  5
15D
330
1
100
AcDbSymbolTableRecord
100
AcDbBlockTableRecord
  2
*X1010
340
0
102
{BLKREFS
331
166
102
}
  0
BLOCK_RECORD
  5
16C
330
1
100
AcDbSymbolTableRecord
100
AcDbBlockTableRecord
  2
*D11
340
0
  0
BLOCK_RECORD
  5
179
330
1
100
AcDbSymbolTableRecord
100
AcDbBlockTableRecord
  2
*D12
340
0
  0
BLOCK_RECORD
  5
188
330
1
100
AcDbSymbolTableRecord
100
AcDbBlockTableRecord
  2
*D13
340
0
  0
BLOCK_RECORD
  5
196
330
1
100
AcDbSymbolTableRecord
100
AcDbBlockTableRecord
  2
*D14
340
0
  0
BLOCK_RECORD
  5
1A5
330
1
100
AcDbSymbolTableRecord
100
AcDbBlockTableRecord
  2
*D15
340
0
  0
BLOCK_RECORD
  5
1B3
330
1
100
AcDbSymbolTableRecord
100
AcDbBlockTableRecord
  2
KLON1
340
0
102
{BLKREFS
331
1DC
102
}
  0
BLOCK_RECORD
  5
1C5
330
1
100
AcDbSymbolTableRecord
100
AcDbBlockTableRecord
  2
KLON2
340
0
102
{BLKREFS
331
1CF
102
}
  0
BLOCK_RECORD
  5
1D0
330
1
100
AcDbSymbolTableRecord
100
AcDbBlockTableRecord
  2
KLON3
340
0
102
{BLKREFS
331
1DB
102
}
  0
BLOCK_RECORD
  5
22C
330
1
100
AcDbSymbolTableRecord
100
AcDbBlockTableRecord
  2
KLON4
340
0
102
{BLKREFS
331
234
102
}
  0
BLOCK_RECORD
  5
235
330
1
100
AcDbSymbolTableRecord
100
AcDbBlockTableRecord
  2
KLON5
340
0
102
{BLKREFS
331
23E
102
}
  0
BLOCK_RECORD
  5
2C6
330
1
100
AcDbSymbolTableRecord
100
AcDbBlockTableRecord
  2
KLON6
340
0
102
{BLKREFS
331
2D5
102
}
  0
BLOCK_RECORD
  5
2D7
330
1
100
AcDbSymbolTableRecord
100
AcDbBlockTableRecord
  2
*D22
340
0
  0
ENDTAB
  0
ENDSEC
  0
SECTION
  2
BLOCKS
  0
BLOCK
  5
20
330
1F
100
AcDbEntity
  8
0
100
AcDbBlockBegin
  2
*Model_Space
 70
     0
 71
     0
 10
0.0
 20
0.0
 30
0.0
  3
*Model_Space
  1

  0
ENDBLK
  5
21
330
1F
100
AcDbEntity
  8
0
100
AcDbBlockEnd
  0
BLOCK
  5
1C
330
1B
100
AcDbEntity
 67
     1
  8
0
100
AcDbBlockBegin
  2
*Paper_Space
 70
     0
 71
     0
 10
0.0
 20
0.0
 30
0.0
  3
*Paper_Space
  1

  0
ENDBLK
  5
1D
330
1B
100
AcDbEntity
 67
     1
  8
0
100
AcDbBlockEnd
  0
BLOCK
  5
24
330
23
100
AcDbEntity
  8
0
100
AcDbBlockBegin
  2
*Paper_Space0
 70
     0
 71
     0
 10
0.0
 20
0.0
 30
0.0
  3
*Paper_Space0
  1

  0
ENDBLK
  5
25
330
23
100
AcDbEntity
  8
0
100
AcDbBlockEnd
  0
BLOCK
  5
A8
330
A7
100
AcDbEntity
  8
0
100
AcDbBlockBegin
  2
*X11
 70
     1
 71
     0
 10
0.0
 20
0.0
 30
0.0
  3
*X11
  1

  4
*X1
  0
LINE
  5
AB
330
A7
100
AcDbEntity
  8
LC-003-005-----0
 62
     7
370
    25
100
AcDbLine
 10
460.85104
 20
223.262708
 30
0.0
 11
463.637127
 21
226.048791
 31
0.0
  0
LINE
  5
AC
330
A7
100
AcDbEntity
  8
LC-003-005-----0
 62
     7
370
    25
100
AcDbLine
 10
456.608396
 20
223.262708
 30
0.0
 11
460.108401
 21
226.762708
 31
0.0
  0
LINE
  5
AD
330
A7
100
AcDbEntity
  8
LC-003-005-----0
 62
     7
370
    25
100
AcDbLine
 10
452.365753
 20
223.262708
 30
0.0
 11
455.865757
 21
226.762708
 31
0.0
  0
LINE
  5
AE
330
A7
100
AcDbEntity
  8
LC-003-005-----0
 62
     7
370
    25
100
AcDbLine
 10
448.123109
 20
223.262708
 30
0.0
 11
451.623114
 21
226.762708
 31
0.0
  0
LINE
  5
AF
330
A7
100
AcDbEntity
  8
LC-003-005-----0
 62
     7
370
    25
100
AcDbLine
 10
443.880466
 20
223.262708
 30
0.0
 11
447.38047
 21
226.762708
 31
0.0
  0
LINE
  5
B0
330
A7
100
AcDbEntity
  8
LC-003-005-----0
 62
     7
370
    25
100
AcDbLine
 10
439.637822
 20
223.262708
 30
0.0
 11
443.137827
 21
226.762708
 31
0.0
  0
LINE
  5
B1
330
A7
100
AcDbEntity
  8
LC-003-005-----0
 62
     7
370
    25
100
AcDbLine
 10
435.395179
 20
223.262708
 30
0.0
 11
438.895183
 21
226.762708
 31
0.0
  0
LINE
  5
B2
330
A7
100
AcDbEntity
  8
LC-003-005-----0
 62
     7
370
    25
100
AcDbLine
 10
431.152535
 20
223.262708
 30
0.0
 11
434.65254
 21
226.762708
 31
0.0
  0
LINE
  5
B3
330
A7
100
AcDbEntity
  8
LC-003-005-----0
 62
     7
370
    25
100
AcDbLine
 10
426.909892
 20
223.262708
 30
0.0
 11
430.409896
 21
226.762708
 31
0.0
  0
LINE
  5
B4
330
A7
100
AcDbEntity
  8
LC-003-005-----0
 62
     7
370
    25
100
AcDbLine
 10
422.667248
 20
223.262708
 30
0.0
 11
426.167253
 21
226.762708
 31
0.0
  0
LINE
  5
B5
330
A7
100
AcDbEntity
  8
LC-003-005-----0
 62
     7
370
    25
100
AcDbLine
 10
418.598943
 20
223.437046
 30
0.0
 11
421.924609
 21
226.762708
 31
0.0
  0
LINE
  5
B6
330
A7
100
AcDbEntity
  8
LC-003-005-----0
 62
     7
370
    25
100
AcDbLine
 10
416.523052
 20
225.603795
 30
0.0
 11
419.451257
 21
228.531996
 31
0.0
  0
LINE
  5
B7
330
A7
100
AcDbEntity
  8
LC-003-005-----0
 62
     7
370
    25
100
AcDbLine
 10
414.970138
 20
228.293521
 30
0.0
 11
417.898343
 21
231.221722
 31
0.0
  0
LINE
  5
B8
330
A7
100
AcDbEntity
  8
LC-003-005-----0
 62
     7
370
    25
100
AcDbLine
 10
413.417224
 20
230.983247
 30
0.0
 11
416.345429
 21
233.911448
 31
0.0
  0
LINE
  5
B9
330
A7
100
AcDbEntity
  8
LC-003-005-----0
 62
     7
370
    25
100
AcDbLine
 10
411.86431
 20
233.672973
 30
0.0
 11
414.792515
 21
236.601174
 31
0.0
  0
LINE
  5
BA
330
A7
100
AcDbEntity
  8
LC-003-005-----0
 62
     7
370
    25
100
AcDbLine
 10
410.311396
 20
236.362699
 30
0.0
 11
413.239601
 21
239.2909
 31
0.0
  0
LINE
  5
BB
330
A7
100
AcDbEntity
  8
LC-003-005-----0
 62
     7
370
    25
100
AcDbLine
 10
408.758482
 20
239.052425
 30
0.0
 11
411.686687
 21
241.980626
 31
0.0
  0
LINE
  5
BC
330
A7
100
AcDbEntity
  8
LC-003-005-----0
 62
     7
370
    25
100
AcDbLine
 10
407.205568
 20
241.742151
 30
0.0
 11
410.133773
 21
244.670352
 31
0.0
  0
LINE
  5
BD
330
A7
100
AcDbEntity
  8
LC-003-005-----0
 62
     7
370
    25
100
AcDbLine
 10
405.652654
 20
244.431877
 30
0.0
 11
408.580859
 21
247.360078
 31
0.0
  0
LINE
  5
BE
330
A7
100
AcDbEntity
  8
LC-003-005-----0
 62
     7
370
    25
100
AcDbLine
 10
404.09974
 20
247.121603
 30
0.0
 11
407.027945
 21
250.049804
 31
0.0
  0
LINE
  5
BF
330
A7
100
AcDbEntity
  8
LC-003-005-----0
 62
     7
370
    25
100
AcDbLine
 10
400.998203
 20
248.262708
 30
0.0
 11
404.492466
 21
251.756966
 31
0.0
  0
LINE
  5
C0
330
A7
100
AcDbEntity
  8
LC-003-005-----0
 62
     7
370
    25
100
AcDbLine
 10
396.755559
 20
248.262708
 30
0.0
 11
400.255564
 21
251.762708
 31
0.0
  0
LINE
  5
C1
330
A7
100
AcDbEntity
  8
LC-003-005-----0
 62
     7
370
    25
100
AcDbLine
 10
392.512916
 20
248.262708
 30
0.0
 11
396.012921
 21
251.762708
 31
0.0
  0
LINE
  5
C2
330
A7
100
AcDbEntity
  8
LC-003-005-----0
 62
     7
370
    25
100
AcDbLine
 10
388.270272
 20
248.262708
 30
0.0
 11
391.770277
 21
251.762708
 31
0.0
  0
LINE
  5
C3
330
A7
100
AcDbEntity
  8
LC-003-005-----0
 62
     7
370
    25
100
AcDbLine
 10
384.027629
 20
248.262708
 30
0.0
 11
387.527634
 21
251.762708
 31
0.0
  0
LINE
  5
C4
330
A7
100
AcDbEntity
  8
LC-003-005-----0
 62
     7
370
    25
100
AcDbLine
 10
379.784985
 20
248.262708
 30
0.0
 11
383.28499
 21
251.762708
 31
0.0
  0
LINE
  5
C5
330
A7
100
AcDbEntity
  8
LC-003-005-----0
 62
     7
370
    25
100
AcDbLine
 10
375.542342
 20
248.262708
 30
0.0
 11
379.042347
 21
251.762708
 31
0.0
  0
LINE
  5
C6
330
A7
100
AcDbEntity
  8
LC-003-005-----0
 62
     7
370
    25
100
AcDbLine
 10
371.299698
 20
248.262708
 30
0.0
 11
374.799703
 21
251.762708
 31
0.0
  0
LINE
  5
C7
330
A7
100
AcDbEntity
  8
LC-003-005-----0
 62
     7
370
    25
100
AcDbLine
 10
367.057055
 20
248.262708
 30
0.0
 11
370.55706
 21
251.762708
 31
0.0
  0
LINE
  5
C8
330
A7
100
AcDbEntity
  8
LC-003-005-----0
 62
     7
370
    25
100
AcDbLine
 10
362.814411
 20
248.262708
 30
0.0
 11
366.314416
 21
251.762708
 31
0.0
  0
LINE
  5
C9
330
A7
100
AcDbEntity
  8
LC-003-005-----0
 62
     7
370
    25
100
AcDbLine
 10
358.571768
 20
248.262708
 30
0.0
 11
362.071773
 21
251.762708
 31
0.0
  0
LINE
  5
CA
330
A7
100
AcDbEntity
  8
LC-003-005-----0
 62
     7
370
    25
100
AcDbLine
 10
354.329124
 20
248.262708
 30
0.0
 11
357.829129
 21
251.762708
 31
0.0
  0
LINE
  5
CB
330
A7
100
AcDbEntity
  8
LC-003-005-----0
 62
     7
370
    25
100
AcDbLine
 10
344.563872
 20
242.740106
 30
0.0
 11
346.998121
 21
245.174352
 31
0.0
  0
LINE
  5
CC
330
A7
100
AcDbEntity
  8
LC-003-005-----0
 62
     7
370
    25
100
AcDbLine
 10
350.086481
 20
248.262708
 30
0.0
 11
353.586486
 21
251.762708
 31
0.0
  0
LINE
  5
CD
330
A7
100
AcDbEntity
  8
LC-003-005-----0
 62
     7
370
    25
100
AcDbLine
 10
343.843835
 20
246.262708
 30
0.0
 11
349.343842
 21
251.762708
 31
0.0
  0
LINE
  5
CE
330
A7
100
AcDbEntity
  8
LC-003-005-----0
 62
     7
370
    25
100
AcDbLine
 10
339.601191
 20
246.262708
 30
0.0
 11
345.101199
 21
251.762708
 31
0.0
  0
LINE
  5
CF
330
A7
100
AcDbEntity
  8
LC-003-005-----0
 62
     7
370
    25
100
AcDbLine
 10
335.358548
 20
246.262708
 30
0.0
 11
337.858551
 21
248.762708
 31
0.0
  0
LINE
  5
D0
330
A7
100
AcDbEntity
  8
LC-003-005-----0
 62
     7
370
    25
100
AcDbLine
 10
331.115904
 20
246.262708
 30
0.0
 11
333.615908
 21
248.762708
 31
0.0
  0
LINE
  5
D1
330
A7
100
AcDbEntity
  8
LC-003-005-----0
 62
     7
370
    25
100
AcDbLine
 10
326.873261
 20
246.262708
 30
0.0
 11
329.373264
 21
248.762708
 31
0.0
  0
LINE
  5
D2
330
A7
100
AcDbEntity
  8
LC-003-005-----0
 62
     7
370
    25
100
AcDbLine
 10
322.630617
 20
246.262708
 30
0.0
 11
325.130621
 21
248.762708
 31
0.0
  0
LINE
  5
D3
330
A7
100
AcDbEntity
  8
LC-003-005-----0
 62
     7
370
    25
100
AcDbLine
 10
318.387974
 20
246.262708
 30
0.0
 11
320.887977
 21
248.762708
 31
0.0
  0
LINE
  5
D4
330
A7
100
AcDbEntity
  8
LC-003-005-----0
 62
     7
370
    25
100
AcDbLine
 10
314.14533
 20
246.262708
 30
0.0
 11
316.645334
 21
248.762708
 31
0.0
  0
LINE
  5
D5
330
A7
100
AcDbEntity
  8
LC-003-005-----0
 62
     7
370
    25
100
AcDbLine
 10
309.902687
 20
246.262708
 30
0.0
 11
312.40269
 21
248.762708
 31
0.0
  0
LINE
  5
D6
330
A7
100
AcDbEntity
  8
LC-003-005-----0
 62
     7
370
    25
100
AcDbLine
 10
305.660043
 20
246.262708
 30
0.0
 11
308.160047
 21
248.762708
 31
0.0
  0
LINE
  5
D7
330
A7
100
AcDbEntity
  8
LC-003-005-----0
 62
     7
370
    25
100
AcDbLine
 10
301.4174
 20
246.262708
 30
0.0
 11
303.917403
 21
248.762708
 31
0.0
  0
LINE
  5
D8
330
A7
100
AcDbEntity
  8
LC-003-005-----0
 62
     7
370
    25
100
AcDbLine
 10
297.174756
 20
246.262708
 30
0.0
 11
299.67476
 21
248.762708
 31
0.0
  0
LINE
  5
D9
330
A7
100
AcDbEntity
  8
LC-003-005-----0
 62
     7
370
    25
100
AcDbLine
 10
292.932113
 20
246.262708
 30
0.0
 11
295.432116
 21
248.762708
 31
0.0
  0
LINE
  5
DA
330
A7
100
AcDbEntity
  8
LC-003-005-----0
 62
     7
370
    25
100
AcDbLine
 10
288.689469
 20
246.262708
 30
0.0
 11
291.189473
 21
248.762708
 31
0.0
  0
LINE
  5
DB
330
A7
100
AcDbEntity
  8
LC-003-005-----0
 62
     7
370
    25
100
AcDbLine
 10
285.880417
 20
247.696297
 30
0.0
 11
287.94683
 21
249.762708
 31
0.0
  0
LINE
  5
DC
330
A7
100
AcDbEntity
  8
LC-003-005-----0
 62
     7
370
    25
100
AcDbLine
 10
283.641148
 20
249.699669
 30
0.0
 11
286.093365
 21
252.151883
 31
0.0
  0
LINE
  5
DD
330
A7
100
AcDbEntity
  8
LC-003-005-----0
 62
     7
370
    25
100
AcDbLine
 10
279.461543
 20
249.762708
 30
0.0
 11
281.961547
 21
252.262708
 31
0.0
  0
ENDBLK
  5
A9
330
A7
100
AcDbEntity
  8
0
100
AcDbBlockEnd
  0
BLOCK
  5
E0
330
DF
100
AcDbEntity
  8
0
100
AcDbBlockBegin
  2
*X22
 70
     1
 71
     0
 10
0.0
 20
0.0
 30
0.0
  3
*X22
  1

  4
*X2
  0
LINE
  5
E2
330
DF
100
AcDbEntity
  8
LC-003-005-----0
 62
     7
370
    25
100
AcDbLine
 10
463.769426
 20
179.512073
 30
0.0
 11
464.472756
 21
180.215403
 31
0.0
  0
LINE
  5
E3
330
DF
100
AcDbEntity
  8
LC-003-005-----0
 62
     7
370
    25
100
AcDbLine
 10
458.777416
 20
178.762708
 30
0.0
 11
462.27742
 21
182.262708
 31
0.0
  0
LINE
  5
E4
330
DF
100
AcDbEntity
  8
LC-003-005-----0
 62
     7
370
    25
100
AcDbLine
 10
454.534772
 20
178.762708
 30
0.0
 11
458.034777
 21
182.262708
 31
0.0
  0
LINE
  5
E5
330
DF
100
AcDbEntity
  8
LC-003-005-----0
 62
     7
370
    25
100
AcDbLine
 10
450.292129
 20
178.762708
 30
0.0
 11
453.792133
 21
182.262708
 31
0.0
  0
LINE
  5
E6
330
DF
100
AcDbEntity
  8
LC-003-005-----0
 62
     7
370
    25
100
AcDbLine
 10
446.049485
 20
178.762708
 30
0.0
 11
449.54949
 21
182.262708
 31
0.0
  0
LINE
  5
E7
330
DF
100
AcDbEntity
  8
LC-003-005-----0
 62
     7
370
    25
100
AcDbLine
 10
441.806842
 20
178.762708
 30
0.0
 11
445.306846
 21
182.262708
 31
0.0
  0
LINE
  5
E8
330
DF
100
AcDbEntity
  8
LC-003-005-----0
 62
     7
370
    25
100
AcDbLine
 10
437.564198
 20
178.762708
 30
0.0
 11
441.064203
 21
182.262708
 31
0.0
  0
LINE
  5
E9
330
DF
100
AcDbEntity
  8
LC-003-005-----0
 62
     7
370
    25
100
AcDbLine
 10
433.321555
 20
178.762708
 30
0.0
 11
436.821559
 21
182.262708
 31
0.0
  0
LINE
  5
EA
330
DF
100
AcDbEntity
  8
LC-003-005-----0
 62
     7
370
    25
100
AcDbLine
 10
429.078911
 20
178.762708
 30
0.0
 11
432.578916
 21
182.262708
 31
0.0
  0
LINE
  5
EB
330
DF
100
AcDbEntity
  8
LC-003-005-----0
 62
     7
370
    25
100
AcDbLine
 10
424.836268
 20
178.762708
 30
0.0
 11
428.336272
 21
182.262708
 31
0.0
  0
LINE
  5
EC
330
DF
100
AcDbEntity
  8
LC-003-005-----0
 62
     7
370
    25
100
AcDbLine
 10
420.593624
 20
178.762708
 30
0.0
 11
424.093629
 21
182.262708
 31
0.0
  0
LINE
  5
ED
330
DF
100
AcDbEntity
  8
LC-003-005-----0
 62
     7
370
    25
100
AcDbLine
 10
410.168297
 20
172.580032
 30
0.0
 11
419.850985
 21
182.262708
 31
0.0
  0
LINE
  5
EE
330
DF
100
AcDbEntity
  8
LC-003-005-----0
 62
     7
370
    25
100
AcDbLine
 10
403.108325
 20
169.762708
 30
0.0
 11
411.22361
 21
177.877981
 31
0.0
  0
LINE
  5
EF
330
DF
100
AcDbEntity
  8
LC-003-005-----0
 62
     7
370
    25
100
AcDbLine
 10
398.865682
 20
169.762708
 30
0.0
 11
402.365687
 21
173.262708
 31
0.0
  0
LINE
  5
F0
330
DF
100
AcDbEntity
  8
LC-003-005-----0
 62
     7
370
    25
100
AcDbLine
 10
394.623038
 20
169.762708
 30
0.0
 11
398.123043
 21
173.262708
 31
0.0
  0
LINE
  5
F1
330
DF
100
AcDbEntity
  8
LC-003-005-----0
 62
     7
370
    25
100
AcDbLine
 10
390.380395
 20
169.762708
 30
0.0
 11
393.8804
 21
173.262708
 31
0.0
  0
LINE
  5
F2
330
DF
100
AcDbEntity
  8
LC-003-005-----0
 62
     7
370
    25
100
AcDbLine
 10
386.137751
 20
169.762708
 30
0.0
 11
389.637756
 21
173.262708
 31
0.0
  0
LINE
  5
F3
330
DF
100
AcDbEntity
  8
LC-003-005-----0
 62
     7
370
    25
100
AcDbLine
 10
381.895108
 20
169.762708
 30
0.0
 11
385.395113
 21
173.262708
 31
0.0
  0
LINE
  5
F4
330
DF
100
AcDbEntity
  8
LC-003-005-----0
 62
     7
370
    25
100
AcDbLine
 10
377.652464
 20
169.762708
 30
0.0
 11
381.152469
 21
173.262708
 31
0.0
  0
LINE
  5
F5
330
DF
100
AcDbEntity
  8
LC-003-005-----0
 62
     7
370
    25
100
AcDbLine
 10
373.409821
 20
169.762708
 30
0.0
 11
376.909826
 21
173.262708
 31
0.0
  0
LINE
  5
F6
330
DF
100
AcDbEntity
  8
LC-003-005-----0
 62
     7
370
    25
100
AcDbLine
 10
369.167177
 20
169.762708
 30
0.0
 11
372.667182
 21
173.262708
 31
0.0
  0
LINE
  5
F7
330
DF
100
AcDbEntity
  8
LC-003-005-----0
 62
     7
370
    25
100
AcDbLine
 10
364.924534
 20
169.762708
 30
0.0
 11
368.424539
 21
173.262708
 31
0.0
  0
LINE
  5
F8
330
DF
100
AcDbEntity
  8
LC-003-005-----0
 62
     7
370
    25
100
AcDbLine
 10
360.68189
 20
169.762708
 30
0.0
 11
364.181895
 21
173.262708
 31
0.0
  0
LINE
  5
F9
330
DF
100
AcDbEntity
  8
LC-003-005-----0
 62
     7
370
    25
100
AcDbLine
 10
356.439247
 20
169.762708
 30
0.0
 11
359.939251
 21
173.262708
 31
0.0
  0
LINE
  5
FA
330
DF
100
AcDbEntity
  8
LC-003-005-----0
 62
     7
370
    25
100
AcDbLine
 10
352.196603
 20
169.762708
 30
0.0
 11
355.696608
 21
173.262708
 31
0.0
  0
LINE
  5
FB
330
DF
100
AcDbEntity
  8
LC-003-005-----0
 62
     7
370
    25
100
AcDbLine
 10
347.95396
 20
169.762708
 30
0.0
 11
351.453964
 21
173.262708
 31
0.0
  0
LINE
  5
FC
330
DF
100
AcDbEntity
  8
LC-003-005-----0
 62
     7
370
    25
100
AcDbLine
 10
343.711316
 20
169.762708
 30
0.0
 11
347.211321
 21
173.262708
 31
0.0
  0
LINE
  5
FD
330
DF
100
AcDbEntity
  8
LC-003-005-----0
 62
     7
370
    25
100
AcDbLine
 10
339.468673
 20
169.762708
 30
0.0
 11
342.968677
 21
173.262708
 31
0.0
  0
LINE
  5
FE
330
DF
100
AcDbEntity
  8
LC-003-005-----0
 62
     7
370
    25
100
AcDbLine
 10
335.226029
 20
169.762708
 30
0.0
 11
338.726034
 21
173.262708
 31
0.0
  0
LINE
  5
FF
330
DF
100
AcDbEntity
  8
LC-003-005-----0
 62
     7
370
    25
100
AcDbLine
 10
330.983386
 20
169.762708
 30
0.0
 11
334.48339
 21
173.262708
 31
0.0
  0
LINE
  5
100
330
DF
100
AcDbEntity
  8
LC-003-005-----0
 62
     7
370
    25
100
AcDbLine
 10
327.380719
 20
170.402683
 30
0.0
 11
330.308923
 21
173.330884
 31
0.0
  0
LINE
  5
101
330
DF
100
AcDbEntity
  8
LC-003-005-----0
 62
     7
370
    25
100
AcDbLine
 10
325.827805
 20
173.092409
 30
0.0
 11
328.756009
 21
176.02061
 31
0.0
  0
LINE
  5
102
330
DF
100
AcDbEntity
  8
LC-003-005-----0
 62
     7
370
    25
100
AcDbLine
 10
324.274891
 20
175.782135
 30
0.0
 11
327.203095
 21
178.710336
 31
0.0
  0
LINE
  5
103
330
DF
100
AcDbEntity
  8
LC-003-005-----0
 62
     7
370
    25
100
AcDbLine
 10
322.721977
 20
178.471861
 30
0.0
 11
325.650181
 21
181.400062
 31
0.0
  0
LINE
  5
104
330
DF
100
AcDbEntity
  8
LC-003-005-----0
 62
     7
370
    25
100
AcDbLine
 10
321.169063
 20
181.161587
 30
0.0
 11
324.097267
 21
184.089788
 31
0.0
  0
LINE
  5
105
330
DF
100
AcDbEntity
  8
LC-003-005-----0
 62
     7
370
    25
100
AcDbLine
 10
319.616149
 20
183.851313
 30
0.0
 11
322.544353
 21
186.779513
 31
0.0
  0
LINE
  5
106
330
DF
100
AcDbEntity
  8
LC-003-005-----0
 62
     7
370
    25
100
AcDbLine
 10
318.063235
 20
186.541039
 30
0.0
 11
320.991439
 21
189.469239
 31
0.0
  0
LINE
  5
107
330
DF
100
AcDbEntity
  8
LC-003-005-----0
 62
     7
370
    25
100
AcDbLine
 10
316.510321
 20
189.230765
 30
0.0
 11
321.136753
 21
193.85719
 31
0.0
  0
LINE
  5
108
330
DF
100
AcDbEntity
  8
LC-003-005-----0
 62
     7
370
    25
100
AcDbLine
 10
314.957407
 20
191.920491
 30
0.0
 11
318.298986
 21
195.262065
 31
0.0
  0
LINE
  5
109
330
DF
100
AcDbEntity
  8
LC-003-005-----0
 62
     7
370
    25
100
AcDbLine
 10
321.451386
 20
198.414462
 30
0.0
 11
322.555889
 21
199.518963
 31
0.0
  0
LINE
  5
10A
330
DF
100
AcDbEntity
  8
LC-003-005-----0
 62
     7
370
    25
100
AcDbLine
 10
311.556375
 20
192.762101
 30
0.0
 11
314.056365
 21
195.262088
 31
0.0
  0
LINE
  5
10B
330
DF
100
AcDbEntity
  8
LC-003-005-----0
 62
     7
370
    25
100
AcDbLine
 10
307.313754
 20
192.762124
 30
0.0
 11
309.813744
 21
195.26211
 31
0.0
  0
LINE
  5
10C
330
DF
100
AcDbEntity
  8
LC-003-005-----0
 62
     7
370
    25
100
AcDbLine
 10
303.071133
 20
192.762146
 30
0.0
 11
305.571123
 21
195.262133
 31
0.0
  0
LINE
  5
10D
330
DF
100
AcDbEntity
  8
LC-003-005-----0
 62
     7
370
    25
100
AcDbLine
 10
298.828512
 20
192.762169
 30
0.0
 11
301.328502
 21
195.262155
 31
0.0
  0
LINE
  5
10E
330
DF
100
AcDbEntity
  8
LC-003-005-----0
 62
     7
370
    25
100
AcDbLine
 10
294.585891
 20
192.762191
 30
0.0
 11
297.085881
 21
195.262178
 31
0.0
  0
LINE
  5
10F
330
DF
100
AcDbEntity
  8
LC-003-005-----0
 62
     7
370
    25
100
AcDbLine
 10
290.34327
 20
192.762214
 30
0.0
 11
292.84326
 21
195.2622
 31
0.0
  0
LINE
  5
110
330
DF
100
AcDbEntity
  8
LC-003-005-----0
 62
     7
370
    25
100
AcDbLine
 10
282.600663
 20
189.262255
 30
0.0
 11
288.600639
 21
195.262223
 31
0.0
  0
LINE
  5
111
330
DF
100
AcDbEntity
  8
LC-003-005-----0
 62
     7
370
    25
100
AcDbLine
 10
278.358042
 20
189.262277
 30
0.0
 11
280.858032
 21
191.762264
 31
0.0
  0
ENDBLK
  5
E1
330
DF
100
AcDbEntity
  8
0
100
AcDbBlockEnd
  0
BLOCK
  5
114
330
113
100
AcDbEntity
  8
0
100
AcDbBlockBegin
  2
*X33
 70
     1
 71
     0
 10
0.0
 20
0.0
 30
0.0
  3
*X33
  1

  4
*X3
  0
LINE
  5
116
330
113
100
AcDbEntity
  8
LC-003-005-----0
 62
     7
370
    25
100
AcDbLine
 10
273.082097
 20
248.762708
 30
0.0
 11
275.582097
 21
246.262708
 31
0.0
  0
LINE
  5
117
330
113
100
AcDbEntity
  8
LC-003-005-----0
 62
     7
370
    25
100
AcDbLine
 10
274.472756
 20
251.614689
 30
0.0
 11
276.972756
 21
249.114689
 31
0.0
  0
LINE
  5
118
330
113
100
AcDbEntity
  8
LC-003-005-----0
 62
     7
370
    25
100
AcDbLine
 10
275.970567
 20
254.359519
 30
0.0
 11
277.567378
 21
252.762708
 31
0.0
  0
LINE
  5
119
330
113
100
AcDbEntity
  8
LC-003-005-----0
 62
     7
370
    25
100
AcDbLine
 10
279.810019
 20
254.762708
 30
0.0
 11
281.810019
 21
252.762708
 31
0.0
  0
LINE
  5
11A
330
113
100
AcDbEntity
  8
LC-003-005-----0
 62
     7
370
    25
100
AcDbLine
 10
284.05266
 20
254.762708
 30
0.0
 11
286.05266
 21
252.762708
 31
0.0
  0
LINE
  5
11B
330
113
100
AcDbEntity
  8
LC-003-005-----0
 62
     7
370
    25
100
AcDbLine
 10
286.680593
 20
252.134774
 30
0.0
 11
287.05266
 21
251.762708
 31
0.0
  0
LINE
  5
11C
330
113
100
AcDbEntity
  8
LC-003-005-----0
 62
     7
370
    25
100
AcDbLine
 10
288.2953
 20
254.762708
 30
0.0
 11
288.318056
 21
254.739952
 31
0.0
  0
ENDBLK
  5
115
330
113
100
AcDbEntity
  8
0
100
AcDbBlockEnd
  0
BLOCK
  5
11F
330
11E
100
AcDbEntity
  8
0
100
AcDbBlockBegin
  2
*X44
 70
     1
 71
     0
 10
0.0
 20
0.0
 30
0.0
  3
*X44
  1

  4
*X4
  0
LINE
  5
121
330
11E
100
AcDbEntity
  8
LC-003-005-----0
 62
     7
370
    25
100
AcDbLine
 10
272.471519
 20
194.219008
 30
0.0
 11
273.928229
 21
192.762301
 31
0.0
  0
LINE
  5
122
330
11E
100
AcDbEntity
  8
LC-003-005-----0
 62
     7
370
    25
100
AcDbLine
 10
274.471509
 20
192.219022
 30
0.0
 11
276.971495
 21
189.719038
 31
0.0
  0
LINE
  5
123
330
11E
100
AcDbEntity
  8
LC-003-005-----0
 62
     7
370
    25
100
AcDbLine
 10
277.928255
 20
188.76228
 30
0.0
 11
279.928268
 21
186.762269
 31
0.0
  0
LINE
  5
124
330
11E
100
AcDbEntity
  8
LC-003-005-----0
 62
     7
370
    25
100
AcDbLine
 10
275.670878
 20
195.262292
 30
0.0
 11
276.971518
 21
193.961653
 31
0.0
  0
LINE
  5
125
330
11E
100
AcDbEntity
  8
LC-003-005-----0
 62
     7
370
    25
100
AcDbLine
 10
282.170921
 20
188.762257
 30
0.0
 11
284.170934
 21
186.762246
 31
0.0
  0
LINE
  5
126
330
11E
100
AcDbEntity
  8
LC-003-005-----0
 62
     7
370
    25
100
AcDbLine
 10
286.35222
 20
188.823602
 30
0.0
 11
288.31678
 21
186.859045
 31
0.0
  0
ENDBLK
  5
120
330
11E
100
AcDbEntity
  8
0
100
AcDbBlockEnd
  0
BLOCK
  5
129
330
128
100
AcDbEntity
  8
0
100
AcDbBlockBegin
  2
*X55
 70
     1
 71
     0
 10
0.0
 20
0.0
 30
0.0
  3
*X55
  1

  4
*X5
  0
LINE
  5
12B
330
128
100
AcDbEntity
  8
LC-003-005-----0
 62
     7
370
    25
100
AcDbLine
 10
278.523035
 20
246.150218
 30
0.0
 11
281.390271
 21
243.282985
 31
0.0
  0
LINE
  5
12C
330
128
100
AcDbEntity
  8
LC-003-005-----0
 62
     7
370
    25
100
AcDbLine
 10
278.640065
 20
247.447401
 30
0.0
 11
282.687454
 21
243.400017
 31
0.0
  0
LINE
  5
12D
330
128
100
AcDbEntity
  8
LC-003-005-----0
 62
     7
370
    25
100
AcDbLine
 10
279.10472
 20
248.396959
 30
0.0
 11
283.637011
 21
243.864674
 31
0.0
  0
LINE
  5
12E
330
128
100
AcDbEntity
  8
LC-003-005-----0
 62
     7
370
    25
100
AcDbLine
 10
279.803001
 20
249.112891
 30
0.0
 11
284.352943
 21
244.562956
 31
0.0
  0
LINE
  5
12F
330
128
100
AcDbEntity
  8
LC-003-005-----0
 62
     7
370
    25
100
AcDbLine
 10
280.731894
 20
249.598212
 30
0.0
 11
284.838263
 21
245.491849
 31
0.0
  0
LINE
  5
130
330
128
100
AcDbEntity
  8
LC-003-005-----0
 62
     7
370
    25
100
AcDbLine
 10
281.990306
 20
249.754014
 30
0.0
 11
284.994063
 21
246.750262
 31
0.0
  0
ENDBLK
  5
12A
330
128
100
AcDbEntity
  8
0
100
AcDbBlockEnd
  0
BLOCK
  5
133
330
132
100
AcDbEntity
  8
0
100
AcDbBlockBegin
  2
*X66
 70
     1
 71
     0
 10
0.0
 20
0.0
 30
0.0
  3
*X66
  1

  4
*X6
  0
LINE
  5
135
330
132
100
AcDbEntity
  8
LC-003-005-----0
 62
     7
370
    25
100
AcDbLine
 10
278.906842
 20
193.440545
 30
0.0
 11
280.179812
 21
192.167576
 31
0.0
  0
LINE
  5
136
330
132
100
AcDbEntity
  8
LC-003-005-----0
 62
     7
370
    25
100
AcDbLine
 10
278.510324
 20
195.251274
 30
0.0
 11
281.999345
 21
191.762258
 31
0.0
  0
LINE
  5
137
330
132
100
AcDbEntity
  8
LC-003-005-----0
 62
     7
370
    25
100
AcDbLine
 10
278.800958
 20
196.374854
 30
0.0
 11
283.391482
 21
191.784336
 31
0.0
  0
LINE
  5
138
330
132
100
AcDbEntity
  8
LC-003-005-----0
 62
     7
370
    25
100
AcDbLine
 10
279.36819
 20
197.221835
 30
0.0
 11
284.462608
 21
192.127424
 31
0.0
  0
LINE
  5
139
330
132
100
AcDbEntity
  8
LC-003-005-----0
 62
     7
370
    25
100
AcDbLine
 10
280.158933
 20
197.845306
 30
0.0
 11
285.253694
 21
192.750552
 31
0.0
  0
LINE
  5
13A
330
132
100
AcDbEntity
  8
LC-003-005-----0
 62
     7
370
    25
100
AcDbLine
 10
281.202844
 20
198.215609
 30
0.0
 11
285.801093
 21
193.617366
 31
0.0
  0
ENDBLK
  5
134
330
132
100
AcDbEntity
  8
0
100
AcDbBlockEnd
  0
BLOCK
  5
13D
330
13C
100
AcDbEntity
  8
0
100
AcDbBlockBegin
  2
*X77
 70
     1
 71
     0
 10
0.0
 20
0.0
 30
0.0
  3
*X77
  1

  4
*X7
  0
LINE
  5
13F
330
13C
100
AcDbEntity
  8
LC-003-005-----0
 62
     7
370
    25
100
AcDbLine
 10
346.557463
 20
243.169662
 30
0.0
 11
348.048773
 21
241.678353
 31
0.0
  0
LINE
  5
140
330
13C
100
AcDbEntity
  8
LC-003-005-----0
 62
     7
370
    25
100
AcDbLine
 10
347.027924
 20
244.113413
 30
0.0
 11
348.519234
 21
242.622105
 31
0.0
  0
LINE
  5
141
330
13C
100
AcDbEntity
  8
LC-003-005-----0
 62
     7
370
    25
100
AcDbLine
 10
347.498386
 20
245.057165
 30
0.0
 11
348.989696
 21
243.565857
 31
0.0
  0
LINE
  5
142
330
13C
100
AcDbEntity
  8
LC-003-005-----0
 62
     7
370
    25
100
AcDbLine
 10
347.968847
 20
246.000917
 30
0.0
 11
349.460157
 21
244.509609
 31
0.0
  0
LINE
  5
143
330
13C
100
AcDbEntity
  8
LC-003-005-----0
 62
     7
370
    25
100
AcDbLine
 10
348.605512
 20
246.778465
 30
0.0
 11
351.07896
 21
244.30502
 31
0.0
  0
LINE
  5
144
330
13C
100
AcDbEntity
  8
LC-003-005-----0
 62
     7
370
    25
100
AcDbLine
 10
349.639179
 20
247.159013
 30
0.0
 11
355.300435
 21
241.497764
 31
0.0
  0
LINE
  5
145
330
13C
100
AcDbEntity
  8
LC-003-005-----0
 62
     7
370
    25
100
AcDbLine
 10
354.677691
 20
243.53472
 30
0.0
 11
358.328092
 21
239.884324
 31
0.0
  0
ENDBLK
  5
13E
330
13C
100
AcDbEntity
  8
0
100
AcDbBlockEnd
  0
BLOCK
  5
148
330
147
100
AcDbEntity
  8
0
100
AcDbBlockBegin
  2
*X88
 70
     1
 71
     0
 10
0.0
 20
0.0
 30
0.0
  3
*X88
  1

  4
*X8
  0
LINE
  5
14A
330
147
100
AcDbEntity
  8
LC-003-005-----0
 62
     7
370
    25
100
AcDbLine
 10
323.253697
 20
195.762765
 30
0.0
 11
325.0079
 21
194.008565
 31
0.0
  0
LINE
  5
14B
330
147
100
AcDbEntity
  8
LC-003-005-----0
 62
     7
370
    25
100
AcDbLine
 10
323.502088
 20
196.928587
 30
0.0
 11
326.823407
 21
193.607273
 31
0.0
  0
LINE
  5
14C
330
147
100
AcDbEntity
  8
LC-003-005-----0
 62
     7
370
    25
100
AcDbLine
 10
323.972651
 20
197.872237
 30
0.0
 11
325.463897
 21
196.380993
 31
0.0
  0
LINE
  5
14D
330
147
100
AcDbEntity
  8
LC-003-005-----0
 62
     7
370
    25
100
AcDbLine
 10
326.257725
 20
195.587166
 30
0.0
 11
328.638914
 21
193.205981
 31
0.0
  0
LINE
  5
14E
330
147
100
AcDbEntity
  8
LC-003-005-----0
 62
     7
370
    25
100
AcDbLine
 10
324.443214
 20
198.815887
 30
0.0
 11
325.93446
 21
197.324643
 31
0.0
  0
LINE
  5
14F
330
147
100
AcDbEntity
  8
LC-003-005-----0
 62
     7
370
    25
100
AcDbLine
 10
328.439119
 20
194.819988
 30
0.0
 11
330.454421
 21
192.804689
 31
0.0
  0
LINE
  5
150
330
147
100
AcDbEntity
  8
LC-003-005-----0
 62
     7
370
    25
100
AcDbLine
 10
324.913778
 20
199.759537
 30
0.0
 11
326.405023
 21
198.268293
 31
0.0
  0
LINE
  5
151
330
147
100
AcDbEntity
  8
LC-003-005-----0
 62
     7
370
    25
100
AcDbLine
 10
330.620513
 20
194.052809
 30
0.0
 11
332.269928
 21
192.403397
 31
0.0
  0
LINE
  5
152
330
147
100
AcDbEntity
  8
LC-003-005-----0
 62
     7
370
    25
100
AcDbLine
 10
326.101629
 20
199.985899
 30
0.0
 11
326.875586
 21
199.211944
 31
0.0
  0
LINE
  5
153
330
147
100
AcDbEntity
  8
LC-003-005-----0
 62
     7
370
    25
100
AcDbLine
 10
332.801907
 20
193.28563
 30
0.0
 11
334.085435
 21
192.002105
 31
0.0
  0
ENDBLK
  5
149
330
147
100
AcDbEntity
  8
0
100
AcDbBlockEnd
  0
BLOCK
  5
156
330
155
100
AcDbEntity
  8
0
100
AcDbBlockBegin
  2
*X99
 70
     1
 71
     0
 10
0.0
 20
0.0
 30
0.0
  3
*X99
  1

  4
*X9
  0
LINE
  5
158
330
155
100
AcDbEntity
  8
LC-003-005-----0
 62
     7
370
    25
100
AcDbLine
 10
347.592779
 20
240.112549
 30
0.0
 11
351.320973
 21
243.840742
 31
0.0
  0
LINE
  5
159
330
155
100
AcDbEntity
  8
LC-003-005-----0
 62
     7
370
    25
100
AcDbLine
 10
345.705376
 20
241.053573
 30
0.0
 11
346.451015
 21
241.799211
 31
0.0
  0
LINE
  5
15A
330
155
100
AcDbEntity
  8
LC-003-005-----0
 62
     7
370
    25
100
AcDbLine
 10
343.817974
 20
241.994597
 30
0.0
 11
344.563612
 21
242.740236
 31
0.0
  0
LINE
  5
15B
330
155
100
AcDbEntity
  8
LC-003-005-----0
 62
     7
370
    25
100
AcDbLine
 10
342.015025
 20
243.020075
 30
0.0
 11
343.421848
 21
244.426899
 31
0.0
  0
ENDBLK
  5
157
330
155
100
AcDbEntity
  8
0
100
AcDbBlockEnd
  0
BLOCK
  5
15E
330
15D
100
AcDbEntity
  8
0
100
AcDbBlockBegin
  2
*X1010
 70
     1
 71
     0
 10
0.0
 20
0.0
 30
0.0
  3
*X1010
  1

  4
*X10
  0
LINE
  5
160
330
15D
100
AcDbEntity
  8
LC-003-005-----0
 62
     7
370
    25
100
AcDbLine
 10
326.155922
 20
196.047928
 30
0.0
 11
328.902095
 21
198.794097
 31
0.0
  0
LINE
  5
161
330
15D
100
AcDbEntity
  8
LC-003-005-----0
 62
     7
370
    25
100
AcDbLine
 10
327.251076
 20
199.971506
 30
0.0
 11
327.996715
 21
200.717144
 31
0.0
  0
LINE
  5
162
330
15D
100
AcDbEntity
  8
LC-003-005-----0
 62
     7
370
    25
100
AcDbLine
 10
325.363674
 20
200.912531
 30
0.0
 11
326.109313
 21
201.65817
 31
0.0
  0
LINE
  5
163
330
15D
100
AcDbEntity
  8
LC-003-005-----0
 62
     7
370
    25
100
AcDbLine
 10
322.730633
 20
201.107919
 30
0.0
 11
322.857601
 21
201.234887
 31
0.0
  0
LINE
  5
164
330
15D
100
AcDbEntity
  8
LC-003-005-----0
 62
     7
370
    25
100
AcDbLine
 10
323.476272
 20
201.853557
 30
0.0
 11
324.221911
 21
202.599195
 31
0.0
  0
LINE
  5
165
330
15D
100
AcDbEntity
  8
LC-003-005-----0
 62
     7
370
    25
100
AcDbLine
 10
322.327309
 20
203.533021
 30
0.0
 11
322.334509
 21
203.540221
 31
0.0
  0
ENDBLK
  5
15F
330
15D
100
AcDbEntity
  8
0
100
AcDbBlockEnd
  0
BLOCK
  5
176
330
16C
100
AcDbEntity
  8
0
100
AcDbBlockBegin
  2
*D11
 70
     1
 71
     0
 10
0.0
 20
0.0
 30
0.0
  3
*D11
  1

  0
LINE
  5
16D
330
16C
100
AcDbEntity
  8
LC-004-003-----0
 62
     2
370
    -2
100
AcDbLine
 10
272.471525
 20
195.262309
 30
0.0
 11
272.471525
 21
108.834
 31
0.0
  0
LINE
  5
16E
330
16C
100
AcDbEntity
  8
LC-004-003-----0
 62
     2
370
    -2
100
AcDbLine
 10
464.472756
 20
182.262708
 30
0.0
 11
464.472756
 21
108.834
 31
0.0
  0
LINE
  5
16F
330
16C
100
AcDbEntity
  8
LC-004-003-----0
 62
     2
370
    -2
100
AcDbLine
 10
300.471525
 20
112.434
 30
0.0
 11
436.472756
 21
112.434
 31
0.0
  0
SOLID
  5
170
330
16C
100
AcDbEntity
  8
LC-004-003-----0
 62
     2
100
AcDbTrace
 10
300.471525
 20
117.100667
 30
0.0
 11
300.471525
 21
107.767333
 31
0.0
 12
272.471525
 22
112.434
 32
0.0
 13
272.471525
 23
112.434
 33
0.0
  0
SOLID
  5
171
330
16C
100
AcDbEntity
  8
LC-004-003-----0
 62
     2
100
AcDbTrace
 10
436.472756
 20
107.767333
 30
0.0
 11
436.472756
 21
117.100667
 31
0.0
 12
464.472756
 22
112.434
 32
0.0
 13
464.472756
 23
112.434
 33
0.0
  0
MTEXT
  5
172
330
16C
100
AcDbEntity
  8
LC-004-003-----0
 62
     2
100
AcDbMText
 10
364.888782
 20
143.234
 30
0.0
 40
28.0
 41
0.0
 71
     5
 72
     1
  1
\A1;193
  7
LCTX15-400-0-0pDIN-Schrift
 73
     1
 44
1.0
  0
POINT
  5
173
330
16C
100
AcDbEntity
  8
Defpoints
 62
     0
100
AcDbPoint
 10
272.471525
 20
195.262309
 30
0.0
  0
POINT
  5
174
330
16C
100
AcDbEntity
  8
Defpoints
 62
     0
100
AcDbPoint
 10
464.472756
 20
182.262708
 30
0.0
  0
POINT
  5
175
330
16C
100
AcDbEntity
  8
Defpoints
 62
     0
100
AcDbPoint
 10
464.472756
 20
112.434
 30
0.0
  0
ENDBLK
  5
177
330
16C
100
AcDbEntity
  8
0
100
AcDbBlockEnd
  0
BLOCK
  5
185
330
179
100
AcDbEntity
  8
0
100
AcDbBlockBegin
  2
*D12
 70
     1
 71
     0
 10
0.0
 20
0.0
 30
0.0
  3
*D12
  1

  0
LINE
  5
17A
330
179
100
AcDbEntity
  8
LC-004-003-----0
 62
     2
370
    -2
100
AcDbLine
 10
272.472756
 20
246.262708
 30
0.0
 11
251.059423
 21
246.262708
 31
0.0
  0
LINE
  5
17B
330
179
100
AcDbEntity
  8
LC-004-003-----0
 62
     2
370
    -2
100
AcDbLine
 10
272.471525
 20
195.262309
 30
0.0
 11
251.059423
 21
195.262309
 31
0.0
  0
LINE
  5
17C
330
179
100
AcDbEntity
  8
LC-004-003-----0
 62
     2
370
    -2
100
AcDbLine
 10
254.659423
 20
274.262708
 30
0.0
 11
254.659423
 21
302.262708
 31
0.0
  0
LINE
  5
17D
330
179
100
AcDbEntity
  8
LC-004-003-----0
 62
     2
370
    -2
100
AcDbLine
 10
254.659423
 20
167.262309
 30
0.0
 11
254.659423
 21
139.262309
 31
0.0
  0
LINE
  5
17E
330
179
100
AcDbEntity
  8
LC-004-003-----0
 62
     2
370
    -2
100
AcDbLine
 10
254.659423
 20
246.262708
 30
0.0
 11
254.659423
 21
195.262309
 31
0.0
  0
SOLID
  5
17F
330
179
100
AcDbEntity
  8
LC-004-003-----0
 62
     2
100
AcDbTrace
 10
249.992756
 20
274.262708
 30
0.0
 11
259.32609
 21
274.262708
 31
0.0
 12
254.659423
 22
246.262708
 32
0.0
 13
254.659423
 23
246.262708
 33
0.0
  0
SOLID
  5
180
330
179
100
AcDbEntity
  8
LC-004-003-----0
 62
     2
100
AcDbTrace
 10
259.32609
 20
167.262309
 30
0.0
 11
249.992756
 21
167.262309
 31
0.0
 12
254.659423
 22
195.262309
 32
0.0
 13
254.659423
 23
195.262309
 33
0.0
  0
MTEXT
  5
181
330
179
100
AcDbEntity
  8
LC-004-003-----0
 62
     2
100
AcDbMText
 10
223.859423
 20
220.762508
 30
0.0
 40
28.0
 41
0.0
 71
     5
 72
     1
  1
\A1;DN50
  7
LCTX15-400-0-0pDIN-Schrift
 11
6.123031769111886E-17
 21
1.0
 31
0.0
 73
     1
 44
1.0
  0
POINT
  5
182
330
179
100
AcDbEntity
  8
Defpoints
 62
     0
100
AcDbPoint
 10
272.472756
 20
246.262708
 30
0.0
  0
POINT
  5
183
330
179
100
AcDbEntity
  8
Defpoints
 62
     0
100
AcDbPoint
 10
272.471525
 20
195.262309
 30
0.0
  0
POINT
  5
184
330
179
100
AcDbEntity
  8
Defpoints
 62
     0
100
AcDbPoint
 10
254.659423
 20
195.262309
 30
0.0
  0
ENDBLK
  5
186
330
179
100
AcDbEntity
  8
0
100
AcDbBlockEnd
  0
BLOCK
  5
193
330
188
100
AcDbEntity
  8
0
100
AcDbBlockBegin
  2
*D13
 70
     1
 71
     0
 10
0.0
 20
0.0
 30
0.0
  3
*D13
  1

  0
LINE
  5
189
330
188
100
AcDbEntity
  8
LC-004-003-----0
 62
     2
370
    -2
100
AcDbLine
 10
317.273601
 20
220.762708
 30
0.0
 11
516.259423
 21
220.762708
 31
0.0
  0
LINE
  5
18A
330
188
100
AcDbEntity
  8
LC-004-003-----0
 62
     2
370
    -2
100
AcDbLine
 10
464.472756
 20
202.762708
 30
0.0
 11
516.259423
 21
202.762708
 31
0.0
  0
LINE
  5
18B
330
188
100
AcDbEntity
  8
LC-004-003-----0
 62
     2
370
    -2
100
AcDbLine
 10
512.659423
 20
174.762708
 30
0.0
 11
512.659423
 21
146.762708
 31
0.0
  0
LINE
  5
18C
330
188
100
AcDbEntity
  8
LC-004-003-----0
 62
     2
370
    -2
100
AcDbLine
 10
512.659423
 20
248.762708
 30
0.0
 11
512.659423
 21
286.47271
 31
0.0
  0
SOLID
  5
18D
330
188
100
AcDbEntity
  8
LC-004-003-----0
 62
     2
100
AcDbTrace
 10
507.992756
 20
248.762708
 30
0.0
 11
517.32609
 21
248.762708
 31
0.0
 12
512.659423
 22
220.762708
 32
0.0
 13
512.659423
 23
220.762708
 33
0.0
  0
SOLID
  5
18E
330
188
100
AcDbEntity
  8
LC-004-003-----0
 62
     2
100
AcDbTrace
 10
517.32609
 20
174.762708
 30
0.0
 11
507.992756
 21
174.762708
 31
0.0
 12
512.659423
 22
202.762708
 32
0.0
 13
512.659423
 23
202.762708
 33
0.0
  0
MTEXT
  5
18F
330
188
100
AcDbEntity
  8
LC-004-003-----0
 62
     2
100
AcDbMText
 10
481.859423
 20
266.923987
 30
0.0
 40
28.0
 41
0.0
 71
     5
 72
     1
  1
\A1;18
  7
LCTX15-400-0-0pDIN-Schrift
 11
6.123031769111886E-17
 21
1.0
 31
0.0
 73
     1
 44
1.0
  0
POINT
  5
190
330
188
100
AcDbEntity
  8
Defpoints
 62
     0
100
AcDbPoint
 10
317.273601
 20
220.762708
 30
0.0
  0
POINT
  5
191
330
188
100
AcDbEntity
  8
Defpoints
 62
     0
100
AcDbPoint
 10
464.472756
 20
202.762708
 30
0.0
  0
POINT
  5
192
330
188
100
AcDbEntity
  8
Defpoints
 62
     0
100
AcDbPoint
 10
512.659423
 20
202.762708
 30
0.0
  0
ENDBLK
  5
194
330
188
100
AcDbEntity
  8
0
100
AcDbBlockEnd
  0
BLOCK
  5
1A2
330
196
100
AcDbEntity
  8
0
100
AcDbBlockBegin
  2
*D14
 70
     1
 71
     0
 10
0.0
 20
0.0
 30
0.0
  3
*D14
  1

  0
LINE
  5
197
330
196
100
AcDbEntity
  8
LC-004-003-----0
 62
     2
370
    -2
100
AcDbLine
 10
460.972756
 20
226.762708
 30
0.0
 11
566.259423
 21
226.762708
 31
0.0
  0
LINE
  5
198
330
196
100
AcDbEntity
  8
LC-004-003-----0
 62
     2
370
    -2
100
AcDbLine
 10
460.972756
 20
178.762708
 30
0.0
 11
566.259423
 21
178.762708
 31
0.0
  0
LINE
  5
199
330
196
100
AcDbEntity
  8
LC-004-003-----0
 62
     2
370
    -2
100
AcDbLine
 10
562.659423
 20
254.762708
 30
0.0
 11
562.659423
 21
282.762708
 31
0.0
  0
LINE
  5
19A
330
196
100
AcDbEntity
  8
LC-004-003-----0
 62
     2
370
    -2
100
AcDbLine
 10
562.659423
 20
150.762708
 30
0.0
 11
562.659423
 21
122.762708
 31
0.0
  0
LINE
  5
19B
330
196
100
AcDbEntity
  8
LC-004-003-----0
 62
     2
370
    -2
100
AcDbLine
 10
562.659423
 20
226.762708
 30
0.0
 11
562.659423
 21
178.762708
 31
0.0
  0
SOLID
  5
19C
330
196
100
AcDbEntity
  8
LC-004-003-----0
 62
     2
100
AcDbTrace
 10
557.992756
 20
254.762708
 30
0.0
 11
567.32609
 21
254.762708
 31
0.0
 12
562.659423
 22
226.762708
 32
0.0
 13
562.659423
 23
226.762708
 33
0.0
  0
SOLID
  5
19D
330
196
100
AcDbEntity
  8
LC-004-003-----0
 62
     2
100
AcDbTrace
 10
567.32609
 20
150.762708
 30
0.0
 11
557.992756
 21
150.762708
 31
0.0
 12
562.659423
 22
178.762708
 32
0.0
 13
562.659423
 23
178.762708
 33
0.0
  0
MTEXT
  5
19E
330
196
100
AcDbEntity
  8
LC-004-003-----0
 62
     2
100
AcDbMText
 10
531.859423
 20
202.762708
 30
0.0
 40
28.0
 41
0.0
 71
     5
 72
     1
  1
\A1;DN50
  7
LCTX15-400-0-0pDIN-Schrift
 11
6.123031769111886E-17
 21
1.0
 31
0.0
 73
     1
 44
1.0
  0
POINT
  5
19F
330
196
100
AcDbEntity
  8
Defpoints
 62
     0
100
AcDbPoint
 10
460.972756
 20
226.762708
 30
0.0
  0
POINT
  5
1A0
330
196
100
AcDbEntity
  8
Defpoints
 62
     0
100
AcDbPoint
 10
460.972756
 20
178.762708
 30
0.0
  0
POINT
  5
1A1
330
196
100
AcDbEntity
  8
Defpoints
 62
     0
100
AcDbPoint
 10
562.659423
 20
178.762708
 30
0.0
  0
ENDBLK
  5
1A3
330
196
100
AcDbEntity
  8
0
100
AcDbBlockEnd
  0
BLOCK
  5
1AF
330
1A5
100
AcDbEntity
  8
0
100
AcDbBlockBegin
  2
*D15
 70
     1
 71
     0
 10
0.0
 20
0.0
 30
0.0
  3
*D15
  1

  0
LINE
  5
1A6
330
1A5
100
AcDbEntity
  8
LC-004-003-----0
 62
     2
370
    -2
100
AcDbLine
 10
277.472757
 20
254.762708
 30
0.0
 11
194.781421
 21
254.762708
 31
0.0
  0
LINE
  5
1A7
330
1A5
100
AcDbEntity
  8
LC-004-003-----0
 62
     2
370
    -2
100
AcDbLine
 10
327.750209
 20
169.762708
 30
0.0
 11
194.781421
 21
169.762708
 31
0.0
  0
LINE
  5
1A8
330
1A5
100
AcDbEntity
  8
LC-004-003-----0
 62
     2
370
    -2
100
AcDbLine
 10
198.381421
 20
226.762708
 30
0.0
 11
198.381421
 21
197.762708
 31
0.0
  0
SOLID
  5
1A9
330
1A5
100
AcDbEntity
  8
LC-004-003-----0
 62
     2
100
AcDbTrace
 10
203.048088
 20
226.762708
 30
0.0
 11
193.714754
 21
226.762708
 31
0.0
 12
198.381421
 22
254.762708
 32
0.0
 13
198.381421
 23
254.762708
 33
0.0
  0
SOLID
  5
1AA
330
1A5
100
AcDbEntity
  8
LC-004-003-----0
 62
     2
100
AcDbTrace
 10
193.714754
 20
197.762708
 30
0.0
 11
203.048088
 21
197.762708
 31
0.0
 12
198.381421
 22
169.762708
 32
0.0
 13
198.381421
 23
169.762708
 33
0.0
  0
MTEXT
  5
1AB
330
1A5
100
AcDbEntity
  8
LC-004-003-----0
 62
     2
100
AcDbMText
 10
167.581421
 20
215.622
 30
0.0
 40
28.0
 41
0.0
 71
     5
 72
     1
  1
\A1;85
  7
LCTX15-400-0-0pDIN-Schrift
 11
6.123031769111886E-17
 21
1.0
 31
0.0
 73
     1
 44
1.0
  0
POINT
  5
1AC
330
1A5
100
AcDbEntity
  8
Defpoints
 62
     0
100
AcDbPoint
 10
277.472757
 20
254.762708
 30
0.0
  0
POINT
  5
1AD
330
1A5
100
AcDbEntity
  8
Defpoints
 62
     0
100
AcDbPoint
 10
327.750209
 20
169.762708
 30
0.0
  0
POINT
  5
1AE
330
1A5
100
AcDbEntity
  8
Defpoints
 62
     0
100
AcDbPoint
 10
198.381421
 20
169.762708
 30
0.0
  0
ENDBLK
  5
1B0
330
1A5
100
AcDbEntity
  8
0
100
AcDbBlockEnd
  0
BLOCK
  5
1B4
330
1B3
100
AcDbEntity
  8
0
100
AcDbBlockBegin
  2
KLON1
 70
     0
 71
     0
 10
0.0
 20
0.0
 30
0.0
  3
KLON1
  1

  4
KLON1
  0
LINE
  5
1B7
330
1B3
100
AcDbEntity
  8
LC-005-101-D00-0
  6
DIVIDE
 62
     7
370
    25
100
AcDbLine
 10
382.472756
 20
59.361343
 30
0.0
 11
382.472756
 21
64.414658
 31
0.0
  0
LINE
  5
1B9
330
1B3
100
AcDbEntity
  8
LC-006-100-D00-0
 62
     7
370
    13
100
AcDbLine
 10
362.966301
 20
60.528
 30
0.0
 11
367.966301
 21
60.528
 31
0.0
  0
LINE
  5
1BA
330
1B3
100
AcDbEntity
  8
LC-006-100-D00-0
 62
     7
370
    13
100
AcDbLine
 10
362.966301
 20
60.528
 30
0.0
 11
362.966301
 21
62.528
 31
0.0
  0
LINE
  5
1BB
330
1B3
100
AcDbEntity
  8
LC-006-100-D00-0
 62
     7
370
    13
100
AcDbLine
 10
368.216301
 20
60.528
 30
0.0
 11
368.216301
 21
62.528
 31
0.0
  0
LINE
  5
1BC
330
1B3
100
AcDbEntity
  8
LC-006-100-D00-0
 62
     7
370
    13
100
AcDbLine
 10
367.966301
 20
62.528
 30
0.0
 11
368.216301
 21
62.528
 31
0.0
  0
LINE
  5
1BD
330
1B3
100
AcDbEntity
  8
LC-006-100-D00-0
 62
     7
370
    13
100
AcDbLine
 10
362.966301
 20
62.528
 30
0.0
 11
367.966301
 21
62.528
 31
0.0
  0
LINE
  5
1BE
330
1B3
100
AcDbEntity
  8
LC-006-100-D00-0
 62
     7
370
    13
100
AcDbLine
 10
367.966301
 20
60.528
 30
0.0
 11
368.216301
 21
60.528
 31
0.0
  0
LINE
  5
1BF
330
1B3
100
AcDbEntity
  8
LC-006-100-D00-0
 62
     7
370
    13
100
AcDbLine
 10
396.979211
 20
60.528
 30
0.0
 11
401.979211
 21
60.528
 31
0.0
  0
LINE
  5
1C0
330
1B3
100
AcDbEntity
  8
LC-006-100-D00-0
 62
     7
370
    13
100
AcDbLine
 10
401.979211
 20
62.528
 30
0.0
 11
401.979211
 21
60.528
 31
0.0
  0
LINE
  5
1C1
330
1B3
100
AcDbEntity
  8
LC-006-100-D00-0
 62
     7
370
    13
100
AcDbLine
 10
396.729211
 20
62.528
 30
0.0
 11
396.729211
 21
60.528
 31
0.0
  0
LINE
  5
1C2
330
1B3
100
AcDbEntity
  8
LC-006-100-D00-0
 62
     7
370
    13
100
AcDbLine
 10
396.729211
 20
62.528
 30
0.0
 11
396.979211
 21
62.528
 31
0.0
  0
LINE
  5
1C3
330
1B3
100
AcDbEntity
  8
LC-006-100-D00-0
 62
     7
370
    13
100
AcDbLine
 10
396.979211
 20
62.528
 30
0.0
 11
401.979211
 21
62.528
 31
0.0
  0
LINE
  5
1C4
330
1B3
100
AcDbEntity
  8
LC-006-100-D00-0
 62
     7
370
    13
100
AcDbLine
 10
396.729211
 20
60.528
 30
0.0
 11
396.979211
 21
60.528
 31
0.0
  0
INSERT
  5
1CF
330
1B3
100
AcDbEntity
  8
LC-005-101-D00-0
  6
ByBlock
 62
     7
370
    35
100
AcDbBlockReference
  2
KLON2
 10
0.0
 20
0.0
 30
0.0
  0
INSERT
  5
1DB
330
1B3
100
AcDbEntity
  8
LC-005-101-D00-0
  6
ByBlock
 62
     7
370
    35
100
AcDbBlockReference
  2
KLON3
 10
0.0
 20
0.0
 30
0.0
  0
ENDBLK
  5
1B5
330
1B3
100
AcDbEntity
  8
0
100
AcDbBlockEnd
  0
BLOCK
  5
1C6
330
1C5
100
AcDbEntity
  8
0
100
AcDbBlockBegin
  2
KLON2
 70
     0
 71
     0
 10
0.0
 20
0.0
 30
0.0
  3
KLON2
  1

  4
KLON2
  0
LINE
  5
1C8
330
1C5
100
AcDbEntity
  8
LC-005-101-D00-0
  6
ByBlock
 62
     7
370
    35
100
AcDbLine
 10
367.192988
 20
60.528
 30
0.0
 11
368.216301
 21
61.551313
 31
0.0
  0
LINE
  5
1C9
330
1C5
100
AcDbEntity
  8
LC-005-101-D00-0
  6
ByBlock
 62
     7
370
    35
100
AcDbLine
 10
365.786752
 20
60.535977
 30
0.0
 11
367.778775
 21
62.528
 31
0.0
  0
LINE
  5
1CA
330
1C5
100
AcDbEntity
  8
LC-005-101-D00-0
  6
ByBlock
 62
     7
370
    35
100
AcDbLine
 10
365.786752
 20
61.95019
 30
0.0
 11
366.364561
 21
62.528
 31
0.0
  0
LINE
  5
1CB
330
1C5
100
AcDbEntity
  8
LC-005-101-D00-0
  6
ByBlock
 62
     7
370
    35
100
AcDbLine
 10
368.150935
 20
61.876847
 30
0.0
 11
367.499782
 21
62.528
 31
0.0
  0
LINE
  5
1CC
330
1C5
100
AcDbEntity
  8
LC-005-101-D00-0
  6
ByBlock
 62
     7
370
    35
100
AcDbLine
 10
366.736721
 20
61.876847
 30
0.0
 11
366.085569
 21
62.528
 31
0.0
  0
LINE
  5
1CD
330
1C5
100
AcDbEntity
  8
LC-005-101-D00-0
  6
ByBlock
 62
     7
370
    35
100
AcDbLine
 10
365.322508
 20
61.876847
 30
0.0
 11
364.671355
 21
62.528
 31
0.0
  0
LINE
  5
1CE
330
1C5
100
AcDbEntity
  8
LC-005-101-D00-0
  6
ByBlock
 62
     7
370
    35
100
AcDbLine
 10
363.908294
 20
61.876847
 30
0.0
 11
363.257141
 21
62.528
 31
0.0
  0
ENDBLK
  5
1C7
330
1C5
100
AcDbEntity
  8
0
100
AcDbBlockEnd
  0
BLOCK
  5
1D1
330
1D0
100
AcDbEntity
  8
0
100
AcDbBlockBegin
  2
KLON3
 70
     0
 71
     0
 10
0.0
 20
0.0
 30
0.0
  3
KLON3
  1

  4
KLON3
  0
LINE
  5
1D3
330
1D0
100
AcDbEntity
  8
LC-005-101-D00-0
  6
ByBlock
 62
     7
370
    35
100
AcDbLine
 10
401.134114
 20
60.528
 30
0.0
 11
401.979211
 21
61.373097
 31
0.0
  0
LINE
  5
1D4
330
1D0
100
AcDbEntity
  8
LC-005-101-D00-0
  6
ByBlock
 62
     7
370
    35
100
AcDbLine
 10
399.7199
 20
60.528
 30
0.0
 11
401.7199
 21
62.528
 31
0.0
  0
LINE
  5
1D5
330
1D0
100
AcDbEntity
  8
LC-005-101-D00-0
  6
ByBlock
 62
     7
370
    35
100
AcDbLine
 10
399.638769
 20
61.861083
 30
0.0
 11
400.305687
 21
62.528
 31
0.0
  0
LINE
  5
1D6
330
1D0
100
AcDbEntity
  8
LC-005-101-D00-0
  6
ByBlock
 62
     7
370
    35
100
AcDbLine
 10
401.979211
 20
61.989696
 30
0.0
 11
401.440908
 21
62.528
 31
0.0
  0
LINE
  5
1D7
330
1D0
100
AcDbEntity
  8
LC-005-101-D00-0
  6
ByBlock
 62
     7
370
    35
100
AcDbLine
 10
401.295846
 20
61.258848
 30
0.0
 11
400.026694
 21
62.528
 31
0.0
  0
LINE
  5
1D8
330
1D0
100
AcDbEntity
  8
LC-005-101-D00-0
  6
ByBlock
 62
     7
370
    35
100
AcDbLine
 10
399.881632
 20
61.258848
 30
0.0
 11
398.612481
 21
62.528
 31
0.0
  0
LINE
  5
1D9
330
1D0
100
AcDbEntity
  8
LC-005-101-D00-0
  6
ByBlock
 62
     7
370
    35
100
AcDbLine
 10
398.467419
 20
61.258848
 30
0.0
 11
397.198267
 21
62.528
 31
0.0
  0
LINE
  5
1DA
330
1D0
100
AcDbEntity
  8
LC-005-101-D00-0
  6
ByBlock
 62
     7
370
    35
100
AcDbLine
 10
397.053205
 20
61.258848
 30
0.0
 11
396.729211
 21
61.582842
 31
0.0
  0
ENDBLK
  5
1D2
330
1D0
100
AcDbEntity
  8
0
100
AcDbBlockEnd
  0
BLOCK
  5
22D
330
22C
100
AcDbEntity
  8
0
100
AcDbBlockBegin
  2
KLON4
 70
     0
 71
     0
 10
0.0
 20
0.0
 30
0.0
  3
KLON4
  1

  4
KLON4
  0
LINE
  5
22F
330
22C
100
AcDbEntity
  8
LC-005-101-D00-0
  6
ByBlock
 62
     7
370
    25
100
AcDbLine
 10
403.472756
 20
56.253511
 30
0.0
 11
399.198267
 21
60.528
 31
0.0
  0
LINE
  5
230
330
22C
100
AcDbEntity
  8
LC-005-101-D00-0
  6
ByBlock
 62
     7
370
    25
100
AcDbLine
 10
403.472756
 20
52.01087
 30
0.0
 11
398.772756
 21
56.71087
 31
0.0
  0
LINE
  5
231
330
22C
100
AcDbEntity
  8
LC-005-101-D00-0
  6
ByBlock
 62
     7
370
    25
100
AcDbLine
 10
403.472756
 20
47.768229
 30
0.0
 11
398.772756
 21
52.468229
 31
0.0
  0
LINE
  5
232
330
22C
100
AcDbEntity
  8
LC-005-101-D00-0
  6
ByBlock
 62
     7
370
    25
100
AcDbLine
 10
403.200115
 20
43.79823
 30
0.0
 11
398.772756
 21
48.225589
 31
0.0
  0
LINE
  5
233
330
22C
100
AcDbEntity
  8
LC-005-101-D00-0
  6
ByBlock
 62
     7
370
    25
100
AcDbLine
 10
399.727704
 20
43.028
 30
0.0
 11
398.772756
 21
43.982948
 31
0.0
  0
ENDBLK
  5
22E
330
22C
100
AcDbEntity
  8
0
100
AcDbBlockEnd
  0
BLOCK
  5
236
330
235
100
AcDbEntity
  8
0
100
AcDbBlockBegin
  2
KLON5
 70
     0
 71
     0
 10
0.0
 20
0.0
 30
0.0
  3
KLON5
  1

  4
KLON5
  0
LINE
  5
238
330
235
100
AcDbEntity
  8
LC-005-101-D00-0
  6
ByBlock
 62
     7
370
    25
100
AcDbLine
 10
366.172756
 20
59.612385
 30
0.0
 11
365.257141
 21
60.528
 31
0.0
  0
LINE
  5
239
330
235
100
AcDbEntity
  8
LC-005-101-D00-0
  6
ByBlock
 62
     7
370
    25
100
AcDbLine
 10
366.172756
 20
55.369745
 30
0.0
 11
362.514501
 21
59.028
 31
0.0
  0
LINE
  5
23A
330
235
100
AcDbEntity
  8
LC-005-101-D00-0
  6
ByBlock
 62
     7
370
    25
100
AcDbLine
 10
366.172756
 20
51.127104
 30
0.0
 11
361.472756
 21
55.827104
 31
0.0
  0
LINE
  5
23B
330
235
100
AcDbEntity
  8
LC-005-101-D00-0
  6
ByBlock
 62
     7
370
    25
100
AcDbLine
 10
366.172756
 20
46.884463
 30
0.0
 11
361.472756
 21
51.584463
 31
0.0
  0
LINE
  5
23C
330
235
100
AcDbEntity
  8
LC-005-101-D00-0
  6
ByBlock
 62
     7
370
    25
100
AcDbLine
 10
365.786579
 20
43.028
 30
0.0
 11
362.786579
 21
46.028
 31
0.0
  0
LINE
  5
23D
330
235
100
AcDbEntity
  8
LC-005-101-D00-0
  6
ByBlock
 62
     7
370
    25
100
AcDbLine
 10
361.543938
 20
43.028
 30
0.0
 11
360.388426
 21
44.183512
 31
0.0
  0
ENDBLK
  5
237
330
235
100
AcDbEntity
  8
0
100
AcDbBlockEnd
  0
BLOCK
  5
2C7
330
2C6
100
AcDbEntity
  8
0
100
AcDbBlockBegin
  2
KLON6
 70
     0
 71
     0
 10
0.0
 20
0.0
 30
0.0
  3
KLON6
  1

  4
KLON6
  0
LINE
  5
2C9
330
2C6
100
AcDbEntity
  8
LC-005-101-D00-0
  6
ByBlock
 62
     7
370
    25
100
AcDbLine
 10
403.427379
 20
50.093343
 30
0.0
 11
405.862036
 21
52.528
 31
0.0
  0
LINE
  5
2CA
330
2C6
100
AcDbEntity
  8
LC-005-101-D00-0
  6
ByBlock
 62
     7
370
    25
100
AcDbLine
 10
403.427379
 20
57.164411
 30
0.0
 11
405.597177
 21
59.334209
 31
0.0
  0
LINE
  5
2CB
330
2C6
100
AcDbEntity
  8
LC-005-101-D00-0
  6
ByBlock
 62
     7
370
    25
100
AcDbLine
 10
401.979211
 20
62.787311
 30
0.0
 11
405.435107
 21
66.243207
 31
0.0
  0
LINE
  5
2CC
330
2C6
100
AcDbEntity
  8
LC-005-101-D00-0
  6
ByBlock
 62
     7
370
    25
100
AcDbLine
 10
394.722756
 20
62.601924
 30
0.0
 11
397.148833
 21
65.028
 31
0.0
  0
LINE
  5
2CD
330
2C6
100
AcDbEntity
  8
LC-005-101-D00-0
  6
ByBlock
 62
     7
370
    25
100
AcDbLine
 10
388.077765
 20
63.028
 30
0.0
 11
390.077765
 21
65.028
 31
0.0
  0
LINE
  5
2CE
330
2C6
100
AcDbEntity
  8
LC-005-101-D00-0
  6
ByBlock
 62
     7
370
    25
100
AcDbLine
 10
381.006697
 20
63.028
 30
0.0
 11
383.006697
 21
65.028
 31
0.0
  0
LINE
  5
2CF
330
2C6
100
AcDbEntity
  8
LC-005-101-D00-0
  6
ByBlock
 62
     7
370
    25
100
AcDbLine
 10
360.935629
 20
50.028
 30
0.0
 11
361.517379
 21
50.60975
 31
0.0
  0
LINE
  5
2D0
330
2C6
100
AcDbEntity
  8
LC-005-101-D00-0
  6
ByBlock
 62
     7
370
    25
100
AcDbLine
 10
373.935629
 20
63.028
 30
0.0
 11
375.935629
 21
65.028
 31
0.0
  0
LINE
  5
2D1
330
2C6
100
AcDbEntity
  8
LC-005-101-D00-0
  6
ByBlock
 62
     7
370
    25
100
AcDbLine
 10
359.348336
 20
55.511774
 30
0.0
 11
361.517379
 21
57.680817
 31
0.0
  0
LINE
  5
2D2
330
2C6
100
AcDbEntity
  8
LC-005-101-D00-0
  6
ByBlock
 62
     7
370
    25
100
AcDbLine
 10
366.464853
 20
62.628292
 30
0.0
 11
366.738855
 21
62.902293
 31
0.0
  0
LINE
  5
2D3
330
2C6
100
AcDbEntity
  8
LC-005-101-D00-0
  6
ByBlock
 62
     7
370
    25
100
AcDbLine
 10
366.864561
 20
63.028
 30
0.0
 11
368.864561
 21
65.028
 31
0.0
  0
LINE
  5
2D4
330
2C6
100
AcDbEntity
  8
LC-005-101-D00-0
  6
ByBlock
 62
     7
370
    25
100
AcDbLine
 10
359.348336
 20
62.582842
 30
0.0
 11
363.15793
 21
66.392437
 31
0.0
  0
ENDBLK
  5
2C8
330
2C6
100
AcDbEntity
  8
0
100
AcDbBlockEnd
  0
BLOCK
  5
2E1
330
2D7
100
AcDbEntity
  8
0
100
AcDbBlockBegin
  2
*D22
 70
     1
 71
     0
 10
0.0
 20
0.0
 30
0.0
  3
*D22
  1

  0
LINE
  5
2D8
330
2D7
100
AcDbEntity
  8
LC-004-003-----0
 62
     2
370
    -2
100
AcDbLine
 10
405.095704
 20
66.528
 30
0.0
 11
539.987109
 21
66.528
 31
0.0
  0
LINE
  5
2D9
330
2D7
100
AcDbEntity
  8
LC-004-003-----0
 62
     2
370
    -2
100
AcDbLine
 10
404.172756
 20
-64.472
 30
0.0
 11
539.987109
 21
-64.472
 31
0.0
  0
LINE
  5
2DA
330
2D7
100
AcDbEntity
  8
LC-004-003-----0
 62
     2
370
    -2
100
AcDbLine
 10
536.387109
 20
38.528
 30
0.0
 11
536.387109
 21
-36.472
 31
0.0
  0
SOLID
  5
2DB
330
2D7
100
AcDbEntity
  8
LC-004-003-----0
 62
     2
100
AcDbTrace
 10
541.053775
 20
38.528
 30
0.0
 11
531.720442
 21
38.528
 31
0.0
 12
536.387109
 22
66.528
 32
0.0
 13
536.387109
 23
66.528
 33
0.0
  0
SOLID
  5
2DC
330
2D7
100
AcDbEntity
  8
LC-004-003-----0
 62
     2
100
AcDbTrace
 10
531.720442
 20
-36.472
 30
0.0
 11
541.053775
 21
-36.472
 31
0.0
 12
536.387109
 22
-64.472
 32
0.0
 13
536.387109
 23
-64.472
 33
0.0
  0
MTEXT
  5
2DD
330
2D7
100
AcDbEntity
  8
LC-004-003-----0
 62
     2
100
AcDbMText
 10
505.587109
 20
-0.57
 30
0.0
 40
28.0
 41
0.0
 71
     5
 72
     1
  1
\A1;131
  7
LCTX15-400-0-0pDIN-Schrift
 11
6.123031769111886E-17
 21
1.0
 31
0.0
 73
     1
 44
1.0
  0
POINT
  5
2DE
330
2D7
100
AcDbEntity
  8
Defpoints
 62
     0
100
AcDbPoint
 10
405.095704
 20
66.528
 30
0.0
  0
POINT
  5
2DF
330
2D7
100
AcDbEntity
  8
Defpoints
 62
     0
100
AcDbPoint
 10
404.172756
 20
-64.472
 30
0.0
  0
POINT
  5
2E0
330
2D7
100
AcDbEntity
  8
Defpoints
 62
     0
100
AcDbPoint
 10
536.387109
 20
-64.472
 30
0.0
  0
ENDBLK
  5
2E2
330
2D7
100
AcDbEntity
  8
0
100
AcDbBlockEnd
  0
ENDSEC
  0
SECTION
  2
ENTITIES
  0
LINE
  5
32
330
1F
100
AcDbEntity
  8
LC-001-002-----0
 62
     7
370
    25
100
AcDbLine
 10
270.23904
 20
220.762708
 30
0.0
 11
317.273601
 21
220.762708
 31
0.0
  0
LINE
  5
33
330
1F
100
AcDbEntity
  8
LC-001-002-----0
  6
ByBlock
 62
     7
370
    50
100
AcDbLine
 10
288.472756
 20
248.762708
 30
0.0
 11
340.472756
 21
248.762708
 31
0.0
  0
LINE
  5
34
330
1F
100
AcDbEntity
  8
LC-001-002-----0
  6
ByBlock
 62
     7
370
    50
100
AcDbLine
 10
288.472756
 20
248.762708
 30
0.0
 11
288.472756
 21
249.762708
 31
0.0
  0
LINE
  5
35
330
1F
100
AcDbEntity
  8
LC-001-002-----0
  6
ByBlock
 62
     7
370
    50
100
AcDbLine
 10
286.029381
 20
252.262708
 30
0.0
 11
278.050107
 21
252.262708
 31
0.0
  0
LINE
  5
36
330
1F
100
AcDbEntity
  8
LC-001-002-----0
  6
ByBlock
 62
     7
370
    50
100
AcDbLine
 10
277.472756
 20
251.262708
 30
0.0
 11
277.472756
 21
220.762708
 31
0.0
  0
LINE
  5
37
330
1F
100
AcDbEntity
  8
LC-001-002-----0
  6
ByBlock
 62
     7
370
    50
100
AcDbLine
 10
288.472756
 20
249.762708
 30
0.0
 11
287.472756
 21
249.762708
 31
0.0
  0
LINE
  5
38
330
1F
100
AcDbEntity
  8
LC-001-002-----0
  6
ByBlock
 62
     7
370
    50
100
AcDbLine
 10
287.472756
 20
249.762708
 30
0.0
 11
286.029381
 21
252.262708
 31
0.0
  0
LINE
  5
39
330
1F
100
AcDbEntity
  8
LC-001-002-----0
  6
ByBlock
 62
     7
370
    50
100
AcDbLine
 10
277.472756
 20
251.262708
 30
0.0
 11
278.050107
 21
252.262708
 31
0.0
  0
LINE
  5
3A
330
1F
100
AcDbEntity
  8
LC-001-002-----0
  6
ByBlock
 62
     7
370
    50
100
AcDbLine
 10
286.029381
 20
246.262708
 30
0.0
 11
345.307842
 21
246.262708
 31
0.0
  0
LINE
  5
3B
330
1F
100
AcDbEntity
  8
LC-001-002-----0
  6
ByBlock
 62
     7
370
    50
100
AcDbLine
 10
283.029381
 20
249.762708
 30
0.0
 11
277.472756
 21
249.762708
 31
0.0
  0
ARC
  5
3C
330
1F
100
AcDbEntity
  8
LC-001-002-----0
  6
ByBlock
 62
     7
370
    50
100
AcDbCircle
 10
283.029381
 20
246.762708
 30
0.0
 40
3.000000000000171
100
AcDbArc
 50
0.0
 51
90.0
  0
LINE
  5
3D
330
1F
100
AcDbEntity
  8
LC-001-002-----0
  6
ByBlock
 62
     7
370
    50
100
AcDbLine
 10
286.029381
 20
246.762708
 30
0.0
 11
286.029381
 21
246.262708
 31
0.0
  0
LINE
  5
3E
330
1F
100
AcDbEntity
  8
LC-001-002-----0
  6
ByBlock
 62
     7
370
    50
100
AcDbLine
 10
286.029381
 20
246.262708
 30
0.0
 11
286.029381
 21
195.262237
 31
0.0
  0
LINE
  5
3F
330
1F
100
AcDbEntity
  8
LC-001-002-----0
  6
ByBlock
 62
     7
370
    50
100
AcDbLine
 10
286.895406
 20
251.762708
 30
0.0
 11
286.318056
 21
252.762708
 31
0.0
  0
LINE
  5
40
330
1F
100
AcDbEntity
  8
LC-001-002-----0
  6
ByBlock
 62
     7
370
    50
100
AcDbLine
 10
286.895406
 20
251.762708
 30
0.0
 11
287.740705
 21
251.762708
 31
0.0
  0
LINE
  5
41
330
1F
100
AcDbEntity
  8
LC-001-002-----0
  6
ByBlock
 62
     7
370
    50
100
AcDbLine
 10
287.740705
 20
251.762708
 30
0.0
 11
288.318056
 21
252.762708
 31
0.0
  0
LINE
  5
42
330
1F
100
AcDbEntity
  8
LC-001-002-----0
  6
ByBlock
 62
     7
370
    50
100
AcDbLine
 10
288.318056
 20
252.762708
 30
0.0
 11
288.318056
 21
254.762708
 31
0.0
  0
LINE
  5
43
330
1F
100
AcDbEntity
  8
LC-001-002-----0
  6
ByBlock
 62
     7
370
    50
100
AcDbLine
 10
274.472756
 20
248.762708
 30
0.0
 11
272.472756
 21
248.762708
 31
0.0
  0
LINE
  5
44
330
1F
100
AcDbEntity
  8
LC-001-002-----0
  6
ByBlock
 62
     7
370
    50
100
AcDbLine
 10
272.472756
 20
248.762708
 30
0.0
 11
272.472756
 21
220.762708
 31
0.0
  0
LINE
  5
45
330
1F
100
AcDbEntity
  8
LC-001-002-----0
  6
ByBlock
 62
     7
370
    50
100
AcDbLine
 10
272.472756
 20
246.262708
 30
0.0
 11
276.972756
 21
246.262708
 31
0.0
  0
LINE
  5
47
330
1F
100
AcDbEntity
  8
LC-002-001-----0
 62
     7
370
    50
100
AcDbLine
 10
274.472756
 20
251.762708
 30
0.0
 11
274.472756
 21
248.762708
 31
0.0
  0
ARC
  5
48
330
1F
100
AcDbEntity
  8
LC-002-001-----0
 62
     7
370
    50
100
AcDbCircle
 10
277.472756
 20
251.762708
 30
0.0
 40
3.000000000000047
100
AcDbArc
 50
89.999981
 51
180.0
  0
LINE
  5
49
330
1F
100
AcDbEntity
  8
LC-001-002-----0
  6
ByBlock
 62
     7
370
    50
100
AcDbLine
 10
277.472756
 20
254.762708
 30
0.0
 11
288.318056
 21
254.762708
 31
0.0
  0
LINE
  5
4A
330
1F
100
AcDbEntity
  8
LC-001-002-----0
  6
ByBlock
 62
     7
370
    50
100
AcDbLine
 10
276.972756
 20
252.262708
 30
0.0
 11
276.972756
 21
220.762708
 31
0.0
  0
ARC
  5
4B
330
1F
100
AcDbEntity
  8
LC-001-002-----0
  6
ByBlock
 62
     7
370
    50
100
AcDbCircle
 10
277.472756
 20
252.262708
 30
0.0
 40
0.5000000000000267
100
AcDbArc
 50
89.999981
 51
180.0
  0
LINE
  5
4C
330
1F
100
AcDbEntity
  8
LC-001-002-----0
  6
ByBlock
 62
     7
370
    50
100
AcDbLine
 10
277.472756
 20
252.762708
 30
0.0
 11
286.318056
 21
252.762708
 31
0.0
  0
CIRCLE
  5
4D
330
1F
100
AcDbEntity
  8
LC-001-002-----0
  6
ByBlock
 62
     7
370
    50
100
AcDbCircle
 10
281.752756
 20
246.512708
 30
0.0
 40
3.25
  0
LINE
  5
4E
102
{ACAD_REACTORS
330
2E3
102
}
330
1F
100
AcDbEntity
  8
LC-001-002-----0
  6
ByBlock
 62
     7
370
    50
100
AcDbLine
 10
288.471511
 20
192.762224
 30
0.0
 11
314.471511
 21
192.762086
 31
0.0
  0
LINE
  5
4F
102
{ACAD_REACTORS
330
2E3
102
}
330
1F
100
AcDbEntity
  8
LC-001-002-----0
  6
ByBlock
 62
     7
370
    50
100
AcDbLine
 10
288.471511
 20
192.762224
 30
0.0
 11
288.471506
 21
191.762224
 31
0.0
  0
LINE
  5
50
102
{ACAD_REACTORS
330
2E3
102
}
330
1F
100
AcDbEntity
  8
LC-001-002-----0
  6
ByBlock
 62
     7
370
    50
100
AcDbLine
 10
286.028117
 20
189.262237
 30
0.0
 11
278.048843
 21
189.262279
 31
0.0
  0
LINE
  5
51
102
{ACAD_REACTORS
330
2E3
102
}
330
1F
100
AcDbEntity
  8
LC-001-002-----0
  6
ByBlock
 62
     7
370
    50
100
AcDbLine
 10
277.471498
 20
190.262282
 30
0.0
 11
277.47166
 21
220.762282
 31
0.0
  0
LINE
  5
52
102
{ACAD_REACTORS
330
2E3
102
}
330
1F
100
AcDbEntity
  8
LC-001-002-----0
  6
ByBlock
 62
     7
370
    50
100
AcDbLine
 10
288.471506
 20
191.762224
 30
0.0
 11
287.471506
 21
191.762229
 31
0.0
  0
LINE
  5
53
102
{ACAD_REACTORS
330
2E3
102
}
330
1F
100
AcDbEntity
  8
LC-001-002-----0
  6
ByBlock
 62
     7
370
    50
100
AcDbLine
 10
287.471506
 20
191.762229
 30
0.0
 11
286.028117
 21
189.262237
 31
0.0
  0
LINE
  5
54
102
{ACAD_REACTORS
330
2E3
102
}
330
1F
100
AcDbEntity
  8
LC-001-002-----0
  6
ByBlock
 62
     7
370
    50
100
AcDbLine
 10
277.471498
 20
190.262282
 30
0.0
 11
278.048843
 21
189.262279
 31
0.0
  0
LINE
  5
55
102
{ACAD_REACTORS
330
2E3
102
}
330
1F
100
AcDbEntity
  8
LC-001-002-----0
  6
ByBlock
 62
     7
370
    50
100
AcDbLine
 10
286.028149
 20
195.262237
 30
0.0
 11
319.879653
 21
195.262057
 31
0.0
  0
LINE
  5
56
102
{ACAD_REACTORS
330
2E3
102
}
330
1F
100
AcDbEntity
  8
LC-001-002-----0
  6
ByBlock
 62
     7
370
    50
100
AcDbLine
 10
283.028131
 20
191.762253
 30
0.0
 11
277.471506
 21
191.762282
 31
0.0
  0
ARC
  5
57
102
{ACAD_REACTORS
330
2E3
102
}
330
1F
100
AcDbEntity
  8
LC-001-002-----0
  6
ByBlock
 62
     7
370
    50
100
AcDbCircle
 10
283.028146
 20
194.762253
 30
0.0
 40
3.000000000000128
100
AcDbArc
 50
269.999696
 51
359.999525
  0
LINE
  5
58
102
{ACAD_REACTORS
330
2E3
102
}
330
1F
100
AcDbEntity
  8
LC-001-002-----0
  6
ByBlock
 62
     7
370
    50
100
AcDbLine
 10
286.028146
 20
194.762237
 30
0.0
 11
286.028149
 21
195.262237
 31
0.0
  0
LINE
  5
59
102
{ACAD_REACTORS
330
2E3
102
}
330
1F
100
AcDbEntity
  8
LC-001-002-----0
  6
ByBlock
 62
     7
370
    50
100
AcDbLine
 10
286.894145
 20
189.762232
 30
0.0
 11
286.31679
 21
188.762235
 31
0.0
  0
LINE
  5
5A
102
{ACAD_REACTORS
330
2E3
102
}
330
1F
100
AcDbEntity
  8
LC-001-002-----0
  6
ByBlock
 62
     7
370
    50
100
AcDbLine
 10
286.894145
 20
189.762232
 30
0.0
 11
287.739445
 21
189.762228
 31
0.0
  0
LINE
  5
5B
102
{ACAD_REACTORS
330
2E3
102
}
330
1F
100
AcDbEntity
  8
LC-001-002-----0
  6
ByBlock
 62
     7
370
    50
100
AcDbLine
 10
287.739445
 20
189.762228
 30
0.0
 11
288.31679
 21
188.762224
 31
0.0
  0
LINE
  5
5C
102
{ACAD_REACTORS
330
2E3
102
}
330
1F
100
AcDbEntity
  8
LC-001-002-----0
  6
ByBlock
 62
     7
370
    50
100
AcDbLine
 10
288.31679
 20
188.762224
 30
0.0
 11
288.316779
 21
186.762224
 31
0.0
  0
LINE
  5
5D
102
{ACAD_REACTORS
330
2E3
102
}
330
1F
100
AcDbEntity
  8
LC-001-002-----0
  6
ByBlock
 62
     7
370
    50
100
AcDbLine
 10
274.471511
 20
192.762298
 30
0.0
 11
272.471511
 21
192.762309
 31
0.0
  0
LINE
  5
5E
102
{ACAD_REACTORS
330
2E3
102
}
330
1F
100
AcDbEntity
  8
LC-001-002-----0
  6
ByBlock
 62
     7
370
    50
100
AcDbLine
 10
272.471511
 20
192.762309
 30
0.0
 11
272.47166
 21
220.762309
 31
0.0
  0
LINE
  5
5F
102
{ACAD_REACTORS
330
2E3
102
}
330
1F
100
AcDbEntity
  8
LC-001-002-----0
  6
ByBlock
 62
     7
370
    50
100
AcDbLine
 10
272.471525
 20
195.262309
 30
0.0
 11
276.971525
 21
195.262285
 31
0.0
  0
LINE
  5
60
102
{ACAD_REACTORS
330
2E3
102
}
330
1F
100
AcDbEntity
  8
LC-002-001-----0
 62
     7
370
    50
100
AcDbLine
 10
274.471496
 20
189.762298
 30
0.0
 11
274.471511
 21
192.762298
 31
0.0
  0
ARC
  5
61
102
{ACAD_REACTORS
330
2E3
102
}
330
1F
100
AcDbEntity
  8
LC-002-001-----0
 62
     7
370
    50
100
AcDbCircle
 10
277.471496
 20
189.762282
 30
0.0
 40
3.000000000000128
100
AcDbArc
 50
179.999696
 51
269.999544
  0
LINE
  5
62
102
{ACAD_REACTORS
330
2E3
102
}
330
1F
100
AcDbEntity
  8
LC-001-002-----0
  6
ByBlock
 62
     7
370
    50
100
AcDbLine
 10
277.47148
 20
186.762282
 30
0.0
 11
288.316779
 21
186.762224
 31
0.0
  0
LINE
  5
63
102
{ACAD_REACTORS
330
2E3
102
}
330
1F
100
AcDbEntity
  8
LC-001-002-----0
  6
ByBlock
 62
     7
370
    50
100
AcDbLine
 10
276.971493
 20
189.262285
 30
0.0
 11
276.97166
 21
220.762285
 31
0.0
  0
ARC
  5
64
102
{ACAD_REACTORS
330
2E3
102
}
330
1F
100
AcDbEntity
  8
LC-001-002-----0
  6
ByBlock
 62
     7
370
    50
100
AcDbCircle
 10
277.471493
 20
189.262282
 30
0.0
 40
0.5000000000000497
100
AcDbArc
 50
179.999696
 51
269.999544
  0
LINE
  5
65
102
{ACAD_REACTORS
330
2E3
102
}
330
1F
100
AcDbEntity
  8
LC-001-002-----0
  6
ByBlock
 62
     7
370
    50
100
AcDbLine
 10
277.47149
 20
188.762282
 30
0.0
 11
286.31679
 21
188.762235
 31
0.0
  0
CIRCLE
  5
66
102
{ACAD_REACTORS
330
2E3
102
}
330
1F
100
AcDbEntity
  8
LC-001-002-----0
  6
ByBlock
 62
     7
370
    50
100
AcDbCircle
 10
281.751523
 20
195.012259
 30
0.0
 40
3.250000000000182
  0
LINE
  5
67
330
1F
100
AcDbEntity
  8
LC-001-002-----0
  6
ByBlock
 62
     7
370
    50
100
AcDbLine
 10
420.472756
 20
226.762708
 30
0.0
 11
460.972756
 21
226.762708
 31
0.0
  0
LINE
  5
68
330
1F
100
AcDbEntity
  8
LC-001-002-----0
 62
     7
370
    25
100
AcDbLine
 10
405.472756
 20
202.762708
 30
0.0
 11
464.472756
 21
202.762708
 31
0.0
  0
LINE
  5
69
330
1F
100
AcDbEntity
  8
LC-001-002-----0
  6
ByBlock
 62
     7
370
    50
100
AcDbLine
 10
420.472756
 20
178.762708
 30
0.0
 11
460.972756
 21
178.762708
 31
0.0
  0
LINE
  5
6A
330
1F
100
AcDbEntity
  8
LC-001-002-----0
  6
ByBlock
 62
     7
370
    50
100
AcDbLine
 10
348.53767
 20
248.262708
 30
0.0
 11
403.440923
 21
248.262708
 31
0.0
  0
LINE
  5
6B
330
1F
100
AcDbEntity
  8
LC-001-002-----0
  6
ByBlock
 62
     7
370
    50
100
AcDbLine
 10
418.531487
 20
182.262708
 30
0.0
 11
464.472756
 21
182.262708
 31
0.0
  0
LINE
  5
6C
330
1F
100
AcDbEntity
  8
LC-001-002-----0
  6
ByBlock
 62
     7
370
    50
100
AcDbLine
 10
464.472756
 20
225.824885
 30
0.0
 11
464.472756
 21
179.70053
 31
0.0
  0
ARC
  5
6D
330
1F
100
AcDbEntity
  8
LC-001-002-----0
  6
ByBlock
 62
     7
370
    50
100
AcDbCircle
 10
343.936858
 20
248.762708
 30
0.0
 40
3.0
100
AcDbArc
 50
90.0
 51
149.999981
  0
LINE
  5
6E
330
1F
100
AcDbEntity
  8
LC-001-002-----0
  6
ByBlock
 62
     7
370
    50
100
AcDbLine
 10
340.472756
 20
248.762708
 30
0.0
 11
341.338782
 21
250.262708
 31
0.0
  0
LINE
  5
6F
330
1F
100
AcDbEntity
  8
LC-001-002-----0
  6
ByBlock
 62
     7
370
    50
100
AcDbLine
 10
420.472756
 20
226.762708
 30
0.0
 11
406.905025
 21
250.262708
 31
0.0
  0
ARC
  5
70
330
1F
100
AcDbEntity
  8
LC-001-002-----0
  6
ByBlock
 62
     7
370
    50
100
AcDbCircle
 10
404.306949
 20
248.762708
 30
0.0
 40
3.000000000000049
100
AcDbArc
 50
30.0
 51
89.999981
  0
LINE
  5
71
330
1F
100
AcDbEntity
  8
LC-001-002-----0
  6
ByBlock
 62
     7
370
    50
100
AcDbLine
 10
343.936858
 20
251.762708
 30
0.0
 11
404.306949
 21
251.762708
 31
0.0
  0
LINE
  5
72
330
1F
100
AcDbEntity
  8
LC-001-002-----0
  6
ByBlock
 62
     7
370
    50
100
AcDbLine
 10
417.008655
 20
224.762708
 30
0.0
 11
403.440923
 21
248.262708
 31
0.0
  0
ARC
  5
73
330
1F
100
AcDbEntity
  8
LC-001-002-----0
  6
ByBlock
 62
     7
370
    50
100
AcDbCircle
 10
419.606731
 20
226.262708
 30
0.0
 40
2.999999999999951
100
AcDbArc
 50
210.0
 51
270.000058
  0
LINE
  5
74
330
1F
100
AcDbEntity
  8
LC-001-002-----0
  6
ByBlock
 62
     7
370
    50
100
AcDbLine
 10
419.606731
 20
223.262708
 30
0.0
 11
464.472756
 21
223.262708
 31
0.0
  0
LINE
  5
75
330
1F
100
AcDbEntity
  8
LC-001-002-----0
  6
ByBlock
 62
     7
370
    50
100
AcDbLine
 10
460.972756
 20
178.762708
 30
0.0
 11
464.472756
 21
179.70053
 31
0.0
  0
LINE
  5
76
330
1F
100
AcDbEntity
  8
LC-001-002-----0
  6
ByBlock
 62
     7
370
    50
100
AcDbLine
 10
460.972756
 20
226.762708
 30
0.0
 11
464.472756
 21
225.824885
 31
0.0
  0
LINE
  5
77
330
1F
100
AcDbEntity
  8
LC-001-002-----0
  6
ByBlock
 62
     7
370
    50
100
AcDbLine
 10
327.750209
 20
169.762708
 30
0.0
 11
405.472756
 21
169.762708
 31
0.0
  0
LINE
  5
78
330
1F
100
AcDbEntity
  8
LC-001-002-----0
  6
ByBlock
 62
     7
370
    50
100
AcDbLine
 10
405.472756
 20
169.762708
 30
0.0
 11
420.472756
 21
178.762708
 31
0.0
  0
LINE
  5
79
330
1F
100
AcDbEntity
  8
LC-002-001-----0
 62
     7
370
    50
100
AcDbLine
 10
403.531487
 20
173.262708
 30
0.0
 11
418.531487
 21
182.262708
 31
0.0
  0
LINE
  5
7A
330
1F
100
AcDbEntity
  8
LC-002-001-----0
 62
     7
370
    50
100
AcDbLine
 10
330.348285
 20
173.262708
 30
0.0
 11
403.531487
 21
173.262708
 31
0.0
  0
LINE
  5
7B
330
1F
100
AcDbEntity
  8
LC-001-002-----0
  6
ByBlock
 62
     7
370
    50
100
AcDbLine
 10
314.471511
 20
192.762086
 30
0.0
 11
327.750209
 21
169.762708
 31
0.0
  0
LINE
  5
7C
330
1F
100
AcDbEntity
  8
LC-001-002-----0
  6
ByBlock
 62
     7
370
    50
100
AcDbLine
 10
322.112333
 20
199.740112
 30
0.0
 11
323.008938
 21
199.293082
 31
0.0
  0
LINE
  5
7D
330
1F
100
AcDbEntity
  8
LC-001-002-----0
  6
ByBlock
 62
     7
370
    50
100
AcDbLine
 10
323.567638
 20
198.172502
 30
0.0
 11
323.234575
 21
197.504482
 31
0.0
  0
LINE
  5
7E
330
1F
100
AcDbEntity
  8
LC-001-002-----0
  6
ByBlock
 62
     7
370
    50
100
AcDbLine
 10
322.955225
 20
197.504482
 30
0.0
 11
323.234575
 21
197.504482
 31
0.0
  0
LINE
  5
7F
330
1F
100
AcDbEntity
  8
LC-001-002-----0
  6
ByBlock
 62
     7
370
    50
100
AcDbLine
 10
323.008938
 20
199.293082
 30
0.0
 11
323.567638
 21
198.172502
 31
0.0
  0
LINE
  5
80
330
1F
100
AcDbEntity
  8
LC-001-002-----0
 62
     7
370
    25
100
AcDbLine
 10
332.14799
 20
223.230228
 30
0.0
 11
346.467085
 21
216.090991
 31
0.0
  0
LINE
  5
81
330
1F
100
AcDbEntity
  8
LC-002-001-----0
 62
     7
370
    50
100
AcDbLine
 10
348.002037
 20
241.584601
 30
0.0
 11
349.786598
 21
245.164453
 31
0.0
  0
LINE
  5
82
330
1F
100
AcDbEntity
  8
LC-002-001-----0
 62
     7
370
    50
100
AcDbLine
 10
348.226434
 20
240.91402
 30
0.0
 11
350.010995
 21
244.493873
 31
0.0
  0
LINE
  5
83
330
1F
100
AcDbEntity
  8
LC-002-001-----0
 62
     7
370
    50
100
AcDbLine
 10
339.30761
 20
219.660573
 30
0.0
 11
351.353396
 21
243.824576
 31
0.0
  0
LINE
  5
84
330
1F
100
AcDbEntity
  8
LC-001-002-----0
  6
ByBlock
 62
     7
370
    50
100
AcDbLine
 10
351.354951
 20
243.823801
 30
0.0
 11
350.012549
 21
244.493098
 31
0.0
  0
LINE
  5
85
330
1F
100
AcDbEntity
  8
LC-001-002-----0
  6
ByBlock
 62
     7
370
    50
100
AcDbLine
 10
348.227758
 20
240.91336
 30
0.0
 11
343.753086
 21
243.144349
 31
0.0
  0
LINE
  5
86
330
1F
100
AcDbEntity
  8
LC-001-002-----0
  6
ByBlock
 62
     7
370
    50
100
AcDbLine
 10
343.753086
 20
243.144349
 30
0.0
 11
345.307842
 21
246.262708
 31
0.0
  0
LINE
  5
87
330
1F
100
AcDbEntity
  8
LC-001-002-----0
  6
ByBlock
 62
     7
370
    50
100
AcDbLine
 10
344.199284
 20
244.039284
 30
0.0
 11
342.856882
 21
244.70858
 31
0.0
  0
LINE
  5
88
330
1F
100
AcDbEntity
  8
LC-001-002-----0
  6
ByBlock
 62
     7
370
    50
100
AcDbLine
 10
342.856882
 20
244.70858
 30
0.0
 11
332.148135
 21
223.230156
 31
0.0
  0
LINE
  5
89
330
1F
100
AcDbEntity
  8
LC-001-002-----0
  6
ByBlock
 62
     7
370
    50
100
AcDbLine
 10
341.964487
 20
242.918712
 30
0.0
 11
349.123962
 21
239.349129
 31
0.0
  0
LINE
  5
8A
330
1F
100
AcDbEntity
  8
LC-001-002-----0
  6
ByBlock
 62
     7
370
    50
100
AcDbLine
 10
345.541631
 20
242.252614
 30
0.0
 11
348.53767
 21
248.262708
 31
0.0
  0
LINE
  5
8B
330
1F
100
AcDbEntity
  8
LC-001-002-----0
  6
ByBlock
 62
     7
370
    50
100
AcDbLine
 10
348.002037
 20
241.584601
 30
0.0
 11
346.212168
 21
242.476996
 31
0.0
  0
LINE
  5
8C
330
1F
100
AcDbEntity
  8
LC-001-002-----0
  6
ByBlock
 62
     7
370
    50
100
AcDbLine
 10
346.467085
 20
216.090991
 30
0.0
 11
358.512871
 21
240.254993
 31
0.0
  0
LINE
  5
8D
330
1F
100
AcDbEntity
  8
LC-001-002-----0
  6
ByBlock
 62
     7
370
    50
100
AcDbLine
 10
350.678878
 20
246.954379
 30
0.0
 11
358.512871
 21
240.254993
 31
0.0
  0
LINE
  5
8E
330
1F
100
AcDbEntity
  8
LC-001-002-----0
  6
ByBlock
 62
     7
370
    50
100
AcDbLine
 10
349.786483
 20
245.16451
 30
0.0
 11
358.179777
 21
239.583018
 31
0.0
  0
LINE
  5
8F
330
1F
100
AcDbEntity
  8
LC-002-001-----0
 62
     7
370
    50
100
AcDbLine
 10
346.212168
 20
242.476996
 30
0.0
 11
347.996672
 21
246.056734
 31
0.0
  0
ARC
  5
90
330
1F
100
AcDbEntity
  8
LC-002-001-----0
 62
     7
370
    50
100
AcDbCircle
 10
349.786598
 20
245.164453
 30
0.0
 40
2.000000000000061
100
AcDbArc
 50
63.5
 51
153.503685
  0
LINE
  5
91
330
1F
100
AcDbEntity
  8
LC-001-002-----0
  6
ByBlock
 62
     7
370
    50
100
AcDbLine
 10
350.678993
 20
246.954322
 30
0.0
 11
350.679224
 21
246.954207
 31
0.0
  0
LINE
  5
92
102
{ACAD_REACTORS
330
2E5
102
}
330
1F
100
AcDbEntity
  8
LC-002-001-----0
 62
     7
370
    50
100
AcDbLine
 10
339.307455
 20
219.660625
 30
0.0
 11
327.258544
 21
195.49818
 31
0.0
  0
LINE
  5
93
102
{ACAD_REACTORS
330
2E5
102
}
330
1F
100
AcDbEntity
  8
LC-001-002-----0
  6
ByBlock
 62
     7
370
    50
100
AcDbLine
 10
321.439221
 20
201.751794
 30
0.0
 11
332.147982
 21
223.230212
 31
0.0
  0
LINE
  5
94
102
{ACAD_REACTORS
330
2E5
102
}
330
1F
100
AcDbEntity
  8
LC-001-002-----0
  6
ByBlock
 62
     7
370
    50
100
AcDbLine
 10
346.466927
 20
216.091037
 30
0.0
 11
334.418016
 21
191.928592
 31
0.0
  0
LINE
  5
95
330
1F
100
AcDbEntity
  8
LC-001-002-----0
  6
ByBlock
 62
     7
370
    50
100
AcDbLine
 10
325.245433
 20
195.943181
 30
0.0
 11
334.754219
 21
192.599018
 31
0.0
  0
LINE
  5
96
330
1F
100
AcDbEntity
  8
LC-001-002-----0
  6
ByBlock
 62
     7
370
    50
100
AcDbLine
 10
324.353036
 20
194.153313
 30
0.0
 11
334.418016
 21
191.928592
 31
0.0
  0
ARC
  5
97
330
1F
100
AcDbEntity
  8
LC-002-001-----0
 62
     7
370
    50
100
AcDbCircle
 10
325.245548
 20
195.943124
 30
0.0
 40
1.999999999999966
100
AcDbArc
 50
153.496277
 51
243.499925
  0
LINE
  5
98
330
1F
100
AcDbEntity
  8
LC-002-001-----0
 62
     7
370
    50
100
AcDbLine
 10
325.240703
 20
200.415142
 30
0.0
 11
323.455737
 21
196.835636
 31
0.0
  0
LINE
  5
99
330
1F
100
AcDbEntity
  8
LC-002-001-----0
 62
     7
370
    50
100
AcDbLine
 10
327.030572
 20
199.522745
 30
0.0
 11
325.245548
 21
195.943124
 31
0.0
  0
LINE
  5
9A
330
1F
100
AcDbEntity
  8
LC-001-002-----0
  6
ByBlock
 62
     7
370
    50
100
AcDbLine
 10
327.030572
 20
199.522745
 30
0.0
 11
325.240703
 21
200.415142
 31
0.0
  0
LINE
  5
9B
330
1F
100
AcDbEntity
  8
LC-001-002-----0
  6
ByBlock
 62
     7
370
    50
100
AcDbLine
 10
327.70249
 20
199.746439
 30
0.0
 11
323.22782
 21
201.977431
 31
0.0
  0
LINE
  5
9C
330
1F
100
AcDbEntity
  8
LC-002-001-----0
 62
     7
370
    50
100
AcDbLine
 10
327.701167
 20
199.747099
 30
0.0
 11
325.916143
 21
196.167477
 31
0.0
  0
LINE
  5
9D
330
1F
100
AcDbEntity
  8
LC-001-002-----0
  6
ByBlock
 62
     7
370
    50
100
AcDbLine
 10
327.260098
 20
195.497405
 30
0.0
 11
325.917697
 21
196.166702
 31
0.0
  0
LINE
  5
9E
330
1F
100
AcDbEntity
  8
LC-001-002-----0
  6
ByBlock
 62
     7
370
    50
100
AcDbLine
 10
323.22782
 20
201.977431
 30
0.0
 11
319.879653
 21
195.262057
 31
0.0
  0
LINE
  5
9F
330
1F
100
AcDbEntity
  8
LC-001-002-----0
  6
ByBlock
 62
     7
370
    50
100
AcDbLine
 10
322.781622
 20
201.082497
 30
0.0
 11
321.439221
 21
201.751794
 31
0.0
  0
LINE
  5
A0
330
1F
100
AcDbEntity
  8
LC-001-002-----0
  6
ByBlock
 62
     7
370
    50
100
AcDbLine
 10
322.955225
 20
197.504482
 30
0.0
 11
319.895457
 21
191.367537
 31
0.0
  0
LINE
  5
A1
330
1F
100
AcDbEntity
  8
LC-001-002-----0
  6
ByBlock
 62
     7
370
    50
100
AcDbLine
 10
322.331617
 20
203.541662
 30
0.0
 11
329.49109
 21
199.972075
 31
0.0
  0
CIRCLE
  5
A2
330
1F
100
AcDbEntity
  8
LC-001-002-----0
  6
ByBlock
 62
     7
370
    50
100
AcDbCircle
 10
372.867648
 20
202.928155
 30
0.0
 40
29.5
  0
ARC
  5
A3
330
1F
100
AcDbEntity
  8
LC-001-002-----0
  6
ByBlock
 62
     7
370
    25
100
AcDbCircle
 10
372.867648
 20
202.928155
 30
0.0
 40
24.99999999999996
100
AcDbArc
 50
294.60291
 51
136.008561
  0
ARC
  5
A4
330
1F
100
AcDbEntity
  8
LC-001-002-----0
  6
ByBlock
 62
     7
370
    25
100
AcDbCircle
 10
372.867648
 20
202.928155
 30
0.0
 40
14.99999999999996
100
AcDbArc
 50
139.63958
 51
303.371826
  0
ARC
  5
A5
330
1F
100
AcDbEntity
  8
LC-001-002-----0
  6
ByBlock
 62
     7
370
    25
100
AcDbCircle
 10
372.867648
 20
202.928155
 30
0.0
 40
5.000000000000227
100
AcDbArc
 50
0.0
 51
188.742273
  0
LINE
  5
A6
330
1F
100
AcDbEntity
  8
LC-001-002-----0
  6
ByBlock
 62
     7
370
    50
100
AcDbLine
 10
319.895457
 20
191.367537
 30
0.0
 11
330.348285
 21
173.262708
 31
0.0
  0
INSERT
  5
DE
330
1F
100
AcDbEntity
  8
LC-003-005-----0
 62
     7
370
    25
100
AcDbBlockReference
  2
*X11
 10
0.0
 20
0.0
 30
0.0
  0
INSERT
  5
112
330
1F
100
AcDbEntity
  8
LC-003-005-----0
 62
     7
370
    25
100
AcDbBlockReference
  2
*X22
 10
0.0
 20
0.0
 30
0.0
  0
INSERT
  5
11D
330
1F
100
AcDbEntity
  8
LC-003-005-----0
 62
     7
370
    25
100
AcDbBlockReference
  2
*X33
 10
0.0
 20
0.0
 30
0.0
  0
INSERT
  5
127
330
1F
100
AcDbEntity
  8
LC-003-005-----0
 62
     7
370
    25
100
AcDbBlockReference
  2
*X44
 10
0.0
 20
0.0
 30
0.0
  0
INSERT
  5
131
330
1F
100
AcDbEntity
  8
LC-003-005-----0
 62
     7
370
    25
100
AcDbBlockReference
  2
*X55
 10
0.0
 20
0.0
 30
0.0
  0
INSERT
  5
13B
330
1F
100
AcDbEntity
  8
LC-003-005-----0
 62
     7
370
    25
100
AcDbBlockReference
  2
*X66
 10
0.0
 20
0.0
 30
0.0
  0
INSERT
  5
146
330
1F
100
AcDbEntity
  8
LC-003-005-----0
 62
     7
370
    25
100
AcDbBlockReference
  2
*X77
 10
0.0
 20
0.0
 30
0.0
  0
INSERT
  5
154
330
1F
100
AcDbEntity
  8
LC-003-005-----0
 62
     7
370
    25
100
AcDbBlockReference
  2
*X88
 10
0.0
 20
0.0
 30
0.0
  0
INSERT
  5
15C
330
1F
100
AcDbEntity
  8
LC-003-005-----0
 62
     7
370
    25
100
AcDbBlockReference
  2
*X99
 10
0.0
 20
0.0
 30
0.0
  0
INSERT
  5
166
330
1F
100
AcDbEntity
  8
LC-003-005-----0
 62
     7
370
    25
100
AcDbBlockReference
  2
*X1010
 10
0.0
 20
0.0
 30
0.0
  0
DIMENSION
  5
16A
330
1F
100
AcDbEntity
  8
LC-004-003-----0
 62
     7
370
    25
100
AcDbDimension
  2
*D11
 10
464.472756
 20
112.434
 30
0.0
 11
364.888782
 21
143.234
 31
0.0
 70
   160
  1
193
 71
     5
 42
192.001232
  3
LC-DIM-L-0140-02-02
100
AcDbAlignedDimension
 13
272.471525
 23
195.262309
 33
0.0
 14
464.472756
 24
182.262708
 34
0.0
100
AcDbRotatedDimension
  0
DIMENSION
  5
178
330
1F
100
AcDbEntity
  8
LC-004-003-----0
 62
     7
370
    25
100
AcDbDimension
  2
*D12
 10
254.659423
 20
195.262309
 30
0.0
 11
223.859423
 21
220.762508
 31
0.0
 70
   160
  1
DN50
 71
     5
 42
51.000399
 53
90.0
  3
LC-DIM-L-0140-02-02
100
AcDbAlignedDimension
 13
272.472756
 23
246.262708
 33
0.0
 14
272.471525
 24
195.262309
 34
0.0
 50
90.0
100
AcDbRotatedDimension
  0
DIMENSION
  5
187
330
1F
100
AcDbEntity
  8
LC-004-003-----0
 62
     7
370
    25
100
AcDbDimension
  2
*D13
 10
512.659423
 20
202.762708
 30
0.0
 11
481.859423
 21
266.923987
 31
0.0
 70
   160
 71
     5
 42
18.0
 53
90.0
  3
LC-DIM-L-0140-02-02
100
AcDbAlignedDimension
 13
317.273601
 23
220.762708
 33
0.0
 14
464.472756
 24
202.762708
 34
0.0
 50
90.0
100
AcDbRotatedDimension
  0
DIMENSION
  5
195
330
1F
100
AcDbEntity
  8
LC-004-003-----0
 62
     7
370
    25
100
AcDbDimension
  2
*D14
 10
562.659423
 20
178.762708
 30
0.0
 11
531.859423
 21
202.762708
 31
0.0
 70
   160
  1
DN50
 71
     5
 42
48.0
 53
90.0
  3
LC-DIM-L-0140-02-02
100
AcDbAlignedDimension
 13
460.972756
 23
226.762708
 33
0.0
 14
460.972756
 24
178.762708
 34
0.0
 50
90.0
100
AcDbRotatedDimension
  0
DIMENSION
  5
1A4
330
1F
100
AcDbEntity
  8
LC-004-003-----0
 62
     7
370
    25
100
AcDbDimension
  2
*D15
 10
198.381421
 20
169.762708
 30
0.0
 11
167.581421
 21
215.622
 31
0.0
 70
   160
 71
     5
 42
85.0
 53
90.0
  3
LC-DIM-L-0140-02-02
100
AcDbAlignedDimension
 13
277.472757
 23
254.762708
 33
0.0
 14
327.750209
 24
169.762708
 34
0.0
 50
90.0
100
AcDbRotatedDimension
  0
LINE
  5
1B2
102
{ACAD_REACTORS
330
2E6
102
}
330
1F
100
AcDbEntity
  8
LC-005-101-D00-0
 62
     7
370
    25
100
AcDbLine
 10
382.472756
 20
39.750746
 30
0.0
 11
382.472756
 21
61.557081
 31
0.0
  0
INSERT
  5
1DC
330
1F
100
AcDbEntity
  8
LC-005-101-D00-0
  6
ByBlock
 62
     7
370
    50
100
AcDbBlockReference
  2
KLON1
 10
0.0
 20
0.0
 30
0.0
  0
LINE
  5
1DD
102
{ACAD_REACTORS
330
2E8
102
}
330
1F
100
AcDbEntity
  8
LC-005-101-D00-0
  6
ByBlock
 62
     7
370
    50
100
AcDbLine
 10
407.672756
 20
-47.472
 30
0.0
 11
357.272756
 21
-47.472
 31
0.0
  0
LINE
  5
1DE
102
{ACAD_REACTORS
330
2E4
102
}
330
1F
100
AcDbEntity
  8
LC-005-101-D00-0
  6
ByBlock
 62
     7
370
    50
100
AcDbLine
 10
362.972756
 20
59.028
 30
0.0
 11
362.972756
 21
61.028
 31
0.0
  0
LINE
  5
1DF
102
{ACAD_REACTORS
330
2E7
102
}
330
1F
100
AcDbEntity
  8
LC-005-101-D00-0
  6
ByBlock
 62
     7
370
    50
100
AcDbLine
 10
288.472756
 20
31.228
 30
0.0
 11
288.472756
 21
-33.972
 31
0.0
  0
LINE
  5
1E0
102
{ACAD_REACTORS
330
2E6
102
}
330
1F
100
AcDbEntity
  8
LC-005-101-D00-0
  6
ByBlock
 62
     7
370
    50
100
AcDbLine
 10
401.472756
 20
59.028
 30
0.0
 11
403.472756
 21
59.028
 31
0.0
  0
LINE
  5
1E1
102
{ACAD_REACTORS
330
2E6
102
}
330
1F
100
AcDbEntity
  8
LC-005-101-D00-0
  6
ByBlock
 62
     7
370
    50
100
AcDbLine
 10
401.472756
 20
60.528
 30
0.0
 11
401.472756
 21
59.028
 31
0.0
  0
LINE
  5
1E2
102
{ACAD_REACTORS
330
2E6
102
}
330
1F
100
AcDbEntity
  8
LC-005-101-D00-0
  6
ByBlock
 62
     7
370
    50
100
AcDbLine
 10
398.772756
 20
60.528
 30
0.0
 11
401.472756
 21
60.528
 31
0.0
  0
LINE
  5
1E3
102
{ACAD_REACTORS
330
2E6
102
}
330
1F
100
AcDbEntity
  8
LC-005-101-D00-0
  6
ByBlock
 62
     7
370
    50
100
AcDbLine
 10
363.472756
 20
60.528
 30
0.0
 11
366.172756
 21
60.528
 31
0.0
  0
LINE
  5
1E4
102
{ACAD_REACTORS
330
2E6
102
}
330
1F
100
AcDbEntity
  8
LC-005-101-D00-0
  6
ByBlock
 62
     7
370
    50
100
AcDbLine
 10
363.472756
 20
59.028
 30
0.0
 11
363.472756
 21
60.528
 31
0.0
  0
LINE
  5
1E5
102
{ACAD_REACTORS
330
2E6
102
}
330
1F
100
AcDbEntity
  8
LC-005-101-D00-0
  6
ByBlock
 62
     7
370
    50
100
AcDbLine
 10
419.472756
 20
26.028
 30
0.0
 11
460.972756
 21
26.028
 31
0.0
  0
LINE
  5
1E6
102
{ACAD_REACTORS
330
2E6
102
}
330
1F
100
AcDbEntity
  8
LC-005-101-D00-0
  6
ByBlock
 62
     7
370
    50
100
AcDbLine
 10
464.472756
 20
25.090178
 30
0.0
 11
464.472756
 21
1.028
 31
0.0
  0
LINE
  5
1E7
102
{ACAD_REACTORS
330
2E6
102
}
330
1F
100
AcDbEntity
  8
LC-005-101-D00-0
  6
ByBlock
 62
     7
370
    50
100
AcDbLine
 10
460.972756
 20
-23.972
 30
0.0
 11
419.472756
 21
-23.972
 31
0.0
  0
LINE
  5
1E8
102
{ACAD_REACTORS
330
2E6
102
}
330
1F
100
AcDbEntity
  8
LC-005-101-D00-0
  6
ByBlock
 62
     7
370
    50
100
AcDbLine
 10
419.472756
 20
26.028
 30
0.0
 11
407.925751
 21
46.028
 31
0.0
  0
LINE
  5
1E9
102
{ACAD_REACTORS
330
2E6
102
}
330
1F
100
AcDbEntity
  8
LC-005-101-D00-0
  6
ByBlock
 62
     7
370
    50
100
AcDbLine
 10
419.472756
 20
-23.972
 30
0.0
 11
407.925751
 21
-43.972
 31
0.0
  0
LINE
  5
1EA
102
{ACAD_REACTORS
330
2E6
102
}
330
1F
100
AcDbEntity
  8
LC-005-101-D00-0
  6
ByBlock
 62
     7
370
    50
100
AcDbLine
 10
460.972756
 20
26.028
 30
0.0
 11
464.472756
 21
25.090178
 31
0.0
  0
LINE
  5
1EB
102
{ACAD_REACTORS
330
2E6
102
}
330
1F
100
AcDbEntity
  8
LC-005-101-D00-0
  6
ByBlock
 62
     7
370
    50
100
AcDbLine
 10
460.972756
 20
-23.972
 30
0.0
 11
464.472756
 21
-23.034178
 31
0.0
  0
LINE
  5
1EC
102
{ACAD_REACTORS
330
2E6
102
}
330
1F
100
AcDbEntity
  8
LC-005-101-D00-0
  6
ByBlock
 62
     7
370
    50
100
AcDbLine
 10
460.972756
 20
26.028
 30
0.0
 11
460.972756
 21
-23.972
 31
0.0
  0
LINE
  5
1ED
102
{ACAD_REACTORS
330
2E6
102
}
330
1F
100
AcDbEntity
  8
LC-005-101-D00-0
  6
ByBlock
 62
     7
370
    50
100
AcDbLine
 10
419.472756
 20
-23.972
 30
0.0
 11
419.472756
 21
26.028
 31
0.0
  0
LINE
  5
1EE
102
{ACAD_REACTORS
330
2E6
102
}
330
1F
100
AcDbEntity
  8
LC-005-101-D00-0
  6
ByBlock
 62
     7
370
    50
100
AcDbLine
 10
407.925751
 20
46.028
 30
0.0
 11
407.925751
 21
-43.972
 31
0.0
  0
LINE
  5
1EF
102
{ACAD_REACTORS
330
2E6
102
}
330
1F
100
AcDbEntity
  8
LC-005-101-D00-0
  6
ByBlock
 62
     7
370
    50
100
AcDbLine
 10
288.472756
 20
27.528
 30
0.0
 11
330.35802
 21
27.528
 31
0.0
  0
LINE
  5
1F0
102
{ACAD_REACTORS
330
2E6
102
}
330
1F
100
AcDbEntity
  8
LC-005-101-D00-0
  6
ByBlock
 62
     7
370
    50
100
AcDbLine
 10
288.472756
 20
-25.472
 30
0.0
 11
330.35802
 21
-25.472
 31
0.0
  0
LINE
  5
1F1
102
{ACAD_REACTORS
330
2E6
102
}
330
1F
100
AcDbEntity
  8
LC-005-101-D00-0
  6
ByBlock
 62
     7
370
    50
100
AcDbLine
 10
340.472756
 20
46.028
 30
0.0
 11
340.472756
 21
30.528
 31
0.0
  0
LINE
  5
1F2
102
{ACAD_REACTORS
330
2E6
102
}
330
1F
100
AcDbEntity
  8
LC-005-101-D00-0
  6
ByBlock
 62
     7
370
    50
100
AcDbLine
 10
340.472756
 20
-43.972
 30
0.0
 11
340.472756
 21
-28.472
 31
0.0
  0
LINE
  5
1F3
102
{ACAD_REACTORS
330
2E6
102
}
330
1F
100
AcDbEntity
  8
LC-005-101-D00-0
  6
ByBlock
 62
     7
370
    50
100
AcDbLine
 10
340.472756
 20
-43.972
 30
0.0
 11
355.472756
 21
-43.972
 31
0.0
  0
LINE
  5
1F4
102
{ACAD_REACTORS
330
2E6
102
}
330
1F
100
AcDbEntity
  8
LC-005-101-D00-0
 62
     7
370
    25
100
AcDbLine
 10
270.095949
 20
1.028
 30
0.0
 11
464.472756
 21
1.028
 31
0.0
  0
LINE
  5
1F5
102
{ACAD_REACTORS
330
2E6
102
}
330
1F
100
AcDbEntity
  8
LC-005-101-D00-0
  6
ByBlock
 62
     7
370
    50
100
AcDbLine
 10
464.472756
 20
1.028
 30
0.0
 11
464.472756
 21
-23.034178
 31
0.0
  0
LINE
  5
1F6
102
{ACAD_REACTORS
330
2E6
102
}
330
1F
100
AcDbEntity
  8
LC-005-101-D00-0
  6
ByBlock
 62
     7
370
    50
100
AcDbLine
 10
340.472756
 20
46.028
 30
0.0
 11
330.35802
 21
27.528
 31
0.0
  0
LINE
  5
1F7
102
{ACAD_REACTORS
330
2E6
102
}
330
1F
100
AcDbEntity
  8
LC-005-101-D00-0
  6
ByBlock
 62
     7
370
    50
100
AcDbLine
 10
340.472756
 20
-43.972
 30
0.0
 11
330.35802
 21
-25.472
 31
0.0
  0
LINE
  5
1F8
102
{ACAD_REACTORS
330
2E6
102
}
330
1F
100
AcDbEntity
  8
LC-005-101-D00-0
  6
ByBlock
 62
     7
370
    50
100
AcDbLine
 10
330.35802
 20
27.528
 30
0.0
 11
340.472756
 21
30.528
 31
0.0
  0
LINE
  5
1F9
102
{ACAD_REACTORS
330
2E6
102
}
330
1F
100
AcDbEntity
  8
LC-005-101-D00-0
  6
ByBlock
 62
     7
370
    50
100
AcDbLine
 10
330.35802
 20
-25.472
 30
0.0
 11
340.472756
 21
-28.472
 31
0.0
  0
LINE
  5
1FA
102
{ACAD_REACTORS
330
2E6
102
}
330
1F
100
AcDbEntity
  8
LC-005-101-D00-0
  6
ByBlock
 62
     7
370
    50
100
AcDbLine
 10
340.472756
 20
46.028
 30
0.0
 11
355.472756
 21
46.028
 31
0.0
  0
LINE
  5
1FB
102
{ACAD_REACTORS
330
2E6
102
}
330
1F
100
AcDbEntity
  8
LC-005-101-D00-0
  6
ByBlock
 62
     7
370
    50
100
AcDbLine
 10
362.972756
 20
46.028
 30
0.0
 11
362.972756
 21
47.528
 31
0.0
  0
LINE
  5
1FC
102
{ACAD_REACTORS
330
2E6
102
}
330
1F
100
AcDbEntity
  8
LC-005-101-D00-0
  6
ByBlock
 62
     7
370
    50
100
AcDbLine
 10
362.972756
 20
47.528
 30
0.0
 11
361.472756
 21
47.528
 31
0.0
  0
LINE
  5
1FD
102
{ACAD_REACTORS
330
2E6
102
}
330
1F
100
AcDbEntity
  8
LC-005-101-D00-0
  6
ByBlock
 62
     7
370
    50
100
AcDbLine
 10
361.472756
 20
47.528
 30
0.0
 11
361.472756
 21
59.028
 31
0.0
  0
LINE
  5
1FE
102
{ACAD_REACTORS
330
2E6
102
}
330
1F
100
AcDbEntity
  8
LC-005-101-D00-0
  6
ByBlock
 62
     7
370
    50
100
AcDbLine
 10
403.472756
 20
59.028
 30
0.0
 11
403.472756
 21
47.528
 31
0.0
  0
LINE
  5
1FF
102
{ACAD_REACTORS
330
2E6
102
}
330
1F
100
AcDbEntity
  8
LC-005-101-D00-0
  6
ByBlock
 62
     7
370
    50
100
AcDbLine
 10
403.472756
 20
47.528
 30
0.0
 11
401.972756
 21
47.528
 31
0.0
  0
LINE
  5
200
102
{ACAD_REACTORS
330
2E6
102
}
330
1F
100
AcDbEntity
  8
LC-005-101-D00-0
  6
ByBlock
 62
     7
370
    50
100
AcDbLine
 10
401.972756
 20
47.528
 30
0.0
 11
401.972756
 21
46.028
 31
0.0
  0
LINE
  5
201
102
{ACAD_REACTORS
330
2E6
102
}
330
1F
100
AcDbEntity
  8
LC-005-101-D00-0
  6
ByBlock
 62
     7
370
    50
100
AcDbLine
 10
401.972756
 20
46.028
 30
0.0
 11
405.081162
 21
46.028
 31
0.0
  0
LINE
  5
202
102
{ACAD_REACTORS
330
2E6
102
}
330
1F
100
AcDbEntity
  8
LC-005-101-D00-0
  6
ByBlock
 62
     7
370
    50
100
AcDbLine
 10
366.172756
 20
43.028
 30
0.0
 11
366.172756
 21
60.528
 31
0.0
  0
LINE
  5
203
102
{ACAD_REACTORS
330
2E6
102
}
330
1F
100
AcDbEntity
  8
LC-005-101-D00-0
  6
ByBlock
 62
     7
370
    50
100
AcDbLine
 10
361.472756
 20
59.028
 30
0.0
 11
363.472756
 21
59.028
 31
0.0
  0
LINE
  5
204
102
{ACAD_REACTORS
330
2E6
102
}
330
1F
100
AcDbEntity
  8
LC-005-101-D00-0
  6
ByBlock
 62
     7
370
    50
100
AcDbLine
 10
398.772756
 20
43.028
 30
0.0
 11
398.772756
 21
60.528
 31
0.0
  0
LINE
  5
205
102
{ACAD_REACTORS
330
2E6
102
}
330
1F
100
AcDbEntity
  8
LC-005-101-D00-0
  6
ByBlock
 62
     7
370
    50
100
AcDbLine
 10
362.972756
 20
47.528
 30
0.0
 11
362.972756
 21
59.028
 31
0.0
  0
LINE
  5
206
102
{ACAD_REACTORS
330
2E6
102
}
330
1F
100
AcDbEntity
  8
LC-005-101-D00-0
  6
ByBlock
 62
     7
370
    50
100
AcDbLine
 10
401.972756
 20
47.528
 30
0.0
 11
401.972756
 21
59.028
 31
0.0
  0
LINE
  5
207
102
{ACAD_REACTORS
330
2E6
102
}
330
1F
100
AcDbEntity
  8
LC-005-101-D00-0
  6
ByBlock
 62
     7
370
    50
100
AcDbLine
 10
362.972756
 20
-45.472
 30
0.0
 11
362.972756
 21
-43.972
 31
0.0
  0
LINE
  5
208
102
{ACAD_REACTORS
330
2E6
102
}
330
1F
100
AcDbEntity
  8
LC-005-101-D00-0
  6
ByBlock
 62
     7
370
    50
100
AcDbLine
 10
361.472756
 20
-45.472
 30
0.0
 11
362.972756
 21
-45.472
 31
0.0
  0
LINE
  5
209
102
{ACAD_REACTORS
330
2E6
102
}
330
1F
100
AcDbEntity
  8
LC-005-101-D00-0
  6
ByBlock
 62
     7
370
    50
100
AcDbLine
 10
403.472756
 20
-45.472
 30
0.0
 11
403.472756
 21
-47.472
 31
0.0
  0
LINE
  5
20A
102
{ACAD_REACTORS
330
2E6
102
}
330
1F
100
AcDbEntity
  8
LC-005-101-D00-0
  6
ByBlock
 62
     7
370
    50
100
AcDbLine
 10
401.972756
 20
-45.472
 30
0.0
 11
403.472756
 21
-45.472
 31
0.0
  0
LINE
  5
20B
102
{ACAD_REACTORS
330
2E6
102
}
330
1F
100
AcDbEntity
  8
LC-005-101-D00-0
  6
ByBlock
 62
     7
370
    50
100
AcDbLine
 10
401.972756
 20
-43.972
 30
0.0
 11
401.972756
 21
-45.472
 31
0.0
  0
LINE
  5
20C
102
{ACAD_REACTORS
330
2E6
102
}
330
1F
100
AcDbEntity
  8
LC-005-101-D00-0
  6
ByBlock
 62
     7
370
    50
100
AcDbLine
 10
401.972756
 20
-43.972
 30
0.0
 11
362.972756
 21
-43.972
 31
0.0
  0
LINE
  5
20D
102
{ACAD_REACTORS
330
2E6
102
}
330
1F
100
AcDbEntity
  8
LC-005-101-D00-0
  6
ByBlock
 62
     7
370
    50
100
AcDbLine
 10
362.972756
 20
-47.472
 30
0.0
 11
362.972756
 21
-45.472
 31
0.0
  0
LINE
  5
20E
102
{ACAD_REACTORS
330
2E6
102
}
330
1F
100
AcDbEntity
  8
LC-005-101-D00-0
  6
ByBlock
 62
     7
370
    50
100
AcDbLine
 10
401.972756
 20
-47.472
 30
0.0
 11
401.972756
 21
-45.472
 31
0.0
  0
LINE
  5
20F
102
{ACAD_REACTORS
330
2E6
102
}
330
1F
100
AcDbEntity
  8
LC-005-101-D00-0
 62
     7
370
    25
100
AcDbLine
 10
382.472756
 20
-42.972
 30
0.0
 11
382.472756
 21
-47.472
 31
0.0
  0
LINE
  5
210
102
{ACAD_REACTORS
330
2E6
102
}
330
1F
100
AcDbEntity
  8
LC-005-101-D00-0
  6
ByBlock
 62
     7
370
    50
100
AcDbLine
 10
403.472756
 20
-47.472
 30
0.0
 11
401.972756
 21
-47.472
 31
0.0
  0
LINE
  5
211
102
{ACAD_REACTORS
330
2E6
102
}
330
1F
100
AcDbEntity
  8
LC-005-101-D00-0
  6
ByBlock
 62
     7
370
    50
100
AcDbLine
 10
361.472756
 20
-47.472
 30
0.0
 11
361.472756
 21
-45.472
 31
0.0
  0
LINE
  5
212
102
{ACAD_REACTORS
330
2E6
102
}
330
1F
100
AcDbEntity
  8
LC-005-101-D00-0
  6
ByBlock
 62
     7
370
    50
100
AcDbLine
 10
401.972756
 20
-47.472
 30
0.0
 11
382.472756
 21
-47.472
 31
0.0
  0
LINE
  5
213
102
{ACAD_REACTORS
330
2E6
102
}
330
1F
100
AcDbEntity
  8
LC-005-101-D00-0
  6
ByBlock
 62
     7
370
    50
100
AcDbLine
 10
362.972756
 20
-47.472
 30
0.0
 11
361.472756
 21
-47.472
 31
0.0
  0
LINE
  5
214
102
{ACAD_REACTORS
330
2E6
102
}
330
1F
100
AcDbEntity
  8
LC-005-101-D00-0
  6
ByBlock
 62
     7
370
    50
100
AcDbLine
 10
382.472756
 20
-47.472
 30
0.0
 11
362.972756
 21
-47.472
 31
0.0
  0
LINE
  5
215
102
{ACAD_REACTORS
330
2E6
102
}
330
1F
100
AcDbEntity
  8
LC-005-101-D00-0
  6
ByBlock
 62
     7
370
    50
100
AcDbLine
 10
360.019529
 20
46.028
 30
0.0
 11
360.619529
 21
43.028
 31
0.0
  0
LINE
  5
216
102
{ACAD_REACTORS
330
2E6
102
}
330
1F
100
AcDbEntity
  8
LC-005-101-D00-0
  6
ByBlock
 62
     7
370
    50
100
AcDbLine
 10
360.019529
 20
46.028
 30
0.0
 11
362.972756
 21
46.028
 31
0.0
  0
LINE
  5
217
102
{ACAD_REACTORS
330
2E6
102
}
330
1F
100
AcDbEntity
  8
LC-005-101-D00-0
  6
ByBlock
 62
     7
370
    50
100
AcDbLine
 10
405.081162
 20
46.028
 30
0.0
 11
407.925751
 21
46.028
 31
0.0
  0
LINE
  5
218
102
{ACAD_REACTORS
330
2E6
102
}
330
1F
100
AcDbEntity
  8
LC-005-101-D00-0
  6
ByBlock
 62
     7
370
    50
100
AcDbLine
 10
360.619529
 20
43.028
 30
0.0
 11
366.172756
 21
43.028
 31
0.0
  0
LINE
  5
219
102
{ACAD_REACTORS
330
2E6
102
}
330
1F
100
AcDbEntity
  8
LC-005-101-D00-0
  6
ByBlock
 62
     7
370
    50
100
AcDbLine
 10
402.550345
 20
43.028
 30
0.0
 11
405.081162
 21
46.028
 31
0.0
  0
LINE
  5
21A
102
{ACAD_REACTORS
330
2E6
102
}
330
1F
100
AcDbEntity
  8
LC-005-101-D00-0
  6
ByBlock
 62
     7
370
    50
100
AcDbLine
 10
360.619529
 20
43.028
 30
0.0
 11
362.619529
 21
40.028
 31
0.0
  0
LINE
  5
21B
102
{ACAD_REACTORS
330
2E6
102
}
330
1F
100
AcDbEntity
  8
LC-005-101-D00-0
  6
ByBlock
 62
     7
370
    50
100
AcDbLine
 10
362.619529
 20
40.028
 30
0.0
 11
368.619529
 21
39.028
 31
0.0
  0
LINE
  5
21C
102
{ACAD_REACTORS
330
2E6
102
}
330
1F
100
AcDbEntity
  8
LC-005-101-D00-0
  6
ByBlock
 62
     7
370
    50
100
AcDbLine
 10
368.619529
 20
39.028
 30
0.0
 11
375.619529
 21
39.028
 31
0.0
  0
LINE
  5
21D
102
{ACAD_REACTORS
330
2E6
102
}
330
1F
100
AcDbEntity
  8
LC-005-101-D00-0
  6
ByBlock
 62
     7
370
    50
100
AcDbLine
 10
375.619529
 20
39.028
 30
0.0
 11
383.619529
 21
38.028
 31
0.0
  0
LINE
  5
21E
102
{ACAD_REACTORS
330
2E6
102
}
330
1F
100
AcDbEntity
  8
LC-005-101-D00-0
  6
ByBlock
 62
     7
370
    50
100
AcDbLine
 10
383.619529
 20
38.028
 30
0.0
 11
389.619529
 21
39.028
 31
0.0
  0
LINE
  5
21F
102
{ACAD_REACTORS
330
2E6
102
}
330
1F
100
AcDbEntity
  8
LC-005-101-D00-0
  6
ByBlock
 62
     7
370
    50
100
AcDbLine
 10
389.619529
 20
39.028
 30
0.0
 11
395.619529
 21
41.028
 31
0.0
  0
LINE
  5
220
102
{ACAD_REACTORS
330
2E6
102
}
330
1F
100
AcDbEntity
  8
LC-005-101-D00-0
  6
ByBlock
 62
     7
370
    50
100
AcDbLine
 10
395.619529
 20
41.028
 30
0.0
 11
401.619529
 21
41.028
 31
0.0
  0
LINE
  5
221
102
{ACAD_REACTORS
330
2E6
102
}
330
1F
100
AcDbEntity
  8
LC-005-101-D00-0
  6
ByBlock
 62
     7
370
    50
100
AcDbLine
 10
401.619529
 20
41.028
 30
0.0
 11
402.550345
 21
43.028
 31
0.0
  0
LINE
  5
222
102
{ACAD_REACTORS
330
2E6
102
}
330
1F
100
AcDbEntity
  8
LC-005-101-D00-0
  6
ByBlock
 62
     7
370
    50
100
AcDbLine
 10
366.172756
 20
43.028
 30
0.0
 11
398.772756
 21
43.028
 31
0.0
  0
LINE
  5
223
102
{ACAD_REACTORS
330
2E6
102
}
330
1F
100
AcDbEntity
  8
LC-005-101-D00-0
  6
ByBlock
 62
     7
370
    50
100
AcDbLine
 10
398.772756
 20
43.028
 30
0.0
 11
402.550345
 21
43.028
 31
0.0
  0
LINE
  5
224
102
{ACAD_REACTORS
330
2E6
102
}
330
1F
100
AcDbEntity
  8
LC-005-101-D00-0
  6
ByBlock
 62
     7
370
    50
100
AcDbLine
 10
355.472756
 20
46.028
 30
0.0
 11
355.472756
 21
-43.972
 31
0.0
  0
LINE
  5
225
102
{ACAD_REACTORS
330
2E6
102
}
330
1F
100
AcDbEntity
  8
LC-005-101-D00-0
  6
ByBlock
 62
     7
370
    50
100
AcDbLine
 10
357.472756
 20
-43.972
 30
0.0
 11
357.472756
 21
46.028
 31
0.0
  0
LINE
  5
226
102
{ACAD_REACTORS
330
2E6
102
}
330
1F
100
AcDbEntity
  8
LC-005-101-D00-0
  6
ByBlock
 62
     7
370
    50
100
AcDbLine
 10
357.472756
 20
-43.972
 30
0.0
 11
407.925751
 21
-43.972
 31
0.0
  0
LINE
  5
227
102
{ACAD_REACTORS
330
2E6
102
}
330
1F
100
AcDbEntity
  8
LC-005-101-D00-0
  6
ByBlock
 62
     7
370
    50
100
AcDbLine
 10
357.472756
 20
46.028
 30
0.0
 11
360.019529
 21
46.028
 31
0.0
  0
ARC
  5
228
102
{ACAD_REACTORS
330
2E6
102
}
330
1F
100
AcDbEntity
  8
LC-005-101-D00-0
  6
ByBlock
 62
     7
370
    50
100
AcDbCircle
 10
300.701187
 20
1.028
 30
0.0
 40
39.77156903807955
100
AcDbArc
 50
318.217471
 51
41.782529
  0
ARC
  5
229
102
{ACAD_REACTORS
330
2E6
102
}
330
1F
100
AcDbEntity
  8
LC-005-101-D00-0
  6
ByBlock
 62
     7
370
    50
100
AcDbCircle
 10
123.910256
 20
1.028
 30
0.0
 40
218.5625000000003
100
AcDbArc
 50
352.242951
 51
7.757049
  0
ARC
  5
22A
102
{ACAD_REACTORS
330
2E6
102
}
330
1F
100
AcDbEntity
  8
LC-005-101-D00-0
  6
ByBlock
 62
     7
370
    50
100
AcDbCircle
 10
356.472756
 20
46.028
 30
0.0
 40
1.0
100
AcDbArc
 50
0.0
 51
180.0
  0
ARC
  5
22B
102
{ACAD_REACTORS
330
2E6
102
}
330
1F
100
AcDbEntity
  8
LC-005-101-D00-0
  6
ByBlock
 62
     7
370
    50
100
AcDbCircle
 10
356.472756
 20
-43.972
 30
0.0
 40
1.0
100
AcDbArc
 50
180.0
 51
0.0
  0
INSERT
  5
234
102
{ACAD_REACTORS
330
2E6
102
}
330
1F
100
AcDbEntity
  8
LC-005-101-D00-0
  6
ByBlock
 62
     7
370
    25
100
AcDbBlockReference
  2
KLON4
 10
0.0
 20
0.0
 30
0.0
  0
INSERT
  5
23E
102
{ACAD_REACTORS
330
2E6
102
}
330
1F
100
AcDbEntity
  8
LC-005-101-D00-0
  6
ByBlock
 62
     7
370
    25
100
AcDbBlockReference
  2
KLON5
 10
0.0
 20
0.0
 30
0.0
  0
LINE
  5
23F
102
{ACAD_REACTORS
330
2E7
102
}
330
1F
100
AcDbEntity
  8
LC-005-101-D00-0
  6
ByBlock
 62
     7
370
    50
100
AcDbLine
 10
288.472756
 20
-33.972
 30
0.0
 11
276.472756
 21
-33.972
 31
0.0
  0
LINE
  5
240
102
{ACAD_REACTORS
330
2E7
102
}
330
1F
100
AcDbEntity
  8
LC-005-101-D00-0
  6
ByBlock
 62
     7
370
    50
100
AcDbLine
 10
273.472756
 20
-30.972
 30
0.0
 11
273.472756
 21
-27.472
 31
0.0
  0
LINE
  5
241
102
{ACAD_REACTORS
330
2E7
102
}
330
1F
100
AcDbEntity
  8
LC-005-101-D00-0
  6
ByBlock
 62
     7
370
    50
100
AcDbLine
 10
273.472756
 20
-27.472
 30
0.0
 11
271.472756
 21
-27.472
 31
0.0
  0
LINE
  5
242
102
{ACAD_REACTORS
330
2E7
102
}
330
1F
100
AcDbEntity
  8
LC-005-101-D00-0
  6
ByBlock
 62
     7
370
    50
100
AcDbLine
 10
271.472756
 20
-27.472
 30
0.0
 11
271.472756
 21
1.028
 31
0.0
  0
LINE
  5
243
102
{ACAD_REACTORS
330
2E7
102
}
330
1F
100
AcDbEntity
  8
LC-005-101-D00-0
  6
ByBlock
 62
     7
370
    50
100
AcDbLine
 10
288.472756
 20
36.028
 30
0.0
 11
288.472756
 21
31.228
 31
0.0
  0
LINE
  5
244
102
{ACAD_REACTORS
330
2E7
102
}
330
1F
100
AcDbEntity
  8
LC-005-101-D00-0
  6
ByBlock
 62
     7
370
    50
100
AcDbLine
 10
276.472756
 20
36.028
 30
0.0
 11
288.472756
 21
36.028
 31
0.0
  0
LINE
  5
245
102
{ACAD_REACTORS
330
2E7
102
}
330
1F
100
AcDbEntity
  8
LC-005-101-D00-0
  6
ByBlock
 62
     7
370
    50
100
AcDbLine
 10
273.472756
 20
29.528
 30
0.0
 11
273.472756
 21
33.028
 31
0.0
  0
LINE
  5
246
102
{ACAD_REACTORS
330
2E7
102
}
330
1F
100
AcDbEntity
  8
LC-005-101-D00-0
  6
ByBlock
 62
     7
370
    50
100
AcDbLine
 10
271.472756
 20
29.528
 30
0.0
 11
273.472756
 21
29.528
 31
0.0
  0
LINE
  5
247
102
{ACAD_REACTORS
330
2E7
102
}
330
1F
100
AcDbEntity
  8
LC-005-101-D00-0
  6
ByBlock
 62
     7
370
    50
100
AcDbLine
 10
271.472756
 20
1.028
 30
0.0
 11
271.472756
 21
29.528
 31
0.0
  0
LINE
  5
248
102
{ACAD_REACTORS
330
2E7
102
}
330
1F
100
AcDbEntity
  8
LC-005-101-D00-0
  6
ByBlock
 62
     7
370
    50
100
AcDbLine
 10
273.472756
 20
29.528
 30
0.0
 11
273.472756
 21
-27.472
 31
0.0
  0
LINE
  5
249
102
{ACAD_REACTORS
330
2E7
102
}
330
1F
100
AcDbEntity
  8
LC-005-101-D00-0
  6
ByBlock
 62
     7
370
    50
100
AcDbLine
 10
276.472756
 20
36.028
 30
0.0
 11
276.472756
 21
-33.972
 31
0.0
  0
ARC
  5
24A
102
{ACAD_REACTORS
330
2E7
102
}
330
1F
100
AcDbEntity
  8
LC-005-101-D00-0
  6
ByBlock
 62
     7
370
    50
100
AcDbCircle
 10
276.472756
 20
-30.972
 30
0.0
 40
3.0
100
AcDbArc
 50
180.0
 51
270.0
  0
ARC
  5
24B
102
{ACAD_REACTORS
330
2E7
102
}
330
1F
100
AcDbEntity
  8
LC-005-101-D00-0
  6
ByBlock
 62
     7
370
    50
100
AcDbCircle
 10
276.472756
 20
33.028
 30
0.0
 40
3.0
100
AcDbArc
 50
90.0
 51
180.0
  0
LINE
  5
24C
102
{ACAD_REACTORS
330
2E8
102
}
330
1F
100
AcDbEntity
  8
LC-005-101-D00-0
  6
ByBlock
 62
     7
370
    50
100
AcDbLine
 10
382.472756
 20
-61.972
 30
0.0
 11
382.472756
 21
-65.938643
 31
0.0
  0
LINE
  5
24D
102
{ACAD_REACTORS
330
2E8
102
}
330
1F
100
AcDbEntity
  8
LC-005-101-D00-0
  6
ByBlock
 62
     7
370
    50
100
AcDbLine
 10
404.172756
 20
-64.472
 30
0.0
 11
360.772756
 21
-64.472
 31
0.0
  0
LINE
  5
24E
102
{ACAD_REACTORS
330
2E8
102
}
330
1F
100
AcDbEntity
  8
LC-005-101-D00-0
  6
ByBlock
 62
     7
370
    50
100
AcDbLine
 10
384.472756
 20
-49.972
 30
0.0
 11
382.472756
 21
-48.972
 31
0.0
  0
LINE
  5
24F
102
{ACAD_REACTORS
330
2E8
102
}
330
1F
100
AcDbEntity
  8
LC-005-101-D00-0
  6
ByBlock
 62
     7
370
    50
100
AcDbLine
 10
397.472756
 20
-49.972
 30
0.0
 11
384.472756
 21
-49.972
 31
0.0
  0
LINE
  5
250
102
{ACAD_REACTORS
330
2E8
102
}
330
1F
100
AcDbEntity
  8
LC-005-101-D00-0
  6
ByBlock
 62
     7
370
    50
100
AcDbLine
 10
382.472756
 20
-45.938643
 30
0.0
 11
382.472756
 21
-48.972
 31
0.0
  0
LINE
  5
251
102
{ACAD_REACTORS
330
2E8
102
}
330
1F
100
AcDbEntity
  8
LC-005-101-D00-0
  6
ByBlock
 62
     7
370
    50
100
AcDbLine
 10
382.472756
 20
-48.972
 30
0.0
 11
380.472756
 21
-49.972
 31
0.0
  0
LINE
  5
252
102
{ACAD_REACTORS
330
2E8
102
}
330
1F
100
AcDbEntity
  8
LC-005-101-D00-0
  6
ByBlock
 62
     7
370
    50
100
AcDbLine
 10
380.472756
 20
-62.972
 30
0.0
 11
380.472756
 21
-63.472
 31
0.0
  0
LINE
  5
253
102
{ACAD_REACTORS
330
2E8
102
}
330
1F
100
AcDbEntity
  8
LC-005-101-D00-0
  6
ByBlock
 62
     7
370
    50
100
AcDbLine
 10
384.472756
 20
-62.972
 30
0.0
 11
384.472756
 21
-63.472
 31
0.0
  0
LINE
  5
254
102
{ACAD_REACTORS
330
2E8
102
}
330
1F
100
AcDbEntity
  8
LC-005-101-D00-0
  6
ByBlock
 62
     7
370
    50
100
AcDbLine
 10
384.472756
 20
-62.972
 30
0.0
 11
382.472756
 21
-61.972
 31
0.0
  0
LINE
  5
255
102
{ACAD_REACTORS
330
2E8
102
}
330
1F
100
AcDbEntity
  8
LC-005-101-D00-0
  6
ByBlock
 62
     7
370
    50
100
AcDbLine
 10
382.472756
 20
-61.972
 30
0.0
 11
380.472756
 21
-62.972
 31
0.0
  0
LINE
  5
256
102
{ACAD_REACTORS
330
2E8
102
}
330
1F
100
AcDbEntity
  8
LC-005-101-D00-0
  6
ByBlock
 62
     7
370
    50
100
AcDbLine
 10
380.472756
 20
-49.972
 30
0.0
 11
380.472756
 21
-62.972
 31
0.0
  0
LINE
  5
257
102
{ACAD_REACTORS
330
2E8
102
}
330
1F
100
AcDbEntity
  8
LC-005-101-D00-0
  6
ByBlock
 62
     7
370
    50
100
AcDbLine
 10
384.472756
 20
-62.972
 30
0.0
 11
384.472756
 21
-49.972
 31
0.0
  0
LINE
  5
258
102
{ACAD_REACTORS
330
2E8
102
}
330
1F
100
AcDbEntity
  8
LC-005-101-D00-0
  6
ByBlock
 62
     7
370
    50
100
AcDbLine
 10
382.472756
 20
-61.972
 30
0.0
 11
382.472756
 21
-48.972
 31
0.0
  0
LINE
  5
259
102
{ACAD_REACTORS
330
2E8
102
}
330
1F
100
AcDbEntity
  8
LC-005-101-D00-0
  6
ByBlock
 62
     7
370
    50
100
AcDbLine
 10
382.472756
 20
-48.972
 30
0.0
 11
382.472756
 21
-61.972
 31
0.0
  0
LINE
  5
25A
102
{ACAD_REACTORS
330
2E8
102
}
330
1F
100
AcDbEntity
  8
LC-005-101-D00-0
  6
ByBlock
 62
     7
370
    50
100
AcDbLine
 10
400.354626
 20
-61.972
 30
0.0
 11
400.354626
 21
-48.972
 31
0.0
  0
LINE
  5
25B
102
{ACAD_REACTORS
330
2E8
102
}
330
1F
100
AcDbEntity
  8
LC-005-101-D00-0
  6
ByBlock
 62
     7
370
    50
100
AcDbLine
 10
398.250574
 20
-49.472
 30
0.0
 11
398.250574
 21
-62.972
 31
0.0
  0
LINE
  5
25C
102
{ACAD_REACTORS
330
2E8
102
}
330
1F
100
AcDbEntity
  8
LC-005-101-D00-0
  6
ByBlock
 62
     7
370
    50
100
AcDbLine
 10
397.472756
 20
-49.972
 30
0.0
 11
397.472756
 21
-63.472
 31
0.0
  0
LINE
  5
25D
102
{ACAD_REACTORS
330
2E8
102
}
330
1F
100
AcDbEntity
  8
LC-005-101-D00-0
  6
ByBlock
 62
     7
370
    50
100
AcDbLine
 10
398.250574
 20
-49.472
 30
0.0
 11
397.472756
 21
-49.972
 31
0.0
  0
LINE
  5
25E
102
{ACAD_REACTORS
330
2E8
102
}
330
1F
100
AcDbEntity
  8
LC-005-101-D00-0
  6
ByBlock
 62
     7
370
    50
100
AcDbLine
 10
401.079001
 20
-49.972
 30
0.0
 11
401.079001
 21
-62.972
 31
0.0
  0
LINE
  5
25F
102
{ACAD_REACTORS
330
2E8
102
}
330
1F
100
AcDbEntity
  8
LC-005-101-D00-0
  6
ByBlock
 62
     7
370
    50
100
AcDbLine
 10
405.597177
 20
-49.972
 30
0.0
 11
401.079001
 21
-49.972
 31
0.0
  0
LINE
  5
260
102
{ACAD_REACTORS
330
2E8
102
}
330
1F
100
AcDbEntity
  8
LC-005-101-D00-0
  6
ByBlock
 62
     7
370
    50
100
AcDbLine
 10
384.472756
 20
-63.472
 30
0.0
 11
397.472756
 21
-63.472
 31
0.0
  0
LINE
  5
261
102
{ACAD_REACTORS
330
2E8
102
}
330
1F
100
AcDbEntity
  8
LC-005-101-D00-0
  6
ByBlock
 62
     7
370
    50
100
AcDbLine
 10
398.250574
 20
-62.972
 30
0.0
 11
397.472756
 21
-63.472
 31
0.0
  0
LINE
  5
262
102
{ACAD_REACTORS
330
2E8
102
}
330
1F
100
AcDbEntity
  8
LC-005-101-D00-0
  6
ByBlock
 62
     7
370
    50
100
AcDbLine
 10
400.354626
 20
-61.972
 30
0.0
 11
398.250574
 21
-62.972
 31
0.0
  0
LINE
  5
263
102
{ACAD_REACTORS
330
2E8
102
}
330
1F
100
AcDbEntity
  8
LC-005-101-D00-0
  6
ByBlock
 62
     7
370
    50
100
AcDbLine
 10
401.079001
 20
-62.972
 30
0.0
 11
400.354626
 21
-61.972
 31
0.0
  0
LINE
  5
264
102
{ACAD_REACTORS
330
2E8
102
}
330
1F
100
AcDbEntity
  8
LC-005-101-D00-0
  6
ByBlock
 62
     7
370
    50
100
AcDbLine
 10
400.354626
 20
-63.472
 30
0.0
 11
401.079001
 21
-62.972
 31
0.0
  0
LINE
  5
265
102
{ACAD_REACTORS
330
2E8
102
}
330
1F
100
AcDbEntity
  8
LC-005-101-D00-0
  6
ByBlock
 62
     7
370
    50
100
AcDbLine
 10
400.354626
 20
-48.972
 30
0.0
 11
398.250574
 21
-49.472
 31
0.0
  0
LINE
  5
266
102
{ACAD_REACTORS
330
2E8
102
}
330
1F
100
AcDbEntity
  8
LC-005-101-D00-0
  6
ByBlock
 62
     7
370
    50
100
AcDbLine
 10
401.079001
 20
-49.972
 30
0.0
 11
400.354626
 21
-48.972
 31
0.0
  0
LINE
  5
267
102
{ACAD_REACTORS
330
2E8
102
}
330
1F
100
AcDbEntity
  8
LC-005-101-D00-0
  6
ByBlock
 62
     7
370
    50
100
AcDbLine
 10
405.597177
 20
-49.972
 30
0.0
 11
405.597177
 21
-63.472
 31
0.0
  0
LINE
  5
268
102
{ACAD_REACTORS
330
2E8
102
}
330
1F
100
AcDbEntity
  8
LC-005-101-D00-0
  6
ByBlock
 62
     7
370
    50
100
AcDbLine
 10
400.354626
 20
-63.472
 30
0.0
 11
405.922756
 21
-63.472
 31
0.0
  0
LINE
  5
269
102
{ACAD_REACTORS
330
2E8
102
}
330
1F
100
AcDbEntity
  8
LC-005-101-D00-0
  6
ByBlock
 62
     7
370
    50
100
AcDbLine
 10
406.697177
 20
-49.972
 30
0.0
 11
405.597177
 21
-49.972
 31
0.0
  0
LINE
  5
26A
102
{ACAD_REACTORS
330
2E8
102
}
330
1F
100
AcDbEntity
  8
LC-005-101-D00-0
  6
ByBlock
 62
     7
370
    50
100
AcDbLine
 10
406.697177
 20
-63.029474
 30
0.0
 11
406.697177
 21
-49.972
 31
0.0
  0
LINE
  5
26B
102
{ACAD_REACTORS
330
2E8
102
}
330
1F
100
AcDbEntity
  8
LC-005-101-D00-0
  6
ByBlock
 62
     7
370
    50
100
AcDbLine
 10
405.922756
 20
-63.472
 30
0.0
 11
404.172756
 21
-64.472
 31
0.0
  0
LINE
  5
26C
102
{ACAD_REACTORS
330
2E8
102
}
330
1F
100
AcDbEntity
  8
LC-005-101-D00-0
  6
ByBlock
 62
     7
370
    50
100
AcDbLine
 10
407.672756
 20
-49.414526
 30
0.0
 11
407.672756
 21
-62.472
 31
0.0
  0
LINE
  5
26D
102
{ACAD_REACTORS
330
2E8
102
}
330
1F
100
AcDbEntity
  8
LC-005-101-D00-0
  6
ByBlock
 62
     7
370
    50
100
AcDbLine
 10
407.672756
 20
-62.472
 30
0.0
 11
406.697177
 21
-63.029474
 31
0.0
  0
LINE
  5
26E
102
{ACAD_REACTORS
330
2E8
102
}
330
1F
100
AcDbEntity
  8
LC-005-101-D00-0
  6
ByBlock
 62
     7
370
    50
100
AcDbLine
 10
406.697177
 20
-63.029474
 30
0.0
 11
405.922756
 21
-63.472
 31
0.0
  0
LINE
  5
26F
102
{ACAD_REACTORS
330
2E8
102
}
330
1F
100
AcDbEntity
  8
LC-005-101-D00-0
  6
ByBlock
 62
     7
370
    50
100
AcDbLine
 10
407.672756
 20
-49.414526
 30
0.0
 11
406.697177
 21
-49.972
 31
0.0
  0
LINE
  5
270
102
{ACAD_REACTORS
330
2E8
102
}
330
1F
100
AcDbEntity
  8
LC-005-101-D00-0
  6
ByBlock
 62
     7
370
    50
100
AcDbLine
 10
407.672756
 20
-47.472
 30
0.0
 11
407.672756
 21
-49.414526
 31
0.0
  0
LINE
  5
271
102
{ACAD_REACTORS
330
2E8
102
}
330
1F
100
AcDbEntity
  8
LC-005-101-D00-0
  6
ByBlock
 62
     7
370
    50
100
AcDbLine
 10
364.590886
 20
-48.972
 30
0.0
 11
364.590886
 21
-61.972
 31
0.0
  0
LINE
  5
272
102
{ACAD_REACTORS
330
2E8
102
}
330
1F
100
AcDbEntity
  8
LC-005-101-D00-0
  6
ByBlock
 62
     7
370
    50
100
AcDbLine
 10
366.694939
 20
-62.972
 30
0.0
 11
366.694939
 21
-49.472
 31
0.0
  0
LINE
  5
273
102
{ACAD_REACTORS
330
2E8
102
}
330
1F
100
AcDbEntity
  8
LC-005-101-D00-0
  6
ByBlock
 62
     7
370
    50
100
AcDbLine
 10
367.472756
 20
-63.472
 30
0.0
 11
367.472756
 21
-49.972
 31
0.0
  0
LINE
  5
274
102
{ACAD_REACTORS
330
2E8
102
}
330
1F
100
AcDbEntity
  8
LC-005-101-D00-0
  6
ByBlock
 62
     7
370
    50
100
AcDbLine
 10
367.472756
 20
-49.972
 30
0.0
 11
366.694939
 21
-49.472
 31
0.0
  0
LINE
  5
275
102
{ACAD_REACTORS
330
2E8
102
}
330
1F
100
AcDbEntity
  8
LC-005-101-D00-0
  6
ByBlock
 62
     7
370
    50
100
AcDbLine
 10
363.866512
 20
-62.972
 30
0.0
 11
363.866512
 21
-49.972
 31
0.0
  0
LINE
  5
276
102
{ACAD_REACTORS
330
2E8
102
}
330
1F
100
AcDbEntity
  8
LC-005-101-D00-0
  6
ByBlock
 62
     7
370
    50
100
AcDbLine
 10
363.866512
 20
-49.972
 30
0.0
 11
359.348336
 21
-49.972
 31
0.0
  0
LINE
  5
277
102
{ACAD_REACTORS
330
2E8
102
}
330
1F
100
AcDbEntity
  8
LC-005-101-D00-0
  6
ByBlock
 62
     7
370
    50
100
AcDbLine
 10
367.472756
 20
-63.472
 30
0.0
 11
366.694939
 21
-62.972
 31
0.0
  0
LINE
  5
278
102
{ACAD_REACTORS
330
2E8
102
}
330
1F
100
AcDbEntity
  8
LC-005-101-D00-0
  6
ByBlock
 62
     7
370
    50
100
AcDbLine
 10
366.694939
 20
-62.972
 30
0.0
 11
364.590886
 21
-61.972
 31
0.0
  0
LINE
  5
279
102
{ACAD_REACTORS
330
2E8
102
}
330
1F
100
AcDbEntity
  8
LC-005-101-D00-0
  6
ByBlock
 62
     7
370
    50
100
AcDbLine
 10
364.590886
 20
-61.972
 30
0.0
 11
363.866512
 21
-62.972
 31
0.0
  0
LINE
  5
27A
102
{ACAD_REACTORS
330
2E8
102
}
330
1F
100
AcDbEntity
  8
LC-005-101-D00-0
  6
ByBlock
 62
     7
370
    50
100
AcDbLine
 10
363.866512
 20
-62.972
 30
0.0
 11
364.590886
 21
-63.472
 31
0.0
  0
LINE
  5
27B
102
{ACAD_REACTORS
330
2E8
102
}
330
1F
100
AcDbEntity
  8
LC-005-101-D00-0
  6
ByBlock
 62
     7
370
    50
100
AcDbLine
 10
366.694939
 20
-49.472
 30
0.0
 11
364.590886
 21
-48.972
 31
0.0
  0
LINE
  5
27C
102
{ACAD_REACTORS
330
2E8
102
}
330
1F
100
AcDbEntity
  8
LC-005-101-D00-0
  6
ByBlock
 62
     7
370
    50
100
AcDbLine
 10
364.590886
 20
-48.972
 30
0.0
 11
363.866512
 21
-49.972
 31
0.0
  0
LINE
  5
27D
102
{ACAD_REACTORS
330
2E8
102
}
330
1F
100
AcDbEntity
  8
LC-005-101-D00-0
  6
ByBlock
 62
     7
370
    50
100
AcDbLine
 10
359.348336
 20
-63.472
 30
0.0
 11
359.348336
 21
-49.972
 31
0.0
  0
LINE
  5
27E
102
{ACAD_REACTORS
330
2E8
102
}
330
1F
100
AcDbEntity
  8
LC-005-101-D00-0
  6
ByBlock
 62
     7
370
    50
100
AcDbLine
 10
359.022756
 20
-63.472
 30
0.0
 11
364.590886
 21
-63.472
 31
0.0
  0
LINE
  5
27F
102
{ACAD_REACTORS
330
2E8
102
}
330
1F
100
AcDbEntity
  8
LC-005-101-D00-0
  6
ByBlock
 62
     7
370
    50
100
AcDbLine
 10
359.348336
 20
-49.972
 30
0.0
 11
358.248336
 21
-49.972
 31
0.0
  0
LINE
  5
280
102
{ACAD_REACTORS
330
2E8
102
}
330
1F
100
AcDbEntity
  8
LC-005-101-D00-0
  6
ByBlock
 62
     7
370
    50
100
AcDbLine
 10
358.248336
 20
-49.972
 30
0.0
 11
358.248336
 21
-63.029474
 31
0.0
  0
LINE
  5
281
102
{ACAD_REACTORS
330
2E8
102
}
330
1F
100
AcDbEntity
  8
LC-005-101-D00-0
  6
ByBlock
 62
     7
370
    50
100
AcDbLine
 10
360.772756
 20
-64.472
 30
0.0
 11
359.022756
 21
-63.472
 31
0.0
  0
LINE
  5
282
102
{ACAD_REACTORS
330
2E8
102
}
330
1F
100
AcDbEntity
  8
LC-005-101-D00-0
  6
ByBlock
 62
     7
370
    50
100
AcDbLine
 10
357.272756
 20
-62.472
 30
0.0
 11
357.272756
 21
-49.414526
 31
0.0
  0
LINE
  5
283
102
{ACAD_REACTORS
330
2E8
102
}
330
1F
100
AcDbEntity
  8
LC-005-101-D00-0
  6
ByBlock
 62
     7
370
    50
100
AcDbLine
 10
358.248336
 20
-63.029474
 30
0.0
 11
357.272756
 21
-62.472
 31
0.0
  0
LINE
  5
284
102
{ACAD_REACTORS
330
2E8
102
}
330
1F
100
AcDbEntity
  8
LC-005-101-D00-0
  6
ByBlock
 62
     7
370
    50
100
AcDbLine
 10
359.022756
 20
-63.472
 30
0.0
 11
358.248336
 21
-63.029474
 31
0.0
  0
LINE
  5
285
102
{ACAD_REACTORS
330
2E8
102
}
330
1F
100
AcDbEntity
  8
LC-005-101-D00-0
  6
ByBlock
 62
     7
370
    50
100
AcDbLine
 10
358.248336
 20
-49.972
 30
0.0
 11
357.272756
 21
-49.414526
 31
0.0
  0
LINE
  5
286
102
{ACAD_REACTORS
330
2E8
102
}
330
1F
100
AcDbEntity
  8
LC-005-101-D00-0
  6
ByBlock
 62
     7
370
    50
100
AcDbLine
 10
357.272756
 20
-49.414526
 30
0.0
 11
357.272756
 21
-47.472
 31
0.0
  0
LINE
  5
287
102
{ACAD_REACTORS
330
2E8
102
}
330
1F
100
AcDbEntity
  8
LC-005-101-D00-0
  6
ByBlock
 62
     7
370
    50
100
AcDbLine
 10
380.472756
 20
-49.972
 30
0.0
 11
367.472756
 21
-49.972
 31
0.0
  0
LINE
  5
288
102
{ACAD_REACTORS
330
2E8
102
}
330
1F
100
AcDbEntity
  8
LC-005-101-D00-0
  6
ByBlock
 62
     7
370
    50
100
AcDbLine
 10
367.472756
 20
-63.472
 30
0.0
 11
380.472756
 21
-63.472
 31
0.0
  0
LINE
  5
289
102
{ACAD_REACTORS
330
2E4
102
}
330
1F
100
AcDbEntity
  8
LC-005-101-D00-0
  6
ByBlock
 62
     7
370
    50
100
AcDbLine
 10
361.517379
 20
59.028
 30
0.0
 11
361.517379
 21
61.028
 31
0.0
  0
LINE
  5
28A
102
{ACAD_REACTORS
330
2E4
102
}
330
1F
100
AcDbEntity
  8
LC-005-101-D00-0
  6
ByBlock
 62
     7
370
    50
100
AcDbLine
 10
362.972756
 20
59.028
 30
0.0
 11
361.517379
 21
59.028
 31
0.0
  0
LINE
  5
28B
102
{ACAD_REACTORS
330
2E4
102
}
330
1F
100
AcDbEntity
  8
LC-005-101-D00-0
  6
ByBlock
 62
     7
370
    50
100
AcDbLine
 10
403.427379
 20
50.028
 30
0.0
 11
407.479211
 21
50.028
 31
0.0
  0
LINE
  5
28C
102
{ACAD_REACTORS
330
2E4
102
}
330
1F
100
AcDbEntity
  8
LC-005-101-D00-0
  6
ByBlock
 62
     7
370
    50
100
AcDbLine
 10
401.972756
 20
59.028
 30
0.0
 11
401.972756
 21
61.028
 31
0.0
  0
LINE
  5
28D
102
{ACAD_REACTORS
330
2E4
102
}
330
1F
100
AcDbEntity
  8
LC-005-101-D00-0
  6
ByBlock
 62
     7
370
    50
100
AcDbLine
 10
403.427379
 20
59.028
 30
0.0
 11
403.427379
 21
61.028
 31
0.0
  0
LINE
  5
28E
102
{ACAD_REACTORS
330
2E4
102
}
330
1F
100
AcDbEntity
  8
LC-005-101-D00-0
  6
ByBlock
 62
     7
370
    50
100
AcDbLine
 10
401.972756
 20
59.028
 30
0.0
 11
403.427379
 21
59.028
 31
0.0
  0
LINE
  5
28F
102
{ACAD_REACTORS
330
2E4
102
}
330
1F
100
AcDbEntity
  8
LC-005-101-D00-0
 62
     7
370
    25
100
AcDbLine
 10
382.472756
 20
50.028
 30
0.0
 11
382.472756
 21
66.528
 31
0.0
  0
LINE
  5
290
102
{ACAD_REACTORS
330
2E4
102
}
330
1F
100
AcDbEntity
  8
LC-005-101-D00-0
  6
ByBlock
 62
     7
370
    50
100
AcDbLine
 10
401.979211
 20
61.028
 30
0.0
 11
401.972756
 21
61.028
 31
0.0
  0
LINE
  5
291
102
{ACAD_REACTORS
330
2E4
102
}
330
1F
100
AcDbEntity
  8
LC-005-101-D00-0
  6
ByBlock
 62
     7
370
    50
100
AcDbLine
 10
396.722756
 20
62.528
 30
0.0
 11
396.722756
 21
63.028
 31
0.0
  0
LINE
  5
292
102
{ACAD_REACTORS
330
2E4
102
}
330
1F
100
AcDbEntity
  8
LC-005-101-D00-0
  6
ByBlock
 62
     7
370
    50
100
AcDbLine
 10
362.966301
 20
61.028
 30
0.0
 11
362.972756
 21
61.028
 31
0.0
  0
LINE
  5
293
102
{ACAD_REACTORS
330
2E4
102
}
330
1F
100
AcDbEntity
  8
LC-005-101-D00-0
  6
ByBlock
 62
     7
370
    50
100
AcDbLine
 10
368.222756
 20
62.528
 30
0.0
 11
368.222756
 21
63.028
 31
0.0
  0
LINE
  5
294
102
{ACAD_REACTORS
330
2E4
102
}
330
1F
100
AcDbEntity
  8
LC-005-101-D00-0
  6
ByBlock
 62
     7
370
    50
100
AcDbLine
 10
407.479211
 20
52.528
 30
0.0
 11
407.479211
 21
64.528
 31
0.0
  0
LINE
  5
295
102
{ACAD_REACTORS
330
2E4
102
}
330
1F
100
AcDbEntity
  8
LC-005-101-D00-0
  6
ByBlock
 62
     7
370
    50
100
AcDbLine
 10
405.597177
 20
66.107214
 30
0.0
 11
407.479211
 21
64.528
 31
0.0
  0
LINE
  5
296
102
{ACAD_REACTORS
330
2E4
102
}
330
1F
100
AcDbEntity
  8
LC-005-101-D00-0
  6
ByBlock
 62
     7
370
    50
100
AcDbLine
 10
405.597177
 20
52.528
 30
0.0
 11
407.479211
 21
52.528
 31
0.0
  0
LINE
  5
297
102
{ACAD_REACTORS
330
2E4
102
}
330
1F
100
AcDbEntity
  8
LC-005-101-D00-0
  6
ByBlock
 62
     7
370
    50
100
AcDbLine
 10
405.597177
 20
66.107214
 30
0.0
 11
405.597177
 21
52.528
 31
0.0
  0
LINE
  5
298
102
{ACAD_REACTORS
330
2E4
102
}
330
1F
100
AcDbEntity
  8
LC-005-101-D00-0
  6
ByBlock
 62
     7
370
    50
100
AcDbLine
 10
359.348336
 20
66.107214
 30
0.0
 11
357.466301
 21
64.528
 31
0.0
  0
LINE
  5
299
102
{ACAD_REACTORS
330
2E4
102
}
330
1F
100
AcDbEntity
  8
LC-005-101-D00-0
  6
ByBlock
 62
     7
370
    50
100
AcDbLine
 10
359.348336
 20
52.528
 30
0.0
 11
359.348336
 21
66.107214
 31
0.0
  0
LINE
  5
29A
102
{ACAD_REACTORS
330
2E4
102
}
330
1F
100
AcDbEntity
  8
LC-005-101-D00-0
  6
ByBlock
 62
     7
370
    50
100
AcDbLine
 10
357.466301
 20
52.528
 30
0.0
 11
359.348336
 21
52.528
 31
0.0
  0
LINE
  5
29B
102
{ACAD_REACTORS
330
2E4
102
}
330
1F
100
AcDbEntity
  8
LC-005-101-D00-0
  6
ByBlock
 62
     7
370
    50
100
AcDbLine
 10
357.466301
 20
52.528
 30
0.0
 11
357.466301
 21
64.528
 31
0.0
  0
LINE
  5
29C
102
{ACAD_REACTORS
330
2E4
102
}
330
1F
100
AcDbEntity
  8
LC-005-101-D00-0
  6
ByBlock
 62
     7
370
    50
100
AcDbLine
 10
403.427379
 20
50.028
 30
0.0
 11
403.427379
 21
59.028
 31
0.0
  0
LINE
  5
29D
102
{ACAD_REACTORS
330
2E4
102
}
330
1F
100
AcDbEntity
  8
LC-005-101-D00-0
  6
ByBlock
 62
     7
370
    50
100
AcDbLine
 10
401.979211
 20
61.028
 30
0.0
 11
403.427379
 21
61.028
 31
0.0
  0
LINE
  5
29E
102
{ACAD_REACTORS
330
2E4
102
}
330
1F
100
AcDbEntity
  8
LC-005-101-D00-0
  6
ByBlock
 62
     7
370
    50
100
AcDbLine
 10
361.517379
 20
61.028
 30
0.0
 11
362.966301
 21
61.028
 31
0.0
  0
LINE
  5
29F
102
{ACAD_REACTORS
330
2E4
102
}
330
1F
100
AcDbEntity
  8
LC-005-101-D00-0
  6
ByBlock
 62
     7
370
    50
100
AcDbLine
 10
361.517379
 20
50.028
 30
0.0
 11
361.517379
 21
59.028
 31
0.0
  0
LINE
  5
2A0
102
{ACAD_REACTORS
330
2E4
102
}
330
1F
100
AcDbEntity
  8
LC-005-101-D00-0
  6
ByBlock
 62
     7
370
    50
100
AcDbLine
 10
357.466301
 20
50.028
 30
0.0
 11
361.517379
 21
50.028
 31
0.0
  0
LINE
  5
2A1
102
{ACAD_REACTORS
330
2E4
102
}
330
1F
100
AcDbEntity
  8
LC-005-101-D00-0
  6
ByBlock
 62
     7
370
    50
100
AcDbLine
 10
357.466301
 20
50.028
 30
0.0
 11
357.466301
 21
52.528
 31
0.0
  0
LINE
  5
2A2
102
{ACAD_REACTORS
330
2E4
102
}
330
1F
100
AcDbEntity
  8
LC-005-101-D00-0
  6
ByBlock
 62
     7
370
    50
100
AcDbLine
 10
407.479211
 20
50.028
 30
0.0
 11
407.479211
 21
52.528
 31
0.0
  0
LINE
  5
2A3
102
{ACAD_REACTORS
330
2E4
102
}
330
1F
100
AcDbEntity
  8
LC-005-101-D00-0
  6
ByBlock
 62
     7
370
    50
100
AcDbLine
 10
396.145406
 20
60.028
 30
0.0
 11
394.722756
 21
60.028
 31
0.0
  0
LINE
  5
2A4
102
{ACAD_REACTORS
330
2E4
102
}
330
1F
100
AcDbEntity
  8
LC-005-101-D00-0
  6
ByBlock
 62
     7
370
    50
100
AcDbLine
 10
370.222756
 20
60.028
 30
0.0
 11
368.800107
 21
60.028
 31
0.0
  0
LINE
  5
2A5
102
{ACAD_REACTORS
330
2E4
102
}
330
1F
100
AcDbEntity
  8
LC-005-101-D00-0
  6
ByBlock
 62
     7
370
    50
100
AcDbLine
 10
368.800107
 20
60.028
 30
0.0
 11
368.222756
 21
61.028
 31
0.0
  0
LINE
  5
2A6
102
{ACAD_REACTORS
330
2E4
102
}
330
1F
100
AcDbEntity
  8
LC-005-101-D00-0
  6
ByBlock
 62
     7
370
    50
100
AcDbLine
 10
362.966301
 20
63.028
 30
0.0
 11
362.972756
 21
63.028
 31
0.0
  0
LINE
  5
2A7
102
{ACAD_REACTORS
330
2E4
102
}
330
1F
100
AcDbEntity
  8
LC-005-101-D00-0
  6
ByBlock
 62
     7
370
    50
100
AcDbLine
 10
362.972756
 20
63.028
 30
0.0
 11
364.234081
 21
63.028
 31
0.0
  0
LINE
  5
2A8
102
{ACAD_REACTORS
330
2E4
102
}
330
1F
100
AcDbEntity
  8
LC-005-101-D00-0
  6
ByBlock
 62
     7
370
    50
100
AcDbLine
 10
396.722756
 20
61.028
 30
0.0
 11
396.722756
 21
62.528
 31
0.0
  0
LINE
  5
2A9
102
{ACAD_REACTORS
330
2E4
102
}
330
1F
100
AcDbEntity
  8
LC-005-101-D00-0
  6
ByBlock
 62
     7
370
    50
100
AcDbLine
 10
368.222756
 20
61.028
 30
0.0
 11
368.222756
 21
62.528
 31
0.0
  0
LINE
  5
2AA
102
{ACAD_REACTORS
330
2E4
102
}
330
1F
100
AcDbEntity
  8
LC-005-101-D00-0
  6
ByBlock
 62
     7
370
    50
100
AcDbLine
 10
396.722756
 20
63.028
 30
0.0
 11
398.134081
 21
63.028
 31
0.0
  0
LINE
  5
2AB
102
{ACAD_REACTORS
330
2E4
102
}
330
1F
100
AcDbEntity
  8
LC-005-101-D00-0
  6
ByBlock
 62
     7
370
    50
100
AcDbLine
 10
370.222756
 20
63.028
 30
0.0
 11
394.722756
 21
63.028
 31
0.0
  0
LINE
  5
2AC
102
{ACAD_REACTORS
330
2E4
102
}
330
1F
100
AcDbEntity
  8
LC-005-101-D00-0
  6
ByBlock
 62
     7
370
    50
100
AcDbLine
 10
366.811431
 20
63.028
 30
0.0
 11
368.222756
 21
63.028
 31
0.0
  0
LINE
  5
2AD
102
{ACAD_REACTORS
330
2E4
102
}
330
1F
100
AcDbEntity
  8
LC-005-101-D00-0
  6
ByBlock
 62
     7
370
    50
100
AcDbLine
 10
398.134081
 20
63.028
 30
0.0
 11
398.422756
 21
62.528
 31
0.0
  0
LINE
  5
2AE
102
{ACAD_REACTORS
330
2E4
102
}
330
1F
100
AcDbEntity
  8
LC-005-101-D00-0
  6
ByBlock
 62
     7
370
    50
100
AcDbLine
 10
366.811431
 20
63.028
 30
0.0
 11
366.522756
 21
62.528
 31
0.0
  0
LINE
  5
2AF
102
{ACAD_REACTORS
330
2E4
102
}
330
1F
100
AcDbEntity
  8
LC-005-101-D00-0
  6
ByBlock
 62
     7
370
    50
100
AcDbLine
 10
400.711431
 20
63.028
 30
0.0
 11
401.972756
 21
63.028
 31
0.0
  0
LINE
  5
2B0
102
{ACAD_REACTORS
330
2E4
102
}
330
1F
100
AcDbEntity
  8
LC-005-101-D00-0
  6
ByBlock
 62
     7
370
    50
100
AcDbLine
 10
401.972756
 20
63.028
 30
0.0
 11
401.979211
 21
63.028
 31
0.0
  0
LINE
  5
2B1
102
{ACAD_REACTORS
330
2E4
102
}
330
1F
100
AcDbEntity
  8
LC-005-101-D00-0
  6
ByBlock
 62
     7
370
    50
100
AcDbLine
 10
398.711431
 20
63.028
 30
0.0
 11
400.134081
 21
63.028
 31
0.0
  0
LINE
  5
2B2
102
{ACAD_REACTORS
330
2E4
102
}
330
1F
100
AcDbEntity
  8
LC-005-101-D00-0
  6
ByBlock
 62
     7
370
    50
100
AcDbLine
 10
400.134081
 20
63.028
 30
0.0
 11
400.422756
 21
62.528
 31
0.0
  0
LINE
  5
2B3
102
{ACAD_REACTORS
330
2E4
102
}
330
1F
100
AcDbEntity
  8
LC-005-101-D00-0
  6
ByBlock
 62
     7
370
    50
100
AcDbLine
 10
400.422756
 20
62.528
 30
0.0
 11
400.711431
 21
63.028
 31
0.0
  0
LINE
  5
2B4
102
{ACAD_REACTORS
330
2E4
102
}
330
1F
100
AcDbEntity
  8
LC-005-101-D00-0
  6
ByBlock
 62
     7
370
    50
100
AcDbLine
 10
398.422756
 20
62.528
 30
0.0
 11
398.711431
 21
63.028
 31
0.0
  0
LINE
  5
2B5
102
{ACAD_REACTORS
330
2E4
102
}
330
1F
100
AcDbEntity
  8
LC-005-101-D00-0
  6
ByBlock
 62
     7
370
    50
100
AcDbLine
 10
366.522756
 20
62.528
 30
0.0
 11
366.234081
 21
63.028
 31
0.0
  0
LINE
  5
2B6
102
{ACAD_REACTORS
330
2E4
102
}
330
1F
100
AcDbEntity
  8
LC-005-101-D00-0
  6
ByBlock
 62
     7
370
    50
100
AcDbLine
 10
364.864377
 20
65.028
 30
0.0
 11
400.081135
 21
65.028
 31
0.0
  0
LINE
  5
2B7
102
{ACAD_REACTORS
330
2E4
102
}
330
1F
100
AcDbEntity
  8
LC-005-101-D00-0
  6
ByBlock
 62
     7
370
    50
100
AcDbLine
 10
364.811431
 20
63.028
 30
0.0
 11
366.234081
 21
63.028
 31
0.0
  0
LINE
  5
2B8
102
{ACAD_REACTORS
330
2E4
102
}
330
1F
100
AcDbEntity
  8
LC-005-101-D00-0
  6
ByBlock
 62
     7
370
    50
100
AcDbLine
 10
364.811431
 20
63.028
 30
0.0
 11
364.522756
 21
62.528
 31
0.0
  0
LINE
  5
2B9
102
{ACAD_REACTORS
330
2E4
102
}
330
1F
100
AcDbEntity
  8
LC-005-101-D00-0
  6
ByBlock
 62
     7
370
    50
100
AcDbLine
 10
364.522756
 20
62.528
 30
0.0
 11
364.234081
 21
63.028
 31
0.0
  0
LINE
  5
2BA
102
{ACAD_REACTORS
330
2E4
102
}
330
1F
100
AcDbEntity
  8
LC-005-101-D00-0
  6
ByBlock
 62
     7
370
    50
100
AcDbLine
 10
401.979211
 20
63.028
 30
0.0
 11
401.979211
 21
61.028
 31
0.0
  0
LINE
  5
2BB
102
{ACAD_REACTORS
330
2E4
102
}
330
1F
100
AcDbEntity
  8
LC-005-101-D00-0
  6
ByBlock
 62
     7
370
    50
100
AcDbLine
 10
362.966301
 20
63.028
 30
0.0
 11
362.966301
 21
61.028
 31
0.0
  0
LINE
  5
2BC
102
{ACAD_REACTORS
330
2E4
102
}
330
1F
100
AcDbEntity
  8
LC-005-101-D00-0
  6
ByBlock
 62
     7
370
    50
100
AcDbLine
 10
402.679211
 20
66.528
 30
0.0
 11
362.266301
 21
66.528
 31
0.0
  0
LINE
  5
2BD
102
{ACAD_REACTORS
330
2E4
102
}
330
1F
100
AcDbEntity
  8
LC-005-101-D00-0
  6
ByBlock
 62
     7
370
    50
100
AcDbLine
 10
394.722756
 20
60.028
 30
0.0
 11
394.722756
 21
63.028
 31
0.0
  0
LINE
  5
2BE
102
{ACAD_REACTORS
330
2E4
102
}
330
1F
100
AcDbEntity
  8
LC-005-101-D00-0
  6
ByBlock
 62
     7
370
    50
100
AcDbLine
 10
370.222756
 20
60.028
 30
0.0
 11
370.222756
 21
63.028
 31
0.0
  0
LINE
  5
2BF
102
{ACAD_REACTORS
330
2E4
102
}
330
1F
100
AcDbEntity
  8
LC-005-101-D00-0
  6
ByBlock
 62
     7
370
    50
100
AcDbLine
 10
396.145406
 20
60.028
 30
0.0
 11
396.722756
 21
61.028
 31
0.0
  0
LINE
  5
2C0
102
{ACAD_REACTORS
330
2E4
102
}
330
1F
100
AcDbEntity
  8
LC-005-101-D00-0
  6
ByBlock
 62
     7
370
    50
100
AcDbLine
 10
405.095704
 20
66.528
 30
0.0
 11
405.597177
 21
66.107214
 31
0.0
  0
LINE
  5
2C1
102
{ACAD_REACTORS
330
2E4
102
}
330
1F
100
AcDbEntity
  8
LC-005-101-D00-0
  6
ByBlock
 62
     7
370
    50
100
AcDbLine
 10
359.849808
 20
66.528
 30
0.0
 11
359.348336
 21
66.107214
 31
0.0
  0
LINE
  5
2C2
102
{ACAD_REACTORS
330
2E4
102
}
330
1F
100
AcDbEntity
  8
LC-005-101-D00-0
  6
ByBlock
 62
     7
370
    50
100
AcDbLine
 10
402.679211
 20
66.528
 30
0.0
 11
405.095704
 21
66.528
 31
0.0
  0
LINE
  5
2C3
102
{ACAD_REACTORS
330
2E4
102
}
330
1F
100
AcDbEntity
  8
LC-005-101-D00-0
  6
ByBlock
 62
     7
370
    50
100
AcDbLine
 10
359.849808
 20
66.528
 30
0.0
 11
362.266301
 21
66.528
 31
0.0
  0
ARC
  5
2C4
102
{ACAD_REACTORS
330
2E4
102
}
330
1F
100
AcDbEntity
  8
LC-005-101-D00-0
  6
ByBlock
 62
     7
370
    50
100
AcDbCircle
 10
362.266301
 20
63.528
 30
0.0
 40
3.000000000005366
100
AcDbArc
 50
30.0
 51
90.0
  0
ARC
  5
2C5
102
{ACAD_REACTORS
330
2E4
102
}
330
1F
100
AcDbEntity
  8
LC-005-101-D00-0
  6
ByBlock
 62
     7
370
    50
100
AcDbCircle
 10
402.679211
 20
63.528
 30
0.0
 40
3.0
100
AcDbArc
 50
90.0
 51
150.0
  0
INSERT
  5
2D5
102
{ACAD_REACTORS
330
2E4
102
}
330
1F
100
AcDbEntity
  8
LC-005-101-D00-0
  6
ByBlock
 62
     7
370
    25
100
AcDbBlockReference
  2
KLON6
 10
0.0
 20
0.0
 30
0.0
  0
DIMENSION
  5
2D6
330
1F
100
AcDbEntity
  8
LC-004-003-----0
 62
     7
370
    25
100
AcDbDimension
  2
*D22
 10
536.387109
 20
-64.472
 30
0.0
 11
505.587109
 21
-0.57
 31
0.0
 70
   160
 71
     5
 42
131.0
 53
90.0
  3
LC-DIM-L-0140-02-02
100
AcDbAlignedDimension
 13
405.095704
 23
66.528
 33
0.0
 14
404.172756
 24
-64.472
 34
0.0
 50
90.0
100
AcDbRotatedDimension
  0
ENDSEC
  0
SECTION
  2
OBJECTS
  0
DICTIONARY
  5
C
330
0
100
AcDbDictionary
281
     1
  3
ACAD_GROUP
350
D
  3
ACAD_LAYOUT
350
1A
  3
ACAD_MLINESTYLE
350
17
  3
ACAD_PLOTSETTINGS
350
19
  3
ACAD_PLOTSTYLENAME
350
E
  0
DICTIONARY
  5
D
102
{ACAD_REACTORS
330
C
102
}
330
C
100
AcDbDictionary
281
     1
  3
LCGROUP107
350
2E5
  3
LCGROUP239
350
2E6
  3
LCGROUP244
350
2E7
  3
LCGROUP258
350
2E8
  3
LCGROUP320
350
2E4
  3
LCGROUP38
350
2E3
  0
DICTIONARY
  5
1A
102
{ACAD_REACTORS
330
C
102
}
330
C
100
AcDbDictionary
281
     1
  3
Layout1
350
1E
  3
Layout2
350
26
  3
Model
350
22
  0
DICTIONARY
  5
17
102
{ACAD_REACTORS
330
C
102
}
330
C
100
AcDbDictionary
281
     1
  3
Standard
350
18
  0
DICTIONARY
  5
19
102
{ACAD_REACTORS
330
C
102
}
330
C
100
AcDbDictionary
281
     1
  0
ACDBDICTIONARYWDFLT
  5
E
102
{ACAD_REACTORS
330
C
102
}
330
C
100
AcDbDictionary
281
     1
  3
Normal
350
F
100
AcDbDictionaryWithDefault
340
F
  0
GROUP
  5
2E5
102
{ACAD_REACTORS
330
D
102
}
330
D
100
AcDbGroup
300
GRP107
 70
     1
 71
     1
340
92
340
93
340
94
  0
GROUP
  5
2E6
102
{ACAD_REACTORS
330
D
102
}
330
D
100
AcDbGroup
300
KÖRPER-LCMaster-LCGROUP238
 70
     1
 71
     1
340
1B2
340
1E0
340
1E1
340
1E2
340
1E3
340
1E4
340
1E5
340
1E6
340
1E7
340
1E8
340
1E9
340
1EA
340
1EB
340
1EC
340
1ED
340
1EE
340
1EF
340
1F0
340
1F1
340
1F2
340
1F3
340
1F4
340
1F5
340
1F6
340
1F7
340
1F8
340
1F9
340
1FA
340
1FB
340
1FC
340
1FD
340
1FE
340
1FF
340
200
340
201
340
202
340
203
340
204
340
205
340
206
340
207
340
208
340
209
340
20A
340
20B
340
20C
340
20D
340
20E
340
20F
340
210
340
211
340
212
340
213
340
214
340
215
340
216
340
217
340
218
340
219
340
21A
340
21B
340
21C
340
21D
340
21E
340
21F
340
220
340
221
340
222
340
223
340
224
340
225
340
226
340
227
340
228
340
229
340
22A
340
22B
340
234
340
23E
  0
GROUP
  5
2E7
102
{ACAD_REACTORS
330
D
102
}
330
D
100
AcDbGroup
300
RING__2-LCMaster-LCGROUP238
 70
     1
 71
     1
340
1DF
340
23F
340
240
340
241
340
242
340
243
340
244
340
245
340
246
340
247
340
248
340
249
340
24A
340
24B
  0
GROUP
  5
2E8
102
{ACAD_REACTORS
330
D
102
}
330
D
100
AcDbGroup
300
HOLLÄNDERMUTTER_5_4__3-LCMaster-LCGROUP238
 70
     1
 71
     1
340
1DD
340
24C
340
24D
340
24E
340
24F
340
250
340
251
340
252
340
253
340
254
340
255
340
256
340
257
340
258
340
259
340
25A
340
25B
340
25C
340
25D
340
25E
340
25F
340
260
340
261
340
262
340
263
340
264
340
265
340
266
340
267
340
268
340
269
340
26A
340
26B
340
26C
340
26D
340
26E
340
26F
340
270
340
271
340
272
340
273
340
274
340
275
340
276
340
277
340
278
340
279
340
27A
340
27B
340
27C
340
27D
340
27E
340
27F
340
280
340
281
340
282
340
283
340
284
340
285
340
286
340
287
340
288
  0
GROUP
  5
2E4
102
{ACAD_REACTORS
330
D
102
}
330
D
100
AcDbGroup
300
HOLLÄNDERMUTTER_5_4__1-LCMaster-LCGROUP238
 70
     1
 71
     1
340
1DE
340
289
340
28A
340
28B
340
28C
340
28D
340
28E
340
28F
340
290
340
291
340
292
340
293
340
294
340
295
340
296
340
297
340
298
340
299
340
29A
340
29B
340
29C
340
29D
340
29E
340
29F
340
2A0
340
2A1
340
2A2
340
2A3
340
2A4
340
2A5
340
2A6
340
2A7
340
2A8
340
2A9
340
2AA
340
2AB
340
2AC
340
2AD
340
2AE
340
2AF
340
2B0
340
2B1
340
2B2
340
2B3
340
2B4
340
2B5
340
2B6
340
2B7
340
2B8
340
2B9
340
2BA
340
2BB
340
2BC
340
2BD
340
2BE
340
2BF
340
2C0
340
2C1
340
2C2
340
2C3
340
2C4
340
2C5
340
2D5
  0
GROUP
  5
2E3
102
{ACAD_REACTORS
330
D
102
}
330
D
100
AcDbGroup
300
GRP38
 70
     1
 71
     1
340
4E
340
4F
340
50
340
51
340
52
340
53
340
54
340
55
340
56
340
57
340
58
340
59
340
5A
340
5B
340
5C
340
5D
340
5E
340
5F
340
60
340
61
340
62
340
63
340
64
340
65
340
66
  0
LAYOUT
  5
1E
102
{ACAD_REACTORS
330
1A
102
}
330
1A
100
AcDbPlotSettings
  1

  2

  4

  6

 40
0.0
 41
0.0
 42
0.0
 43
0.0
 44
0.0
 45
0.0
 46
0.0
 47
0.0
 48
0.0
 49
0.0
140
0.0
141
0.0
142
1.0
143
1.0
 70
   688
 72
     0
 73
     0
 74
     5
  7

 75
    16
147
1.0
148
0.0
149
0.0
100
AcDbLayout
  1
Layout1
 70
     1
 71
     1
 10
-46.539387
 20
-199.56
 11
793.460613
 21
394.44
 12
0.0
 22
0.0
 32
0.0
 14
-46.539387
 24
-199.56
 34
0.0
 15
793.460613
 25
394.44
 35
0.0
146
0.0
 13
0.0
 23
0.0
 33
0.0
 16
1.0
 26
0.0
 36
0.0
 17
0.0
 27
1.0
 37
0.0
 76
     0
330
1B
  0
LAYOUT
  5
26
102
{ACAD_REACTORS
330
1A
102
}
330
1A
100
AcDbPlotSettings
  1

  2

  4

  6

 40
0.0
 41
0.0
 42
0.0
 43
0.0
 44
0.0
 45
0.0
 46
0.0
 47
0.0
 48
0.0
 49
0.0
140
0.0
141
0.0
142
1.0
143
1.0
 70
   688
 72
     0
 73
     0
 74
     5
  7

 75
    16
147
1.0
148
0.0
149
0.0
100
AcDbLayout
  1
Layout2
 70
     1
 71
     2
 10
0.0
 20
0.0
 11
0.0
 21
0.0
 12
0.0
 22
0.0
 32
0.0
 14
0.0
 24
0.0
 34
0.0
 15
0.0
 25
0.0
 35
0.0
146
0.0
 13
0.0
 23
0.0
 33
0.0
 16
1.0
 26
0.0
 36
0.0
 17
0.0
 27
1.0
 37
0.0
 76
     0
330
23
  0
LAYOUT
  5
22
102
{ACAD_REACTORS
330
1A
102
}
330
1A
100
AcDbPlotSettings
  1

  2

  4

  6

 40
0.0
 41
0.0
 42
0.0
 43
0.0
 44
0.0
 45
0.0
 46
0.0
 47
0.0
 48
0.0
 49
0.0
140
0.0
141
0.0
142
1.0
143
1.0
 70
  1776
 72
     0
 73
     0
 74
     0
  7

 75
     0
147
1.0
148
0.0
149
0.0
100
AcDbLayout
  1
Model
 70
     1
 71
     0
 10
-46.539387
 20
-199.56
 11
793.460613
 21
394.44
 12
0.0
 22
0.0
 32
0.0
 14
-46.539387
 24
-199.56
 34
0.0
 15
793.460613
 25
394.44
 35
0.0
146
0.0
 13
0.0
 23
0.0
 33
0.0
 16
1.0
 26
0.0
 36
0.0
 17
0.0
 27
1.0
 37
0.0
 76
     0
330
1F
  0
MLINESTYLE
  5
18
102
{ACAD_REACTORS
330
17
102
}
330
17
100
AcDbMlineStyle
  2
Standard
 70
     0
  3

 62
   256
 51
90.0
 52
90.0
 71
     2
 49
0.5
 62
   256
  6
BYLAYER
 49
-0.5
 62
   256
  6
BYLAYER
  0
ACDBPLACEHOLDER
  5
F
102
{ACAD_REACTORS
330
E
102
}
330
E
  0
ENDSEC
  0
EOF
