  0
SECTION
  2
HEADER
  9
$ACADVER
  1
AC1015
  9
$ACADMAINTVER
 70
     6
  9
$DWGCODEPAGE
  3
ANSI_1252
  9
$INSBASE
 10
0.0
 20
0.0
 30
0.0
  9
$EXTMIN
 10
-221.989802
 20
-127.527768
 30
0.0
  9
$EXTMAX
 10
618.010198
 20
466.472232
 30
0.0
  9
$LIMMIN
 10
-221.989802
 20
-127.527768
  9
$LIMMAX
 10
618.010198
 20
466.472232
  9
$ORTHOMODE
 70
     0
  9
$REGENMODE
 70
     1
  9
$FILLMODE
 70
     1
  9
$QTEXTMODE
 70
     0
  9
$MIRRTEXT
 70
     1
  9
$LTSCALE
 40
2.0
  9
$ATTMODE
 70
     1
  9
$TEXTSIZE
 40
2.5
  9
$TRACEWID
 40
1.0
  9
$TEXTSTYLE
  7
Standard
  9
$CLAYER
  8
0
  9
$CELTYPE
  6
ByLayer
  9
$CECOLOR
 62
     7
  9
$CELTSCALE
 40
1.0
  9
$DISPSILH
 70
     0
  9
$DIMSCALE
 40
2.0
  9
$DIMASZ
 40
3.5
  9
$DIMEXO
 40
0.625
  9
$DIMDLI
 40
3.75
  9
$DIMRND
 40
0.0
  9
$DIMDLE
 40
0.0
  9
$DIMEXE
 40
1.25
  9
$DIMTP
 40
0.0
  9
$DIMTM
 40
0.0
  9
$DIMTXT
 40
3.5
  9
$DIMCEN
 40
2.5
  9
$DIMTSZ
 40
0.0
  9
$DIMTOL
 70
     0
  9
$DIMLIM
 70
     0
  9
$DIMTIH
 70
     0
  9
$DIMTOH
 70
     0
  9
$DIMSE1
 70
     0
  9
$DIMSE2
 70
     0
  9
$DIMTAD
 70
     1
  9
$DIMZIN
 70
     8
  9
$DIMBLK
  1

  9
$DIMASO
 70
     1
  9
$DIMSHO
 70
     1
  9
$DIMPOST
  1

  9
$DIMAPOST
  1

  9
$DIMALT
 70
     0
  9
$DIMALTD
 70
     3
  9
$DIMALTF
 40
0.03937
  9
$DIMLFAC
 40
1.0
  9
$DIMTOFL
 70
     1
  9
$DIMTVP
 40
0.0
  9
$DIMTIX
 70
     0
  9
$DIMSOXD
 70
     0
  9
$DIMSAH
 70
     0
  9
$DIMBLK1
  1

  9
$DIMBLK2
  1

  9
$DIMSTYLE
  2
ISO-25
  9
$DIMCLRD
 70
     0
  9
$DIMCLRE
 70
     0
  9
$DIMCLRT
 70
     0
  9
$DIMTFAC
 40
1.0
  9
$DIMGAP
 40
0.625
  9
$DIMJUST
 70
     0
  9
$DIMSD1
 70
     0
  9
$DIMSD2
 70
     0
  9
$DIMTOLJ
 70
     0
  9
$DIMTZIN
 70
     8
  9
$DIMALTZ
 70
     0
  9
$DIMALTTZ
 70
     0
  9
$DIMUPT
 70
     0
  9
$DIMDEC
 70
     2
  9
$DIMTDEC
 70
     2
  9
$DIMALTU
 70
     2
  9
$DIMALTTD
 70
     3
  9
$DIMTXSTY
  7
Standard
  9
$DIMAUNIT
 70
     0
  9
$DIMADEC
 70
     0
  9
$DIMALTRND
 40
0.0
  9
$DIMAZIN
 70
     0
  9
$DIMDSEP
 70
    44
  9
$DIMATFIT
 70
     3
  9
$DIMFRAC
 70
     0
  9
$DIMLDRBLK
  1

  9
$DIMLUNIT
 70
     2
  9
$DIMLWD
 70
    -2
  9
$DIMLWE
 70
    -2
  9
$DIMTMOVE
 70
     0
  9
$LUNITS
 70
     2
  9
$LUPREC
 70
     4
  9
$SKETCHINC
 40
1.0
  9
$FILLETRAD
 40
10.0
  9
$AUNITS
 70
     0
  9
$AUPREC
 70
     0
  9
$MENU
  1
.
  9
$ELEVATION
 40
0.0
  9
$PELEVATION
 40
0.0
  9
$THICKNESS
 40
0.0
  9
$LIMCHECK
 70
     0
  9
$CHAMFERA
 40
10.0
  9
$CHAMFERB
 40
10.0
  9
$CHAMFERC
 40
20.0
  9
$CHAMFERD
 40
0.0
  9
$SKPOLY
 70
     0
  9
$TDCREATE
 40
2456905.499537697
  9
$TDUCREATE
 40
2456905.416204364
  9
$TDUPDATE
 40
2456905.499537708
  9
$TDUUPDATE
 40
2456905.416204375
  9
$TDINDWG
 40
0.0000000116
  9
$TDUSRTIMER
 40
0.0000000116
  9
$USRTIMER
 70
     1
  9
$ANGBASE
 50
0.0
  9
$ANGDIR
 70
     0
  9
$PDMODE
 70
     0
  9
$PDSIZE
 40
0.0
  9
$PLINEWID
 40
0.0
  9
$SPLFRAME
 70
     0
  9
$SPLINETYPE
 70
     6
  9
$SPLINESEGS
 70
     8
  9
$HANDSEED
  5
444
  9
$SURFTAB1
 70
     6
  9
$SURFTAB2
 70
     6
  9
$SURFTYPE
 70
     6
  9
$SURFU
 70
     6
  9
$SURFV
 70
     6
  9
$UCSBASE
  2

  9
$UCSNAME
  2

  9
$UCSORG
 10
0.0
 20
0.0
 30
0.0
  9
$UCSXDIR
 10
1.0
 20
0.0
 30
0.0
  9
$UCSYDIR
 10
0.0
 20
1.0
 30
0.0
  9
$UCSORTHOREF
  2

  9
$UCSORTHOVIEW
 70
     0
  9
$UCSORGTOP
 10
0.0
 20
0.0
 30
0.0
  9
$UCSORGBOTTOM
 10
0.0
 20
0.0
 30
0.0
  9
$UCSORGLEFT
 10
0.0
 20
0.0
 30
0.0
  9
$UCSORGRIGHT
 10
0.0
 20
0.0
 30
0.0
  9
$UCSORGFRONT
 10
0.0
 20
0.0
 30
0.0
  9
$UCSORGBACK
 10
0.0
 20
0.0
 30
0.0
  9
$PUCSBASE
  2

  9
$PUCSNAME
  2

  9
$PUCSORG
 10
0.0
 20
0.0
 30
0.0
  9
$PUCSXDIR
 10
1.0
 20
0.0
 30
0.0
  9
$PUCSYDIR
 10
0.0
 20
1.0
 30
0.0
  9
$PUCSORTHOREF
  2

  9
$PUCSORTHOVIEW
 70
     0
  9
$PUCSORGTOP
 10
0.0
 20
0.0
 30
0.0
  9
$PUCSORGBOTTOM
 10
0.0
 20
0.0
 30
0.0
  9
$PUCSORGLEFT
 10
0.0
 20
0.0
 30
0.0
  9
$PUCSORGRIGHT
 10
0.0
 20
0.0
 30
0.0
  9
$PUCSORGFRONT
 10
0.0
 20
0.0
 30
0.0
  9
$PUCSORGBACK
 10
0.0
 20
0.0
 30
0.0
  9
$USERI1
 70
     0
  9
$USERI2
 70
     0
  9
$USERI3
 70
     0
  9
$USERI4
 70
     0
  9
$USERI5
 70
     0
  9
$USERR1
 40
0.0
  9
$USERR2
 40
0.0
  9
$USERR3
 40
0.0
  9
$USERR4
 40
0.0
  9
$USERR5
 40
0.0
  9
$WORLDVIEW
 70
     1
  9
$SHADEDGE
 70
     3
  9
$SHADEDIF
 70
    70
  9
$TILEMODE
 70
     1
  9
$MAXACTVP
 70
    64
  9
$PINSBASE
 10
0.0
 20
0.0
 30
0.0
  9
$PLIMCHECK
 70
     0
  9
$PEXTMIN
 10
-221.989802
 20
-127.527768
 30
0.0
  9
$PEXTMAX
 10
618.010198
 20
466.472232
 30
0.0
  9
$PLIMMIN
 10
-221.989802
 20
-127.527768
  9
$PLIMMAX
 10
618.010198
 20
466.472232
  9
$UNITMODE
 70
     0
  9
$VISRETAIN
 70
     1
  9
$PLINEGEN
 70
     0
  9
$PSLTSCALE
 70
     1
  9
$TREEDEPTH
 70
  3020
  9
$CMLSTYLE
  2
Standard
  9
$CMLJUST
 70
     0
  9
$CMLSCALE
 40
20.0
  9
$PROXYGRAPHICS
 70
     1
  9
$MEASUREMENT
 70
     1
  9
$CELWEIGHT
370
    -1
  9
$ENDCAPS
280
     0
  9
$JOINSTYLE
280
     0
  9
$LWDISPLAY
290
     0
  9
$INSUNITS
 70
     4
  9
$HYPERLINKBASE
  1

  9
$STYLESHEET
  1

  9
$XEDIT
290
     1
  9
$CEPSNTYPE
380
     0
  9
$PSTYLEMODE
290
     1
  9
$FINGERPRINTGUID
  2
{FAEB1C30-E019-11D5-929B-00C0DF256EC4}
  9
$VERSIONGUID
  2
{FAEB1C32-E019-11D5-929B-00C0DF256EC4}
  9
$EXTNAMES
290
     1
  9
$PSVPSCALE
 40
0.0
  9
$OLESTARTUP
290
     0
  0
ENDSEC
  0
SECTION
  2
CLASSES
  0
CLASS
  1
ACDBDICTIONARYWDFLT
  2
AcDbDictionaryWithDefault
  3
ObjectDBX Classes
 90
        0
280
     0
281
     0
  0
CLASS
  1
ACDBPLACEHOLDER
  2
AcDbPlaceHolder
  3
ObjectDBX Classes
 90
        0
280
     0
281
     0
  0
CLASS
  1
LAYOUT
  2
AcDbLayout
  3
ObjectDBX Classes
 90
        0
280
     0
281
     0
  0
ENDSEC
  0
SECTION
  2
TABLES
  0
TABLE
  2
VPORT
  5
8
330
0
100
AcDbSymbolTable
 70
     2
  0
VPORT
  5
29
330
8
100
AcDbSymbolTableRecord
100
AcDbViewportTableRecord
  2
*ACTIVE
 70
     0
 10
0.0
 20
0.0
 11
1.0
 21
1.0
 12
198.010198
 22
169.472232
 13
0.0
 23
0.0
 14
1.0
 24
1.0
 15
0.0
 25
0.0
 16
0.0
 26
0.0
 36
1.0
 17
0.0
 27
0.0
 37
0.0
 40
594.0
 41
1.414141
 42
50.0
 43
0.0
 44
0.0
 50
0.0
 51
0.0
 71
    16
 72
   100
 73
     1
 74
     0
 75
     0
 76
     0
 77
     0
 78
     0
281
     0
 65
     0
110
0.0
120
0.0
130
0.0
111
1.0
121
0.0
131
0.0
112
0.0
122
1.0
132
0.0
 79
     0
146
0.0
  0
ENDTAB
  0
TABLE
  2
LTYPE
  5
5
330
0
100
AcDbSymbolTable
 70
     3
  0
LTYPE
  5
14
330
5
100
AcDbSymbolTableRecord
100
AcDbLinetypeTableRecord
  2
ByBlock
 70
     0
  3

 72
    65
 73
     0
 40
0.0
  0
LTYPE
  5
15
330
5
100
AcDbSymbolTableRecord
100
AcDbLinetypeTableRecord
  2
ByLayer
 70
     0
  3

 72
    65
 73
     0
 40
0.0
  0
LTYPE
  5
16
330
5
100
AcDbSymbolTableRecord
100
AcDbLinetypeTableRecord
  2
Continuous
 70
     0
  3
Solid line
 72
    65
 73
     0
 40
0.0
  0
LTYPE
  5
2A
330
5
100
AcDbSymbolTableRecord
100
AcDbLinetypeTableRecord
  2
DASHED
 70
     0
  3
__ __ __ __ __
 72
    65
 73
     2
 40
6.25
 49
5.0
 74
     4
 75
     0
340
0
 46
1.0
 50
0.0
 44
0.0
 45
0.0
 49
-1.25
 74
     4
 75
     0
340
0
 46
1.0
 50
0.0
 44
0.0
 45
0.0
  0
LTYPE
  5
442
330
5
100
AcDbSymbolTableRecord
100
AcDbLinetypeTableRecord
  2
DASHDOT
 70
     0
  3
__ . __ . __ . __ . __
 72
    65
 73
     4
 40
7.5
 49
5.0
 74
     4
 75
     0
340
0
 46
1.0
 50
0.0
 44
0.0
 45
0.0
 49
-1.25
 74
     4
 75
     0
340
0
 46
1.0
 50
0.0
 44
0.0
 45
0.0
 49
0.0
 74
     4
 75
     0
340
0
 46
1.0
 50
0.0
 44
0.0
 45
0.0
 49
-1.25
 74
     4
 75
     0
340
0
 46
1.0
 50
0.0
 44
0.0
 45
0.0
  0
ENDTAB
  0
TABLE
  2
LAYER
  5
2
330
0
100
AcDbSymbolTable
 70
     7
  0
LAYER
  5
10
330
2
100
AcDbSymbolTableRecord
100
AcDbLayerTableRecord
  2
0
 70
     0
 62
     7
  6
Continuous
370
    -3
390
F
  0
LAYER
  5
2B
330
2
100
AcDbSymbolTableRecord
100
AcDbLayerTableRecord
  2
LC-INFO-1-2-mm-A3-0
 70
     1
 62
     7
  6
ByBlock
370
    -3
390
F
  0
LAYER
  5
2C
330
2
100
AcDbSymbolTableRecord
100
AcDbLayerTableRecord
  2
LC-CUT-HIDDEN
 70
     0
 62
     7
  6
DASHED
370
    -3
390
F
  0
LAYER
  5
2D
330
2
100
AcDbSymbolTableRecord
100
AcDbLayerTableRecord
  2
LC-VIEWPORT
 70
     0
 62
     7
  6
ByBlock
370
    -3
390
F
  0
LAYER
  5
2E
330
2
100
AcDbSymbolTableRecord
100
AcDbLayerTableRecord
  2
LC-3D-HIDDEN
 70
     0
 62
     9
  6
DASHED
370
    -3
390
F
  0
LAYER
  5
30
330
2
100
AcDbSymbolTableRecord
100
AcDbLayerTableRecord
  2
LC-001-100-D00-0
 70
     0
 62
     1
  6
ByBlock
370
    -3
390
F
  0
LAYER
  5
3D7
330
2
100
AcDbSymbolTableRecord
100
AcDbLayerTableRecord
  2
Defpoints
 70
     0
 62
     7
  6
Continuous
290
     0
370
    -3
390
F
  0
ENDTAB
  0
TABLE
  2
STYLE
  5
3
330
0
100
AcDbSymbolTable
 70
     3
  0
STYLE
  5
11
330
3
100
AcDbSymbolTableRecord
100
AcDbTextStyleTableRecord
  2
Standard
 70
     0
 40
0.0
 41
1.0
 50
0.0
 71
     0
 42
2.5
  3
txt
  4

  0
STYLE
  5
2F
330
3
100
AcDbSymbolTableRecord
100
AcDbTextStyleTableRecord
  2
LCTX15-400-0-0-Arial
 70
     0
 40
0.0
 41
0.8
 50
0.0
 71
     0
 42
3.5
  3

  4

1001
ACAD
1000
Arial
1071
 16777218
  0
STYLE
  5
3D4
330
3
100
AcDbSymbolTableRecord
100
AcDbTextStyleTableRecord
  2
LCTX15-400-0-0pDIN-Schrift
 70
     0
 40
2.5
 41
0.8
 50
15.0
 71
     0
 42
3.5
  3
STANDARD
  4

  0
ENDTAB
  0
TABLE
  2
VIEW
  5
6
330
0
100
AcDbSymbolTable
 70
     0
  0
ENDTAB
  0
TABLE
  2
UCS
  5
7
330
0
100
AcDbSymbolTable
 70
     0
  0
ENDTAB
  0
TABLE
  2
APPID
  5
9
330
0
100
AcDbSymbolTable
 70
     1
  0
APPID
  5
12
330
9
100
AcDbSymbolTableRecord
100
AcDbRegAppTableRecord
  2
ACAD
 70
     0
  0
ENDTAB
  0
TABLE
  2
DIMSTYLE
  5
A
330
0
100
AcDbSymbolTable
 70
     2
100
AcDbDimStyleTable
  0
DIMSTYLE
105
27
330
A
100
AcDbSymbolTableRecord
100
AcDbDimStyleTableRecord
  2
ISO-25
 70
     0
 41
2.5
 42
0.625
 43
3.75
 44
1.25
 73
     0
 74
     0
 77
     1
 78
     8
140
2.5
141
2.5
143
0.03937
147
0.625
171
     3
172
     1
271
     2
272
     2
274
     3
278
    44
283
     0
284
     8
340
11
  0
DIMSTYLE
105
3D5
102
{ACAD_REACTORS
330
3D6
330
3E4
330
3F1
330
3FE
330
40D
330
41B
330
428
330
435
102
}
330
A
100
AcDbSymbolTableRecord
100
AcDbDimStyleTableRecord
  2
LC-DIM-L-0140-02-02
 70
     0
 40
2.0
 41
14.0
 42
0.0
 43
7.5
 44
1.8
 73
     0
 74
     0
 77
     1
 78
     8
 79
     2
140
14.0
141
0.0
146
0.71
147
1.5
176
     2
177
     2
178
     2
179
     2
271
     2
278
    44
289
     1
340
3D4
  0
ENDTAB
  0
TABLE
  2
BLOCK_RECORD
  5
1
330
0
100
AcDbSymbolTable
 70
    38
  0
BLOCK_RECORD
  5
1F
330
1
100
AcDbSymbolTableRecord
100
AcDbBlockTableRecord
  2
*Model_Space
340
22
  0
BLOCK_RECORD
  5
1B
330
1
100
AcDbSymbolTableRecord
100
AcDbBlockTableRecord
  2
*Paper_Space
340
1E
  0
BLOCK_RECORD
  5
23
330
1
100
AcDbSymbolTableRecord
100
AcDbBlockTableRecord
  2
*Paper_Space0
340
26
  0
BLOCK_RECORD
  5
B5
330
1
100
AcDbSymbolTableRecord
100
AcDbBlockTableRecord
  2
KLON1
340
0
102
{BLKREFS
331
BE
102
}
  0
BLOCK_RECORD
  5
E0
330
1
100
AcDbSymbolTableRecord
100
AcDbBlockTableRecord
  2
POLY1
340
0
102
{BLKREFS
331
EB
102
}
  0
BLOCK_RECORD
  5
EE
330
1
100
AcDbSymbolTableRecord
100
AcDbBlockTableRecord
  2
POLY2
340
0
102
{BLKREFS
331
F9
102
}
  0
BLOCK_RECORD
  5
FD
330
1
100
AcDbSymbolTableRecord
100
AcDbBlockTableRecord
  2
POLY3
340
0
102
{BLKREFS
331
10C
102
}
  0
BLOCK_RECORD
  5
10E
330
1
100
AcDbSymbolTableRecord
100
AcDbBlockTableRecord
  2
POLY4
340
0
102
{BLKREFS
331
11B
102
}
  0
BLOCK_RECORD
  5
11E
330
1
100
AcDbSymbolTableRecord
100
AcDbBlockTableRecord
  2
POLY5
340
0
102
{BLKREFS
331
12B
102
}
  0
BLOCK_RECORD
  5
130
330
1
100
AcDbSymbolTableRecord
100
AcDbBlockTableRecord
  2
POLY6
340
0
102
{BLKREFS
331
13F
102
}
  0
BLOCK_RECORD
  5
142
330
1
100
AcDbSymbolTableRecord
100
AcDbBlockTableRecord
  2
POLY7
340
0
102
{BLKREFS
331
151
102
}
  0
BLOCK_RECORD
  5
154
330
1
100
AcDbSymbolTableRecord
100
AcDbBlockTableRecord
  2
POLY8
340
0
102
{BLKREFS
331
163
102
}
  0
BLOCK_RECORD
  5
165
330
1
100
AcDbSymbolTableRecord
100
AcDbBlockTableRecord
  2
POLY9
340
0
102
{BLKREFS
331
174
102
}
  0
BLOCK_RECORD
  5
176
330
1
100
AcDbSymbolTableRecord
100
AcDbBlockTableRecord
  2
POLY10
340
0
102
{BLKREFS
331
181
102
}
  0
BLOCK_RECORD
  5
182
330
1
100
AcDbSymbolTableRecord
100
AcDbBlockTableRecord
  2
POLY11
340
0
102
{BLKREFS
331
18F
102
}
  0
BLOCK_RECORD
  5
1B3
330
1
100
AcDbSymbolTableRecord
100
AcDbBlockTableRecord
  2
POLY12
340
0
102
{BLKREFS
331
1C2
102
}
  0
BLOCK_RECORD
  5
1C4
330
1
100
AcDbSymbolTableRecord
100
AcDbBlockTableRecord
  2
POLY13
340
0
102
{BLKREFS
331
1CF
102
}
  0
BLOCK_RECORD
  5
1D1
330
1
100
AcDbSymbolTableRecord
100
AcDbBlockTableRecord
  2
POLY14
340
0
102
{BLKREFS
331
1E0
102
}
  0
BLOCK_RECORD
  5
1E2
330
1
100
AcDbSymbolTableRecord
100
AcDbBlockTableRecord
  2
POLY15
340
0
102
{BLKREFS
331
1F1
102
}
  0
BLOCK_RECORD
  5
1F2
330
1
100
AcDbSymbolTableRecord
100
AcDbBlockTableRecord
  2
POLY16
340
0
102
{BLKREFS
331
201
102
}
  0
BLOCK_RECORD
  5
202
330
1
100
AcDbSymbolTableRecord
100
AcDbBlockTableRecord
  2
POLY17
340
0
102
{BLKREFS
331
211
102
}
  0
BLOCK_RECORD
  5
212
330
1
100
AcDbSymbolTableRecord
100
AcDbBlockTableRecord
  2
POLY18
340
0
102
{BLKREFS
331
221
102
}
  0
BLOCK_RECORD
  5
223
330
1
100
AcDbSymbolTableRecord
100
AcDbBlockTableRecord
  2
POLY19
340
0
102
{BLKREFS
331
232
102
}
  0
BLOCK_RECORD
  5
236
330
1
100
AcDbSymbolTableRecord
100
AcDbBlockTableRecord
  2
POLY20
340
0
102
{BLKREFS
331
241
102
}
  0
BLOCK_RECORD
  5
310
330
1
100
AcDbSymbolTableRecord
100
AcDbBlockTableRecord
  2
KLON2
340
0
102
{BLKREFS
331
342
102
}
  0
BLOCK_RECORD
  5
343
330
1
100
AcDbSymbolTableRecord
100
AcDbBlockTableRecord
  2
KLON3
340
0
102
{BLKREFS
331
371
102
}
  0
BLOCK_RECORD
  5
372
330
1
100
AcDbSymbolTableRecord
100
AcDbBlockTableRecord
  2
KLON4
340
0
102
{BLKREFS
331
37A
102
}
  0
BLOCK_RECORD
  5
37B
330
1
100
AcDbSymbolTableRecord
100
AcDbBlockTableRecord
  2
KLON5
340
0
102
{BLKREFS
331
382
102
}
  0
BLOCK_RECORD
  5
383
330
1
100
AcDbSymbolTableRecord
100
AcDbBlockTableRecord
  2
KLON6
340
0
102
{BLKREFS
331
3A4
102
}
  0
BLOCK_RECORD
  5
3A5
330
1
100
AcDbSymbolTableRecord
100
AcDbBlockTableRecord
  2
KLON7
340
0
102
{BLKREFS
331
3B9
102
}
  0
BLOCK_RECORD
  5
3BA
330
1
100
AcDbSymbolTableRecord
100
AcDbBlockTableRecord
  2
KLON8
340
0
102
{BLKREFS
331
3CC
102
}
  0
BLOCK_RECORD
  5
3CE
330
1
100
AcDbSymbolTableRecord
100
AcDbBlockTableRecord
  2
KLON9
340
0
102
{BLKREFS
331
3D3
102
}
  0
BLOCK_RECORD
  5
3D8
330
1
100
AcDbSymbolTableRecord
100
AcDbBlockTableRecord
  2
*D30
340
0
  0
BLOCK_RECORD
  5
3E5
330
1
100
AcDbSymbolTableRecord
100
AcDbBlockTableRecord
  2
*D31
340
0
  0
BLOCK_RECORD
  5
3F2
330
1
100
AcDbSymbolTableRecord
100
AcDbBlockTableRecord
  2
*D32
340
0
  0
BLOCK_RECORD
  5
3FF
330
1
100
AcDbSymbolTableRecord
100
AcDbBlockTableRecord
  2
*D33
340
0
  0
BLOCK_RECORD
  5
40E
330
1
100
AcDbSymbolTableRecord
100
AcDbBlockTableRecord
  2
*D34
340
0
  0
BLOCK_RECORD
  5
41C
330
1
100
AcDbSymbolTableRecord
100
AcDbBlockTableRecord
  2
*D35
340
0
  0
BLOCK_RECORD
  5
429
330
1
100
AcDbSymbolTableRecord
100
AcDbBlockTableRecord
  2
*D36
340
0
  0
BLOCK_RECORD
  5
436
330
1
100
AcDbSymbolTableRecord
100
AcDbBlockTableRecord
  2
*D37
340
0
  0
ENDTAB
  0
ENDSEC
  0
SECTION
  2
BLOCKS
  0
BLOCK
  5
20
330
1F
100
AcDbEntity
  8
0
100
AcDbBlockBegin
  2
*Model_Space
 70
     0
 71
     0
 10
0.0
 20
0.0
 30
0.0
  3
*Model_Space
  1

  0
ENDBLK
  5
21
330
1F
100
AcDbEntity
  8
0
100
AcDbBlockEnd
  0
BLOCK
  5
1C
330
1B
100
AcDbEntity
 67
     1
  8
0
100
AcDbBlockBegin
  2
*Paper_Space
 70
     0
 71
     0
 10
0.0
 20
0.0
 30
0.0
  3
*Paper_Space
  1

  0
ENDBLK
  5
1D
330
1B
100
AcDbEntity
 67
     1
  8
0
100
AcDbBlockEnd
  0
BLOCK
  5
24
330
23
100
AcDbEntity
  8
0
100
AcDbBlockBegin
  2
*Paper_Space0
 70
     0
 71
     0
 10
0.0
 20
0.0
 30
0.0
  3
*Paper_Space0
  1

  0
ENDBLK
  5
25
330
23
100
AcDbEntity
  8
0
100
AcDbBlockEnd
  0
BLOCK
  5
B6
330
B5
100
AcDbEntity
  8
0
100
AcDbBlockBegin
  2
KLON1
 70
     0
 71
     0
 10
0.0
 20
0.0
 30
0.0
  3
KLON1
  1

  4
KLON1
  0
LINE
  5
B8
330
B5
100
AcDbEntity
  8
LC-001-100-D00-0
 62
     7
370
    15
100
AcDbLine
 10
218.395356
 20
246.002582
 30
0.0
 11
218.455295
 21
246.210385
 31
0.0
  0
LINE
  5
B9
330
B5
100
AcDbEntity
  8
LC-001-100-D00-0
 62
     7
370
    15
100
AcDbLine
 10
218.455295
 20
246.210385
 30
0.0
 11
218.479682
 21
246.476433
 31
0.0
  0
LINE
  5
BA
330
B5
100
AcDbEntity
  8
LC-001-100-D00-0
 62
     7
370
    15
100
AcDbLine
 10
218.479682
 20
246.476433
 30
0.0
 11
218.455295
 21
246.742482
 31
0.0
  0
LINE
  5
BB
330
B5
100
AcDbEntity
  8
LC-001-100-D00-0
 62
     7
370
    15
100
AcDbLine
 10
218.455295
 20
246.742482
 30
0.0
 11
218.385306
 21
246.973927
 31
0.0
  0
LINE
  5
BC
330
B5
100
AcDbEntity
  8
LC-001-100-D00-0
 62
     7
370
    15
100
AcDbLine
 10
218.385306
 20
246.973927
 30
0.0
 11
218.278819
 21
247.140667
 31
0.0
  0
LINE
  5
BD
330
B5
100
AcDbEntity
  8
LC-001-100-D00-0
 62
     7
370
    15
100
AcDbLine
 10
218.278819
 20
247.140667
 30
0.0
 11
218.149682
 21
247.221014
 31
0.0
  0
ENDBLK
  5
B7
330
B5
100
AcDbEntity
  8
0
100
AcDbBlockEnd
  0
BLOCK
  5
E1
330
E0
100
AcDbEntity
  8
0
100
AcDbBlockBegin
  2
POLY1
 70
     0
 71
     0
 10
0.0
 20
0.0
 30
0.0
  3
POLY1
  1

  4
POLY1
  0
LINE
  5
E3
330
E0
100
AcDbEntity
  8
LC-001-100-D00-0
 62
     7
370
    50
100
AcDbLine
 10
246.986146
 20
269.821014
 30
0.0
 11
246.986146
 21
269.821014
 31
0.0
  0
LINE
  5
E4
330
E0
100
AcDbEntity
  8
LC-001-100-D00-0
 62
     7
370
    50
100
AcDbLine
 10
246.986146
 20
269.821014
 30
0.0
 11
246.957837
 21
269.821014
 31
0.0
  0
LINE
  5
E5
330
E0
100
AcDbEntity
  8
LC-001-100-D00-0
 62
     7
370
    50
100
AcDbLine
 10
246.957837
 20
269.821014
 30
0.0
 11
246.957837
 21
269.821014
 31
0.0
  0
LINE
  5
E6
330
E0
100
AcDbEntity
  8
LC-001-100-D00-0
 62
     7
370
    50
100
AcDbLine
 10
246.957837
 20
269.821014
 30
0.0
 11
246.927312
 21
269.821014
 31
0.0
  0
LINE
  5
E7
330
E0
100
AcDbEntity
  8
LC-001-100-D00-0
 62
     7
370
    50
100
AcDbLine
 10
246.927312
 20
269.821014
 30
0.0
 11
246.927312
 21
269.821014
 31
0.0
  0
LINE
  5
E8
330
E0
100
AcDbEntity
  8
LC-001-100-D00-0
 62
     7
370
    50
100
AcDbLine
 10
246.927312
 20
269.821014
 30
0.0
 11
246.882491
 21
269.821014
 31
0.0
  0
LINE
  5
E9
330
E0
100
AcDbEntity
  8
LC-001-100-D00-0
 62
     7
370
    50
100
AcDbLine
 10
246.882491
 20
269.821014
 30
0.0
 11
246.882491
 21
269.821014
 31
0.0
  0
LINE
  5
EA
330
E0
100
AcDbEntity
  8
LC-001-100-D00-0
 62
     7
370
    50
100
AcDbLine
 10
246.882491
 20
269.821014
 30
0.0
 11
246.879238
 21
269.821014
 31
0.0
  0
ENDBLK
  5
E2
330
E0
100
AcDbEntity
  8
0
100
AcDbBlockEnd
  0
BLOCK
  5
EF
330
EE
100
AcDbEntity
  8
0
100
AcDbBlockBegin
  2
POLY2
 70
     0
 71
     0
 10
0.0
 20
0.0
 30
0.0
  3
POLY2
  1

  4
POLY2
  0
LINE
  5
F1
330
EE
100
AcDbEntity
  8
LC-001-100-D00-0
 62
     7
370
    50
100
AcDbLine
 10
247.160248
 20
269.821014
 30
0.0
 11
247.160248
 21
269.821014
 31
0.0
  0
LINE
  5
F2
330
EE
100
AcDbEntity
  8
LC-001-100-D00-0
 62
     7
370
    50
100
AcDbLine
 10
247.160248
 20
269.821014
 30
0.0
 11
247.130728
 21
269.821014
 31
0.0
  0
LINE
  5
F3
330
EE
100
AcDbEntity
  8
LC-001-100-D00-0
 62
     7
370
    50
100
AcDbLine
 10
247.130728
 20
269.821014
 30
0.0
 11
247.130728
 21
269.821014
 31
0.0
  0
LINE
  5
F4
330
EE
100
AcDbEntity
  8
LC-001-100-D00-0
 62
     7
370
    50
100
AcDbLine
 10
247.130728
 20
269.821014
 30
0.0
 11
247.078025
 21
269.821014
 31
0.0
  0
LINE
  5
F5
330
EE
100
AcDbEntity
  8
LC-001-100-D00-0
 62
     7
370
    50
100
AcDbLine
 10
247.078025
 20
269.821014
 30
0.0
 11
247.078025
 21
269.821014
 31
0.0
  0
LINE
  5
F6
330
EE
100
AcDbEntity
  8
LC-001-100-D00-0
 62
     7
370
    50
100
AcDbLine
 10
247.078025
 20
269.821014
 30
0.0
 11
247.014215
 21
269.821014
 31
0.0
  0
LINE
  5
F7
330
EE
100
AcDbEntity
  8
LC-001-100-D00-0
 62
     7
370
    50
100
AcDbLine
 10
247.014215
 20
269.821014
 30
0.0
 11
247.014215
 21
269.821014
 31
0.0
  0
LINE
  5
F8
330
EE
100
AcDbEntity
  8
LC-001-100-D00-0
 62
     7
370
    50
100
AcDbLine
 10
247.014215
 20
269.821014
 30
0.0
 11
246.986146
 21
269.821014
 31
0.0
  0
ENDBLK
  5
F0
330
EE
100
AcDbEntity
  8
0
100
AcDbBlockEnd
  0
BLOCK
  5
FE
330
FD
100
AcDbEntity
  8
0
100
AcDbBlockBegin
  2
POLY3
 70
     0
 71
     0
 10
0.0
 20
0.0
 30
0.0
  3
POLY3
  1

  4
POLY3
  0
LINE
  5
100
330
FD
100
AcDbEntity
  8
LC-001-100-D00-0
 62
     7
370
    50
100
AcDbLine
 10
226.826079
 20
269.821014
 30
0.0
 11
226.826079
 21
269.821014
 31
0.0
  0
LINE
  5
101
330
FD
100
AcDbEntity
  8
LC-001-100-D00-0
 62
     7
370
    50
100
AcDbLine
 10
226.826079
 20
269.821014
 30
0.0
 11
226.69904
 21
269.821014
 31
0.0
  0
LINE
  5
102
330
FD
100
AcDbEntity
  8
LC-001-100-D00-0
 62
     7
370
    50
100
AcDbLine
 10
226.69904
 20
269.821014
 30
0.0
 11
226.69904
 21
269.821014
 31
0.0
  0
LINE
  5
103
330
FD
100
AcDbEntity
  8
LC-001-100-D00-0
 62
     7
370
    50
100
AcDbLine
 10
226.69904
 20
269.821014
 30
0.0
 11
226.445616
 21
269.821014
 31
0.0
  0
LINE
  5
104
330
FD
100
AcDbEntity
  8
LC-001-100-D00-0
 62
     7
370
    50
100
AcDbLine
 10
226.445616
 20
269.821014
 30
0.0
 11
226.445616
 21
269.821014
 31
0.0
  0
LINE
  5
105
330
FD
100
AcDbEntity
  8
LC-001-100-D00-0
 62
     7
370
    50
100
AcDbLine
 10
226.445616
 20
269.821014
 30
0.0
 11
226.120849
 21
269.821014
 31
0.0
  0
LINE
  5
106
330
FD
100
AcDbEntity
  8
LC-001-100-D00-0
 62
     7
370
    50
100
AcDbLine
 10
226.120849
 20
269.821014
 30
0.0
 11
226.120849
 21
269.821014
 31
0.0
  0
LINE
  5
107
330
FD
100
AcDbEntity
  8
LC-001-100-D00-0
 62
     7
370
    50
100
AcDbLine
 10
226.120849
 20
269.821014
 30
0.0
 11
225.92369
 21
269.821014
 31
0.0
  0
LINE
  5
108
330
FD
100
AcDbEntity
  8
LC-001-100-D00-0
 62
     7
370
    50
100
AcDbLine
 10
225.92369
 20
269.821014
 30
0.0
 11
225.92369
 21
269.821014
 31
0.0
  0
LINE
  5
109
330
FD
100
AcDbEntity
  8
LC-001-100-D00-0
 62
     7
370
    50
100
AcDbLine
 10
225.92369
 20
269.821014
 30
0.0
 11
225.907633
 21
269.821014
 31
0.0
  0
LINE
  5
10A
330
FD
100
AcDbEntity
  8
LC-001-100-D00-0
 62
     7
370
    50
100
AcDbLine
 10
225.907633
 20
269.821014
 30
0.0
 11
225.907633
 21
269.821014
 31
0.0
  0
LINE
  5
10B
330
FD
100
AcDbEntity
  8
LC-001-100-D00-0
 62
     7
370
    50
100
AcDbLine
 10
225.907633
 20
269.821014
 30
0.0
 11
225.899591
 21
269.821014
 31
0.0
  0
ENDBLK
  5
FF
330
FD
100
AcDbEntity
  8
0
100
AcDbBlockEnd
  0
BLOCK
  5
10F
330
10E
100
AcDbEntity
  8
0
100
AcDbBlockBegin
  2
POLY4
 70
     0
 71
     0
 10
0.0
 20
0.0
 30
0.0
  3
POLY4
  1

  4
POLY4
  0
LINE
  5
111
330
10E
100
AcDbEntity
  8
LC-001-100-D00-0
 62
     7
370
    50
100
AcDbLine
 10
227.68095
 20
269.821014
 30
0.0
 11
227.68095
 21
269.821014
 31
0.0
  0
LINE
  5
112
330
10E
100
AcDbEntity
  8
LC-001-100-D00-0
 62
     7
370
    50
100
AcDbLine
 10
227.68095
 20
269.821014
 30
0.0
 11
227.633932
 21
269.821014
 31
0.0
  0
LINE
  5
113
330
10E
100
AcDbEntity
  8
LC-001-100-D00-0
 62
     7
370
    50
100
AcDbLine
 10
227.633932
 20
269.821014
 30
0.0
 11
227.633932
 21
269.821014
 31
0.0
  0
LINE
  5
114
330
10E
100
AcDbEntity
  8
LC-001-100-D00-0
 62
     7
370
    50
100
AcDbLine
 10
227.633932
 20
269.821014
 30
0.0
 11
227.539716
 21
269.821014
 31
0.0
  0
LINE
  5
115
330
10E
100
AcDbEntity
  8
LC-001-100-D00-0
 62
     7
370
    50
100
AcDbLine
 10
227.539716
 20
269.821014
 30
0.0
 11
227.539716
 21
269.821014
 31
0.0
  0
LINE
  5
116
330
10E
100
AcDbEntity
  8
LC-001-100-D00-0
 62
     7
370
    50
100
AcDbLine
 10
227.539716
 20
269.821014
 30
0.0
 11
227.223823
 21
269.821014
 31
0.0
  0
LINE
  5
117
330
10E
100
AcDbEntity
  8
LC-001-100-D00-0
 62
     7
370
    50
100
AcDbLine
 10
227.223823
 20
269.821014
 30
0.0
 11
227.223823
 21
269.821014
 31
0.0
  0
LINE
  5
118
330
10E
100
AcDbEntity
  8
LC-001-100-D00-0
 62
     7
370
    50
100
AcDbLine
 10
227.223823
 20
269.821014
 30
0.0
 11
226.976973
 21
269.821014
 31
0.0
  0
LINE
  5
119
330
10E
100
AcDbEntity
  8
LC-001-100-D00-0
 62
     7
370
    50
100
AcDbLine
 10
226.976973
 20
269.821014
 30
0.0
 11
226.976973
 21
269.821014
 31
0.0
  0
LINE
  5
11A
330
10E
100
AcDbEntity
  8
LC-001-100-D00-0
 62
     7
370
    50
100
AcDbLine
 10
226.976973
 20
269.821014
 30
0.0
 11
226.826079
 21
269.821014
 31
0.0
  0
ENDBLK
  5
110
330
10E
100
AcDbEntity
  8
0
100
AcDbBlockEnd
  0
BLOCK
  5
11F
330
11E
100
AcDbEntity
  8
0
100
AcDbBlockBegin
  2
POLY5
 70
     0
 71
     0
 10
0.0
 20
0.0
 30
0.0
  3
POLY5
  1

  4
POLY5
  0
LINE
  5
121
330
11E
100
AcDbEntity
  8
LC-001-100-D00-0
 62
     7
370
    50
100
AcDbLine
 10
237.532757
 20
269.821014
 30
0.0
 11
237.532757
 21
269.821014
 31
0.0
  0
LINE
  5
122
330
11E
100
AcDbEntity
  8
LC-001-100-D00-0
 62
     7
370
    50
100
AcDbLine
 10
237.532757
 20
269.821014
 30
0.0
 11
237.485739
 21
269.821014
 31
0.0
  0
LINE
  5
123
330
11E
100
AcDbEntity
  8
LC-001-100-D00-0
 62
     7
370
    50
100
AcDbLine
 10
237.485739
 20
269.821014
 30
0.0
 11
237.485739
 21
269.821014
 31
0.0
  0
LINE
  5
124
330
11E
100
AcDbEntity
  8
LC-001-100-D00-0
 62
     7
370
    50
100
AcDbLine
 10
237.485739
 20
269.821014
 30
0.0
 11
237.391523
 21
269.821014
 31
0.0
  0
LINE
  5
125
330
11E
100
AcDbEntity
  8
LC-001-100-D00-0
 62
     7
370
    50
100
AcDbLine
 10
237.391523
 20
269.821014
 30
0.0
 11
237.391523
 21
269.821014
 31
0.0
  0
LINE
  5
126
330
11E
100
AcDbEntity
  8
LC-001-100-D00-0
 62
     7
370
    50
100
AcDbLine
 10
237.391523
 20
269.821014
 30
0.0
 11
237.07563
 21
269.821014
 31
0.0
  0
LINE
  5
127
330
11E
100
AcDbEntity
  8
LC-001-100-D00-0
 62
     7
370
    50
100
AcDbLine
 10
237.07563
 20
269.821014
 30
0.0
 11
237.07563
 21
269.821014
 31
0.0
  0
LINE
  5
128
330
11E
100
AcDbEntity
  8
LC-001-100-D00-0
 62
     7
370
    50
100
AcDbLine
 10
237.07563
 20
269.821014
 30
0.0
 11
236.82878
 21
269.821014
 31
0.0
  0
LINE
  5
129
330
11E
100
AcDbEntity
  8
LC-001-100-D00-0
 62
     7
370
    50
100
AcDbLine
 10
236.82878
 20
269.821014
 30
0.0
 11
236.82878
 21
269.821014
 31
0.0
  0
LINE
  5
12A
330
11E
100
AcDbEntity
  8
LC-001-100-D00-0
 62
     7
370
    50
100
AcDbLine
 10
236.82878
 20
269.821014
 30
0.0
 11
236.677886
 21
269.821014
 31
0.0
  0
ENDBLK
  5
120
330
11E
100
AcDbEntity
  8
0
100
AcDbBlockEnd
  0
BLOCK
  5
131
330
130
100
AcDbEntity
  8
0
100
AcDbBlockBegin
  2
POLY6
 70
     0
 71
     0
 10
0.0
 20
0.0
 30
0.0
  3
POLY6
  1

  4
POLY6
  0
LINE
  5
133
330
130
100
AcDbEntity
  8
LC-001-100-D00-0
 62
     7
370
    50
100
AcDbLine
 10
236.677886
 20
269.821014
 30
0.0
 11
236.677886
 21
269.821014
 31
0.0
  0
LINE
  5
134
330
130
100
AcDbEntity
  8
LC-001-100-D00-0
 62
     7
370
    50
100
AcDbLine
 10
236.677886
 20
269.821014
 30
0.0
 11
236.550847
 21
269.821014
 31
0.0
  0
LINE
  5
135
330
130
100
AcDbEntity
  8
LC-001-100-D00-0
 62
     7
370
    50
100
AcDbLine
 10
236.550847
 20
269.821014
 30
0.0
 11
236.550847
 21
269.821014
 31
0.0
  0
LINE
  5
136
330
130
100
AcDbEntity
  8
LC-001-100-D00-0
 62
     7
370
    50
100
AcDbLine
 10
236.550847
 20
269.821014
 30
0.0
 11
236.297423
 21
269.821014
 31
0.0
  0
LINE
  5
137
330
130
100
AcDbEntity
  8
LC-001-100-D00-0
 62
     7
370
    50
100
AcDbLine
 10
236.297423
 20
269.821014
 30
0.0
 11
236.297423
 21
269.821014
 31
0.0
  0
LINE
  5
138
330
130
100
AcDbEntity
  8
LC-001-100-D00-0
 62
     7
370
    50
100
AcDbLine
 10
236.297423
 20
269.821014
 30
0.0
 11
235.972656
 21
269.821014
 31
0.0
  0
LINE
  5
139
330
130
100
AcDbEntity
  8
LC-001-100-D00-0
 62
     7
370
    50
100
AcDbLine
 10
235.972656
 20
269.821014
 30
0.0
 11
235.972656
 21
269.821014
 31
0.0
  0
LINE
  5
13A
330
130
100
AcDbEntity
  8
LC-001-100-D00-0
 62
     7
370
    50
100
AcDbLine
 10
235.972656
 20
269.821014
 30
0.0
 11
235.775497
 21
269.821014
 31
0.0
  0
LINE
  5
13B
330
130
100
AcDbEntity
  8
LC-001-100-D00-0
 62
     7
370
    50
100
AcDbLine
 10
235.775497
 20
269.821014
 30
0.0
 11
235.775497
 21
269.821014
 31
0.0
  0
LINE
  5
13C
330
130
100
AcDbEntity
  8
LC-001-100-D00-0
 62
     7
370
    50
100
AcDbLine
 10
235.775497
 20
269.821014
 30
0.0
 11
235.75944
 21
269.821014
 31
0.0
  0
LINE
  5
13D
330
130
100
AcDbEntity
  8
LC-001-100-D00-0
 62
     7
370
    50
100
AcDbLine
 10
235.75944
 20
269.821014
 30
0.0
 11
235.75944
 21
269.821014
 31
0.0
  0
LINE
  5
13E
330
130
100
AcDbEntity
  8
LC-001-100-D00-0
 62
     7
370
    50
100
AcDbLine
 10
235.75944
 20
269.821014
 30
0.0
 11
235.751398
 21
269.821014
 31
0.0
  0
ENDBLK
  5
132
330
130
100
AcDbEntity
  8
0
100
AcDbBlockEnd
  0
BLOCK
  5
143
330
142
100
AcDbEntity
  8
0
100
AcDbBlockBegin
  2
POLY7
 70
     0
 71
     0
 10
0.0
 20
0.0
 30
0.0
  3
POLY7
  1

  4
POLY7
  0
LINE
  5
145
330
142
100
AcDbEntity
  8
LC-001-100-D00-0
 62
     7
370
    50
100
AcDbLine
 10
234.274203
 20
269.821014
 30
0.0
 11
234.274203
 21
269.821014
 31
0.0
  0
LINE
  5
146
330
142
100
AcDbEntity
  8
LC-001-100-D00-0
 62
     7
370
    50
100
AcDbLine
 10
234.274203
 20
269.821014
 30
0.0
 11
234.094179
 21
269.821014
 31
0.0
  0
LINE
  5
147
330
142
100
AcDbEntity
  8
LC-001-100-D00-0
 62
     7
370
    50
100
AcDbLine
 10
234.094179
 20
269.821014
 30
0.0
 11
234.094179
 21
269.821014
 31
0.0
  0
LINE
  5
148
330
142
100
AcDbEntity
  8
LC-001-100-D00-0
 62
     7
370
    50
100
AcDbLine
 10
234.094179
 20
269.821014
 30
0.0
 11
233.734839
 21
269.821014
 31
0.0
  0
LINE
  5
149
330
142
100
AcDbEntity
  8
LC-001-100-D00-0
 62
     7
370
    50
100
AcDbLine
 10
233.734839
 20
269.821014
 30
0.0
 11
233.734839
 21
269.821014
 31
0.0
  0
LINE
  5
14A
330
142
100
AcDbEntity
  8
LC-001-100-D00-0
 62
     7
370
    50
100
AcDbLine
 10
233.734839
 20
269.821014
 30
0.0
 11
233.264827
 21
269.821014
 31
0.0
  0
LINE
  5
14B
330
142
100
AcDbEntity
  8
LC-001-100-D00-0
 62
     7
370
    50
100
AcDbLine
 10
233.264827
 20
269.821014
 30
0.0
 11
233.264827
 21
269.821014
 31
0.0
  0
LINE
  5
14C
330
142
100
AcDbEntity
  8
LC-001-100-D00-0
 62
     7
370
    50
100
AcDbLine
 10
233.264827
 20
269.821014
 30
0.0
 11
232.957577
 21
269.821014
 31
0.0
  0
LINE
  5
14D
330
142
100
AcDbEntity
  8
LC-001-100-D00-0
 62
     7
370
    50
100
AcDbLine
 10
232.957577
 20
269.821014
 30
0.0
 11
232.957577
 21
269.821014
 31
0.0
  0
LINE
  5
14E
330
142
100
AcDbEntity
  8
LC-001-100-D00-0
 62
     7
370
    50
100
AcDbLine
 10
232.957577
 20
269.821014
 30
0.0
 11
232.923523
 21
269.821014
 31
0.0
  0
LINE
  5
14F
330
142
100
AcDbEntity
  8
LC-001-100-D00-0
 62
     7
370
    50
100
AcDbLine
 10
232.923523
 20
269.821014
 30
0.0
 11
232.923523
 21
269.821014
 31
0.0
  0
LINE
  5
150
330
142
100
AcDbEntity
  8
LC-001-100-D00-0
 62
     7
370
    50
100
AcDbLine
 10
232.923523
 20
269.821014
 30
0.0
 11
232.906491
 21
269.821014
 31
0.0
  0
ENDBLK
  5
144
330
142
100
AcDbEntity
  8
0
100
AcDbBlockEnd
  0
BLOCK
  5
155
330
154
100
AcDbEntity
  8
0
100
AcDbBlockBegin
  2
POLY8
 70
     0
 71
     0
 10
0.0
 20
0.0
 30
0.0
  3
POLY8
  1

  4
POLY8
  0
LINE
  5
157
330
154
100
AcDbEntity
  8
LC-001-100-D00-0
 62
     7
370
    50
100
AcDbLine
 10
224.65906
 20
269.821014
 30
0.0
 11
224.65906
 21
269.821014
 31
0.0
  0
LINE
  5
158
330
154
100
AcDbEntity
  8
LC-001-100-D00-0
 62
     7
370
    50
100
AcDbLine
 10
224.65906
 20
269.821014
 30
0.0
 11
224.541253
 21
269.821014
 31
0.0
  0
LINE
  5
159
330
154
100
AcDbEntity
  8
LC-001-100-D00-0
 62
     7
370
    50
100
AcDbLine
 10
224.541253
 20
269.821014
 30
0.0
 11
224.541253
 21
269.821014
 31
0.0
  0
LINE
  5
15A
330
154
100
AcDbEntity
  8
LC-001-100-D00-0
 62
     7
370
    50
100
AcDbLine
 10
224.541253
 20
269.821014
 30
0.0
 11
224.305945
 21
269.821014
 31
0.0
  0
LINE
  5
15B
330
154
100
AcDbEntity
  8
LC-001-100-D00-0
 62
     7
370
    50
100
AcDbLine
 10
224.305945
 20
269.821014
 30
0.0
 11
224.305945
 21
269.821014
 31
0.0
  0
LINE
  5
15C
330
154
100
AcDbEntity
  8
LC-001-100-D00-0
 62
     7
370
    50
100
AcDbLine
 10
224.305945
 20
269.821014
 30
0.0
 11
224.026259
 21
269.821014
 31
0.0
  0
LINE
  5
15D
330
154
100
AcDbEntity
  8
LC-001-100-D00-0
 62
     7
370
    50
100
AcDbLine
 10
224.026259
 20
269.821014
 30
0.0
 11
224.026259
 21
269.821014
 31
0.0
  0
LINE
  5
15E
330
154
100
AcDbEntity
  8
LC-001-100-D00-0
 62
     7
370
    50
100
AcDbLine
 10
224.026259
 20
269.821014
 30
0.0
 11
223.867781
 21
269.821014
 31
0.0
  0
LINE
  5
15F
330
154
100
AcDbEntity
  8
LC-001-100-D00-0
 62
     7
370
    50
100
AcDbLine
 10
223.867781
 20
269.821014
 30
0.0
 11
223.867781
 21
269.821014
 31
0.0
  0
LINE
  5
160
330
154
100
AcDbEntity
  8
LC-001-100-D00-0
 62
     7
370
    50
100
AcDbLine
 10
223.867781
 20
269.821014
 30
0.0
 11
223.852555
 21
269.821014
 31
0.0
  0
LINE
  5
161
330
154
100
AcDbEntity
  8
LC-001-100-D00-0
 62
     7
370
    50
100
AcDbLine
 10
223.852555
 20
269.821014
 30
0.0
 11
223.852555
 21
269.821014
 31
0.0
  0
LINE
  5
162
330
154
100
AcDbEntity
  8
LC-001-100-D00-0
 62
     7
370
    50
100
AcDbLine
 10
223.852555
 20
269.821014
 30
0.0
 11
223.844936
 21
269.821014
 31
0.0
  0
ENDBLK
  5
156
330
154
100
AcDbEntity
  8
0
100
AcDbBlockEnd
  0
BLOCK
  5
166
330
165
100
AcDbEntity
  8
0
100
AcDbBlockBegin
  2
POLY9
 70
     0
 71
     0
 10
0.0
 20
0.0
 30
0.0
  3
POLY9
  1

  4
POLY9
  0
LINE
  5
168
330
165
100
AcDbEntity
  8
LC-001-100-D00-0
 62
     7
370
    50
100
AcDbLine
 10
242.783817
 20
269.821014
 30
0.0
 11
242.783817
 21
269.821014
 31
0.0
  0
LINE
  5
169
330
165
100
AcDbEntity
  8
LC-001-100-D00-0
 62
     7
370
    50
100
AcDbLine
 10
242.783817
 20
269.821014
 30
0.0
 11
242.639415
 21
269.821014
 31
0.0
  0
LINE
  5
16A
330
165
100
AcDbEntity
  8
LC-001-100-D00-0
 62
     7
370
    50
100
AcDbLine
 10
242.639415
 20
269.821014
 30
0.0
 11
242.639415
 21
269.821014
 31
0.0
  0
LINE
  5
16B
330
165
100
AcDbEntity
  8
LC-001-100-D00-0
 62
     7
370
    50
100
AcDbLine
 10
242.639415
 20
269.821014
 30
0.0
 11
242.422705
 21
269.821014
 31
0.0
  0
LINE
  5
16C
330
165
100
AcDbEntity
  8
LC-001-100-D00-0
 62
     7
370
    50
100
AcDbLine
 10
242.422705
 20
269.821014
 30
0.0
 11
242.422705
 21
269.821014
 31
0.0
  0
LINE
  5
16D
330
165
100
AcDbEntity
  8
LC-001-100-D00-0
 62
     7
370
    50
100
AcDbLine
 10
242.422705
 20
269.821014
 30
0.0
 11
242.223939
 21
269.821014
 31
0.0
  0
LINE
  5
16E
330
165
100
AcDbEntity
  8
LC-001-100-D00-0
 62
     7
370
    50
100
AcDbLine
 10
242.223939
 20
269.821014
 30
0.0
 11
242.223939
 21
269.821014
 31
0.0
  0
LINE
  5
16F
330
165
100
AcDbEntity
  8
LC-001-100-D00-0
 62
     7
370
    50
100
AcDbLine
 10
242.223939
 20
269.821014
 30
0.0
 11
242.160561
 21
269.821014
 31
0.0
  0
LINE
  5
170
330
165
100
AcDbEntity
  8
LC-001-100-D00-0
 62
     7
370
    50
100
AcDbLine
 10
242.160561
 20
269.821014
 30
0.0
 11
242.160561
 21
269.821014
 31
0.0
  0
LINE
  5
171
330
165
100
AcDbEntity
  8
LC-001-100-D00-0
 62
     7
370
    50
100
AcDbLine
 10
242.160561
 20
269.821014
 30
0.0
 11
242.155147
 21
269.821014
 31
0.0
  0
LINE
  5
172
330
165
100
AcDbEntity
  8
LC-001-100-D00-0
 62
     7
370
    50
100
AcDbLine
 10
242.155147
 20
269.821014
 30
0.0
 11
242.155147
 21
269.821014
 31
0.0
  0
LINE
  5
173
330
165
100
AcDbEntity
  8
LC-001-100-D00-0
 62
     7
370
    50
100
AcDbLine
 10
242.155147
 20
269.821014
 30
0.0
 11
242.152438
 21
269.821014
 31
0.0
  0
ENDBLK
  5
167
330
165
100
AcDbEntity
  8
0
100
AcDbBlockEnd
  0
BLOCK
  5
177
330
176
100
AcDbEntity
  8
0
100
AcDbBlockBegin
  2
POLY10
 70
     0
 71
     0
 10
0.0
 20
0.0
 30
0.0
  3
POLY10
  1

  4
POLY10
  0
LINE
  5
179
330
176
100
AcDbEntity
  8
LC-001-100-D00-0
 62
     7
370
    50
100
AcDbLine
 10
235.382614
 20
269.821014
 30
0.0
 11
235.382614
 21
269.821014
 31
0.0
  0
LINE
  5
17A
330
176
100
AcDbEntity
  8
LC-001-100-D00-0
 62
     7
370
    50
100
AcDbLine
 10
235.382614
 20
269.821014
 30
0.0
 11
235.187186
 21
269.821014
 31
0.0
  0
LINE
  5
17B
330
176
100
AcDbEntity
  8
LC-001-100-D00-0
 62
     7
370
    50
100
AcDbLine
 10
235.187186
 20
269.821014
 30
0.0
 11
235.187186
 21
269.821014
 31
0.0
  0
LINE
  5
17C
330
176
100
AcDbEntity
  8
LC-001-100-D00-0
 62
     7
370
    50
100
AcDbLine
 10
235.187186
 20
269.821014
 30
0.0
 11
234.838032
 21
269.821014
 31
0.0
  0
LINE
  5
17D
330
176
100
AcDbEntity
  8
LC-001-100-D00-0
 62
     7
370
    50
100
AcDbLine
 10
234.838032
 20
269.821014
 30
0.0
 11
234.838032
 21
269.821014
 31
0.0
  0
LINE
  5
17E
330
176
100
AcDbEntity
  8
LC-001-100-D00-0
 62
     7
370
    50
100
AcDbLine
 10
234.838032
 20
269.821014
 30
0.0
 11
234.44656
 21
269.821014
 31
0.0
  0
LINE
  5
17F
330
176
100
AcDbEntity
  8
LC-001-100-D00-0
 62
     7
370
    50
100
AcDbLine
 10
234.44656
 20
269.821014
 30
0.0
 11
234.44656
 21
269.821014
 31
0.0
  0
LINE
  5
180
330
176
100
AcDbEntity
  8
LC-001-100-D00-0
 62
     7
370
    50
100
AcDbLine
 10
234.44656
 20
269.821014
 30
0.0
 11
234.274203
 21
269.821014
 31
0.0
  0
ENDBLK
  5
178
330
176
100
AcDbEntity
  8
0
100
AcDbBlockEnd
  0
BLOCK
  5
183
330
182
100
AcDbEntity
  8
0
100
AcDbBlockBegin
  2
POLY11
 70
     0
 71
     0
 10
0.0
 20
0.0
 30
0.0
  3
POLY11
  1

  4
POLY11
  0
LINE
  5
185
330
182
100
AcDbEntity
  8
LC-001-100-D00-0
 62
     7
370
    50
100
AcDbLine
 10
225.188364
 20
269.821014
 30
0.0
 11
225.188364
 21
269.821014
 31
0.0
  0
LINE
  5
186
330
182
100
AcDbEntity
  8
LC-001-100-D00-0
 62
     7
370
    50
100
AcDbLine
 10
225.188364
 20
269.821014
 30
0.0
 11
225.151788
 21
269.821014
 31
0.0
  0
LINE
  5
187
330
182
100
AcDbEntity
  8
LC-001-100-D00-0
 62
     7
370
    50
100
AcDbLine
 10
225.151788
 20
269.821014
 30
0.0
 11
225.151788
 21
269.821014
 31
0.0
  0
LINE
  5
188
330
182
100
AcDbEntity
  8
LC-001-100-D00-0
 62
     7
370
    50
100
AcDbLine
 10
225.151788
 20
269.821014
 30
0.0
 11
225.078653
 21
269.821014
 31
0.0
  0
LINE
  5
189
330
182
100
AcDbEntity
  8
LC-001-100-D00-0
 62
     7
370
    50
100
AcDbLine
 10
225.078653
 20
269.821014
 30
0.0
 11
225.078653
 21
269.821014
 31
0.0
  0
LINE
  5
18A
330
182
100
AcDbEntity
  8
LC-001-100-D00-0
 62
     7
370
    50
100
AcDbLine
 10
225.078653
 20
269.821014
 30
0.0
 11
224.896325
 21
269.821014
 31
0.0
  0
LINE
  5
18B
330
182
100
AcDbEntity
  8
LC-001-100-D00-0
 62
     7
370
    50
100
AcDbLine
 10
224.896325
 20
269.821014
 30
0.0
 11
224.896325
 21
269.821014
 31
0.0
  0
LINE
  5
18C
330
182
100
AcDbEntity
  8
LC-001-100-D00-0
 62
     7
370
    50
100
AcDbLine
 10
224.896325
 20
269.821014
 30
0.0
 11
224.749011
 21
269.821014
 31
0.0
  0
LINE
  5
18D
330
182
100
AcDbEntity
  8
LC-001-100-D00-0
 62
     7
370
    50
100
AcDbLine
 10
224.749011
 20
269.821014
 30
0.0
 11
224.749011
 21
269.821014
 31
0.0
  0
LINE
  5
18E
330
182
100
AcDbEntity
  8
LC-001-100-D00-0
 62
     7
370
    50
100
AcDbLine
 10
224.749011
 20
269.821014
 30
0.0
 11
224.65906
 21
269.821014
 31
0.0
  0
ENDBLK
  5
184
330
182
100
AcDbEntity
  8
0
100
AcDbBlockEnd
  0
BLOCK
  5
1B4
330
1B3
100
AcDbEntity
  8
0
100
AcDbBlockBegin
  2
POLY12
 70
     0
 71
     0
 10
0.0
 20
0.0
 30
0.0
  3
POLY12
  1

  4
POLY12
  0
LINE
  5
1B6
330
1B3
100
AcDbEntity
  8
LC-001-100-D00-0
 62
     7
370
    50
100
AcDbLine
 10
239.947965
 20
269.821014
 30
0.0
 11
239.947965
 21
269.821014
 31
0.0
  0
LINE
  5
1B7
330
1B3
100
AcDbEntity
  8
LC-001-100-D00-0
 62
     7
370
    50
100
AcDbLine
 10
239.947965
 20
269.821014
 30
0.0
 11
239.871901
 21
269.821014
 31
0.0
  0
LINE
  5
1B8
330
1B3
100
AcDbEntity
  8
LC-001-100-D00-0
 62
     7
370
    50
100
AcDbLine
 10
239.871901
 20
269.821014
 30
0.0
 11
239.871901
 21
269.821014
 31
0.0
  0
LINE
  5
1B9
330
1B3
100
AcDbEntity
  8
LC-001-100-D00-0
 62
     7
370
    50
100
AcDbLine
 10
239.871901
 20
269.821014
 30
0.0
 11
239.720451
 21
269.821014
 31
0.0
  0
LINE
  5
1BA
330
1B3
100
AcDbEntity
  8
LC-001-100-D00-0
 62
     7
370
    50
100
AcDbLine
 10
239.720451
 20
269.821014
 30
0.0
 11
239.720451
 21
269.821014
 31
0.0
  0
LINE
  5
1BB
330
1B3
100
AcDbEntity
  8
LC-001-100-D00-0
 62
     7
370
    50
100
AcDbLine
 10
239.720451
 20
269.821014
 30
0.0
 11
239.53583
 21
269.821014
 31
0.0
  0
LINE
  5
1BC
330
1B3
100
AcDbEntity
  8
LC-001-100-D00-0
 62
     7
370
    50
100
AcDbLine
 10
239.53583
 20
269.821014
 30
0.0
 11
239.53583
 21
269.821014
 31
0.0
  0
LINE
  5
1BD
330
1B3
100
AcDbEntity
  8
LC-001-100-D00-0
 62
     7
370
    50
100
AcDbLine
 10
239.53583
 20
269.821014
 30
0.0
 11
239.476867
 21
269.821014
 31
0.0
  0
LINE
  5
1BE
330
1B3
100
AcDbEntity
  8
LC-001-100-D00-0
 62
     7
370
    50
100
AcDbLine
 10
239.476867
 20
269.821014
 30
0.0
 11
239.476867
 21
269.821014
 31
0.0
  0
LINE
  5
1BF
330
1B3
100
AcDbEntity
  8
LC-001-100-D00-0
 62
     7
370
    50
100
AcDbLine
 10
239.476867
 20
269.821014
 30
0.0
 11
239.473463
 21
269.821014
 31
0.0
  0
LINE
  5
1C0
330
1B3
100
AcDbEntity
  8
LC-001-100-D00-0
 62
     7
370
    50
100
AcDbLine
 10
239.473463
 20
269.821014
 30
0.0
 11
239.473463
 21
269.821014
 31
0.0
  0
LINE
  5
1C1
330
1B3
100
AcDbEntity
  8
LC-001-100-D00-0
 62
     7
370
    50
100
AcDbLine
 10
239.473463
 20
269.821014
 30
0.0
 11
239.471756
 21
269.821014
 31
0.0
  0
ENDBLK
  5
1B5
330
1B3
100
AcDbEntity
  8
0
100
AcDbBlockEnd
  0
BLOCK
  5
1C5
330
1C4
100
AcDbEntity
  8
0
100
AcDbBlockBegin
  2
POLY13
 70
     0
 71
     0
 10
0.0
 20
0.0
 30
0.0
  3
POLY13
  1

  4
POLY13
  0
LINE
  5
1C7
330
1C4
100
AcDbEntity
  8
LC-001-100-D00-0
 62
     7
370
    50
100
AcDbLine
 10
238.307369
 20
269.821014
 30
0.0
 11
238.307369
 21
269.821014
 31
0.0
  0
LINE
  5
1C8
330
1C4
100
AcDbEntity
  8
LC-001-100-D00-0
 62
     7
370
    50
100
AcDbLine
 10
238.307369
 20
269.821014
 30
0.0
 11
238.289753
 21
269.821014
 31
0.0
  0
LINE
  5
1C9
330
1C4
100
AcDbEntity
  8
LC-001-100-D00-0
 62
     7
370
    50
100
AcDbLine
 10
238.289753
 20
269.821014
 30
0.0
 11
238.289753
 21
269.821014
 31
0.0
  0
LINE
  5
1CA
330
1C4
100
AcDbEntity
  8
LC-001-100-D00-0
 62
     7
370
    50
100
AcDbLine
 10
238.289753
 20
269.821014
 30
0.0
 11
238.258282
 21
269.821014
 31
0.0
  0
LINE
  5
1CB
330
1C4
100
AcDbEntity
  8
LC-001-100-D00-0
 62
     7
370
    50
100
AcDbLine
 10
238.258282
 20
269.821014
 30
0.0
 11
238.258282
 21
269.821014
 31
0.0
  0
LINE
  5
1CC
330
1C4
100
AcDbEntity
  8
LC-001-100-D00-0
 62
     7
370
    50
100
AcDbLine
 10
238.258282
 20
269.821014
 30
0.0
 11
238.255213
 21
269.821014
 31
0.0
  0
LINE
  5
1CD
330
1C4
100
AcDbEntity
  8
LC-001-100-D00-0
 62
     7
370
    50
100
AcDbLine
 10
238.255213
 20
269.821014
 30
0.0
 11
238.255213
 21
269.821014
 31
0.0
  0
LINE
  5
1CE
330
1C4
100
AcDbEntity
  8
LC-001-100-D00-0
 62
     7
370
    50
100
AcDbLine
 10
238.255213
 20
269.821014
 30
0.0
 11
238.253862
 21
269.821014
 31
0.0
  0
ENDBLK
  5
1C6
330
1C4
100
AcDbEntity
  8
0
100
AcDbBlockEnd
  0
BLOCK
  5
1D2
330
1D1
100
AcDbEntity
  8
0
100
AcDbBlockBegin
  2
POLY14
 70
     0
 71
     0
 10
0.0
 20
0.0
 30
0.0
  3
POLY14
  1

  4
POLY14
  0
LINE
  5
1D4
330
1D1
100
AcDbEntity
  8
LC-001-100-D00-0
 62
     7
370
    50
100
AcDbLine
 10
230.748115
 20
269.821014
 30
0.0
 11
230.748115
 21
269.821014
 31
0.0
  0
LINE
  5
1D5
330
1D1
100
AcDbEntity
  8
LC-001-100-D00-0
 62
     7
370
    50
100
AcDbLine
 10
230.748115
 20
269.821014
 30
0.0
 11
230.673744
 21
269.821014
 31
0.0
  0
LINE
  5
1D6
330
1D1
100
AcDbEntity
  8
LC-001-100-D00-0
 62
     7
370
    50
100
AcDbLine
 10
230.673744
 20
269.821014
 30
0.0
 11
230.673744
 21
269.821014
 31
0.0
  0
LINE
  5
1D7
330
1D1
100
AcDbEntity
  8
LC-001-100-D00-0
 62
     7
370
    50
100
AcDbLine
 10
230.673744
 20
269.821014
 30
0.0
 11
230.525498
 21
269.821014
 31
0.0
  0
LINE
  5
1D8
330
1D1
100
AcDbEntity
  8
LC-001-100-D00-0
 62
     7
370
    50
100
AcDbLine
 10
230.525498
 20
269.821014
 30
0.0
 11
230.525498
 21
269.821014
 31
0.0
  0
LINE
  5
1D9
330
1D1
100
AcDbEntity
  8
LC-001-100-D00-0
 62
     7
370
    50
100
AcDbLine
 10
230.525498
 20
269.821014
 30
0.0
 11
230.33121
 21
269.821014
 31
0.0
  0
LINE
  5
1DA
330
1D1
100
AcDbEntity
  8
LC-001-100-D00-0
 62
     7
370
    50
100
AcDbLine
 10
230.33121
 20
269.821014
 30
0.0
 11
230.33121
 21
269.821014
 31
0.0
  0
LINE
  5
1DB
330
1D1
100
AcDbEntity
  8
LC-001-100-D00-0
 62
     7
370
    50
100
AcDbLine
 10
230.33121
 20
269.821014
 30
0.0
 11
230.253346
 21
269.821014
 31
0.0
  0
LINE
  5
1DC
330
1D1
100
AcDbEntity
  8
LC-001-100-D00-0
 62
     7
370
    50
100
AcDbLine
 10
230.253346
 20
269.821014
 30
0.0
 11
230.253346
 21
269.821014
 31
0.0
  0
LINE
  5
1DD
330
1D1
100
AcDbEntity
  8
LC-001-100-D00-0
 62
     7
370
    50
100
AcDbLine
 10
230.253346
 20
269.821014
 30
0.0
 11
230.248438
 21
269.821014
 31
0.0
  0
LINE
  5
1DE
330
1D1
100
AcDbEntity
  8
LC-001-100-D00-0
 62
     7
370
    50
100
AcDbLine
 10
230.248438
 20
269.821014
 30
0.0
 11
230.248438
 21
269.821014
 31
0.0
  0
LINE
  5
1DF
330
1D1
100
AcDbEntity
  8
LC-001-100-D00-0
 62
     7
370
    50
100
AcDbLine
 10
230.248438
 20
269.821014
 30
0.0
 11
230.245976
 21
269.821014
 31
0.0
  0
ENDBLK
  5
1D3
330
1D1
100
AcDbEntity
  8
0
100
AcDbBlockEnd
  0
BLOCK
  5
1E3
330
1E2
100
AcDbEntity
  8
0
100
AcDbBlockBegin
  2
POLY15
 70
     0
 71
     0
 10
0.0
 20
0.0
 30
0.0
  3
POLY15
  1

  4
POLY15
  0
LINE
  5
1E5
330
1E2
100
AcDbEntity
  8
LC-001-100-D00-0
 62
     7
370
    50
100
AcDbLine
 10
241.077366
 20
269.821014
 30
0.0
 11
241.077366
 21
269.821014
 31
0.0
  0
LINE
  5
1E6
330
1E2
100
AcDbEntity
  8
LC-001-100-D00-0
 62
     7
370
    50
100
AcDbLine
 10
241.077366
 20
269.821014
 30
0.0
 11
241.009303
 21
269.821014
 31
0.0
  0
LINE
  5
1E7
330
1E2
100
AcDbEntity
  8
LC-001-100-D00-0
 62
     7
370
    50
100
AcDbLine
 10
241.009303
 20
269.821014
 30
0.0
 11
241.009303
 21
269.821014
 31
0.0
  0
LINE
  5
1E8
330
1E2
100
AcDbEntity
  8
LC-001-100-D00-0
 62
     7
370
    50
100
AcDbLine
 10
241.009303
 20
269.821014
 30
0.0
 11
240.873481
 21
269.821014
 31
0.0
  0
LINE
  5
1E9
330
1E2
100
AcDbEntity
  8
LC-001-100-D00-0
 62
     7
370
    50
100
AcDbLine
 10
240.873481
 20
269.821014
 30
0.0
 11
240.873481
 21
269.821014
 31
0.0
  0
LINE
  5
1EA
330
1E2
100
AcDbEntity
  8
LC-001-100-D00-0
 62
     7
370
    50
100
AcDbLine
 10
240.873481
 20
269.821014
 30
0.0
 11
240.699733
 21
269.821014
 31
0.0
  0
LINE
  5
1EB
330
1E2
100
AcDbEntity
  8
LC-001-100-D00-0
 62
     7
370
    50
100
AcDbLine
 10
240.699733
 20
269.821014
 30
0.0
 11
240.699733
 21
269.821014
 31
0.0
  0
LINE
  5
1EC
330
1E2
100
AcDbEntity
  8
LC-001-100-D00-0
 62
     7
370
    50
100
AcDbLine
 10
240.699733
 20
269.821014
 30
0.0
 11
240.613235
 21
269.821014
 31
0.0
  0
LINE
  5
1ED
330
1E2
100
AcDbEntity
  8
LC-001-100-D00-0
 62
     7
370
    50
100
AcDbLine
 10
240.613235
 20
269.821014
 30
0.0
 11
240.613235
 21
269.821014
 31
0.0
  0
LINE
  5
1EE
330
1E2
100
AcDbEntity
  8
LC-001-100-D00-0
 62
     7
370
    50
100
AcDbLine
 10
240.613235
 20
269.821014
 30
0.0
 11
240.607383
 21
269.821014
 31
0.0
  0
LINE
  5
1EF
330
1E2
100
AcDbEntity
  8
LC-001-100-D00-0
 62
     7
370
    50
100
AcDbLine
 10
240.607383
 20
269.821014
 30
0.0
 11
240.607383
 21
269.821014
 31
0.0
  0
LINE
  5
1F0
330
1E2
100
AcDbEntity
  8
LC-001-100-D00-0
 62
     7
370
    50
100
AcDbLine
 10
240.607383
 20
269.821014
 30
0.0
 11
240.60445
 21
269.821014
 31
0.0
  0
ENDBLK
  5
1E4
330
1E2
100
AcDbEntity
  8
0
100
AcDbBlockEnd
  0
BLOCK
  5
1F3
330
1F2
100
AcDbEntity
  8
0
100
AcDbBlockBegin
  2
POLY16
 70
     0
 71
     0
 10
0.0
 20
0.0
 30
0.0
  3
POLY16
  1

  4
POLY16
  0
LINE
  5
1F5
330
1F2
100
AcDbEntity
  8
LC-001-100-D00-0
 62
     7
370
    50
100
AcDbLine
 10
231.141595
 20
269.821014
 30
0.0
 11
231.141595
 21
269.821014
 31
0.0
  0
LINE
  5
1F6
330
1F2
100
AcDbEntity
  8
LC-001-100-D00-0
 62
     7
370
    50
100
AcDbLine
 10
231.141595
 20
269.821014
 30
0.0
 11
231.141527
 21
269.821014
 31
0.0
  0
LINE
  5
1F7
330
1F2
100
AcDbEntity
  8
LC-001-100-D00-0
 62
     7
370
    50
100
AcDbLine
 10
231.141527
 20
269.821014
 30
0.0
 11
231.141527
 21
269.821014
 31
0.0
  0
LINE
  5
1F8
330
1F2
100
AcDbEntity
  8
LC-001-100-D00-0
 62
     7
370
    50
100
AcDbLine
 10
231.141527
 20
269.821014
 30
0.0
 11
231.141394
 21
269.821014
 31
0.0
  0
LINE
  5
1F9
330
1F2
100
AcDbEntity
  8
LC-001-100-D00-0
 62
     7
370
    50
100
AcDbLine
 10
231.141394
 20
269.821014
 30
0.0
 11
231.141394
 21
269.821014
 31
0.0
  0
LINE
  5
1FA
330
1F2
100
AcDbEntity
  8
LC-001-100-D00-0
 62
     7
370
    50
100
AcDbLine
 10
231.141394
 20
269.821014
 30
0.0
 11
231.037208
 21
269.821014
 31
0.0
  0
LINE
  5
1FB
330
1F2
100
AcDbEntity
  8
LC-001-100-D00-0
 62
     7
370
    50
100
AcDbLine
 10
231.037208
 20
269.821014
 30
0.0
 11
231.037208
 21
269.821014
 31
0.0
  0
LINE
  5
1FC
330
1F2
100
AcDbEntity
  8
LC-001-100-D00-0
 62
     7
370
    50
100
AcDbLine
 10
231.037208
 20
269.821014
 30
0.0
 11
230.889777
 21
269.821014
 31
0.0
  0
LINE
  5
1FD
330
1F2
100
AcDbEntity
  8
LC-001-100-D00-0
 62
     7
370
    50
100
AcDbLine
 10
230.889777
 20
269.821014
 30
0.0
 11
230.889777
 21
269.821014
 31
0.0
  0
LINE
  5
1FE
330
1F2
100
AcDbEntity
  8
LC-001-100-D00-0
 62
     7
370
    50
100
AcDbLine
 10
230.889777
 20
269.821014
 30
0.0
 11
230.795377
 21
269.821014
 31
0.0
  0
LINE
  5
1FF
330
1F2
100
AcDbEntity
  8
LC-001-100-D00-0
 62
     7
370
    50
100
AcDbLine
 10
230.795377
 20
269.821014
 30
0.0
 11
230.795377
 21
269.821014
 31
0.0
  0
LINE
  5
200
330
1F2
100
AcDbEntity
  8
LC-001-100-D00-0
 62
     7
370
    50
100
AcDbLine
 10
230.795377
 20
269.821014
 30
0.0
 11
230.748115
 21
269.821014
 31
0.0
  0
ENDBLK
  5
1F4
330
1F2
100
AcDbEntity
  8
0
100
AcDbBlockEnd
  0
BLOCK
  5
203
330
202
100
AcDbEntity
  8
0
100
AcDbBlockBegin
  2
POLY17
 70
     0
 71
     0
 10
0.0
 20
0.0
 30
0.0
  3
POLY17
  1

  4
POLY17
  0
LINE
  5
205
330
202
100
AcDbEntity
  8
LC-001-100-D00-0
 62
     7
370
    50
100
AcDbLine
 10
241.421044
 20
269.821014
 30
0.0
 11
241.421044
 21
269.821014
 31
0.0
  0
LINE
  5
206
330
202
100
AcDbEntity
  8
LC-001-100-D00-0
 62
     7
370
    50
100
AcDbLine
 10
241.421044
 20
269.821014
 30
0.0
 11
241.42178
 21
269.821014
 31
0.0
  0
LINE
  5
207
330
202
100
AcDbEntity
  8
LC-001-100-D00-0
 62
     7
370
    50
100
AcDbLine
 10
241.42178
 20
269.821014
 30
0.0
 11
241.42178
 21
269.821014
 31
0.0
  0
LINE
  5
208
330
202
100
AcDbEntity
  8
LC-001-100-D00-0
 62
     7
370
    50
100
AcDbLine
 10
241.42178
 20
269.821014
 30
0.0
 11
241.423237
 21
269.821014
 31
0.0
  0
LINE
  5
209
330
202
100
AcDbEntity
  8
LC-001-100-D00-0
 62
     7
370
    50
100
AcDbLine
 10
241.423237
 20
269.821014
 30
0.0
 11
241.423237
 21
269.821014
 31
0.0
  0
LINE
  5
20A
330
202
100
AcDbEntity
  8
LC-001-100-D00-0
 62
     7
370
    50
100
AcDbLine
 10
241.423237
 20
269.821014
 30
0.0
 11
241.337616
 21
269.821014
 31
0.0
  0
LINE
  5
20B
330
202
100
AcDbEntity
  8
LC-001-100-D00-0
 62
     7
370
    50
100
AcDbLine
 10
241.337616
 20
269.821014
 30
0.0
 11
241.337616
 21
269.821014
 31
0.0
  0
LINE
  5
20C
330
202
100
AcDbEntity
  8
LC-001-100-D00-0
 62
     7
370
    50
100
AcDbLine
 10
241.337616
 20
269.821014
 30
0.0
 11
241.204697
 21
269.821014
 31
0.0
  0
LINE
  5
20D
330
202
100
AcDbEntity
  8
LC-001-100-D00-0
 62
     7
370
    50
100
AcDbLine
 10
241.204697
 20
269.821014
 30
0.0
 11
241.204697
 21
269.821014
 31
0.0
  0
LINE
  5
20E
330
202
100
AcDbEntity
  8
LC-001-100-D00-0
 62
     7
370
    50
100
AcDbLine
 10
241.204697
 20
269.821014
 30
0.0
 11
241.119849
 21
269.821014
 31
0.0
  0
LINE
  5
20F
330
202
100
AcDbEntity
  8
LC-001-100-D00-0
 62
     7
370
    50
100
AcDbLine
 10
241.119849
 20
269.821014
 30
0.0
 11
241.119849
 21
269.821014
 31
0.0
  0
LINE
  5
210
330
202
100
AcDbEntity
  8
LC-001-100-D00-0
 62
     7
370
    50
100
AcDbLine
 10
241.119849
 20
269.821014
 30
0.0
 11
241.077366
 21
269.821014
 31
0.0
  0
ENDBLK
  5
204
330
202
100
AcDbEntity
  8
0
100
AcDbBlockEnd
  0
BLOCK
  5
213
330
212
100
AcDbEntity
  8
0
100
AcDbBlockBegin
  2
POLY18
 70
     0
 71
     0
 10
0.0
 20
0.0
 30
0.0
  3
POLY18
  1

  4
POLY18
  0
LINE
  5
215
330
212
100
AcDbEntity
  8
LC-001-100-D00-0
 62
     7
370
    50
100
AcDbLine
 10
240.288349
 20
269.821014
 30
0.0
 11
240.288349
 21
269.821014
 31
0.0
  0
LINE
  5
216
330
212
100
AcDbEntity
  8
LC-001-100-D00-0
 62
     7
370
    50
100
AcDbLine
 10
240.288349
 20
269.821014
 30
0.0
 11
240.285804
 21
269.821014
 31
0.0
  0
LINE
  5
217
330
212
100
AcDbEntity
  8
LC-001-100-D00-0
 62
     7
370
    50
100
AcDbLine
 10
240.285804
 20
269.821014
 30
0.0
 11
240.285804
 21
269.821014
 31
0.0
  0
LINE
  5
218
330
212
100
AcDbEntity
  8
LC-001-100-D00-0
 62
     7
370
    50
100
AcDbLine
 10
240.285804
 20
269.821014
 30
0.0
 11
240.280742
 21
269.821014
 31
0.0
  0
LINE
  5
219
330
212
100
AcDbEntity
  8
LC-001-100-D00-0
 62
     7
370
    50
100
AcDbLine
 10
240.280742
 20
269.821014
 30
0.0
 11
240.280742
 21
269.821014
 31
0.0
  0
LINE
  5
21A
330
212
100
AcDbEntity
  8
LC-001-100-D00-0
 62
     7
370
    50
100
AcDbLine
 10
240.280742
 20
269.821014
 30
0.0
 11
240.195944
 21
269.821014
 31
0.0
  0
LINE
  5
21B
330
212
100
AcDbEntity
  8
LC-001-100-D00-0
 62
     7
370
    50
100
AcDbLine
 10
240.195944
 20
269.821014
 30
0.0
 11
240.195944
 21
269.821014
 31
0.0
  0
LINE
  5
21C
330
212
100
AcDbEntity
  8
LC-001-100-D00-0
 62
     7
370
    50
100
AcDbLine
 10
240.195944
 20
269.821014
 30
0.0
 11
240.068532
 21
269.821014
 31
0.0
  0
LINE
  5
21D
330
212
100
AcDbEntity
  8
LC-001-100-D00-0
 62
     7
370
    50
100
AcDbLine
 10
240.068532
 20
269.821014
 30
0.0
 11
240.068532
 21
269.821014
 31
0.0
  0
LINE
  5
21E
330
212
100
AcDbEntity
  8
LC-001-100-D00-0
 62
     7
370
    50
100
AcDbLine
 10
240.068532
 20
269.821014
 30
0.0
 11
239.988216
 21
269.821014
 31
0.0
  0
LINE
  5
21F
330
212
100
AcDbEntity
  8
LC-001-100-D00-0
 62
     7
370
    50
100
AcDbLine
 10
239.988216
 20
269.821014
 30
0.0
 11
239.988216
 21
269.821014
 31
0.0
  0
LINE
  5
220
330
212
100
AcDbEntity
  8
LC-001-100-D00-0
 62
     7
370
    50
100
AcDbLine
 10
239.988216
 20
269.821014
 30
0.0
 11
239.947965
 21
269.821014
 31
0.0
  0
ENDBLK
  5
214
330
212
100
AcDbEntity
  8
0
100
AcDbBlockEnd
  0
BLOCK
  5
224
330
223
100
AcDbEntity
  8
0
100
AcDbBlockBegin
  2
POLY19
 70
     0
 71
     0
 10
0.0
 20
0.0
 30
0.0
  3
POLY19
  1

  4
POLY19
  0
LINE
  5
226
330
223
100
AcDbEntity
  8
LC-001-100-D00-0
 62
     7
370
    50
100
AcDbLine
 10
238.616473
 20
269.821014
 30
0.0
 11
238.616473
 21
269.821014
 31
0.0
  0
LINE
  5
227
330
223
100
AcDbEntity
  8
LC-001-100-D00-0
 62
     7
370
    50
100
AcDbLine
 10
238.616473
 20
269.821014
 30
0.0
 11
238.58027
 21
269.821014
 31
0.0
  0
LINE
  5
228
330
223
100
AcDbEntity
  8
LC-001-100-D00-0
 62
     7
370
    50
100
AcDbLine
 10
238.58027
 20
269.821014
 30
0.0
 11
238.58027
 21
269.821014
 31
0.0
  0
LINE
  5
229
330
223
100
AcDbEntity
  8
LC-001-100-D00-0
 62
     7
370
    50
100
AcDbLine
 10
238.58027
 20
269.821014
 30
0.0
 11
238.507905
 21
269.821014
 31
0.0
  0
LINE
  5
22A
330
223
100
AcDbEntity
  8
LC-001-100-D00-0
 62
     7
370
    50
100
AcDbLine
 10
238.507905
 20
269.821014
 30
0.0
 11
238.507905
 21
269.821014
 31
0.0
  0
LINE
  5
22B
330
223
100
AcDbEntity
  8
LC-001-100-D00-0
 62
     7
370
    50
100
AcDbLine
 10
238.507905
 20
269.821014
 30
0.0
 11
238.415563
 21
269.821014
 31
0.0
  0
LINE
  5
22C
330
223
100
AcDbEntity
  8
LC-001-100-D00-0
 62
     7
370
    50
100
AcDbLine
 10
238.415563
 20
269.821014
 30
0.0
 11
238.415563
 21
269.821014
 31
0.0
  0
LINE
  5
22D
330
223
100
AcDbEntity
  8
LC-001-100-D00-0
 62
     7
370
    50
100
AcDbLine
 10
238.415563
 20
269.821014
 30
0.0
 11
238.344919
 21
269.821014
 31
0.0
  0
LINE
  5
22E
330
223
100
AcDbEntity
  8
LC-001-100-D00-0
 62
     7
370
    50
100
AcDbLine
 10
238.344919
 20
269.821014
 30
0.0
 11
238.344919
 21
269.821014
 31
0.0
  0
LINE
  5
22F
330
223
100
AcDbEntity
  8
LC-001-100-D00-0
 62
     7
370
    50
100
AcDbLine
 10
238.344919
 20
269.821014
 30
0.0
 11
238.319887
 21
269.821014
 31
0.0
  0
LINE
  5
230
330
223
100
AcDbEntity
  8
LC-001-100-D00-0
 62
     7
370
    50
100
AcDbLine
 10
238.319887
 20
269.821014
 30
0.0
 11
238.319887
 21
269.821014
 31
0.0
  0
LINE
  5
231
330
223
100
AcDbEntity
  8
LC-001-100-D00-0
 62
     7
370
    50
100
AcDbLine
 10
238.319887
 20
269.821014
 30
0.0
 11
238.307369
 21
269.821014
 31
0.0
  0
ENDBLK
  5
225
330
223
100
AcDbEntity
  8
0
100
AcDbBlockEnd
  0
BLOCK
  5
237
330
236
100
AcDbEntity
  8
0
100
AcDbBlockBegin
  2
POLY20
 70
     0
 71
     0
 10
0.0
 20
0.0
 30
0.0
  3
POLY20
  1

  4
POLY20
  0
LINE
  5
239
330
236
100
AcDbEntity
  8
LC-001-100-D00-0
 62
     7
370
    50
100
AcDbLine
 10
238.851902
 20
269.821014
 30
0.0
 11
238.851902
 21
269.821014
 31
0.0
  0
LINE
  5
23A
330
236
100
AcDbEntity
  8
LC-001-100-D00-0
 62
     7
370
    50
100
AcDbLine
 10
238.851902
 20
269.821014
 30
0.0
 11
238.810106
 21
269.821014
 31
0.0
  0
LINE
  5
23B
330
236
100
AcDbEntity
  8
LC-001-100-D00-0
 62
     7
370
    50
100
AcDbLine
 10
238.810106
 20
269.821014
 30
0.0
 11
238.810106
 21
269.821014
 31
0.0
  0
LINE
  5
23C
330
236
100
AcDbEntity
  8
LC-001-100-D00-0
 62
     7
370
    50
100
AcDbLine
 10
238.810106
 20
269.821014
 30
0.0
 11
238.735461
 21
269.821014
 31
0.0
  0
LINE
  5
23D
330
236
100
AcDbEntity
  8
LC-001-100-D00-0
 62
     7
370
    50
100
AcDbLine
 10
238.735461
 20
269.821014
 30
0.0
 11
238.735461
 21
269.821014
 31
0.0
  0
LINE
  5
23E
330
236
100
AcDbEntity
  8
LC-001-100-D00-0
 62
     7
370
    50
100
AcDbLine
 10
238.735461
 20
269.821014
 30
0.0
 11
238.652834
 21
269.821014
 31
0.0
  0
LINE
  5
23F
330
236
100
AcDbEntity
  8
LC-001-100-D00-0
 62
     7
370
    50
100
AcDbLine
 10
238.652834
 20
269.821014
 30
0.0
 11
238.652834
 21
269.821014
 31
0.0
  0
LINE
  5
240
330
236
100
AcDbEntity
  8
LC-001-100-D00-0
 62
     7
370
    50
100
AcDbLine
 10
238.652834
 20
269.821014
 30
0.0
 11
238.616473
 21
269.821014
 31
0.0
  0
ENDBLK
  5
238
330
236
100
AcDbEntity
  8
0
100
AcDbBlockEnd
  0
BLOCK
  5
311
330
310
100
AcDbEntity
  8
0
100
AcDbBlockBegin
  2
KLON2
 70
     0
 71
     0
 10
0.0
 20
0.0
 30
0.0
  3
KLON2
  1

  4
KLON2
  0
LINE
  5
313
330
310
100
AcDbEntity
  8
LC-001-100-D00-0
 62
     7
370
    25
100
AcDbLine
 10
197.549636
 20
117.221014
 30
0.0
 11
198.732214
 21
118.403592
 31
0.0
  0
LINE
  5
314
330
310
100
AcDbEntity
  8
LC-001-100-D00-0
 62
     7
370
    25
100
AcDbLine
 10
208.132214
 20
127.803592
 30
0.0
 11
211.232214
 21
130.903592
 31
0.0
  0
LINE
  5
315
330
310
100
AcDbEntity
  8
LC-001-100-D00-0
 62
     7
370
    25
100
AcDbLine
 10
195.632214
 20
124.283848
 30
0.0
 11
198.732214
 21
127.383848
 31
0.0
  0
LINE
  5
316
330
310
100
AcDbEntity
  8
LC-001-100-D00-0
 62
     7
370
    25
100
AcDbLine
 10
208.132214
 20
136.783848
 30
0.0
 11
211.232214
 21
139.883848
 31
0.0
  0
LINE
  5
317
330
310
100
AcDbEntity
  8
LC-001-100-D00-0
 62
     7
370
    25
100
AcDbLine
 10
195.632214
 20
133.264104
 30
0.0
 11
198.732214
 21
136.364104
 31
0.0
  0
LINE
  5
318
330
310
100
AcDbEntity
  8
LC-001-100-D00-0
 62
     7
370
    25
100
AcDbLine
 10
208.132214
 20
145.764104
 30
0.0
 11
211.232214
 21
148.864104
 31
0.0
  0
LINE
  5
319
330
310
100
AcDbEntity
  8
LC-001-100-D00-0
 62
     7
370
    25
100
AcDbLine
 10
195.632214
 20
142.24436
 30
0.0
 11
198.732214
 21
145.34436
 31
0.0
  0
LINE
  5
31A
330
310
100
AcDbEntity
  8
LC-001-100-D00-0
 62
     7
370
    25
100
AcDbLine
 10
208.132214
 20
154.74436
 30
0.0
 11
211.232214
 21
157.84436
 31
0.0
  0
LINE
  5
31B
330
310
100
AcDbEntity
  8
LC-001-100-D00-0
 62
     7
370
    25
100
AcDbLine
 10
195.632214
 20
151.224616
 30
0.0
 11
198.732214
 21
154.324616
 31
0.0
  0
LINE
  5
31C
330
310
100
AcDbEntity
  8
LC-001-100-D00-0
 62
     7
370
    25
100
AcDbLine
 10
208.132214
 20
163.724616
 30
0.0
 11
211.232214
 21
166.824616
 31
0.0
  0
LINE
  5
31D
330
310
100
AcDbEntity
  8
LC-001-100-D00-0
 62
     7
370
    25
100
AcDbLine
 10
195.632214
 20
160.204872
 30
0.0
 11
198.732214
 21
163.304872
 31
0.0
  0
LINE
  5
31E
330
310
100
AcDbEntity
  8
LC-001-100-D00-0
 62
     7
370
    25
100
AcDbLine
 10
208.132214
 20
172.704872
 30
0.0
 11
213.332214
 21
177.904872
 31
0.0
  0
LINE
  5
31F
330
310
100
AcDbEntity
  8
LC-001-100-D00-0
 62
     7
370
    25
100
AcDbLine
 10
195.632214
 20
169.185129
 30
0.0
 11
198.732214
 21
172.285129
 31
0.0
  0
LINE
  5
320
330
310
100
AcDbEntity
  8
LC-001-100-D00-0
 62
     7
370
    25
100
AcDbLine
 10
204.386086
 20
177.939001
 30
0.0
 11
206.692222
 21
180.245137
 31
0.0
  0
LINE
  5
321
330
310
100
AcDbEntity
  8
LC-001-100-D00-0
 62
     7
370
    25
100
AcDbLine
 10
193.687843
 20
176.221014
 30
0.0
 11
196.687843
 21
179.221014
 31
0.0
  0
LINE
  5
322
330
310
100
AcDbEntity
  8
LC-001-100-D00-0
 62
     7
370
    25
100
AcDbLine
 10
202.932214
 20
185.465385
 30
0.0
 11
205.856585
 21
188.389755
 31
0.0
  0
LINE
  5
323
330
310
100
AcDbEntity
  8
LC-001-100-D00-0
 62
     7
370
    25
100
AcDbLine
 10
184.707587
 20
176.221014
 30
0.0
 11
187.707587
 21
179.221014
 31
0.0
  0
LINE
  5
324
330
310
100
AcDbEntity
  8
LC-001-100-D00-0
 62
     7
370
    25
100
AcDbLine
 10
202.932214
 20
194.445641
 30
0.0
 11
205.772914
 21
197.286341
 31
0.0
  0
LINE
  5
325
330
310
100
AcDbEntity
  8
LC-001-100-D00-0
 62
     7
370
    25
100
AcDbLine
 10
175.727331
 20
176.221014
 30
0.0
 11
178.727331
 21
179.221014
 31
0.0
  0
LINE
  5
326
330
310
100
AcDbEntity
  8
LC-001-100-D00-0
 62
     7
370
    25
100
AcDbLine
 10
202.932214
 20
203.425897
 30
0.0
 11
205.689244
 21
206.182927
 31
0.0
  0
LINE
  5
327
330
310
100
AcDbEntity
  8
LC-001-100-D00-0
 62
     7
370
    25
100
AcDbLine
 10
166.747075
 20
176.221014
 30
0.0
 11
169.747075
 21
179.221014
 31
0.0
  0
LINE
  5
328
330
310
100
AcDbEntity
  8
LC-001-100-D00-0
 62
     7
370
    25
100
AcDbLine
 10
202.932214
 20
212.406153
 30
0.0
 11
205.605573
 21
215.079512
 31
0.0
  0
LINE
  5
329
330
310
100
AcDbEntity
  8
LC-001-100-D00-0
 62
     7
370
    25
100
AcDbLine
 10
159.286789
 20
177.740985
 30
0.0
 11
161.52245
 21
179.976646
 31
0.0
  0
LINE
  5
32A
330
310
100
AcDbEntity
  8
LC-001-100-D00-0
 62
     7
370
    25
100
AcDbLine
 10
202.932214
 20
221.386409
 30
0.0
 11
205.521903
 21
223.976098
 31
0.0
  0
LINE
  5
32B
330
310
100
AcDbEntity
  8
LC-001-100-D00-0
 62
     7
370
    25
100
AcDbLine
 10
154.757021
 20
182.191472
 30
0.0
 11
156.977848
 21
184.412299
 31
0.0
  0
LINE
  5
32C
330
310
100
AcDbEntity
  8
LC-001-100-D00-0
 62
     7
370
    25
100
AcDbLine
 10
202.932214
 20
230.366665
 30
0.0
 11
205.438232
 21
232.872683
 31
0.0
  0
LINE
  5
32D
330
310
100
AcDbEntity
  8
LC-001-100-D00-0
 62
     7
370
    25
100
AcDbLine
 10
153.132214
 20
189.546921
 30
0.0
 11
156.132214
 21
192.546921
 31
0.0
  0
LINE
  5
32E
330
310
100
AcDbEntity
  8
LC-001-100-D00-0
 62
     7
370
    25
100
AcDbLine
 10
202.932214
 20
239.346921
 30
0.0
 11
205.354562
 21
241.769269
 31
0.0
  0
LINE
  5
32F
330
310
100
AcDbEntity
  8
LC-001-100-D00-0
 62
     7
370
    25
100
AcDbLine
 10
153.132214
 20
198.527177
 30
0.0
 11
156.132214
 21
201.527177
 31
0.0
  0
LINE
  5
330
330
310
100
AcDbEntity
  8
LC-001-100-D00-0
 62
     7
370
    25
100
AcDbLine
 10
153.132214
 20
207.507434
 30
0.0
 11
156.132214
 21
210.507434
 31
0.0
  0
LINE
  5
331
330
310
100
AcDbEntity
  8
LC-001-100-D00-0
 62
     7
370
    25
100
AcDbLine
 10
153.132214
 20
216.48769
 30
0.0
 11
156.132214
 21
219.48769
 31
0.0
  0
LINE
  5
332
330
310
100
AcDbEntity
  8
LC-001-100-D00-0
 62
     7
370
    25
100
AcDbLine
 10
153.132214
 20
225.467946
 30
0.0
 11
156.132214
 21
228.467946
 31
0.0
  0
LINE
  5
333
330
310
100
AcDbEntity
  8
LC-001-100-D00-0
 62
     7
370
    25
100
AcDbLine
 10
153.132214
 20
234.448202
 30
0.0
 11
156.132214
 21
237.448202
 31
0.0
  0
LINE
  5
334
330
310
100
AcDbEntity
  8
LC-001-100-D00-0
 62
     7
370
    25
100
AcDbLine
 10
153.132214
 20
243.428458
 30
0.0
 11
156.132214
 21
246.428458
 31
0.0
  0
LINE
  5
335
330
310
100
AcDbEntity
  8
LC-001-100-D00-0
 62
     7
370
    25
100
AcDbLine
 10
152.468772
 20
251.745272
 30
0.0
 11
155.647511
 21
254.924011
 31
0.0
  0
LINE
  5
336
330
310
100
AcDbEntity
  8
LC-001-100-D00-0
 62
     7
370
    25
100
AcDbLine
 10
148.77347
 20
257.030227
 30
0.0
 11
154.701337
 21
262.958093
 31
0.0
  0
LINE
  5
337
330
310
100
AcDbEntity
  8
LC-001-100-D00-0
 62
     7
370
    25
100
AcDbLine
 10
145.078168
 20
262.315181
 30
0.0
 11
146.382214
 21
263.619226
 31
0.0
  0
LINE
  5
338
330
310
100
AcDbEntity
  8
LC-001-100-D00-0
 62
     7
370
    25
100
AcDbLine
 10
143.920541
 20
270.137809
 30
0.0
 11
146.382214
 21
272.599483
 31
0.0
  0
LINE
  5
339
330
310
100
AcDbEntity
  8
LC-001-100-D00-0
 62
     7
370
    25
100
AcDbLine
 10
138.978714
 20
274.176238
 30
0.0
 11
141.462971
 21
276.660496
 31
0.0
  0
LINE
  5
33A
330
310
100
AcDbEntity
  8
LC-001-100-D00-0
 62
     7
370
    25
100
AcDbLine
 10
144.382214
 20
279.579739
 30
0.0
 11
145.023489
 21
280.221014
 31
0.0
  0
LINE
  5
33B
330
310
100
AcDbEntity
  8
LC-001-100-D00-0
 62
     7
370
    25
100
AcDbLine
 10
136.179229
 20
280.35701
 30
0.0
 11
138.980209
 21
283.15799
 31
0.0
  0
LINE
  5
33C
330
310
100
AcDbEntity
  8
LC-001-100-D00-0
 62
     7
370
    25
100
AcDbLine
 10
127.817575
 20
280.975612
 30
0.0
 11
130.618554
 21
283.776591
 31
0.0
  0
LINE
  5
33D
330
310
100
AcDbEntity
  8
LC-001-100-D00-0
 62
     7
370
    25
100
AcDbLine
 10
120.092696
 20
282.230989
 30
0.0
 11
122.400842
 21
284.539135
 31
0.0
  0
LINE
  5
33E
330
310
100
AcDbEntity
  8
LC-001-100-D00-0
 62
     7
370
    25
100
AcDbLine
 10
112.861516
 20
283.980065
 30
0.0
 11
115.672293
 21
286.790843
 31
0.0
  0
LINE
  5
33F
330
310
100
AcDbEntity
  8
LC-001-100-D00-0
 62
     7
370
    25
100
AcDbLine
 10
104.468179
 20
284.566984
 30
0.0
 11
107.278956
 21
287.377761
 31
0.0
  0
LINE
  5
340
330
310
100
AcDbEntity
  8
LC-001-100-D00-0
 62
     7
370
    25
100
AcDbLine
 10
96.074841
 20
285.153903
 30
0.0
 11
98.885618
 21
287.96468
 31
0.0
  0
LINE
  5
341
330
310
100
AcDbEntity
  8
LC-001-100-D00-0
 62
     7
370
    25
100
AcDbLine
 10
87.681504
 20
285.740821
 30
0.0
 11
90.492281
 21
288.551599
 31
0.0
  0
ENDBLK
  5
312
330
310
100
AcDbEntity
  8
0
100
AcDbBlockEnd
  0
BLOCK
  5
344
330
343
100
AcDbEntity
  8
0
100
AcDbBlockBegin
  2
KLON3
 70
     0
 71
     0
 10
0.0
 20
0.0
 30
0.0
  3
KLON3
  1

  4
KLON3
  0
LINE
  5
346
330
343
100
AcDbEntity
  8
LC-001-100-D00-0
 62
     7
370
    25
100
AcDbLine
 10
269.391685
 20
117.221014
 30
0.0
 11
269.80519
 21
117.634519
 31
0.0
  0
LINE
  5
347
330
343
100
AcDbEntity
  8
LC-001-100-D00-0
 62
     7
370
    25
100
AcDbLine
 10
267.532214
 20
124.341799
 30
0.0
 11
270.632214
 21
127.441799
 31
0.0
  0
LINE
  5
348
330
343
100
AcDbEntity
  8
LC-001-100-D00-0
 62
     7
370
    25
100
AcDbLine
 10
267.532214
 20
133.322055
 30
0.0
 11
270.632214
 21
136.422055
 31
0.0
  0
LINE
  5
349
330
343
100
AcDbEntity
  8
LC-001-100-D00-0
 62
     7
370
    25
100
AcDbLine
 10
255.032214
 20
129.802311
 30
0.0
 11
258.132214
 21
132.902311
 31
0.0
  0
LINE
  5
34A
330
343
100
AcDbEntity
  8
LC-001-100-D00-0
 62
     7
370
    25
100
AcDbLine
 10
267.532214
 20
142.302311
 30
0.0
 11
270.632214
 21
145.402311
 31
0.0
  0
LINE
  5
34B
330
343
100
AcDbEntity
  8
LC-001-100-D00-0
 62
     7
370
    25
100
AcDbLine
 10
301.455266
 20
176.225363
 30
0.0
 11
305.690818
 21
180.460916
 31
0.0
  0
LINE
  5
34C
330
343
100
AcDbEntity
  8
LC-001-100-D00-0
 62
     7
370
    25
100
AcDbLine
 10
308.892312
 20
183.66241
 30
0.0
 11
313.127865
 21
187.897962
 31
0.0
  0
LINE
  5
34D
330
343
100
AcDbEntity
  8
LC-001-100-D00-0
 62
     7
370
    25
100
AcDbLine
 10
255.032214
 20
138.782567
 30
0.0
 11
258.132214
 21
141.882567
 31
0.0
  0
LINE
  5
34E
330
343
100
AcDbEntity
  8
LC-001-100-D00-0
 62
     7
370
    25
100
AcDbLine
 10
267.532214
 20
151.282567
 30
0.0
 11
270.632214
 21
154.382567
 31
0.0
  0
LINE
  5
34F
330
343
100
AcDbEntity
  8
LC-001-100-D00-0
 62
     7
370
    25
100
AcDbLine
 10
292.47066
 20
176.221014
 30
0.0
 11
295.47066
 21
179.221014
 31
0.0
  0
LINE
  5
350
330
343
100
AcDbEntity
  8
LC-001-100-D00-0
 62
     7
370
    25
100
AcDbLine
 10
310.132214
 20
193.882567
 30
0.0
 11
313.132214
 21
196.882567
 31
0.0
  0
LINE
  5
351
330
343
100
AcDbEntity
  8
LC-001-100-D00-0
 62
     7
370
    25
100
AcDbLine
 10
255.032214
 20
147.762823
 30
0.0
 11
258.132214
 21
150.862823
 31
0.0
  0
LINE
  5
352
330
343
100
AcDbEntity
  8
LC-001-100-D00-0
 62
     7
370
    25
100
AcDbLine
 10
267.532214
 20
160.262823
 30
0.0
 11
270.632214
 21
163.362823
 31
0.0
  0
LINE
  5
353
330
343
100
AcDbEntity
  8
LC-001-100-D00-0
 62
     7
370
    25
100
AcDbLine
 10
283.490404
 20
176.221014
 30
0.0
 11
286.490404
 21
179.221014
 31
0.0
  0
LINE
  5
354
330
343
100
AcDbEntity
  8
LC-001-100-D00-0
 62
     7
370
    25
100
AcDbLine
 10
310.132214
 20
202.862823
 30
0.0
 11
313.132214
 21
205.862823
 31
0.0
  0
LINE
  5
355
330
343
100
AcDbEntity
  8
LC-001-100-D00-0
 62
     7
370
    25
100
AcDbLine
 10
255.032214
 20
156.74308
 30
0.0
 11
258.132214
 21
159.84308
 31
0.0
  0
LINE
  5
356
330
343
100
AcDbEntity
  8
LC-001-100-D00-0
 62
     7
370
    25
100
AcDbLine
 10
267.532214
 20
169.24308
 30
0.0
 11
270.632214
 21
172.34308
 31
0.0
  0
LINE
  5
357
330
343
100
AcDbEntity
  8
LC-001-100-D00-0
 62
     7
370
    25
100
AcDbLine
 10
274.510148
 20
176.221014
 30
0.0
 11
277.510148
 21
179.221014
 31
0.0
  0
LINE
  5
358
330
343
100
AcDbEntity
  8
LC-001-100-D00-0
 62
     7
370
    25
100
AcDbLine
 10
310.132214
 20
211.84308
 30
0.0
 11
313.132214
 21
214.84308
 31
0.0
  0
LINE
  5
359
330
343
100
AcDbEntity
  8
LC-001-100-D00-0
 62
     7
370
    25
100
AcDbLine
 10
255.032214
 20
165.723336
 30
0.0
 11
258.132214
 21
168.823336
 31
0.0
  0
LINE
  5
35A
330
343
100
AcDbEntity
  8
LC-001-100-D00-0
 62
     7
370
    25
100
AcDbLine
 10
265.529892
 20
176.221014
 30
0.0
 11
268.529892
 21
179.221014
 31
0.0
  0
LINE
  5
35B
330
343
100
AcDbEntity
  8
LC-001-100-D00-0
 62
     7
370
    25
100
AcDbLine
 10
310.132214
 20
220.823336
 30
0.0
 11
313.132214
 21
223.823336
 31
0.0
  0
LINE
  5
35C
330
343
100
AcDbEntity
  8
LC-001-100-D00-0
 62
     7
370
    25
100
AcDbLine
 10
374.784057
 20
285.475179
 30
0.0
 11
378.017486
 21
288.708608
 31
0.0
  0
LINE
  5
35D
330
343
100
AcDbEntity
  8
LC-001-100-D00-0
 62
     7
370
    25
100
AcDbLine
 10
255.032214
 20
174.703592
 30
0.0
 11
263.332214
 21
183.003592
 31
0.0
  0
LINE
  5
35E
330
343
100
AcDbEntity
  8
LC-001-100-D00-0
 62
     7
370
    25
100
AcDbLine
 10
310.132214
 20
229.803592
 30
0.0
 11
313.132214
 21
232.803592
 31
0.0
  0
LINE
  5
35F
330
343
100
AcDbEntity
  8
LC-001-100-D00-0
 62
     7
370
    25
100
AcDbLine
 10
365.128629
 20
284.800006
 30
0.0
 11
368.362057
 21
288.033435
 31
0.0
  0
LINE
  5
360
330
343
100
AcDbEntity
  8
LC-001-100-D00-0
 62
     7
370
    25
100
AcDbLine
 10
260.414201
 20
189.065835
 30
0.0
 11
263.332214
 21
191.983848
 31
0.0
  0
LINE
  5
361
330
343
100
AcDbEntity
  8
LC-001-100-D00-0
 62
     7
370
    25
100
AcDbLine
 10
310.132214
 20
238.783848
 30
0.0
 11
313.132214
 21
241.783848
 31
0.0
  0
LINE
  5
362
330
343
100
AcDbEntity
  8
LC-001-100-D00-0
 62
     7
370
    25
100
AcDbLine
 10
355.4732
 20
284.124834
 30
0.0
 11
358.706629
 21
287.358263
 31
0.0
  0
LINE
  5
363
330
343
100
AcDbEntity
  8
LC-001-100-D00-0
 62
     7
370
    25
100
AcDbLine
 10
260.499461
 20
198.131351
 30
0.0
 11
263.332214
 21
200.964104
 31
0.0
  0
LINE
  5
364
330
343
100
AcDbEntity
  8
LC-001-100-D00-0
 62
     7
370
    25
100
AcDbLine
 10
310.132214
 20
247.764104
 30
0.0
 11
313.132214
 21
250.764104
 31
0.0
  0
LINE
  5
365
330
343
100
AcDbEntity
  8
LC-001-100-D00-0
 62
     7
370
    25
100
AcDbLine
 10
343.734938
 20
281.366828
 30
0.0
 11
348.934193
 21
286.566083
 31
0.0
  0
LINE
  5
366
330
343
100
AcDbEntity
  8
LC-001-100-D00-0
 62
     7
370
    25
100
AcDbLine
 10
260.58472
 20
207.196866
 30
0.0
 11
263.332214
 21
209.94436
 31
0.0
  0
LINE
  5
367
330
343
100
AcDbEntity
  8
LC-001-100-D00-0
 62
     7
370
    25
100
AcDbLine
 10
310.130253
 20
256.7424
 30
0.0
 11
316.345947
 21
262.958093
 31
0.0
  0
LINE
  5
368
330
343
100
AcDbEntity
  8
LC-001-100-D00-0
 62
     7
370
    25
100
AcDbLine
 10
319.882214
 20
266.49436
 30
0.0
 11
322.332214
 21
268.94436
 31
0.0
  0
LINE
  5
369
330
343
100
AcDbEntity
  8
LC-001-100-D00-0
 62
     7
370
    25
100
AcDbLine
 10
325.545655
 20
272.157801
 30
0.0
 11
327.144132
 21
273.756278
 31
0.0
  0
LINE
  5
36A
330
343
100
AcDbEntity
  8
LC-001-100-D00-0
 62
     7
370
    25
100
AcDbLine
 10
334.037239
 20
280.649385
 30
0.0
 11
337.285766
 21
283.897912
 31
0.0
  0
LINE
  5
36B
330
343
100
AcDbEntity
  8
LC-001-100-D00-0
 62
     7
370
    25
100
AcDbLine
 10
260.669979
 20
216.262382
 30
0.0
 11
263.332214
 21
218.924616
 31
0.0
  0
LINE
  5
36C
330
343
100
AcDbEntity
  8
LC-001-100-D00-0
 62
     7
370
    25
100
AcDbLine
 10
319.882214
 20
275.474616
 30
0.0
 11
321.882214
 21
277.474616
 31
0.0
  0
LINE
  5
36D
330
343
100
AcDbEntity
  8
LC-001-100-D00-0
 62
     7
370
    25
100
AcDbLine
 10
325.007935
 20
280.600338
 30
0.0
 11
327.588066
 21
283.180469
 31
0.0
  0
LINE
  5
36E
330
343
100
AcDbEntity
  8
LC-001-100-D00-0
 62
     7
370
    25
100
AcDbLine
 10
260.755239
 20
225.327897
 30
0.0
 11
263.332214
 21
227.904872
 31
0.0
  0
LINE
  5
36F
330
343
100
AcDbEntity
  8
LC-001-100-D00-0
 62
     7
370
    25
100
AcDbLine
 10
260.840498
 20
234.393412
 30
0.0
 11
263.332214
 21
236.885129
 31
0.0
  0
LINE
  5
370
330
343
100
AcDbEntity
  8
LC-001-100-D00-0
 62
     7
370
    25
100
AcDbLine
 10
260.925757
 20
243.458928
 30
0.0
 11
263.332214
 21
245.865385
 31
0.0
  0
ENDBLK
  5
345
330
343
100
AcDbEntity
  8
0
100
AcDbBlockEnd
  0
BLOCK
  5
373
330
372
100
AcDbEntity
  8
0
100
AcDbBlockBegin
  2
KLON4
 70
     0
 71
     0
 10
0.0
 20
0.0
 30
0.0
  3
KLON4
  1

  4
KLON4
  0
LINE
  5
375
330
372
100
AcDbEntity
  8
LC-001-100-D00-0
 62
     7
370
    50
100
AcDbLine
 10
316.008868
 20
262.621014
 30
0.0
 11
320.132214
 21
266.74436
 31
0.0
  0
LINE
  5
376
330
372
100
AcDbEntity
  8
LC-001-100-D00-0
 62
     7
370
    50
100
AcDbLine
 10
315.132214
 20
270.724616
 30
0.0
 11
320.132214
 21
275.724616
 31
0.0
  0
LINE
  5
377
330
372
100
AcDbEntity
  8
LC-001-100-D00-0
 62
     7
370
    50
100
AcDbLine
 10
324.628612
 20
280.221014
 30
0.0
 11
325.132214
 21
280.724616
 31
0.0
  0
LINE
  5
378
330
372
100
AcDbEntity
  8
LC-001-100-D00-0
 62
     7
370
    50
100
AcDbLine
 10
308.048355
 20
272.621014
 30
0.0
 11
312.484762
 21
277.05742
 31
0.0
  0
LINE
  5
379
330
372
100
AcDbEntity
  8
LC-001-100-D00-0
 62
     7
370
    50
100
AcDbLine
 10
315.132214
 20
279.704872
 30
0.0
 11
318.448355
 21
283.021014
 31
0.0
  0
ENDBLK
  5
374
330
372
100
AcDbEntity
  8
0
100
AcDbBlockEnd
  0
BLOCK
  5
37C
330
37B
100
AcDbEntity
  8
0
100
AcDbBlockBegin
  2
KLON5
 70
     0
 71
     0
 10
0.0
 20
0.0
 30
0.0
  3
KLON5
  1

  4
KLON5
  0
LINE
  5
37E
330
37B
100
AcDbEntity
  8
LC-001-100-D00-0
 62
     7
370
    25
100
AcDbLine
 10
146.132214
 20
263.369226
 30
0.0
 11
151.132214
 21
268.369226
 31
0.0
  0
LINE
  5
37F
330
37B
100
AcDbEntity
  8
LC-001-100-D00-0
 62
     7
370
    25
100
AcDbLine
 10
155.384001
 20
272.621014
 30
0.0
 11
158.208459
 21
275.445471
 31
0.0
  0
LINE
  5
380
330
37B
100
AcDbEntity
  8
LC-001-100-D00-0
 62
     7
370
    25
100
AcDbLine
 10
146.132214
 20
272.349483
 30
0.0
 11
151.62455
 21
277.841818
 31
0.0
  0
LINE
  5
381
330
37B
100
AcDbEntity
  8
LC-001-100-D00-0
 62
     7
370
    25
100
AcDbLine
 10
145.023489
 20
280.221014
 30
0.0
 11
147.823489
 21
283.021014
 31
0.0
  0
ENDBLK
  5
37D
330
37B
100
AcDbEntity
  8
0
100
AcDbBlockEnd
  0
BLOCK
  5
384
330
383
100
AcDbEntity
  8
0
100
AcDbBlockBegin
  2
KLON6
 70
     0
 71
     0
 10
0.0
 20
0.0
 30
0.0
  3
KLON6
  1

  4
KLON6
  0
LINE
  5
386
330
383
100
AcDbEntity
  8
LC-001-100-D00-0
 62
     7
370
    25
100
AcDbLine
 10
273.632214
 20
202.283848
 30
0.0
 11
274.632214
 21
203.283848
 31
0.0
  0
LINE
  5
387
330
383
100
AcDbEntity
  8
LC-001-100-D00-0
 62
     7
370
    25
100
AcDbLine
 10
273.632214
 20
211.264104
 30
0.0
 11
274.632214
 21
212.264104
 31
0.0
  0
LINE
  5
388
330
383
100
AcDbEntity
  8
LC-001-100-D00-0
 62
     7
370
    25
100
AcDbLine
 10
273.632214
 20
220.24436
 30
0.0
 11
274.632214
 21
221.24436
 31
0.0
  0
LINE
  5
389
330
383
100
AcDbEntity
  8
LC-001-100-D00-0
 62
     7
370
    25
100
AcDbLine
 10
273.632214
 20
229.224616
 30
0.0
 11
274.632214
 21
230.224616
 31
0.0
  0
LINE
  5
38A
330
383
100
AcDbEntity
  8
LC-001-100-D00-0
 62
     7
370
    25
100
AcDbLine
 10
273.632214
 20
238.204872
 30
0.0
 11
274.632214
 21
239.204872
 31
0.0
  0
LINE
  5
38B
330
383
100
AcDbEntity
  8
LC-001-100-D00-0
 62
     7
370
    25
100
AcDbLine
 10
273.632214
 20
247.185129
 30
0.0
 11
274.632214
 21
248.185129
 31
0.0
  0
LINE
  5
38C
330
383
100
AcDbEntity
  8
LC-001-100-D00-0
 62
     7
370
    25
100
AcDbLine
 10
256.687843
 20
239.221014
 30
0.0
 11
260.932214
 21
243.465385
 31
0.0
  0
LINE
  5
38D
330
383
100
AcDbEntity
  8
LC-001-100-D00-0
 62
     7
370
    25
100
AcDbLine
 10
273.632214
 20
256.165385
 30
0.0
 11
274.632214
 21
257.165385
 31
0.0
  0
LINE
  5
38E
330
383
100
AcDbEntity
  8
LC-001-100-D00-0
 62
     7
370
    25
100
AcDbLine
 10
247.707587
 20
239.221014
 30
0.0
 11
264.432214
 21
255.945641
 31
0.0
  0
LINE
  5
38F
330
383
100
AcDbEntity
  8
LC-001-100-D00-0
 62
     7
370
    25
100
AcDbLine
 10
271.872732
 20
263.386159
 30
0.0
 11
272.714729
 21
264.228156
 31
0.0
  0
LINE
  5
390
330
383
100
AcDbEntity
  8
LC-001-100-D00-0
 62
     7
370
    25
100
AcDbLine
 10
238.727331
 20
239.221014
 30
0.0
 11
264.432214
 21
264.925897
 31
0.0
  0
LINE
  5
391
330
383
100
AcDbEntity
  8
LC-001-100-D00-0
 62
     7
370
    25
100
AcDbLine
 10
266.734086
 20
267.227769
 30
0.0
 11
267.973205
 21
268.466888
 31
0.0
  0
LINE
  5
392
330
383
100
AcDbEntity
  8
LC-001-100-D00-0
 62
     7
370
    25
100
AcDbLine
 10
191.632214
 20
201.106153
 30
0.0
 11
192.632214
 21
202.106153
 31
0.0
  0
LINE
  5
393
330
383
100
AcDbEntity
  8
LC-001-100-D00-0
 62
     7
370
    25
100
AcDbLine
 10
231.688838
 20
241.162777
 30
0.0
 11
260.247075
 21
269.721014
 31
0.0
  0
LINE
  5
394
330
383
100
AcDbEntity
  8
LC-001-100-D00-0
 62
     7
370
    25
100
AcDbLine
 10
191.632214
 20
210.086409
 30
0.0
 11
192.632214
 21
211.086409
 31
0.0
  0
LINE
  5
395
330
383
100
AcDbEntity
  8
LC-001-100-D00-0
 62
     7
370
    25
100
AcDbLine
 10
231.688838
 20
250.143033
 30
0.0
 11
251.266819
 21
269.721014
 31
0.0
  0
LINE
  5
396
330
383
100
AcDbEntity
  8
LC-001-100-D00-0
 62
     7
370
    25
100
AcDbLine
 10
191.632214
 20
219.066665
 30
0.0
 11
192.632214
 21
220.066665
 31
0.0
  0
LINE
  5
397
330
383
100
AcDbEntity
  8
LC-001-100-D00-0
 62
     7
370
    25
100
AcDbLine
 10
231.688838
 20
259.12329
 30
0.0
 11
246.346181
 21
273.780632
 31
0.0
  0
LINE
  5
398
330
383
100
AcDbEntity
  8
LC-001-100-D00-0
 62
     7
370
    25
100
AcDbLine
 10
191.632214
 20
228.046921
 30
0.0
 11
192.632214
 21
229.046921
 31
0.0
  0
LINE
  5
399
330
383
100
AcDbEntity
  8
LC-001-100-D00-0
 62
     7
370
    25
100
AcDbLine
 10
231.306306
 20
267.721014
 30
0.0
 11
242.201896
 21
278.616604
 31
0.0
  0
LINE
  5
39A
330
383
100
AcDbEntity
  8
LC-001-100-D00-0
 62
     7
370
    25
100
AcDbLine
 10
191.632214
 20
237.027177
 30
0.0
 11
192.632214
 21
238.027177
 31
0.0
  0
LINE
  5
39B
330
383
100
AcDbEntity
  8
LC-001-100-D00-0
 62
     7
370
    25
100
AcDbLine
 10
222.32605
 20
267.721014
 30
0.0
 11
234.32605
 21
279.721014
 31
0.0
  0
LINE
  5
39C
330
383
100
AcDbEntity
  8
LC-001-100-D00-0
 62
     7
370
    25
100
AcDbLine
 10
191.632214
 20
246.007434
 30
0.0
 11
192.632214
 21
247.007434
 31
0.0
  0
LINE
  5
39D
330
383
100
AcDbEntity
  8
LC-001-100-D00-0
 62
     7
370
    25
100
AcDbLine
 10
213.345794
 20
267.721014
 30
0.0
 11
215.345794
 21
269.721014
 31
0.0
  0
LINE
  5
39E
330
383
100
AcDbEntity
  8
LC-001-100-D00-0
 62
     7
370
    25
100
AcDbLine
 10
220.29491
 20
274.67013
 30
0.0
 11
224.433098
 21
278.808318
 31
0.0
  0
LINE
  5
39F
330
383
100
AcDbEntity
  8
LC-001-100-D00-0
 62
     7
370
    25
100
AcDbLine
 10
191.632214
 20
254.98769
 30
0.0
 11
192.632214
 21
255.98769
 31
0.0
  0
LINE
  5
3A0
330
383
100
AcDbEntity
  8
LC-001-100-D00-0
 62
     7
370
    25
100
AcDbLine
 10
204.365538
 20
267.721014
 30
0.0
 11
206.365538
 21
269.721014
 31
0.0
  0
LINE
  5
3A1
330
383
100
AcDbEntity
  8
LC-001-100-D00-0
 62
     7
370
    25
100
AcDbLine
 10
242.286563
 20
269.721014
 30
0.0
 11
242.882214
 21
270.316665
 31
0.0
  0
LINE
  5
3A2
330
383
100
AcDbEntity
  8
LC-001-100-D00-0
 62
     7
370
    25
100
AcDbLine
 10
233.306306
 20
269.721014
 30
0.0
 11
239.144378
 21
275.559086
 31
0.0
  0
LINE
  5
3A3
330
383
100
AcDbEntity
  8
LC-001-100-D00-0
 62
     7
370
    25
100
AcDbLine
 10
224.32605
 20
269.721014
 30
0.0
 11
230.32605
 21
275.721014
 31
0.0
  0
ENDBLK
  5
385
330
383
100
AcDbEntity
  8
0
100
AcDbBlockEnd
  0
BLOCK
  5
3A6
330
3A5
100
AcDbEntity
  8
0
100
AcDbBlockBegin
  2
KLON7
 70
     0
 71
     0
 10
0.0
 20
0.0
 30
0.0
  3
KLON7
  1

  4
KLON7
  0
LINE
  5
3A8
330
3A5
100
AcDbEntity
  8
LC-001-100-D00-0
 62
     7
370
    25
100
AcDbLine
 10
284.632214
 20
96.540518
 30
0.0
 11
288.132214
 21
100.040518
 31
0.0
  0
LINE
  5
3A9
330
3A5
100
AcDbEntity
  8
LC-001-100-D00-0
 62
     7
370
    25
100
AcDbLine
 10
284.632214
 20
105.520774
 30
0.0
 11
288.132214
 21
109.020774
 31
0.0
  0
LINE
  5
3AA
330
3A5
100
AcDbEntity
  8
LC-001-100-D00-0
 62
     7
370
    25
100
AcDbLine
 10
284.632214
 20
114.501031
 30
0.0
 11
288.132214
 21
118.001031
 31
0.0
  0
LINE
  5
3AB
330
3A5
100
AcDbEntity
  8
LC-001-100-D00-0
 62
     7
370
    25
100
AcDbLine
 10
284.632214
 20
123.481287
 30
0.0
 11
288.132214
 21
126.981287
 31
0.0
  0
LINE
  5
3AC
330
3A5
100
AcDbEntity
  8
LC-001-100-D00-0
 62
     7
370
    25
100
AcDbLine
 10
268.132214
 20
115.961543
 30
0.0
 11
269.391685
 21
117.221014
 31
0.0
  0
LINE
  5
3AD
330
3A5
100
AcDbEntity
  8
LC-001-100-D00-0
 62
     7
370
    25
100
AcDbLine
 10
270.30519
 20
118.134519
 30
0.0
 11
274.632214
 21
122.461543
 31
0.0
  0
LINE
  5
3AE
330
3A5
100
AcDbEntity
  8
LC-001-100-D00-0
 62
     7
370
    25
100
AcDbLine
 10
284.632214
 20
132.461543
 30
0.0
 11
288.132214
 21
135.961543
 31
0.0
  0
LINE
  5
3AF
330
3A5
100
AcDbEntity
  8
LC-001-100-D00-0
 62
     7
370
    25
100
AcDbLine
 10
271.132214
 20
127.941799
 30
0.0
 11
274.632214
 21
131.441799
 31
0.0
  0
LINE
  5
3B0
330
3A5
100
AcDbEntity
  8
LC-001-100-D00-0
 62
     7
370
    25
100
AcDbLine
 10
284.632214
 20
141.441799
 30
0.0
 11
288.132214
 21
144.941799
 31
0.0
  0
LINE
  5
3B1
330
3A5
100
AcDbEntity
  8
LC-001-100-D00-0
 62
     7
370
    25
100
AcDbLine
 10
271.132214
 20
136.922055
 30
0.0
 11
274.632214
 21
140.422055
 31
0.0
  0
LINE
  5
3B2
330
3A5
100
AcDbEntity
  8
LC-001-100-D00-0
 62
     7
370
    25
100
AcDbLine
 10
284.632214
 20
150.422055
 30
0.0
 11
288.132214
 21
153.922055
 31
0.0
  0
LINE
  5
3B3
330
3A5
100
AcDbEntity
  8
LC-001-100-D00-0
 62
     7
370
    25
100
AcDbLine
 10
271.132214
 20
145.902311
 30
0.0
 11
274.632214
 21
149.402311
 31
0.0
  0
LINE
  5
3B4
330
3A5
100
AcDbEntity
  8
LC-001-100-D00-0
 62
     7
370
    25
100
AcDbLine
 10
279.450917
 20
154.221014
 30
0.0
 11
282.950917
 21
157.721014
 31
0.0
  0
LINE
  5
3B5
330
3A5
100
AcDbEntity
  8
LC-001-100-D00-0
 62
     7
370
    25
100
AcDbLine
 10
271.132214
 20
154.882567
 30
0.0
 11
273.97066
 21
157.721014
 31
0.0
  0
LINE
  5
3B6
330
3A5
100
AcDbEntity
  8
LC-001-100-D00-0
 62
     7
370
    25
100
AcDbLine
 10
275.382214
 20
159.132567
 30
0.0
 11
278.882214
 21
162.632567
 31
0.0
  0
LINE
  5
3B7
330
3A5
100
AcDbEntity
  8
LC-001-100-D00-0
 62
     7
370
    25
100
AcDbLine
 10
275.319523
 20
168.050132
 30
0.0
 11
278.328979
 21
171.059588
 31
0.0
  0
LINE
  5
3B8
330
3A5
100
AcDbEntity
  8
LC-001-100-D00-0
 62
     7
370
    25
100
AcDbLine
 10
272.132214
 20
173.84308
 30
0.0
 11
274.010148
 21
175.721014
 31
0.0
  0
ENDBLK
  5
3A7
330
3A5
100
AcDbEntity
  8
0
100
AcDbBlockEnd
  0
BLOCK
  5
3BB
330
3BA
100
AcDbEntity
  8
0
100
AcDbBlockBegin
  2
KLON8
 70
     0
 71
     0
 10
0.0
 20
0.0
 30
0.0
  3
KLON8
  1

  4
KLON8
  0
LINE
  5
3BD
330
3BA
100
AcDbEntity
  8
LC-001-100-D00-0
 62
     7
370
    25
100
AcDbLine
 10
178.132214
 20
97.803592
 30
0.0
 11
181.632214
 21
101.303592
 31
0.0
  0
LINE
  5
3BE
330
3BA
100
AcDbEntity
  8
LC-001-100-D00-0
 62
     7
370
    25
100
AcDbLine
 10
194.049636
 20
113.721014
 30
0.0
 11
197.549636
 21
117.221014
 31
0.0
  0
LINE
  5
3BF
330
3BA
100
AcDbEntity
  8
LC-001-100-D00-0
 62
     7
370
    25
100
AcDbLine
 10
178.132214
 20
106.783848
 30
0.0
 11
181.632214
 21
110.283848
 31
0.0
  0
LINE
  5
3C0
330
3BA
100
AcDbEntity
  8
LC-001-100-D00-0
 62
     7
370
    25
100
AcDbLine
 10
191.632214
 20
120.283848
 30
0.0
 11
195.132214
 21
123.783848
 31
0.0
  0
LINE
  5
3C1
330
3BA
100
AcDbEntity
  8
LC-001-100-D00-0
 62
     7
370
    25
100
AcDbLine
 10
178.132214
 20
115.764104
 30
0.0
 11
181.632214
 21
119.264104
 31
0.0
  0
LINE
  5
3C2
330
3BA
100
AcDbEntity
  8
LC-001-100-D00-0
 62
     7
370
    25
100
AcDbLine
 10
191.632214
 20
129.264104
 30
0.0
 11
195.132214
 21
132.764104
 31
0.0
  0
LINE
  5
3C3
330
3BA
100
AcDbEntity
  8
LC-001-100-D00-0
 62
     7
370
    25
100
AcDbLine
 10
178.132214
 20
124.74436
 30
0.0
 11
181.632214
 21
128.24436
 31
0.0
  0
LINE
  5
3C4
330
3BA
100
AcDbEntity
  8
LC-001-100-D00-0
 62
     7
370
    25
100
AcDbLine
 10
191.632214
 20
138.24436
 30
0.0
 11
195.132214
 21
141.74436
 31
0.0
  0
LINE
  5
3C5
330
3BA
100
AcDbEntity
  8
LC-001-100-D00-0
 62
     7
370
    25
100
AcDbLine
 10
178.132214
 20
133.724616
 30
0.0
 11
181.632214
 21
137.224616
 31
0.0
  0
LINE
  5
3C6
330
3BA
100
AcDbEntity
  8
LC-001-100-D00-0
 62
     7
370
    25
100
AcDbLine
 10
191.632214
 20
147.224616
 30
0.0
 11
195.132214
 21
150.724616
 31
0.0
  0
LINE
  5
3C7
330
3BA
100
AcDbEntity
  8
LC-001-100-D00-0
 62
     7
370
    25
100
AcDbLine
 10
178.132214
 20
142.704872
 30
0.0
 11
181.632214
 21
146.204872
 31
0.0
  0
LINE
  5
3C8
330
3BA
100
AcDbEntity
  8
LC-001-100-D00-0
 62
     7
370
    25
100
AcDbLine
 10
189.648355
 20
154.221014
 30
0.0
 11
193.148355
 21
157.721014
 31
0.0
  0
LINE
  5
3C9
330
3BA
100
AcDbEntity
  8
LC-001-100-D00-0
 62
     7
370
    25
100
AcDbLine
 10
178.132214
 20
151.685129
 30
0.0
 11
184.168099
 21
157.721014
 31
0.0
  0
LINE
  5
3CA
330
3BA
100
AcDbEntity
  8
LC-001-100-D00-0
 62
     7
370
    25
100
AcDbLine
 10
187.382214
 20
160.935129
 30
0.0
 11
190.882214
 21
164.435129
 31
0.0
  0
LINE
  5
3CB
330
3BA
100
AcDbEntity
  8
LC-001-100-D00-0
 62
     7
370
    25
100
AcDbLine
 10
187.559333
 20
170.092504
 30
0.0
 11
193.187843
 21
175.721014
 31
0.0
  0
ENDBLK
  5
3BC
330
3BA
100
AcDbEntity
  8
0
100
AcDbBlockEnd
  0
BLOCK
  5
3CF
330
3CE
100
AcDbEntity
  8
0
100
AcDbBlockBegin
  2
KLON9
 70
     0
 71
     0
 10
0.0
 20
0.0
 30
0.0
  3
KLON9
  1

  4
KLON9
  0
LINE
  5
3D1
330
3CE
100
AcDbEntity
  8
LC-001-100-D00-0
 62
     7
370
    50
100
AcDbLine
 10
193.147669
 20
157.720328
 30
0.0
 11
194.099327
 21
158.671985
 31
0.0
  0
LINE
  5
3D2
330
3CE
100
AcDbEntity
  8
LC-001-100-D00-0
 62
     7
370
    50
100
AcDbLine
 10
195.66437
 20
160.237029
 30
0.0
 11
196.439116
 21
161.011774
 31
0.0
  0
ENDBLK
  5
3D0
330
3CE
100
AcDbEntity
  8
0
100
AcDbBlockEnd
  0
BLOCK
  5
3E2
330
3D8
100
AcDbEntity
  8
0
100
AcDbBlockBegin
  2
*D30
 70
     1
 71
     0
 10
0.0
 20
0.0
 30
0.0
  3
*D30
  1

  0
LINE
  5
3D9
330
3D8
100
AcDbEntity
  8
LC-001-100-D00-0
 62
     2
370
    -2
100
AcDbLine
 10
178.132214
 20
94.721014
 30
0.0
 11
178.132214
 21
-11.733768
 31
0.0
  0
LINE
  5
3DA
330
3D8
100
AcDbEntity
  8
LC-001-100-D00-0
 62
     2
370
    -2
100
AcDbLine
 10
288.132214
 20
94.721014
 30
0.0
 11
288.132214
 21
-11.733768
 31
0.0
  0
LINE
  5
3DB
330
3D8
100
AcDbEntity
  8
LC-001-100-D00-0
 62
     2
370
    -2
100
AcDbLine
 10
206.132214
 20
-8.133768
 30
0.0
 11
260.132214
 21
-8.133768
 31
0.0
  0
SOLID
  5
3DC
330
3D8
100
AcDbEntity
  8
LC-001-100-D00-0
 62
     2
100
AcDbTrace
 10
206.132214
 20
-3.467101
 30
0.0
 11
206.132214
 21
-12.800434
 31
0.0
 12
178.132214
 22
-8.133768
 32
0.0
 13
178.132214
 23
-8.133768
 33
0.0
  0
SOLID
  5
3DD
330
3D8
100
AcDbEntity
  8
LC-001-100-D00-0
 62
     2
100
AcDbTrace
 10
260.132214
 20
-12.800434
 30
0.0
 11
260.132214
 21
-3.467101
 31
0.0
 12
288.132214
 22
-8.133768
 32
0.0
 13
288.132214
 23
-8.133768
 33
0.0
  0
MTEXT
  5
3DE
330
3D8
100
AcDbEntity
  8
LC-001-100-D00-0
 62
     2
100
AcDbMText
 10
227.26385
 20
22.666232
 30
0.0
 40
28.0
 41
0.0
 71
     5
 72
     1
  1
\A1;%%c110
  7
LCTX15-400-0-0pDIN-Schrift
 73
     1
 44
1.0
  0
POINT
  5
3DF
330
3D8
100
AcDbEntity
  8
Defpoints
 62
     0
100
AcDbPoint
 10
178.132214
 20
94.721014
 30
0.0
  0
POINT
  5
3E0
330
3D8
100
AcDbEntity
  8
Defpoints
 62
     0
100
AcDbPoint
 10
288.132214
 20
94.721014
 30
0.0
  0
POINT
  5
3E1
330
3D8
100
AcDbEntity
  8
Defpoints
 62
     0
100
AcDbPoint
 10
288.132214
 20
-8.133768
 30
0.0
  0
ENDBLK
  5
3E3
330
3D8
100
AcDbEntity
  8
0
100
AcDbBlockEnd
  0
BLOCK
  5
3EF
330
3E5
100
AcDbEntity
  8
0
100
AcDbBlockBegin
  2
*D31
 70
     1
 71
     0
 10
0.0
 20
0.0
 30
0.0
  3
*D31
  1

  0
LINE
  5
3E6
330
3E5
100
AcDbEntity
  8
LC-001-100-D00-0
 62
     2
370
    -2
100
AcDbLine
 10
83.132214
 20
286.058938
 30
0.0
 11
69.940116
 21
286.058938
 31
0.0
  0
LINE
  5
3E7
330
3E5
100
AcDbEntity
  8
LC-001-100-D00-0
 62
     2
370
    -2
100
AcDbLine
 10
165.132214
 20
176.221014
 30
0.0
 11
69.940116
 21
176.221014
 31
0.0
  0
LINE
  5
3E8
330
3E5
100
AcDbEntity
  8
LC-001-100-D00-0
 62
     2
370
    -2
100
AcDbLine
 10
73.540116
 20
258.058938
 30
0.0
 11
73.540116
 21
204.221014
 31
0.0
  0
SOLID
  5
3E9
330
3E5
100
AcDbEntity
  8
LC-001-100-D00-0
 62
     2
100
AcDbTrace
 10
78.206783
 20
258.058938
 30
0.0
 11
68.873449
 21
258.058938
 31
0.0
 12
73.540116
 22
286.058938
 32
0.0
 13
73.540116
 23
286.058938
 33
0.0
  0
SOLID
  5
3EA
330
3E5
100
AcDbEntity
  8
LC-001-100-D00-0
 62
     2
100
AcDbTrace
 10
68.873449
 20
204.221014
 30
0.0
 11
78.206783
 21
204.221014
 31
0.0
 12
73.540116
 22
176.221014
 32
0.0
 13
73.540116
 23
176.221014
 33
0.0
  0
MTEXT
  5
3EB
330
3E5
100
AcDbEntity
  8
LC-001-100-D00-0
 62
     2
100
AcDbMText
 10
42.740116
 20
223.73969
 30
0.0
 40
28.0
 41
0.0
 71
     5
 72
     1
  1
\A1;110
  7
LCTX15-400-0-0pDIN-Schrift
 11
6.123031769111886E-17
 21
1.0
 31
0.0
 73
     1
 44
1.0
  0
POINT
  5
3EC
330
3E5
100
AcDbEntity
  8
Defpoints
 62
     0
100
AcDbPoint
 10
83.132214
 20
286.058938
 30
0.0
  0
POINT
  5
3ED
330
3E5
100
AcDbEntity
  8
Defpoints
 62
     0
100
AcDbPoint
 10
165.132214
 20
176.221014
 30
0.0
  0
POINT
  5
3EE
330
3E5
100
AcDbEntity
  8
Defpoints
 62
     0
100
AcDbPoint
 10
73.540116
 20
176.221014
 30
0.0
  0
ENDBLK
  5
3F0
330
3E5
100
AcDbEntity
  8
0
100
AcDbBlockEnd
  0
BLOCK
  5
3FC
330
3F2
100
AcDbEntity
  8
0
100
AcDbBlockBegin
  2
*D32
 70
     1
 71
     0
 10
0.0
 20
0.0
 30
0.0
  3
*D32
  1

  0
LINE
  5
3F3
330
3F2
100
AcDbEntity
  8
LC-001-100-D00-0
 62
     2
370
    -2
100
AcDbLine
 10
83.132214
 20
286.058938
 30
0.0
 11
83.132214
 21
312.521527
 31
0.0
  0
LINE
  5
3F4
330
3F2
100
AcDbEntity
  8
LC-001-100-D00-0
 62
     2
370
    -2
100
AcDbLine
 10
383.132214
 20
286.058938
 30
0.0
 11
383.132214
 21
312.521527
 31
0.0
  0
LINE
  5
3F5
330
3F2
100
AcDbEntity
  8
LC-001-100-D00-0
 62
     2
370
    -2
100
AcDbLine
 10
111.132214
 20
308.921527
 30
0.0
 11
355.132214
 21
308.921527
 31
0.0
  0
SOLID
  5
3F6
330
3F2
100
AcDbEntity
  8
LC-001-100-D00-0
 62
     2
100
AcDbTrace
 10
111.132214
 20
313.588193
 30
0.0
 11
111.132214
 21
304.25486
 31
0.0
 12
83.132214
 22
308.921527
 32
0.0
 13
83.132214
 23
308.921527
 33
0.0
  0
SOLID
  5
3F7
330
3F2
100
AcDbEntity
  8
LC-001-100-D00-0
 62
     2
100
AcDbTrace
 10
355.132214
 20
304.25486
 30
0.0
 11
355.132214
 21
313.588193
 31
0.0
 12
383.132214
 22
308.921527
 32
0.0
 13
383.132214
 23
308.921527
 33
0.0
  0
MTEXT
  5
3F8
330
3F2
100
AcDbEntity
  8
LC-001-100-D00-0
 62
     2
100
AcDbMText
 10
231.99227
 20
339.721527
 30
0.0
 40
28.0
 41
0.0
 71
     5
 72
     1
  1
\A1;%%c300
  7
LCTX15-400-0-0pDIN-Schrift
 73
     1
 44
1.0
  0
POINT
  5
3F9
330
3F2
100
AcDbEntity
  8
Defpoints
 62
     0
100
AcDbPoint
 10
83.132214
 20
286.058938
 30
0.0
  0
POINT
  5
3FA
330
3F2
100
AcDbEntity
  8
Defpoints
 62
     0
100
AcDbPoint
 10
383.132214
 20
286.058938
 30
0.0
  0
POINT
  5
3FB
330
3F2
100
AcDbEntity
  8
Defpoints
 62
     0
100
AcDbPoint
 10
383.132214
 20
308.921527
 30
0.0
  0
ENDBLK
  5
3FD
330
3F2
100
AcDbEntity
  8
0
100
AcDbBlockEnd
  0
BLOCK
  5
40B
330
3FF
100
AcDbEntity
  8
0
100
AcDbBlockBegin
  2
*D33
 70
     1
 71
     0
 10
0.0
 20
0.0
 30
0.0
  3
*D33
  1

  0
LINE
  5
400
330
3FF
100
AcDbEntity
  8
LC-001-100-D00-0
 62
     2
370
    -2
100
AcDbLine
 10
191.632214
 20
197.721014
 30
0.0
 11
116.10783
 21
197.721014
 31
0.0
  0
LINE
  5
401
330
3FF
100
AcDbEntity
  8
LC-001-100-D00-0
 62
     2
370
    -2
100
AcDbLine
 10
202.932214
 20
247.221014
 30
0.0
 11
116.10783
 21
247.221014
 31
0.0
  0
LINE
  5
402
330
3FF
100
AcDbEntity
  8
LC-001-100-D00-0
 62
     2
370
    -2
100
AcDbLine
 10
119.70783
 20
169.721014
 30
0.0
 11
119.70783
 21
141.721014
 31
0.0
  0
LINE
  5
403
330
3FF
100
AcDbEntity
  8
LC-001-100-D00-0
 62
     2
370
    -2
100
AcDbLine
 10
119.70783
 20
275.221014
 30
0.0
 11
119.70783
 21
303.221014
 31
0.0
  0
LINE
  5
404
330
3FF
100
AcDbEntity
  8
LC-001-100-D00-0
 62
     2
370
    -2
100
AcDbLine
 10
119.70783
 20
197.721014
 30
0.0
 11
119.70783
 21
247.221014
 31
0.0
  0
SOLID
  5
405
330
3FF
100
AcDbEntity
  8
LC-001-100-D00-0
 62
     2
100
AcDbTrace
 10
124.374497
 20
169.721014
 30
0.0
 11
115.041163
 21
169.721014
 31
0.0
 12
119.70783
 22
197.721014
 32
0.0
 13
119.70783
 23
197.721014
 33
0.0
  0
SOLID
  5
406
330
3FF
100
AcDbEntity
  8
LC-001-100-D00-0
 62
     2
100
AcDbTrace
 10
115.041163
 20
275.221014
 30
0.0
 11
124.374497
 21
275.221014
 31
0.0
 12
119.70783
 22
247.221014
 32
0.0
 13
119.70783
 23
247.221014
 33
0.0
  0
MTEXT
  5
407
330
3FF
100
AcDbEntity
  8
LC-001-100-D00-0
 62
     2
100
AcDbMText
 10
88.90783
 20
223.73969
 30
0.0
 40
28.0
 41
0.0
 71
     5
 72
     1
  1
\A1;50
  7
LCTX15-400-0-0pDIN-Schrift
 11
6.123031769111886E-17
 21
1.0
 31
0.0
 73
     1
 44
1.0
  0
POINT
  5
408
330
3FF
100
AcDbEntity
  8
Defpoints
 62
     0
100
AcDbPoint
 10
191.632214
 20
197.721014
 30
0.0
  0
POINT
  5
409
330
3FF
100
AcDbEntity
  8
Defpoints
 62
     0
100
AcDbPoint
 10
202.932214
 20
247.221014
 30
0.0
  0
POINT
  5
40A
330
3FF
100
AcDbEntity
  8
Defpoints
 62
     0
100
AcDbPoint
 10
119.70783
 20
247.221014
 30
0.0
  0
ENDBLK
  5
40C
330
3FF
100
AcDbEntity
  8
0
100
AcDbBlockEnd
  0
BLOCK
  5
419
330
40E
100
AcDbEntity
  8
0
100
AcDbBlockBegin
  2
*D34
 70
     1
 71
     0
 10
0.0
 20
0.0
 30
0.0
  3
*D34
  1

  0
LINE
  5
40F
330
40E
100
AcDbEntity
  8
LC-001-100-D00-0
 62
     2
370
    -2
100
AcDbLine
 10
208.132214
 20
126.621014
 30
0.0
 11
208.132214
 21
77.960232
 31
0.0
  0
LINE
  5
410
330
40E
100
AcDbEntity
  8
LC-001-100-D00-0
 62
     2
370
    -2
100
AcDbLine
 10
258.132214
 20
126.621014
 30
0.0
 11
258.132214
 21
77.960232
 31
0.0
  0
LINE
  5
411
330
40E
100
AcDbEntity
  8
LC-001-100-D00-0
 62
     2
370
    -2
100
AcDbLine
 10
180.132214
 20
81.560232
 30
0.0
 11
152.132214
 21
81.560232
 31
0.0
  0
LINE
  5
412
330
40E
100
AcDbEntity
  8
LC-001-100-D00-0
 62
     2
370
    -2
100
AcDbLine
 10
286.132214
 20
81.560232
 30
0.0
 11
378.724852
 21
81.560232
 31
0.0
  0
SOLID
  5
413
330
40E
100
AcDbEntity
  8
LC-001-100-D00-0
 62
     2
100
AcDbTrace
 10
180.132214
 20
76.893566
 30
0.0
 11
180.132214
 21
86.226899
 31
0.0
 12
208.132214
 22
81.560232
 32
0.0
 13
208.132214
 23
81.560232
 33
0.0
  0
SOLID
  5
414
330
40E
100
AcDbEntity
  8
LC-001-100-D00-0
 62
     2
100
AcDbTrace
 10
286.132214
 20
86.226899
 30
0.0
 11
286.132214
 21
76.893566
 31
0.0
 12
258.132214
 22
81.560232
 32
0.0
 13
258.132214
 23
81.560232
 33
0.0
  0
MTEXT
  5
415
330
40E
100
AcDbEntity
  8
LC-001-100-D00-0
 62
     2
100
AcDbMText
 10
355.802626
 20
112.360232
 30
0.0
 40
28.0
 41
0.0
 71
     5
 72
     1
  1
\A1;%%c50
  7
LCTX15-400-0-0pDIN-Schrift
 73
     1
 44
1.0
  0
POINT
  5
416
330
40E
100
AcDbEntity
  8
Defpoints
 62
     0
100
AcDbPoint
 10
208.132214
 20
126.621014
 30
0.0
  0
POINT
  5
417
330
40E
100
AcDbEntity
  8
Defpoints
 62
     0
100
AcDbPoint
 10
258.132214
 20
126.621014
 30
0.0
  0
POINT
  5
418
330
40E
100
AcDbEntity
  8
Defpoints
 62
     0
100
AcDbPoint
 10
258.132214
 20
81.560232
 30
0.0
  0
ENDBLK
  5
41A
330
40E
100
AcDbEntity
  8
0
100
AcDbBlockEnd
  0
BLOCK
  5
426
330
41C
100
AcDbEntity
  8
0
100
AcDbBlockBegin
  2
*D35
 70
     1
 71
     0
 10
0.0
 20
0.0
 30
0.0
  3
*D35
  1

  0
LINE
  5
41D
330
41C
100
AcDbEntity
  8
LC-001-100-D00-0
 62
     2
370
    -2
100
AcDbLine
 10
195.632214
 20
120.721014
 30
0.0
 11
195.632214
 21
35.786232
 31
0.0
  0
LINE
  5
41E
330
41C
100
AcDbEntity
  8
LC-001-100-D00-0
 62
     2
370
    -2
100
AcDbLine
 10
270.632214
 20
120.721014
 30
0.0
 11
270.632214
 21
35.786232
 31
0.0
  0
LINE
  5
41F
330
41C
100
AcDbEntity
  8
LC-001-100-D00-0
 62
     2
370
    -2
100
AcDbLine
 10
223.632214
 20
39.386232
 30
0.0
 11
242.632214
 21
39.386232
 31
0.0
  0
SOLID
  5
420
330
41C
100
AcDbEntity
  8
LC-001-100-D00-0
 62
     2
100
AcDbTrace
 10
223.632214
 20
44.052899
 30
0.0
 11
223.632214
 21
34.719566
 31
0.0
 12
195.632214
 22
39.386232
 32
0.0
 13
195.632214
 23
39.386232
 33
0.0
  0
SOLID
  5
421
330
41C
100
AcDbEntity
  8
LC-001-100-D00-0
 62
     2
100
AcDbTrace
 10
242.632214
 20
34.719566
 30
0.0
 11
242.632214
 21
44.052899
 31
0.0
 12
270.632214
 22
39.386232
 32
0.0
 13
270.632214
 23
39.386232
 33
0.0
  0
MTEXT
  5
422
330
41C
100
AcDbEntity
  8
LC-001-100-D00-0
 62
     2
100
AcDbMText
 10
228.150324
 20
70.186232
 30
0.0
 40
28.0
 41
0.0
 71
     5
 72
     1
  1
\A1;%%c75
  7
LCTX15-400-0-0pDIN-Schrift
 73
     1
 44
1.0
  0
POINT
  5
423
330
41C
100
AcDbEntity
  8
Defpoints
 62
     0
100
AcDbPoint
 10
195.632214
 20
120.721014
 30
0.0
  0
POINT
  5
424
330
41C
100
AcDbEntity
  8
Defpoints
 62
     0
100
AcDbPoint
 10
270.632214
 20
120.721014
 30
0.0
  0
POINT
  5
425
330
41C
100
AcDbEntity
  8
Defpoints
 62
     0
100
AcDbPoint
 10
270.632214
 20
39.386232
 30
0.0
  0
ENDBLK
  5
427
330
41C
100
AcDbEntity
  8
0
100
AcDbBlockEnd
  0
BLOCK
  5
433
330
429
100
AcDbEntity
  8
0
100
AcDbBlockBegin
  2
*D36
 70
     1
 71
     0
 10
0.0
 20
0.0
 30
0.0
  3
*D36
  1

  0
LINE
  5
42A
330
429
100
AcDbEntity
  8
LC-001-100-D00-0
 62
     2
370
    -2
100
AcDbLine
 10
83.132214
 20
286.058938
 30
0.0
 11
25.980078
 21
286.058938
 31
0.0
  0
LINE
  5
42B
330
429
100
AcDbEntity
  8
LC-001-100-D00-0
 62
     2
370
    -2
100
AcDbLine
 10
178.132214
 20
94.721014
 30
0.0
 11
25.980078
 21
94.721014
 31
0.0
  0
LINE
  5
42C
330
429
100
AcDbEntity
  8
LC-001-100-D00-0
 62
     2
370
    -2
100
AcDbLine
 10
29.580078
 20
258.058938
 30
0.0
 11
29.580078
 21
122.721014
 31
0.0
  0
SOLID
  5
42D
330
429
100
AcDbEntity
  8
LC-001-100-D00-0
 62
     2
100
AcDbTrace
 10
34.246744
 20
258.058938
 30
0.0
 11
24.913411
 21
258.058938
 31
0.0
 12
29.580078
 22
286.058938
 32
0.0
 13
29.580078
 23
286.058938
 33
0.0
  0
SOLID
  5
42E
330
429
100
AcDbEntity
  8
LC-001-100-D00-0
 62
     2
100
AcDbTrace
 10
24.913411
 20
122.721014
 30
0.0
 11
34.246744
 21
122.721014
 31
0.0
 12
29.580078
 22
94.721014
 32
0.0
 13
29.580078
 23
94.721014
 33
0.0
  0
MTEXT
  5
42F
330
429
100
AcDbEntity
  8
LC-001-100-D00-0
 62
     2
100
AcDbMText
 10
-1.219922
 20
193.826232
 30
0.0
 40
28.0
 41
0.0
 71
     5
 72
     1
  1
\A1;183
  7
LCTX15-400-0-0pDIN-Schrift
 11
6.123031769111886E-17
 21
1.0
 31
0.0
 73
     1
 44
1.0
  0
POINT
  5
430
330
429
100
AcDbEntity
  8
Defpoints
 62
     0
100
AcDbPoint
 10
83.132214
 20
286.058938
 30
0.0
  0
POINT
  5
431
330
429
100
AcDbEntity
  8
Defpoints
 62
     0
100
AcDbPoint
 10
178.132214
 20
94.721014
 30
0.0
  0
POINT
  5
432
330
429
100
AcDbEntity
  8
Defpoints
 62
     0
100
AcDbPoint
 10
29.580078
 20
94.721014
 30
0.0
  0
ENDBLK
  5
434
330
429
100
AcDbEntity
  8
0
100
AcDbBlockEnd
  0
BLOCK
  5
440
330
436
100
AcDbEntity
  8
0
100
AcDbBlockBegin
  2
*D37
 70
     1
 71
     0
 10
0.0
 20
0.0
 30
0.0
  3
*D37
  1

  0
LINE
  5
437
330
436
100
AcDbEntity
  8
LC-001-100-D00-0
 62
     2
370
    -2
100
AcDbLine
 10
153.132214
 20
188.221014
 30
0.0
 11
153.132214
 21
-59.253768
 31
0.0
  0
LINE
  5
438
330
436
100
AcDbEntity
  8
LC-001-100-D00-0
 62
     2
370
    -2
100
AcDbLine
 10
313.132214
 20
188.221014
 30
0.0
 11
313.132214
 21
-59.253768
 31
0.0
  0
LINE
  5
439
330
436
100
AcDbEntity
  8
LC-001-100-D00-0
 62
     2
370
    -2
100
AcDbLine
 10
181.132214
 20
-55.653768
 30
0.0
 11
285.132214
 21
-55.653768
 31
0.0
  0
SOLID
  5
43A
330
436
100
AcDbEntity
  8
LC-001-100-D00-0
 62
     2
100
AcDbTrace
 10
181.132214
 20
-50.987101
 30
0.0
 11
181.132214
 21
-60.320434
 31
0.0
 12
153.132214
 22
-55.653768
 32
0.0
 13
153.132214
 23
-55.653768
 33
0.0
  0
SOLID
  5
43B
330
436
100
AcDbEntity
  8
LC-001-100-D00-0
 62
     2
100
AcDbTrace
 10
285.132214
 20
-60.320434
 30
0.0
 11
285.132214
 21
-50.987101
 31
0.0
 12
313.132214
 22
-55.653768
 32
0.0
 13
313.132214
 23
-55.653768
 33
0.0
  0
MTEXT
  5
43C
330
436
100
AcDbEntity
  8
LC-001-100-D00-0
 62
     2
100
AcDbMText
 10
225.490901
 20
-24.853768
 30
0.0
 40
28.0
 41
0.0
 71
     5
 72
     1
  1
\A1;%%c160
  7
LCTX15-400-0-0pDIN-Schrift
 73
     1
 44
1.0
  0
POINT
  5
43D
330
436
100
AcDbEntity
  8
Defpoints
 62
     0
100
AcDbPoint
 10
153.132214
 20
188.221014
 30
0.0
  0
POINT
  5
43E
330
436
100
AcDbEntity
  8
Defpoints
 62
     0
100
AcDbPoint
 10
313.132214
 20
188.221014
 30
0.0
  0
POINT
  5
43F
330
436
100
AcDbEntity
  8
Defpoints
 62
     0
100
AcDbPoint
 10
313.132214
 20
-55.653768
 30
0.0
  0
ENDBLK
  5
441
330
436
100
AcDbEntity
  8
0
100
AcDbBlockEnd
  0
ENDSEC
  0
SECTION
  2
ENTITIES
  0
LINE
  5
31
330
1F
100
AcDbEntity
  8
LC-001-100-D00-0
 62
     7
370
    50
100
AcDbLine
 10
273.706226
 20
165.120315
 30
0.0
 11
270.632214
 21
165.120315
 31
0.0
  0
LINE
  5
32
330
1F
100
AcDbEntity
  8
LC-001-100-D00-0
 62
     7
370
    50
100
AcDbLine
 10
195.632214
 20
165.120315
 30
0.0
 11
192.558202
 21
165.120315
 31
0.0
  0
LINE
  5
33
330
1F
100
AcDbEntity
  8
LC-001-100-D00-0
 62
     7
370
    50
100
AcDbLine
 10
217.606421
 20
269.821014
 30
0.0
 11
217.606421
 21
269.721014
 31
0.0
  0
LINE
  5
34
330
1F
100
AcDbEntity
  8
LC-001-100-D00-0
 62
     7
370
    50
100
AcDbLine
 10
381.132214
 20
288.921527
 30
0.0
 11
85.132214
 21
288.921527
 31
0.0
  0
ARC
  5
35
330
1F
100
AcDbEntity
  8
LC-001-100-D00-0
 62
     7
370
    50
100
AcDbCircle
 10
275.878517
 20
161.720268
 30
0.0
 40
0.1000000000000796
100
AcDbArc
 50
299.998769
 51
59.998769
  0
ARC
  5
36
330
1F
100
AcDbEntity
  8
LC-001-100-D00-0
 62
     7
370
    50
100
AcDbCircle
 10
190.38591
 20
161.720268
 30
0.0
 40
0.1000000000000008
100
AcDbArc
 50
120.001231
 51
240.001231
  0
ARC
  5
37
330
1F
100
AcDbEntity
  8
LC-001-100-D00-0
 62
     7
370
    50
100
AcDbCircle
 10
275.878494
 20
160.620268
 30
0.0
 40
0.1000000000000796
100
AcDbArc
 50
299.998769
 51
59.998769
  0
ARC
  5
38
330
1F
100
AcDbEntity
  8
LC-001-100-D00-0
 62
     7
370
    50
100
AcDbCircle
 10
190.385934
 20
160.620268
 30
0.0
 40
0.1000000000000784
100
AcDbArc
 50
120.001231
 51
240.001231
  0
ARC
  5
39
330
1F
100
AcDbEntity
  8
LC-001-100-D00-0
 62
     7
370
    50
100
AcDbCircle
 10
275.87847
 20
159.520268
 30
0.0
 40
0.100000000000002
100
AcDbArc
 50
299.998769
 51
59.998769
  0
ARC
  5
3A
330
1F
100
AcDbEntity
  8
LC-001-100-D00-0
 62
     7
370
    50
100
AcDbCircle
 10
190.385958
 20
159.520268
 30
0.0
 40
0.0999999999999515
100
AcDbArc
 50
120.001231
 51
240.001231
  0
LINE
  5
3B
330
1F
100
AcDbEntity
  8
LC-001-100-D00-0
 62
     7
370
    50
100
AcDbLine
 10
275.928519
 20
161.80687
 30
0.0
 11
275.378526
 21
162.124424
 31
0.0
  0
LINE
  5
3C
330
1F
100
AcDbEntity
  8
LC-001-100-D00-0
 62
     7
370
    50
100
AcDbLine
 10
190.885902
 20
162.124424
 30
0.0
 11
190.335909
 21
161.80687
 31
0.0
  0
LINE
  5
3D
330
1F
100
AcDbEntity
  8
LC-001-100-D00-0
 62
     7
370
    50
100
AcDbLine
 10
190.335912
 20
161.633665
 30
0.0
 11
190.885919
 21
161.316134
 31
0.0
  0
LINE
  5
3E
330
1F
100
AcDbEntity
  8
LC-001-100-D00-0
 62
     7
370
    50
100
AcDbLine
 10
275.378509
 20
161.316134
 30
0.0
 11
275.928515
 21
161.633665
 31
0.0
  0
LINE
  5
3F
330
1F
100
AcDbEntity
  8
LC-001-100-D00-0
 62
     7
370
    50
100
AcDbLine
 10
275.928496
 20
160.70687
 30
0.0
 11
275.378502
 21
161.024424
 31
0.0
  0
LINE
  5
40
330
1F
100
AcDbEntity
  8
LC-001-100-D00-0
 62
     7
370
    50
100
AcDbLine
 10
190.885925
 20
161.024424
 30
0.0
 11
190.335932
 21
160.70687
 31
0.0
  0
LINE
  5
41
330
1F
100
AcDbEntity
  8
LC-001-100-D00-0
 62
     7
370
    50
100
AcDbLine
 10
190.335936
 20
160.533665
 30
0.0
 11
190.885943
 21
160.216134
 31
0.0
  0
LINE
  5
42
330
1F
100
AcDbEntity
  8
LC-001-100-D00-0
 62
     7
370
    50
100
AcDbLine
 10
275.378485
 20
160.216134
 30
0.0
 11
275.928492
 21
160.533665
 31
0.0
  0
LINE
  5
43
330
1F
100
AcDbEntity
  8
LC-001-100-D00-0
 62
     7
370
    50
100
AcDbLine
 10
275.928472
 20
159.60687
 30
0.0
 11
275.378479
 21
159.924424
 31
0.0
  0
LINE
  5
44
330
1F
100
AcDbEntity
  8
LC-001-100-D00-0
 62
     7
370
    50
100
AcDbLine
 10
190.885949
 20
159.924424
 30
0.0
 11
190.335956
 21
159.60687
 31
0.0
  0
LINE
  5
45
330
1F
100
AcDbEntity
  8
LC-001-100-D00-0
 62
     7
370
    50
100
AcDbLine
 10
190.33596
 20
159.433665
 30
0.0
 11
190.885966
 21
159.116134
 31
0.0
  0
LINE
  5
46
330
1F
100
AcDbEntity
  8
LC-001-100-D00-0
 62
     7
370
    50
100
AcDbLine
 10
275.378461
 20
159.116134
 30
0.0
 11
275.928468
 21
159.433665
 31
0.0
  0
ARC
  5
47
330
1F
100
AcDbEntity
  8
LC-001-100-D00-0
 62
     7
370
    50
100
AcDbCircle
 10
275.778541
 20
162.820271
 30
0.0
 40
0.100000000000002
100
AcDbArc
 50
299.998769
 51
59.998769
  0
ARC
  5
48
330
1F
100
AcDbEntity
  8
LC-001-100-D00-0
 62
     7
370
    50
100
AcDbCircle
 10
190.485887
 20
162.820271
 30
0.0
 40
0.1000000000000008
100
AcDbArc
 50
120.001231
 51
240.001231
  0
LINE
  5
49
330
1F
100
AcDbEntity
  8
LC-001-100-D00-0
 62
     7
370
    50
100
AcDbLine
 10
275.828543
 20
162.906872
 30
0.0
 11
275.378548
 21
163.166689
 31
0.0
  0
LINE
  5
4A
330
1F
100
AcDbEntity
  8
LC-001-100-D00-0
 62
     7
370
    50
100
AcDbLine
 10
190.885879
 20
163.166689
 30
0.0
 11
190.435885
 21
162.906872
 31
0.0
  0
LINE
  5
4B
330
1F
100
AcDbEntity
  8
LC-001-100-D00-0
 62
     7
370
    50
100
AcDbLine
 10
190.435889
 20
162.733667
 30
0.0
 11
190.885894
 21
162.473869
 31
0.0
  0
LINE
  5
4C
330
1F
100
AcDbEntity
  8
LC-001-100-D00-0
 62
     7
370
    50
100
AcDbLine
 10
275.378534
 20
162.473869
 30
0.0
 11
275.828539
 21
162.733667
 31
0.0
  0
ARC
  5
4D
330
1F
100
AcDbEntity
  8
LC-001-100-D00-0
 62
     7
370
    50
100
AcDbCircle
 10
274.378556
 20
163.538475
 30
0.0
 40
0.9999999999999745
100
AcDbArc
 50
359.99875
 51
69.998777
  0
ARC
  5
4E
330
1F
100
AcDbEntity
  8
LC-001-100-D00-0
 62
     7
370
    50
100
AcDbCircle
 10
191.885871
 20
163.538475
 30
0.0
 40
0.9999999999999881
100
AcDbArc
 50
110.001223
 51
180.00125
  0
LINE
  5
4F
330
1F
100
AcDbEntity
  8
LC-001-100-D00-0
 62
     7
370
    50
100
AcDbLine
 10
275.378548
 20
163.166689
 30
0.0
 11
275.378556
 21
163.538453
 31
0.0
  0
LINE
  5
50
330
1F
100
AcDbEntity
  8
LC-001-100-D00-0
 62
     7
370
    50
100
AcDbLine
 10
190.885871
 20
163.538453
 30
0.0
 11
190.885879
 21
163.166689
 31
0.0
  0
LINE
  5
51
330
1F
100
AcDbEntity
  8
LC-001-100-D00-0
 62
     7
370
    50
100
AcDbLine
 10
275.378526
 20
162.124424
 30
0.0
 11
275.378534
 21
162.473869
 31
0.0
  0
LINE
  5
52
330
1F
100
AcDbEntity
  8
LC-001-100-D00-0
 62
     7
370
    50
100
AcDbLine
 10
190.885894
 20
162.473869
 30
0.0
 11
190.885902
 21
162.124424
 31
0.0
  0
LINE
  5
53
330
1F
100
AcDbEntity
  8
LC-001-100-D00-0
 62
     7
370
    50
100
AcDbLine
 10
275.378502
 20
161.024424
 30
0.0
 11
275.378509
 21
161.316134
 31
0.0
  0
LINE
  5
54
330
1F
100
AcDbEntity
  8
LC-001-100-D00-0
 62
     7
370
    50
100
AcDbLine
 10
190.885919
 20
161.316134
 30
0.0
 11
190.885925
 21
161.024424
 31
0.0
  0
LINE
  5
55
330
1F
100
AcDbEntity
  8
LC-001-100-D00-0
 62
     7
370
    50
100
AcDbLine
 10
275.378479
 20
159.924424
 30
0.0
 11
275.378485
 21
160.216134
 31
0.0
  0
LINE
  5
56
330
1F
100
AcDbEntity
  8
LC-001-100-D00-0
 62
     7
370
    50
100
AcDbLine
 10
190.885943
 20
160.216134
 30
0.0
 11
190.885949
 21
159.924424
 31
0.0
  0
LINE
  5
57
330
1F
100
AcDbEntity
  8
LC-001-100-D00-0
 62
     7
370
    50
100
AcDbLine
 10
275.378457
 20
158.912032
 30
0.0
 11
275.378461
 21
159.116134
 31
0.0
  0
LINE
  5
58
330
1F
100
AcDbEntity
  8
LC-001-100-D00-0
 62
     7
370
    50
100
AcDbLine
 10
190.885966
 20
159.116134
 30
0.0
 11
190.885971
 21
158.912032
 31
0.0
  0
ARC
  5
59
330
1F
100
AcDbEntity
  8
LC-001-100-D00-0
 62
     7
370
    50
100
AcDbCircle
 10
274.378457
 20
158.912054
 30
0.0
 40
1.00000000000003
100
AcDbArc
 50
279.998758
 51
359.998724
  0
ARC
  5
5A
330
1F
100
AcDbEntity
  8
LC-001-100-D00-0
 62
     7
370
    50
100
AcDbCircle
 10
191.885971
 20
158.912054
 30
0.0
 40
1.000000000000051
100
AcDbArc
 50
180.001276
 51
260.001242
  0
LINE
  5
5B
330
1F
100
AcDbEntity
  8
LC-001-100-D00-0
 62
     7
370
    50
100
AcDbLine
 10
274.720597
 20
164.47816
 30
0.0
 11
274.288366
 21
165.017662
 31
0.0
  0
LINE
  5
5C
330
1F
100
AcDbEntity
  8
LC-001-100-D00-0
 62
     7
370
    50
100
AcDbLine
 10
191.976062
 20
165.017662
 30
0.0
 11
191.543831
 21
164.47816
 31
0.0
  0
LINE
  5
5D
330
1F
100
AcDbEntity
  8
LC-001-100-D00-0
 62
     7
370
    50
100
AcDbLine
 10
191.712344
 20
157.927243
 30
0.0
 11
191.835997
 21
157.7203
 31
0.0
  0
LINE
  5
5E
330
1F
100
AcDbEntity
  8
LC-001-100-D00-0
 62
     7
370
    50
100
AcDbLine
 10
274.42843
 20
157.7203
 30
0.0
 11
274.552084
 21
157.927243
 31
0.0
  0
LINE
  5
5F
330
1F
100
AcDbEntity
  8
LC-001-100-D00-0
 62
     7
370
    50
100
AcDbLine
 10
272.574308
 20
157.720339
 30
0.0
 11
274.42843
 21
157.7203
 31
0.0
  0
LINE
  5
60
330
1F
100
AcDbEntity
  8
LC-001-100-D00-0
 62
     7
370
    50
100
AcDbLine
 10
191.835997
 20
157.7203
 30
0.0
 11
193.690119
 21
157.720339
 31
0.0
  0
ARC
  5
61
330
1F
100
AcDbEntity
  8
LC-001-100-D00-0
 62
     7
370
    50
100
AcDbCircle
 10
273.706226
 20
163.418349
 30
0.0
 40
1.701966081581922
100
AcDbArc
 50
69.998786
 51
149.998765
  0
LINE
  5
62
330
1F
100
AcDbEntity
  8
LC-001-100-D00-0
 62
     7
370
    50
100
AcDbLine
 10
194.03213
 20
164.269364
 30
0.0
 11
195.632214
 21
164.269364
 31
0.0
  0
LINE
  5
63
330
1F
100
AcDbEntity
  8
LC-001-100-D00-0
 62
     7
370
    50
100
AcDbLine
 10
270.632214
 20
164.269364
 30
0.0
 11
272.232298
 21
164.269364
 31
0.0
  0
ARC
  5
64
330
1F
100
AcDbEntity
  8
LC-001-100-D00-0
 62
     7
370
    50
100
AcDbCircle
 10
192.558202
 20
163.418349
 30
0.0
 40
1.701966081581868
100
AcDbArc
 50
30.001235
 51
110.001214
  0
LINE
  5
65
330
1F
100
AcDbEntity
  8
LC-001-100-D00-0
 62
     7
370
    50
100
AcDbLine
 10
194.182511
 20
158.307174
 30
0.0
 11
195.632214
 21
158.307174
 31
0.0
  0
LINE
  5
66
330
1F
100
AcDbEntity
  8
LC-001-100-D00-0
 62
     7
370
    50
100
AcDbLine
 10
270.632214
 20
158.307174
 30
0.0
 11
272.081917
 21
158.307174
 31
0.0
  0
ARC
  5
67
330
1F
100
AcDbEntity
  8
LC-001-100-D00-0
 62
     7
370
    50
100
AcDbCircle
 10
272.574319
 20
158.220339
 30
0.0
 40
0.5000000000000466
100
AcDbArc
 50
169.998769
 51
269.998769
  0
ARC
  5
68
330
1F
100
AcDbEntity
  8
LC-001-100-D00-0
 62
     7
370
    50
100
AcDbCircle
 10
193.690109
 20
158.220339
 30
0.0
 40
0.5000000000000736
100
AcDbArc
 50
270.001231
 51
10.001231
  0
ARC
  5
69
330
1F
100
AcDbEntity
  8
LC-001-100-D00-0
 62
     7
370
    50
100
AcDbCircle
 10
272.175544
 20
160.065571
 30
0.0
 40
0.2999999999999477
100
AcDbArc
 50
349.998769
 51
59.998769
  0
LINE
  5
6A
330
1F
100
AcDbEntity
  8
LC-001-100-D00-0
 62
     7
370
    50
100
AcDbLine
 10
193.793443
 20
160.01347
 30
0.0
 11
195.632214
 21
160.01347
 31
0.0
  0
LINE
  5
6B
330
1F
100
AcDbEntity
  8
LC-001-100-D00-0
 62
     7
370
    50
100
AcDbLine
 10
270.632214
 20
160.01347
 30
0.0
 11
272.470985
 21
160.01347
 31
0.0
  0
ARC
  5
6C
330
1F
100
AcDbEntity
  8
LC-001-100-D00-0
 62
     7
370
    50
100
AcDbCircle
 10
194.088884
 20
160.065571
 30
0.0
 40
0.3000000000000307
100
AcDbArc
 50
120.001231
 51
190.001231
  0
LINE
  5
6D
330
1F
100
AcDbEntity
  8
LC-001-100-D00-0
 62
     7
370
    50
100
AcDbLine
 10
194.182511
 20
158.307174
 30
0.0
 11
193.793443
 21
160.01347
 31
0.0
  0
LINE
  5
6E
330
1F
100
AcDbEntity
  8
LC-001-100-D00-0
 62
     7
370
    50
100
AcDbLine
 10
272.470985
 20
160.01347
 30
0.0
 11
272.081917
 21
158.307174
 31
0.0
  0
LINE
  5
6F
330
1F
100
AcDbEntity
  8
LC-001-100-D00-0
 62
     7
370
    50
100
AcDbLine
 10
271.770968
 20
160.645579
 30
0.0
 11
272.325549
 21
160.325375
 31
0.0
  0
LINE
  5
70
330
1F
100
AcDbEntity
  8
LC-001-100-D00-0
 62
     7
370
    50
100
AcDbLine
 10
193.938878
 20
160.325375
 30
0.0
 11
194.49346
 21
160.645579
 31
0.0
  0
LINE
  5
71
330
1F
100
AcDbEntity
  8
LC-001-100-D00-0
 62
     7
370
    50
100
AcDbLine
 10
196.673511
 20
160.694548
 30
0.0
 11
194.03213
 21
164.269364
 31
0.0
  0
LINE
  5
72
330
1F
100
AcDbEntity
  8
LC-001-100-D00-0
 62
     7
370
    50
100
AcDbLine
 10
272.232298
 20
164.269364
 30
0.0
 11
269.590917
 21
160.694548
 31
0.0
  0
ARC
  5
73
330
1F
100
AcDbEntity
  8
LC-001-100-D00-0
 62
     7
370
    50
100
AcDbCircle
 10
271.620963
 20
160.385775
 30
0.0
 40
0.3000000000000307
100
AcDbArc
 50
59.998769
 51
104.998769
  0
ARC
  5
74
330
1F
100
AcDbEntity
  8
LC-001-100-D00-0
 62
     7
370
    50
100
AcDbCircle
 10
194.643465
 20
160.385775
 30
0.0
 40
0.2999999999999847
100
AcDbArc
 50
75.001231
 51
120.001231
  0
LINE
  5
75
330
1F
100
AcDbEntity
  8
LC-001-100-D00-0
 62
     7
370
    50
100
AcDbLine
 10
194.721105
 20
160.675554
 30
0.0
 11
196.149431
 21
160.011523
 31
0.0
  0
LINE
  5
76
330
1F
100
AcDbEntity
  8
LC-001-100-D00-0
 62
     7
370
    50
100
AcDbLine
 10
270.114997
 20
160.011523
 30
0.0
 11
271.543323
 21
160.675554
 31
0.0
  0
ARC
  5
77
330
1F
100
AcDbEntity
  8
LC-001-100-D00-0
 62
     7
370
    50
100
AcDbCircle
 10
269.994416
 20
160.461576
 30
0.0
 40
0.4659258262890944
100
AcDbArc
 50
149.998722
 51
284.998783
  0
ARC
  5
78
330
1F
100
AcDbEntity
  8
LC-001-100-D00-0
 62
     7
370
    50
100
AcDbCircle
 10
196.270012
 20
160.461576
 30
0.0
 40
0.4659258262890353
100
AcDbArc
 50
255.001217
 51
30.001278
  0
LINE
  5
79
330
1F
100
AcDbEntity
  8
LC-001-100-D00-0
 62
     7
370
    50
100
AcDbLine
 10
288.132214
 20
94.721014
 30
0.0
 11
284.632214
 21
94.721014
 31
0.0
  0
LINE
  5
7A
330
1F
100
AcDbEntity
  8
LC-001-100-D00-0
 62
     7
370
    50
100
AcDbLine
 10
284.632214
 20
94.721014
 30
0.0
 11
284.632214
 21
153.221014
 31
0.0
  0
ARC
  5
7B
330
1F
100
AcDbEntity
  8
LC-001-100-D00-0
 62
     7
370
    50
100
AcDbCircle
 10
283.632214
 20
153.221014
 30
0.0
 40
1.0
100
AcDbArc
 50
0.0
 51
90.0
  0
LINE
  5
7C
330
1F
100
AcDbEntity
  8
LC-001-100-D00-0
 62
     7
370
    50
100
AcDbLine
 10
283.632214
 20
154.221014
 30
0.0
 11
275.632214
 21
154.221014
 31
0.0
  0
ARC
  5
7D
330
1F
100
AcDbEntity
  8
LC-001-100-D00-0
 62
     7
370
    50
100
AcDbCircle
 10
275.632214
 20
153.221014
 30
0.0
 40
1.0
100
AcDbArc
 50
90.0
 51
180.0
  0
LINE
  5
7E
330
1F
100
AcDbEntity
  8
LC-001-100-D00-0
 62
     7
370
    50
100
AcDbLine
 10
274.632214
 20
153.221014
 30
0.0
 11
274.632214
 21
113.721014
 31
0.0
  0
LINE
  5
7F
330
1F
100
AcDbEntity
  8
LC-001-100-D00-0
 62
     7
370
    50
100
AcDbLine
 10
274.632214
 20
113.721014
 30
0.0
 11
268.132214
 21
113.721014
 31
0.0
  0
LINE
  5
80
330
1F
100
AcDbEntity
  8
LC-001-100-D00-0
 62
     7
370
    50
100
AcDbLine
 10
268.132214
 20
113.721014
 30
0.0
 11
268.132214
 21
117.221014
 31
0.0
  0
LINE
  5
81
330
1F
100
AcDbEntity
  8
LC-001-100-D00-0
 62
     7
370
    50
100
AcDbLine
 10
268.132214
 20
117.221014
 30
0.0
 11
270.060417
 21
117.221014
 31
0.0
  0
LINE
  5
82
330
1F
100
AcDbEntity
  8
LC-001-100-D00-0
 62
     7
370
    50
100
AcDbLine
 10
270.060417
 20
117.221014
 30
0.0
 11
271.132214
 21
121.221014
 31
0.0
  0
LINE
  5
83
330
1F
100
AcDbEntity
  8
LC-001-100-D00-0
 62
     7
370
    50
100
AcDbLine
 10
271.132214
 20
121.221014
 30
0.0
 11
271.132214
 21
157.721014
 31
0.0
  0
LINE
  5
84
330
1F
100
AcDbEntity
  8
LC-001-100-D00-0
 62
     7
370
    50
100
AcDbLine
 10
271.132214
 20
157.721014
 30
0.0
 11
274.382214
 21
157.721014
 31
0.0
  0
ARC
  5
85
330
1F
100
AcDbEntity
  8
LC-001-100-D00-0
 62
     7
370
    50
100
AcDbCircle
 10
274.382214
 20
158.721014
 30
0.0
 40
1.0
100
AcDbArc
 50
270.0
 51
0.0
  0
LINE
  5
86
330
1F
100
AcDbEntity
  8
LC-001-100-D00-0
 62
     7
370
    50
100
AcDbLine
 10
275.382214
 20
158.721014
 30
0.0
 11
275.382214
 21
167.621014
 31
0.0
  0
ARC
  5
87
330
1F
100
AcDbEntity
  8
LC-001-100-D00-0
 62
     7
370
    50
100
AcDbCircle
 10
273.882214
 20
167.621014
 30
0.0
 40
1.5
100
AcDbArc
 50
0.0
 51
60.0
  0
ARC
  5
88
330
1F
100
AcDbEntity
  8
LC-001-100-D00-0
 62
     7
370
    50
100
AcDbCircle
 10
277.132214
 20
173.250179
 30
0.0
 40
5.000000000000398
100
AcDbArc
 50
180.0
 51
240.0
  0
LINE
  5
89
330
1F
100
AcDbEntity
  8
LC-001-100-D00-0
 62
     7
370
    50
100
AcDbLine
 10
272.132214
 20
173.250179
 30
0.0
 11
272.132214
 21
175.721014
 31
0.0
  0
LINE
  5
8A
330
1F
100
AcDbEntity
  8
LC-001-100-D00-0
 62
     7
370
    50
100
AcDbLine
 10
272.132214
 20
175.721014
 30
0.0
 11
275.632214
 21
175.721014
 31
0.0
  0
LINE
  5
8B
330
1F
100
AcDbEntity
  8
LC-001-100-D00-0
 62
     7
370
    50
100
AcDbLine
 10
275.632214
 20
175.721014
 30
0.0
 11
275.632214
 21
174.402647
 31
0.0
  0
ARC
  5
8C
330
1F
100
AcDbEntity
  8
LC-001-100-D00-0
 62
     7
370
    50
100
AcDbCircle
 10
277.132214
 20
174.402647
 30
0.0
 40
1.500000000000057
100
AcDbArc
 50
180.0
 51
240.0
  0
ARC
  5
8D
330
1F
100
AcDbEntity
  8
LC-001-100-D00-0
 62
     7
370
    50
100
AcDbCircle
 10
273.882214
 20
168.773482
 30
0.0
 40
5.000000000000341
100
AcDbArc
 50
0.0
 51
60.0
  0
LINE
  5
8E
330
1F
100
AcDbEntity
  8
LC-001-100-D00-0
 62
     7
370
    50
100
AcDbLine
 10
278.882214
 20
168.773482
 30
0.0
 11
278.882214
 21
157.721014
 31
0.0
  0
LINE
  5
8F
330
1F
100
AcDbEntity
  8
LC-001-100-D00-0
 62
     7
370
    50
100
AcDbLine
 10
278.882214
 20
157.721014
 30
0.0
 11
288.132214
 21
157.721014
 31
0.0
  0
LINE
  5
90
330
1F
100
AcDbEntity
  8
LC-001-100-D00-0
 62
     7
370
    50
100
AcDbLine
 10
288.132214
 20
157.721014
 30
0.0
 11
288.132214
 21
94.721014
 31
0.0
  0
LINE
  5
91
330
1F
100
AcDbEntity
  8
LC-001-100-D00-0
 62
     7
370
    50
100
AcDbLine
 10
178.132214
 20
157.721014
 30
0.0
 11
187.382214
 21
157.721014
 31
0.0
  0
LINE
  5
92
330
1F
100
AcDbEntity
  8
LC-001-100-D00-0
 62
     7
370
    50
100
AcDbLine
 10
187.382214
 20
157.721014
 30
0.0
 11
187.382214
 21
168.773482
 31
0.0
  0
ARC
  5
93
330
1F
100
AcDbEntity
  8
LC-001-100-D00-0
 62
     7
370
    50
100
AcDbCircle
 10
192.382214
 20
168.773482
 30
0.0
 40
5.000000000000348
100
AcDbArc
 50
120.0
 51
180.0
  0
ARC
  5
94
330
1F
100
AcDbEntity
  8
LC-001-100-D00-0
 62
     7
370
    50
100
AcDbCircle
 10
189.132214
 20
174.402647
 30
0.0
 40
1.500000000000025
100
AcDbArc
 50
300.0
 51
0.0
  0
LINE
  5
95
330
1F
100
AcDbEntity
  8
LC-001-100-D00-0
 62
     7
370
    50
100
AcDbLine
 10
190.632214
 20
174.402647
 30
0.0
 11
190.632214
 21
175.721014
 31
0.0
  0
LINE
  5
96
330
1F
100
AcDbEntity
  8
LC-001-100-D00-0
 62
     7
370
    50
100
AcDbLine
 10
190.632214
 20
175.721014
 30
0.0
 11
194.132214
 21
175.721014
 31
0.0
  0
LINE
  5
97
330
1F
100
AcDbEntity
  8
LC-001-100-D00-0
 62
     7
370
    50
100
AcDbLine
 10
194.132214
 20
175.721014
 30
0.0
 11
194.132214
 21
173.250179
 31
0.0
  0
ARC
  5
98
330
1F
100
AcDbEntity
  8
LC-001-100-D00-0
 62
     7
370
    50
100
AcDbCircle
 10
189.132214
 20
173.250179
 30
0.0
 40
5.000000000000348
100
AcDbArc
 50
300.0
 51
0.0
  0
ARC
  5
99
330
1F
100
AcDbEntity
  8
LC-001-100-D00-0
 62
     7
370
    50
100
AcDbCircle
 10
192.382214
 20
167.621014
 30
0.0
 40
1.499999999999975
100
AcDbArc
 50
120.0
 51
180.0
  0
LINE
  5
9A
330
1F
100
AcDbEntity
  8
LC-001-100-D00-0
 62
     7
370
    50
100
AcDbLine
 10
190.882214
 20
167.621014
 30
0.0
 11
190.882214
 21
158.721014
 31
0.0
  0
ARC
  5
9B
330
1F
100
AcDbEntity
  8
LC-001-100-D00-0
 62
     7
370
    50
100
AcDbCircle
 10
191.882214
 20
158.721014
 30
0.0
 40
1.0
100
AcDbArc
 50
180.0
 51
270.0
  0
LINE
  5
9C
330
1F
100
AcDbEntity
  8
LC-001-100-D00-0
 62
     7
370
    50
100
AcDbLine
 10
191.882214
 20
157.721014
 30
0.0
 11
195.132214
 21
157.721014
 31
0.0
  0
LINE
  5
9D
330
1F
100
AcDbEntity
  8
LC-001-100-D00-0
 62
     7
370
    50
100
AcDbLine
 10
195.132214
 20
157.721014
 30
0.0
 11
195.132214
 21
121.221014
 31
0.0
  0
LINE
  5
9E
330
1F
100
AcDbEntity
  8
LC-001-100-D00-0
 62
     7
370
    50
100
AcDbLine
 10
195.132214
 20
121.221014
 30
0.0
 11
196.204011
 21
117.221014
 31
0.0
  0
LINE
  5
9F
330
1F
100
AcDbEntity
  8
LC-001-100-D00-0
 62
     7
370
    50
100
AcDbLine
 10
196.204011
 20
117.221014
 30
0.0
 11
198.132214
 21
117.221014
 31
0.0
  0
LINE
  5
A0
330
1F
100
AcDbEntity
  8
LC-001-100-D00-0
 62
     7
370
    50
100
AcDbLine
 10
198.132214
 20
117.221014
 30
0.0
 11
198.132214
 21
113.721014
 31
0.0
  0
LINE
  5
A1
330
1F
100
AcDbEntity
  8
LC-001-100-D00-0
 62
     7
370
    50
100
AcDbLine
 10
198.132214
 20
113.721014
 30
0.0
 11
191.632214
 21
113.721014
 31
0.0
  0
LINE
  5
A2
330
1F
100
AcDbEntity
  8
LC-001-100-D00-0
 62
     7
370
    50
100
AcDbLine
 10
191.632214
 20
113.721014
 30
0.0
 11
191.632214
 21
153.221014
 31
0.0
  0
ARC
  5
A3
330
1F
100
AcDbEntity
  8
LC-001-100-D00-0
 62
     7
370
    50
100
AcDbCircle
 10
190.632214
 20
153.221014
 30
0.0
 40
1.0
100
AcDbArc
 50
0.0
 51
90.0
  0
LINE
  5
A4
330
1F
100
AcDbEntity
  8
LC-001-100-D00-0
 62
     7
370
    50
100
AcDbLine
 10
190.632214
 20
154.221014
 30
0.0
 11
182.632214
 21
154.221014
 31
0.0
  0
ARC
  5
A5
330
1F
100
AcDbEntity
  8
LC-001-100-D00-0
 62
     7
370
    50
100
AcDbCircle
 10
182.632214
 20
153.221014
 30
0.0
 40
1.0
100
AcDbArc
 50
90.0
 51
180.0
  0
LINE
  5
A6
330
1F
100
AcDbEntity
  8
LC-001-100-D00-0
 62
     7
370
    50
100
AcDbLine
 10
181.632214
 20
153.221014
 30
0.0
 11
181.632214
 21
94.721014
 31
0.0
  0
LINE
  5
A7
330
1F
100
AcDbEntity
  8
LC-001-100-D00-0
 62
     7
370
    50
100
AcDbLine
 10
181.632214
 20
94.721014
 30
0.0
 11
178.132214
 21
94.721014
 31
0.0
  0
LINE
  5
A8
330
1F
100
AcDbEntity
  8
LC-001-100-D00-0
 62
     7
370
    50
100
AcDbLine
 10
178.132214
 20
94.721014
 30
0.0
 11
178.132214
 21
157.721014
 31
0.0
  0
LINE
  5
A9
330
1F
100
AcDbEntity
  8
LC-001-100-D00-0
 62
     7
370
    50
100
AcDbLine
 10
181.632214
 20
94.721014
 30
0.0
 11
284.632214
 21
94.721014
 31
0.0
  0
LINE
  5
AA
330
1F
100
AcDbEntity
  8
LC-001-100-D00-0
 62
     7
370
    50
100
AcDbLine
 10
194.132214
 20
175.721014
 30
0.0
 11
195.632214
 21
175.721014
 31
0.0
  0
LINE
  5
AB
330
1F
100
AcDbEntity
  8
LC-001-100-D00-0
 62
     7
370
    50
100
AcDbLine
 10
270.632214
 20
175.721014
 30
0.0
 11
272.132214
 21
175.721014
 31
0.0
  0
LINE
  5
AC
330
1F
100
AcDbEntity
  8
LC-001-100-D00-0
 62
     7
370
    50
100
AcDbLine
 10
195.132214
 20
121.221014
 30
0.0
 11
195.632214
 21
121.221014
 31
0.0
  0
LINE
  5
AD
330
1F
100
AcDbEntity
  8
LC-001-100-D00-0
 62
     7
370
    50
100
AcDbLine
 10
270.632214
 20
121.221014
 30
0.0
 11
271.132214
 21
121.221014
 31
0.0
  0
LINE
  5
AE
330
1F
100
AcDbEntity
  8
LC-001-100-D00-0
 62
     7
370
    50
100
AcDbLine
 10
195.132214
 20
157.721014
 30
0.0
 11
195.632214
 21
157.721014
 31
0.0
  0
LINE
  5
AF
330
1F
100
AcDbEntity
  8
LC-001-100-D00-0
 62
     7
370
    50
100
AcDbLine
 10
270.632214
 20
157.721014
 30
0.0
 11
271.132214
 21
157.721014
 31
0.0
  0
LINE
  5
B0
330
1F
100
AcDbEntity
  8
LC-001-100-D00-0
 62
     7
370
    50
100
AcDbLine
 10
198.132214
 20
113.721014
 30
0.0
 11
268.132214
 21
113.721014
 31
0.0
  0
LINE
  5
B1
330
1F
100
AcDbEntity
  8
LC-001-100-D00-0
 62
     7
370
    50
100
AcDbLine
 10
216.399682
 20
247.221014
 30
0.0
 11
216.399682
 21
267.686929
 31
0.0
  0
LINE
  5
B2
330
1F
100
AcDbEntity
  8
LC-001-100-D00-0
 62
     7
370
    50
100
AcDbLine
 10
231.688838
 20
239.221014
 30
0.0
 11
231.688838
 21
267.721014
 31
0.0
  0
LINE
  5
B3
330
1F
100
AcDbEntity
  8
LC-001-100-D00-0
 62
     7
370
    50
100
AcDbLine
 10
231.688838
 20
239.221014
 30
0.0
 11
218.618593
 21
239.221014
 31
0.0
  0
LINE
  5
B4
330
1F
100
AcDbEntity
  8
LC-001-100-D00-0
 62
     7
370
    50
100
AcDbLine
 10
218.171202
 20
242.560389
 30
0.0
 11
218.618593
 21
239.221014
 31
0.0
  0
INSERT
  5
BE
330
1F
100
AcDbEntity
  8
LC-001-100-D00-0
 62
     7
370
    50
100
AcDbBlockReference
  2
KLON1
 10
0.0
 20
0.0
 30
0.0
  0
LINE
  5
BF
330
1F
100
AcDbEntity
  8
LC-001-100-D00-0
 62
     7
370
    50
100
AcDbLine
 10
218.149682
 20
247.221014
 30
0.0
 11
218.149051
 21
247.221014
 31
0.0
  0
LINE
  5
C0
330
1F
100
AcDbEntity
  8
LC-001-100-D00-0
 62
     7
370
    50
100
AcDbLine
 10
219.382214
 20
269.721014
 30
0.0
 11
219.382214
 21
270.721014
 31
0.0
  0
LINE
  5
C1
330
1F
100
AcDbEntity
  8
LC-001-100-D00-0
 62
     7
370
    50
100
AcDbLine
 10
223.382214
 20
270.721014
 30
0.0
 11
223.382214
 21
269.721014
 31
0.0
  0
ARC
  5
C2
330
1F
100
AcDbEntity
  8
LC-001-100-D00-0
 62
     7
370
    50
100
AcDbCircle
 10
228.382214
 20
270.721014
 30
0.0
 40
9.0
100
AcDbArc
 50
90.0
 51
180.0
  0
ARC
  5
C3
330
1F
100
AcDbEntity
  8
LC-001-100-D00-0
 62
     7
370
    50
100
AcDbCircle
 10
228.382214
 20
270.721014
 30
0.0
 40
5.0
100
AcDbArc
 50
90.0
 51
180.0
  0
LINE
  5
C4
330
1F
100
AcDbEntity
  8
LC-001-100-D00-0
 62
     7
370
    50
100
AcDbLine
 10
237.882214
 20
275.721014
 30
0.0
 11
228.382214
 21
275.721014
 31
0.0
  0
LINE
  5
C5
330
1F
100
AcDbEntity
  8
LC-001-100-D00-0
 62
     7
370
    50
100
AcDbLine
 10
228.382214
 20
279.721014
 30
0.0
 11
237.882214
 21
279.721014
 31
0.0
  0
ARC
  5
C6
330
1F
100
AcDbEntity
  8
LC-001-100-D00-0
 62
     7
370
    50
100
AcDbCircle
 10
263.632214
 20
257.721014
 30
0.0
 40
10.0
100
AcDbArc
 50
0.0
 51
85.411434
  0
ARC
  5
C7
330
1F
100
AcDbEntity
  8
LC-001-100-D00-0
 62
     7
370
    50
100
AcDbCircle
 10
202.632214
 20
257.721014
 30
0.0
 40
10.00000000000006
100
AcDbArc
 50
90.0
 51
180.0
  0
LINE
  5
C8
330
1F
100
AcDbEntity
  8
LC-001-100-D00-0
 62
     7
370
    50
100
AcDbLine
 10
273.632214
 20
197.721014
 30
0.0
 11
273.632214
 21
257.721014
 31
0.0
  0
LINE
  5
C9
330
1F
100
AcDbEntity
  8
LC-001-100-D00-0
 62
     7
370
    50
100
AcDbLine
 10
192.632214
 20
197.721014
 30
0.0
 11
202.932214
 21
197.721014
 31
0.0
  0
LINE
  5
CA
330
1F
100
AcDbEntity
  8
LC-001-100-D00-0
 62
     7
370
    50
100
AcDbLine
 10
263.332214
 20
197.721014
 30
0.0
 11
273.632214
 21
197.721014
 31
0.0
  0
LINE
  5
CB
330
1F
100
AcDbEntity
  8
LC-001-100-D00-0
 62
     7
370
    50
100
AcDbLine
 10
192.632214
 20
257.721014
 30
0.0
 11
192.632214
 21
197.721014
 31
0.0
  0
ARC
  5
CC
330
1F
100
AcDbEntity
  8
LC-001-100-D00-0
 62
     7
370
    50
100
AcDbCircle
 10
262.632214
 20
257.721014
 30
0.0
 40
12.0
100
AcDbArc
 50
0.0
 51
90.0
  0
ARC
  5
CD
330
1F
100
AcDbEntity
  8
LC-001-100-D00-0
 62
     7
370
    50
100
AcDbCircle
 10
203.632214
 20
257.721014
 30
0.0
 40
12.00000000000006
100
AcDbArc
 50
90.0
 51
180.0
  0
LINE
  5
CE
330
1F
100
AcDbEntity
  8
LC-001-100-D00-0
 62
     7
370
    50
100
AcDbLine
 10
274.632214
 20
257.721014
 30
0.0
 11
274.632214
 21
197.721014
 31
0.0
  0
LINE
  5
CF
330
1F
100
AcDbEntity
  8
LC-001-100-D00-0
 62
     7
370
    50
100
AcDbLine
 10
191.632214
 20
197.721014
 30
0.0
 11
191.632214
 21
257.721014
 31
0.0
  0
LINE
  5
D0
330
1F
100
AcDbEntity
  8
LC-001-100-D00-0
 62
     7
370
    50
100
AcDbLine
 10
242.882214
 20
269.721014
 30
0.0
 11
242.882214
 21
270.721014
 31
0.0
  0
ARC
  5
D1
330
1F
100
AcDbEntity
  8
LC-001-100-D00-0
 62
     7
370
    50
100
AcDbCircle
 10
237.882214
 20
270.721014
 30
0.0
 40
5.0
100
AcDbArc
 50
0.0
 51
90.0
  0
ARC
  5
D2
330
1F
100
AcDbEntity
  8
LC-001-100-D00-0
 62
     7
370
    50
100
AcDbCircle
 10
237.882214
 20
270.721014
 30
0.0
 40
9.000000000000057
100
AcDbArc
 50
0.0
 51
90.0
  0
LINE
  5
D3
330
1F
100
AcDbEntity
  8
LC-001-100-D00-0
 62
     7
370
    50
100
AcDbLine
 10
246.882214
 20
270.721014
 30
0.0
 11
246.882214
 21
269.721014
 31
0.0
  0
LINE
  5
D4
330
1F
100
AcDbEntity
  8
LC-001-100-D00-0
 62
     7
370
    50
100
AcDbLine
 10
260.932214
 20
242.721014
 30
0.0
 11
260.932214
 21
245.731853
 31
0.0
  0
LINE
  5
D5
330
1F
100
AcDbEntity
  8
LC-001-100-D00-0
 62
     7
370
    50
100
AcDbLine
 10
260.932214
 20
242.721014
 30
0.0
 11
259.994392
 21
239.221014
 31
0.0
  0
LINE
  5
D6
330
1F
100
AcDbEntity
  8
LC-001-100-D00-0
 62
     7
370
    50
100
AcDbLine
 10
192.632214
 20
197.721014
 30
0.0
 11
191.632214
 21
197.721014
 31
0.0
  0
LINE
  5
D7
330
1F
100
AcDbEntity
  8
LC-001-100-D00-0
 62
     7
370
    50
100
AcDbLine
 10
274.632214
 20
197.721014
 30
0.0
 11
273.632214
 21
197.721014
 31
0.0
  0
LINE
  5
D8
330
1F
100
AcDbEntity
  8
LC-001-100-D00-0
 62
     7
370
    50
100
AcDbLine
 10
264.432214
 20
247.221014
 30
0.0
 11
264.432214
 21
267.688963
 31
0.0
  0
LINE
  5
D9
330
1F
100
AcDbEntity
  8
LC-001-100-D00-0
 62
     7
370
    50
100
AcDbLine
 10
246.882214
 20
269.721014
 30
0.0
 11
262.632214
 21
269.721014
 31
0.0
  0
LINE
  5
DA
330
1F
100
AcDbEntity
  8
LC-001-100-D00-0
 62
     7
370
    50
100
AcDbLine
 10
223.382214
 20
269.721014
 30
0.0
 11
242.882214
 21
269.721014
 31
0.0
  0
LINE
  5
DB
330
1F
100
AcDbEntity
  8
LC-001-100-D00-0
 62
     7
370
    50
100
AcDbLine
 10
203.632214
 20
269.721014
 30
0.0
 11
219.382214
 21
269.721014
 31
0.0
  0
LINE
  5
DC
330
1F
100
AcDbEntity
  8
LC-001-100-D00-0
 62
     7
370
    50
100
AcDbLine
 10
231.688838
 20
239.221014
 30
0.0
 11
259.994392
 21
239.221014
 31
0.0
  0
LINE
  5
DD
330
1F
100
AcDbEntity
  8
LC-001-100-D00-0
 62
     7
370
    50
100
AcDbLine
 10
231.688838
 20
267.721014
 30
0.0
 11
202.632214
 21
267.721014
 31
0.0
  0
LINE
  5
DE
330
1F
100
AcDbEntity
  8
LC-001-100-D00-0
 62
     7
370
    50
100
AcDbLine
 10
260.932214
 20
247.221014
 30
0.0
 11
264.432214
 21
247.221014
 31
0.0
  0
ARC
  5
DF
330
1F
100
AcDbEntity
  8
LC-001-100-D00-0
 62
     7
370
    50
100
AcDbCircle
 10
261.022214
 20
246.476433
 30
0.0
 40
0.7500000000000168
100
AcDbArc
 50
96.892103
 51
263.107897
  0
INSERT
  5
EB
330
1F
100
AcDbEntity
  8
LC-001-100-D00-0
 62
     7
370
    50
100
AcDbBlockReference
  2
POLY1
 10
0.0
 20
0.0
 30
0.0
  0
LINE
  5
EC
330
1F
100
AcDbEntity
  8
LC-001-100-D00-0
 62
     7
370
    50
100
AcDbLine
 10
246.986146
 20
269.821014
 30
0.0
 11
246.986146
 21
269.721014
 31
0.0
  0
LINE
  5
ED
330
1F
100
AcDbEntity
  8
LC-001-100-D00-0
 62
     7
370
    50
100
AcDbLine
 10
247.160248
 20
269.821014
 30
0.0
 11
247.160248
 21
269.721014
 31
0.0
  0
INSERT
  5
F9
330
1F
100
AcDbEntity
  8
LC-001-100-D00-0
 62
     7
370
    50
100
AcDbBlockReference
  2
POLY2
 10
0.0
 20
0.0
 30
0.0
  0
LINE
  5
FA
330
1F
100
AcDbEntity
  8
LC-001-100-D00-0
 62
     7
370
    50
100
AcDbLine
 10
247.833609
 20
269.821014
 30
0.0
 11
247.833609
 21
269.721014
 31
0.0
  0
LINE
  5
FB
330
1F
100
AcDbEntity
  8
LC-001-100-D00-0
 62
     7
370
    50
100
AcDbLine
 10
247.833609
 20
269.821014
 30
0.0
 11
247.160248
 21
269.821014
 31
0.0
  0
LINE
  5
FC
330
1F
100
AcDbEntity
  8
LC-001-100-D00-0
 62
     7
370
    50
100
AcDbLine
 10
225.899591
 20
269.821014
 30
0.0
 11
225.899591
 21
269.721014
 31
0.0
  0
INSERT
  5
10C
330
1F
100
AcDbEntity
  8
LC-001-100-D00-0
 62
     7
370
    50
100
AcDbBlockReference
  2
POLY3
 10
0.0
 20
0.0
 30
0.0
  0
LINE
  5
10D
330
1F
100
AcDbEntity
  8
LC-001-100-D00-0
 62
     7
370
    50
100
AcDbLine
 10
226.826079
 20
269.821014
 30
0.0
 11
226.826079
 21
269.721014
 31
0.0
  0
INSERT
  5
11B
330
1F
100
AcDbEntity
  8
LC-001-100-D00-0
 62
     7
370
    50
100
AcDbBlockReference
  2
POLY4
 10
0.0
 20
0.0
 30
0.0
  0
LINE
  5
11C
330
1F
100
AcDbEntity
  8
LC-001-100-D00-0
 62
     7
370
    50
100
AcDbLine
 10
227.68095
 20
269.821014
 30
0.0
 11
227.68095
 21
269.721014
 31
0.0
  0
LINE
  5
11D
330
1F
100
AcDbEntity
  8
LC-001-100-D00-0
 62
     7
370
    50
100
AcDbLine
 10
236.677886
 20
269.821014
 30
0.0
 11
236.677886
 21
269.721014
 31
0.0
  0
INSERT
  5
12B
330
1F
100
AcDbEntity
  8
LC-001-100-D00-0
 62
     7
370
    50
100
AcDbBlockReference
  2
POLY5
 10
0.0
 20
0.0
 30
0.0
  0
LINE
  5
12C
330
1F
100
AcDbEntity
  8
LC-001-100-D00-0
 62
     7
370
    50
100
AcDbLine
 10
237.532757
 20
269.821014
 30
0.0
 11
237.532757
 21
269.721014
 31
0.0
  0
LINE
  5
12D
330
1F
100
AcDbEntity
  8
LC-001-100-D00-0
 62
     7
370
    50
100
AcDbLine
 10
242.783817
 20
269.821014
 30
0.0
 11
242.783817
 21
269.721014
 31
0.0
  0
LINE
  5
12E
330
1F
100
AcDbEntity
  8
LC-001-100-D00-0
 62
     7
370
    50
100
AcDbLine
 10
242.91923
 20
269.821014
 30
0.0
 11
242.783817
 21
269.821014
 31
0.0
  0
LINE
  5
12F
330
1F
100
AcDbEntity
  8
LC-001-100-D00-0
 62
     7
370
    50
100
AcDbLine
 10
235.751398
 20
269.821014
 30
0.0
 11
235.751398
 21
269.721014
 31
0.0
  0
INSERT
  5
13F
330
1F
100
AcDbEntity
  8
LC-001-100-D00-0
 62
     7
370
    50
100
AcDbBlockReference
  2
POLY6
 10
0.0
 20
0.0
 30
0.0
  0
LINE
  5
140
330
1F
100
AcDbEntity
  8
LC-001-100-D00-0
 62
     7
370
    50
100
AcDbLine
 10
232.906491
 20
269.821014
 30
0.0
 11
232.906491
 21
269.721014
 31
0.0
  0
LINE
  5
141
330
1F
100
AcDbEntity
  8
LC-001-100-D00-0
 62
     7
370
    50
100
AcDbLine
 10
234.274203
 20
269.821014
 30
0.0
 11
234.274203
 21
269.721014
 31
0.0
  0
INSERT
  5
151
330
1F
100
AcDbEntity
  8
LC-001-100-D00-0
 62
     7
370
    50
100
AcDbBlockReference
  2
POLY7
 10
0.0
 20
0.0
 30
0.0
  0
LINE
  5
152
330
1F
100
AcDbEntity
  8
LC-001-100-D00-0
 62
     7
370
    50
100
AcDbLine
 10
223.844936
 20
269.821014
 30
0.0
 11
223.844936
 21
269.721014
 31
0.0
  0
LINE
  5
153
330
1F
100
AcDbEntity
  8
LC-001-100-D00-0
 62
     7
370
    50
100
AcDbLine
 10
224.65906
 20
269.821014
 30
0.0
 11
224.65906
 21
269.721014
 31
0.0
  0
INSERT
  5
163
330
1F
100
AcDbEntity
  8
LC-001-100-D00-0
 62
     7
370
    50
100
AcDbBlockReference
  2
POLY8
 10
0.0
 20
0.0
 30
0.0
  0
LINE
  5
164
330
1F
100
AcDbEntity
  8
LC-001-100-D00-0
 62
     7
370
    50
100
AcDbLine
 10
242.152438
 20
269.821014
 30
0.0
 11
242.152438
 21
269.721014
 31
0.0
  0
INSERT
  5
174
330
1F
100
AcDbEntity
  8
LC-001-100-D00-0
 62
     7
370
    50
100
AcDbBlockReference
  2
POLY9
 10
0.0
 20
0.0
 30
0.0
  0
LINE
  5
175
330
1F
100
AcDbEntity
  8
LC-001-100-D00-0
 62
     7
370
    50
100
AcDbLine
 10
235.382614
 20
269.821014
 30
0.0
 11
235.382614
 21
269.721014
 31
0.0
  0
INSERT
  5
181
330
1F
100
AcDbEntity
  8
LC-001-100-D00-0
 62
     7
370
    50
100
AcDbBlockReference
  2
POLY10
 10
0.0
 20
0.0
 30
0.0
  0
INSERT
  5
18F
330
1F
100
AcDbEntity
  8
LC-001-100-D00-0
 62
     7
370
    50
100
AcDbBlockReference
  2
POLY11
 10
0.0
 20
0.0
 30
0.0
  0
LINE
  5
190
330
1F
100
AcDbEntity
  8
LC-001-100-D00-0
 62
     7
370
    50
100
AcDbLine
 10
231.141595
 20
269.821014
 30
0.0
 11
231.141595
 21
269.721014
 31
0.0
  0
LINE
  5
191
330
1F
100
AcDbEntity
  8
LC-001-100-D00-0
 62
     7
370
    50
100
AcDbLine
 10
231.457696
 20
269.821014
 30
0.0
 11
231.141595
 21
269.821014
 31
0.0
  0
LINE
  5
192
330
1F
100
AcDbEntity
  8
LC-001-100-D00-0
 62
     7
370
    50
100
AcDbLine
 10
231.457696
 20
269.821014
 30
0.0
 11
231.457696
 21
269.721014
 31
0.0
  0
LINE
  5
193
330
1F
100
AcDbEntity
  8
LC-001-100-D00-0
 62
     7
370
    50
100
AcDbLine
 10
225.188364
 20
269.821014
 30
0.0
 11
225.188364
 21
269.721014
 31
0.0
  0
LINE
  5
194
330
1F
100
AcDbEntity
  8
LC-001-100-D00-0
 62
     7
370
    50
100
AcDbLine
 10
225.504465
 20
269.821014
 30
0.0
 11
225.504465
 21
269.721014
 31
0.0
  0
LINE
  5
195
330
1F
100
AcDbEntity
  8
LC-001-100-D00-0
 62
     7
370
    50
100
AcDbLine
 10
225.504465
 20
269.821014
 30
0.0
 11
225.188364
 21
269.821014
 31
0.0
  0
LINE
  5
196
330
1F
100
AcDbEntity
  8
LC-001-100-D00-0
 62
     7
370
    50
100
AcDbLine
 10
230.245976
 20
269.821014
 30
0.0
 11
229.929875
 21
269.821014
 31
0.0
  0
LINE
  5
197
330
1F
100
AcDbEntity
  8
LC-001-100-D00-0
 62
     7
370
    50
100
AcDbLine
 10
230.245976
 20
269.821014
 30
0.0
 11
230.245976
 21
269.721014
 31
0.0
  0
LINE
  5
198
330
1F
100
AcDbEntity
  8
LC-001-100-D00-0
 62
     7
370
    50
100
AcDbLine
 10
229.929875
 20
269.821014
 30
0.0
 11
229.929875
 21
269.721014
 31
0.0
  0
LINE
  5
199
330
1F
100
AcDbEntity
  8
LC-001-100-D00-0
 62
     7
370
    50
100
AcDbLine
 10
239.155655
 20
269.821014
 30
0.0
 11
239.155655
 21
269.721014
 31
0.0
  0
LINE
  5
19A
330
1F
100
AcDbEntity
  8
LC-001-100-D00-0
 62
     7
370
    50
100
AcDbLine
 10
239.471756
 20
269.821014
 30
0.0
 11
239.155655
 21
269.821014
 31
0.0
  0
LINE
  5
19B
330
1F
100
AcDbEntity
  8
LC-001-100-D00-0
 62
     7
370
    50
100
AcDbLine
 10
239.471756
 20
269.821014
 30
0.0
 11
239.471756
 21
269.721014
 31
0.0
  0
LINE
  5
19C
330
1F
100
AcDbEntity
  8
LC-001-100-D00-0
 62
     7
370
    50
100
AcDbLine
 10
218.840007
 20
269.821014
 30
0.0
 11
218.840007
 21
269.721014
 31
0.0
  0
LINE
  5
19D
330
1F
100
AcDbEntity
  8
LC-001-100-D00-0
 62
     7
370
    50
100
AcDbLine
 10
219.18245
 20
269.821014
 30
0.0
 11
218.840007
 21
269.821014
 31
0.0
  0
LINE
  5
19E
330
1F
100
AcDbEntity
  8
LC-001-100-D00-0
 62
     7
370
    50
100
AcDbLine
 10
219.18245
 20
269.821014
 30
0.0
 11
219.18245
 21
269.721014
 31
0.0
  0
LINE
  5
19F
330
1F
100
AcDbEntity
  8
LC-001-100-D00-0
 62
     7
370
    50
100
AcDbLine
 10
237.937761
 20
269.821014
 30
0.0
 11
237.937761
 21
269.721014
 31
0.0
  0
LINE
  5
1A0
330
1F
100
AcDbEntity
  8
LC-001-100-D00-0
 62
     7
370
    50
100
AcDbLine
 10
238.253862
 20
269.821014
 30
0.0
 11
237.937761
 21
269.821014
 31
0.0
  0
LINE
  5
1A1
330
1F
100
AcDbEntity
  8
LC-001-100-D00-0
 62
     7
370
    50
100
AcDbLine
 10
238.253862
 20
269.821014
 30
0.0
 11
238.253862
 21
269.721014
 31
0.0
  0
LINE
  5
1A2
330
1F
100
AcDbEntity
  8
LC-001-100-D00-0
 62
     7
370
    50
100
AcDbLine
 10
229.113282
 20
269.821014
 30
0.0
 11
229.113282
 21
269.721014
 31
0.0
  0
LINE
  5
1A3
330
1F
100
AcDbEntity
  8
LC-001-100-D00-0
 62
     7
370
    50
100
AcDbLine
 10
229.429383
 20
269.821014
 30
0.0
 11
229.429383
 21
269.721014
 31
0.0
  0
LINE
  5
1A4
330
1F
100
AcDbEntity
  8
LC-001-100-D00-0
 62
     7
370
    50
100
AcDbLine
 10
229.429383
 20
269.821014
 30
0.0
 11
229.113282
 21
269.821014
 31
0.0
  0
LINE
  5
1A5
330
1F
100
AcDbEntity
  8
LC-001-100-D00-0
 62
     7
370
    50
100
AcDbLine
 10
219.382214
 20
269.821014
 30
0.0
 11
219.18245
 21
269.821014
 31
0.0
  0
LINE
  5
1A6
330
1F
100
AcDbEntity
  8
LC-001-100-D00-0
 62
     7
370
    50
100
AcDbLine
 10
241.737144
 20
269.821014
 30
0.0
 11
241.421044
 21
269.821014
 31
0.0
  0
LINE
  5
1A7
330
1F
100
AcDbEntity
  8
LC-001-100-D00-0
 62
     7
370
    50
100
AcDbLine
 10
241.737144
 20
269.821014
 30
0.0
 11
241.737144
 21
269.721014
 31
0.0
  0
LINE
  5
1A8
330
1F
100
AcDbEntity
  8
LC-001-100-D00-0
 62
     7
370
    50
100
AcDbLine
 10
241.421044
 20
269.821014
 30
0.0
 11
241.421044
 21
269.721014
 31
0.0
  0
LINE
  5
1A9
330
1F
100
AcDbEntity
  8
LC-001-100-D00-0
 62
     7
370
    50
100
AcDbLine
 10
240.60445
 20
269.821014
 30
0.0
 11
240.288349
 21
269.821014
 31
0.0
  0
LINE
  5
1AA
330
1F
100
AcDbEntity
  8
LC-001-100-D00-0
 62
     7
370
    50
100
AcDbLine
 10
240.60445
 20
269.821014
 30
0.0
 11
240.60445
 21
269.721014
 31
0.0
  0
LINE
  5
1AB
330
1F
100
AcDbEntity
  8
LC-001-100-D00-0
 62
     7
370
    50
100
AcDbLine
 10
240.288349
 20
269.821014
 30
0.0
 11
240.288349
 21
269.721014
 31
0.0
  0
LINE
  5
1AC
330
1F
100
AcDbEntity
  8
LC-001-100-D00-0
 62
     7
370
    50
100
AcDbLine
 10
223.555177
 20
269.821014
 30
0.0
 11
223.555177
 21
269.721014
 31
0.0
  0
LINE
  5
1AD
330
1F
100
AcDbEntity
  8
LC-001-100-D00-0
 62
     7
370
    50
100
AcDbLine
 10
223.555177
 20
269.821014
 30
0.0
 11
223.382214
 21
269.821014
 31
0.0
  0
LINE
  5
1AE
330
1F
100
AcDbEntity
  8
LC-001-100-D00-0
 62
     7
370
    50
100
AcDbLine
 10
227.689182
 20
269.821014
 30
0.0
 11
227.689182
 21
269.721014
 31
0.0
  0
LINE
  5
1AF
330
1F
100
AcDbEntity
  8
LC-001-100-D00-0
 62
     7
370
    50
100
AcDbLine
 10
237.540989
 20
269.821014
 30
0.0
 11
237.540989
 21
269.721014
 31
0.0
  0
LINE
  5
1B0
330
1F
100
AcDbEntity
  8
LC-001-100-D00-0
 62
     7
370
    50
100
AcDbLine
 10
237.542635
 20
269.821014
 30
0.0
 11
237.542635
 21
269.721014
 31
0.0
  0
LINE
  5
1B1
330
1F
100
AcDbEntity
  8
LC-001-100-D00-0
 62
     7
370
    50
100
AcDbLine
 10
227.690828
 20
269.821014
 30
0.0
 11
227.690828
 21
269.721014
 31
0.0
  0
LINE
  5
1B2
330
1F
100
AcDbEntity
  8
LC-001-100-D00-0
 62
     7
370
    50
100
AcDbLine
 10
239.947965
 20
269.821014
 30
0.0
 11
239.947965
 21
269.721014
 31
0.0
  0
INSERT
  5
1C2
330
1F
100
AcDbEntity
  8
LC-001-100-D00-0
 62
     7
370
    50
100
AcDbBlockReference
  2
POLY12
 10
0.0
 20
0.0
 30
0.0
  0
LINE
  5
1C3
330
1F
100
AcDbEntity
  8
LC-001-100-D00-0
 62
     7
370
    50
100
AcDbLine
 10
238.307369
 20
269.821014
 30
0.0
 11
238.307369
 21
269.721014
 31
0.0
  0
INSERT
  5
1CF
330
1F
100
AcDbEntity
  8
LC-001-100-D00-0
 62
     7
370
    50
100
AcDbBlockReference
  2
POLY13
 10
0.0
 20
0.0
 30
0.0
  0
LINE
  5
1D0
330
1F
100
AcDbEntity
  8
LC-001-100-D00-0
 62
     7
370
    50
100
AcDbLine
 10
230.748115
 20
269.821014
 30
0.0
 11
230.748115
 21
269.721014
 31
0.0
  0
INSERT
  5
1E0
330
1F
100
AcDbEntity
  8
LC-001-100-D00-0
 62
     7
370
    50
100
AcDbBlockReference
  2
POLY14
 10
0.0
 20
0.0
 30
0.0
  0
LINE
  5
1E1
330
1F
100
AcDbEntity
  8
LC-001-100-D00-0
 62
     7
370
    50
100
AcDbLine
 10
241.077366
 20
269.821014
 30
0.0
 11
241.077366
 21
269.721014
 31
0.0
  0
INSERT
  5
1F1
330
1F
100
AcDbEntity
  8
LC-001-100-D00-0
 62
     7
370
    50
100
AcDbBlockReference
  2
POLY15
 10
0.0
 20
0.0
 30
0.0
  0
INSERT
  5
201
330
1F
100
AcDbEntity
  8
LC-001-100-D00-0
 62
     7
370
    50
100
AcDbBlockReference
  2
POLY16
 10
0.0
 20
0.0
 30
0.0
  0
INSERT
  5
211
330
1F
100
AcDbEntity
  8
LC-001-100-D00-0
 62
     7
370
    50
100
AcDbBlockReference
  2
POLY17
 10
0.0
 20
0.0
 30
0.0
  0
INSERT
  5
221
330
1F
100
AcDbEntity
  8
LC-001-100-D00-0
 62
     7
370
    50
100
AcDbBlockReference
  2
POLY18
 10
0.0
 20
0.0
 30
0.0
  0
LINE
  5
222
330
1F
100
AcDbEntity
  8
LC-001-100-D00-0
 62
     7
370
    50
100
AcDbLine
 10
238.616473
 20
269.821014
 30
0.0
 11
238.616473
 21
269.721014
 31
0.0
  0
INSERT
  5
232
330
1F
100
AcDbEntity
  8
LC-001-100-D00-0
 62
     7
370
    50
100
AcDbBlockReference
  2
POLY19
 10
0.0
 20
0.0
 30
0.0
  0
LINE
  5
233
330
1F
100
AcDbEntity
  8
LC-001-100-D00-0
 62
     7
370
    50
100
AcDbLine
 10
238.851902
 20
269.821014
 30
0.0
 11
238.851902
 21
269.721014
 31
0.0
  0
LINE
  5
234
330
1F
100
AcDbEntity
  8
LC-001-100-D00-0
 62
     7
370
    50
100
AcDbLine
 10
238.965089
 20
269.821014
 30
0.0
 11
238.965089
 21
269.721014
 31
0.0
  0
LINE
  5
235
330
1F
100
AcDbEntity
  8
LC-001-100-D00-0
 62
     7
370
    50
100
AcDbLine
 10
238.965089
 20
269.821014
 30
0.0
 11
238.851902
 21
269.821014
 31
0.0
  0
INSERT
  5
241
330
1F
100
AcDbEntity
  8
LC-001-100-D00-0
 62
     7
370
    50
100
AcDbBlockReference
  2
POLY20
 10
0.0
 20
0.0
 30
0.0
  0
LINE
  5
242
330
1F
100
AcDbEntity
  8
LC-001-100-D00-0
 62
     7
370
    50
100
AcDbLine
 10
218.840007
 20
269.821014
 30
0.0
 11
217.617581
 21
269.821014
 31
0.0
  0
LINE
  5
243
330
1F
100
AcDbEntity
  8
LC-001-100-D00-0
 62
     7
370
    50
100
AcDbLine
 10
223.663486
 20
269.821014
 30
0.0
 11
223.663486
 21
269.721014
 31
0.0
  0
LINE
  5
244
330
1F
100
AcDbEntity
  8
LC-001-100-D00-0
 62
     7
370
    50
100
AcDbLine
 10
223.663486
 20
269.821014
 30
0.0
 11
223.699109
 21
269.821014
 31
0.0
  0
LINE
  5
245
330
1F
100
AcDbEntity
  8
LC-001-100-D00-0
 62
     7
370
    50
100
AcDbLine
 10
225.504465
 20
269.821014
 30
0.0
 11
225.720575
 21
269.821014
 31
0.0
  0
LINE
  5
246
330
1F
100
AcDbEntity
  8
LC-001-100-D00-0
 62
     7
370
    50
100
AcDbLine
 10
225.720575
 20
269.821014
 30
0.0
 11
226.215692
 21
269.821014
 31
0.0
  0
LINE
  5
247
330
1F
100
AcDbEntity
  8
LC-001-100-D00-0
 62
     7
370
    50
100
AcDbLine
 10
228.069159
 20
269.821014
 30
0.0
 11
228.069159
 21
269.721014
 31
0.0
  0
LINE
  5
248
330
1F
100
AcDbEntity
  8
LC-001-100-D00-0
 62
     7
370
    50
100
AcDbLine
 10
227.826777
 20
269.821014
 30
0.0
 11
228.069159
 21
269.821014
 31
0.0
  0
LINE
  5
249
330
1F
100
AcDbEntity
  8
LC-001-100-D00-0
 62
     7
370
    50
100
AcDbLine
 10
229.112608
 20
269.821014
 30
0.0
 11
229.112608
 21
269.721014
 31
0.0
  0
LINE
  5
24A
330
1F
100
AcDbEntity
  8
LC-001-100-D00-0
 62
     7
370
    50
100
AcDbLine
 10
229.112608
 20
269.821014
 30
0.0
 11
229.113282
 21
269.821014
 31
0.0
  0
LINE
  5
24B
330
1F
100
AcDbEntity
  8
LC-001-100-D00-0
 62
     7
370
    50
100
AcDbLine
 10
229.429383
 20
269.821014
 30
0.0
 11
229.929875
 21
269.821014
 31
0.0
  0
LINE
  5
24C
330
1F
100
AcDbEntity
  8
LC-001-100-D00-0
 62
     7
370
    50
100
AcDbLine
 10
231.457696
 20
269.821014
 30
0.0
 11
233.054526
 21
269.821014
 31
0.0
  0
LINE
  5
24D
330
1F
100
AcDbEntity
  8
LC-001-100-D00-0
 62
     7
370
    50
100
AcDbLine
 10
235.54721
 20
269.821014
 30
0.0
 11
235.54721
 21
269.721014
 31
0.0
  0
LINE
  5
24E
330
1F
100
AcDbEntity
  8
LC-001-100-D00-0
 62
     7
370
    50
100
AcDbLine
 10
235.528441
 20
269.821014
 30
0.0
 11
235.54721
 21
269.821014
 31
0.0
  0
LINE
  5
24F
330
1F
100
AcDbEntity
  8
LC-001-100-D00-0
 62
     7
370
    50
100
AcDbLine
 10
237.547595
 20
269.821014
 30
0.0
 11
237.937761
 21
269.821014
 31
0.0
  0
LINE
  5
250
330
1F
100
AcDbEntity
  8
LC-001-100-D00-0
 62
     7
370
    50
100
AcDbLine
 10
235.721118
 20
269.821014
 30
0.0
 11
235.721118
 21
269.721014
 31
0.0
  0
LINE
  5
251
330
1F
100
AcDbEntity
  8
LC-001-100-D00-0
 62
     7
370
    50
100
AcDbLine
 10
240.880393
 20
269.821014
 30
0.0
 11
241.035853
 21
269.821014
 31
0.0
  0
LINE
  5
252
330
1F
100
AcDbEntity
  8
LC-001-100-D00-0
 62
     7
370
    50
100
AcDbLine
 10
241.737144
 20
269.821014
 30
0.0
 11
242.097053
 21
269.821014
 31
0.0
  0
LINE
  5
253
330
1F
100
AcDbEntity
  8
LC-001-100-D00-0
 62
     7
370
    50
100
AcDbLine
 10
228.069159
 20
269.821014
 30
0.0
 11
229.112608
 21
269.821014
 31
0.0
  0
LINE
  5
254
330
1F
100
AcDbEntity
  8
LC-001-100-D00-0
 62
     7
370
    50
100
AcDbLine
 10
217.606421
 20
269.821014
 30
0.0
 11
217.617581
 21
269.821014
 31
0.0
  0
LINE
  5
255
330
1F
100
AcDbEntity
  8
LC-001-100-D00-0
 62
     7
370
    50
100
AcDbLine
 10
238.965089
 20
269.821014
 30
0.0
 11
239.155655
 21
269.821014
 31
0.0
  0
LINE
  5
256
330
1F
100
AcDbEntity
  8
LC-001-100-D00-0
 62
     7
370
    50
100
AcDbLine
 10
235.645034
 20
269.821014
 30
0.0
 11
235.645034
 21
269.721014
 31
0.0
  0
LINE
  5
257
330
1F
100
AcDbEntity
  8
LC-001-100-D00-0
 62
     7
370
    50
100
AcDbLine
 10
141.132214
 20
280.221014
 30
0.0
 11
141.132214
 21
283.021014
 31
0.0
  0
LINE
  5
258
330
1F
100
AcDbEntity
  8
LC-001-100-D00-0
 62
     7
370
    50
100
AcDbLine
 10
325.132214
 20
283.021014
 30
0.0
 11
325.132214
 21
280.221014
 31
0.0
  0
LINE
  5
259
330
1F
100
AcDbEntity
  8
LC-001-100-D00-0
 62
     7
370
    50
100
AcDbLine
 10
146.132214
 20
262.621014
 30
0.0
 11
146.132214
 21
280.221014
 31
0.0
  0
LINE
  5
25A
330
1F
100
AcDbEntity
  8
LC-001-100-D00-0
 62
     7
370
    50
100
AcDbLine
 10
320.132214
 20
280.221014
 30
0.0
 11
320.132214
 21
262.621014
 31
0.0
  0
ARC
  5
25B
330
1F
100
AcDbEntity
  8
LC-001-100-D00-0
 62
     7
370
    50
100
AcDbCircle
 10
149.132214
 20
281.021014
 30
0.0
 40
2.0
100
AcDbArc
 50
0.0
 51
90.0
  0
ARC
  5
25C
330
1F
100
AcDbEntity
  8
LC-001-100-D00-0
 62
     7
370
    50
100
AcDbCircle
 10
317.132214
 20
281.021014
 30
0.0
 40
2.0
100
AcDbArc
 50
90.0
 51
180.0
  0
LINE
  5
25D
330
1F
100
AcDbEntity
  8
LC-001-100-D00-0
 62
     7
370
    50
100
AcDbLine
 10
317.132214
 20
283.021014
 30
0.0
 11
149.132214
 21
283.021014
 31
0.0
  0
LINE
  5
25E
330
1F
100
AcDbEntity
  8
LC-001-100-D00-0
 62
     7
370
    50
100
AcDbLine
 10
151.132214
 20
272.621014
 30
0.0
 11
151.132214
 21
262.621014
 31
0.0
  0
LINE
  5
25F
330
1F
100
AcDbEntity
  8
LC-001-100-D00-0
 62
     7
370
    50
100
AcDbLine
 10
315.132214
 20
262.621014
 30
0.0
 11
315.132214
 21
272.621014
 31
0.0
  0
LINE
  5
260
330
1F
100
AcDbEntity
  8
LC-001-100-D00-0
 62
     7
370
    50
100
AcDbLine
 10
151.132214
 20
281.021014
 30
0.0
 11
151.132214
 21
278.021014
 31
0.0
  0
LINE
  5
261
330
1F
100
AcDbEntity
  8
LC-001-100-D00-0
 62
     7
370
    50
100
AcDbLine
 10
315.132214
 20
278.021014
 30
0.0
 11
315.132214
 21
281.021014
 31
0.0
  0
LINE
  5
262
330
1F
100
AcDbEntity
  8
LC-001-100-D00-0
 62
     7
370
    50
100
AcDbLine
 10
315.132214
 20
278.021014
 30
0.0
 11
243.146243
 21
278.021014
 31
0.0
  0
LINE
  5
263
330
1F
100
AcDbEntity
  8
LC-001-100-D00-0
 62
     7
370
    50
100
AcDbLine
 10
223.118185
 20
278.021014
 30
0.0
 11
151.132214
 21
278.021014
 31
0.0
  0
LINE
  5
264
330
1F
100
AcDbEntity
  8
LC-001-100-D00-0
 62
     7
370
    50
100
AcDbLine
 10
151.132214
 20
278.021014
 30
0.0
 11
161.474234
 21
274.256826
 31
0.0
  0
LINE
  5
265
330
1F
100
AcDbEntity
  8
LC-001-100-D00-0
 62
     7
370
    50
100
AcDbLine
 10
304.790194
 20
274.256826
 30
0.0
 11
315.132214
 21
278.021014
 31
0.0
  0
ARC
  5
266
330
1F
100
AcDbEntity
  8
LC-001-100-D00-0
 62
     7
370
    50
100
AcDbCircle
 10
161.132214
 20
273.317134
 30
0.0
 40
1.000000000000057
100
AcDbArc
 50
0.0
 51
70.0
  0
ARC
  5
267
330
1F
100
AcDbEntity
  8
LC-001-100-D00-0
 62
     7
370
    50
100
AcDbCircle
 10
305.132214
 20
273.317134
 30
0.0
 40
1.000000000000078
100
AcDbArc
 50
110.0
 51
180.0
  0
LINE
  5
268
330
1F
100
AcDbEntity
  8
LC-001-100-D00-0
 62
     7
370
    50
100
AcDbLine
 10
162.132214
 20
273.317134
 30
0.0
 11
162.132214
 21
272.621014
 31
0.0
  0
LINE
  5
269
330
1F
100
AcDbEntity
  8
LC-001-100-D00-0
 62
     7
370
    50
100
AcDbLine
 10
304.132214
 20
272.621014
 30
0.0
 11
304.132214
 21
273.317134
 31
0.0
  0
LINE
  5
26A
330
1F
100
AcDbEntity
  8
LC-001-100-D00-0
 62
     7
370
    50
100
AcDbLine
 10
304.132214
 20
272.621014
 30
0.0
 11
246.679373
 21
272.621014
 31
0.0
  0
LINE
  5
26B
330
1F
100
AcDbEntity
  8
LC-001-100-D00-0
 62
     7
370
    50
100
AcDbLine
 10
242.507146
 20
272.621014
 30
0.0
 11
223.757281
 21
272.621014
 31
0.0
  0
LINE
  5
26C
330
1F
100
AcDbEntity
  8
LC-001-100-D00-0
 62
     7
370
    50
100
AcDbLine
 10
219.585055
 20
272.621014
 30
0.0
 11
162.132214
 21
272.621014
 31
0.0
  0
LINE
  5
26D
330
1F
100
AcDbEntity
  8
LC-001-100-D00-0
 62
     7
370
    50
100
AcDbLine
 10
315.132214
 20
272.621014
 30
0.0
 11
304.132214
 21
272.621014
 31
0.0
  0
LINE
  5
26E
330
1F
100
AcDbEntity
  8
LC-001-100-D00-0
 62
     7
370
    50
100
AcDbLine
 10
320.132214
 20
262.621014
 30
0.0
 11
315.132214
 21
262.621014
 31
0.0
  0
LINE
  5
26F
330
1F
100
AcDbEntity
  8
LC-001-100-D00-0
 62
     7
370
    50
100
AcDbLine
 10
325.132214
 20
280.221014
 30
0.0
 11
320.132214
 21
280.221014
 31
0.0
  0
LINE
  5
270
330
1F
100
AcDbEntity
  8
LC-001-100-D00-0
 62
     7
370
    50
100
AcDbLine
 10
317.132214
 20
283.021014
 30
0.0
 11
325.132214
 21
283.021014
 31
0.0
  0
LINE
  5
271
330
1F
100
AcDbEntity
  8
LC-001-100-D00-0
 62
     7
370
    50
100
AcDbLine
 10
162.132214
 20
272.621014
 30
0.0
 11
151.132214
 21
272.621014
 31
0.0
  0
LINE
  5
272
330
1F
100
AcDbEntity
  8
LC-001-100-D00-0
 62
     7
370
    50
100
AcDbLine
 10
151.132214
 20
262.621014
 30
0.0
 11
146.132214
 21
262.621014
 31
0.0
  0
LINE
  5
273
330
1F
100
AcDbEntity
  8
LC-001-100-D00-0
 62
     7
370
    50
100
AcDbLine
 10
146.132214
 20
280.221014
 30
0.0
 11
141.132214
 21
280.221014
 31
0.0
  0
LINE
  5
274
330
1F
100
AcDbEntity
  8
LC-001-100-D00-0
 62
     7
370
    50
100
AcDbLine
 10
141.132214
 20
283.021014
 30
0.0
 11
149.132214
 21
283.021014
 31
0.0
  0
LINE
  5
275
330
1F
100
AcDbEntity
  8
LC-001-100-D00-0
 62
     7
370
    50
100
AcDbLine
 10
208.137904
 20
179.362825
 30
0.0
 11
213.332214
 21
177.971014
 31
0.0
  0
LINE
  5
276
330
1F
100
AcDbEntity
  8
LC-001-100-D00-0
 62
     7
370
    50
100
AcDbLine
 10
252.932214
 20
177.971014
 30
0.0
 11
258.126524
 21
179.362825
 31
0.0
  0
LINE
  5
277
330
1F
100
AcDbEntity
  8
LC-001-100-D00-0
 62
     7
370
    50
100
AcDbLine
 10
213.332214
 20
177.971014
 30
0.0
 11
252.932214
 21
177.971014
 31
0.0
  0
ARC
  5
278
330
1F
100
AcDbEntity
  8
LC-001-100-D00-0
 62
     7
370
    50
100
AcDbCircle
 10
208.914361
 20
182.260603
 30
0.0
 40
2.999999999999958
100
AcDbArc
 50
180.538839
 51
255.0
  0
LINE
  5
279
330
1F
100
AcDbEntity
  8
LC-001-100-D00-0
 62
     7
370
    50
100
AcDbLine
 10
213.332214
 20
177.971014
 30
0.0
 11
213.332214
 21
175.221014
 31
0.0
  0
LINE
  5
27A
330
1F
100
AcDbEntity
  8
LC-001-100-D00-0
 62
     7
370
    50
100
AcDbLine
 10
211.232214
 20
123.121014
 30
0.0
 11
211.232214
 21
175.221014
 31
0.0
  0
LINE
  5
27B
330
1F
100
AcDbEntity
  8
LC-001-100-D00-0
 62
     7
370
    50
100
AcDbLine
 10
209.070036
 20
123.121014
 30
0.0
 11
211.232214
 21
123.121014
 31
0.0
  0
LINE
  5
27C
330
1F
100
AcDbEntity
  8
LC-001-100-D00-0
 62
     7
370
    50
100
AcDbLine
 10
208.132214
 20
126.621014
 30
0.0
 11
209.070036
 21
123.121014
 31
0.0
  0
LINE
  5
27D
330
1F
100
AcDbEntity
  8
LC-001-100-D00-0
 62
     7
370
    50
100
AcDbLine
 10
208.132214
 20
176.621014
 30
0.0
 11
208.132214
 21
126.621014
 31
0.0
  0
LINE
  5
27E
330
1F
100
AcDbEntity
  8
LC-001-100-D00-0
 62
     7
370
    50
100
AcDbLine
 10
204.632214
 20
177.558836
 30
0.0
 11
208.132214
 21
176.621014
 31
0.0
  0
LINE
  5
27F
330
1F
100
AcDbEntity
  8
LC-001-100-D00-0
 62
     7
370
    50
100
AcDbLine
 10
204.632214
 20
177.558836
 30
0.0
 11
204.092508
 21
178.392457
 31
0.0
  0
ARC
  5
280
330
1F
100
AcDbEntity
  8
LC-001-100-D00-0
 62
     7
370
    50
100
AcDbCircle
 10
203.672792
 20
178.120724
 30
0.0
 40
0.4999999999999847
100
AcDbArc
 50
32.919972
 51
145.0
  0
LINE
  5
281
330
1F
100
AcDbEntity
  8
LC-001-100-D00-0
 62
     7
370
    50
100
AcDbLine
 10
201.732214
 20
176.221014
 30
0.0
 11
203.263216
 21
178.407512
 31
0.0
  0
LINE
  5
282
330
1F
100
AcDbEntity
  8
LC-001-100-D00-0
 62
     7
370
    50
100
AcDbLine
 10
201.732214
 20
176.221014
 30
0.0
 11
198.732214
 21
176.221014
 31
0.0
  0
LINE
  5
283
330
1F
100
AcDbEntity
  8
LC-001-100-D00-0
 62
     7
370
    50
100
AcDbLine
 10
198.732214
 20
117.221014
 30
0.0
 11
198.732214
 21
176.221014
 31
0.0
  0
LINE
  5
284
330
1F
100
AcDbEntity
  8
LC-001-100-D00-0
 62
     7
370
    50
100
AcDbLine
 10
196.570036
 20
117.221014
 30
0.0
 11
198.732214
 21
117.221014
 31
0.0
  0
LINE
  5
285
330
1F
100
AcDbEntity
  8
LC-001-100-D00-0
 62
     7
370
    50
100
AcDbLine
 10
195.632214
 20
120.721014
 30
0.0
 11
196.570036
 21
117.221014
 31
0.0
  0
LINE
  5
286
330
1F
100
AcDbEntity
  8
LC-001-100-D00-0
 62
     7
370
    50
100
AcDbLine
 10
195.632214
 20
176.221014
 30
0.0
 11
195.632214
 21
120.721014
 31
0.0
  0
LINE
  5
287
330
1F
100
AcDbEntity
  8
LC-001-100-D00-0
 62
     7
370
    50
100
AcDbLine
 10
195.632214
 20
176.221014
 30
0.0
 11
165.132214
 21
176.221014
 31
0.0
  0
ARC
  5
288
330
1F
100
AcDbEntity
  8
LC-001-100-D00-0
 62
     7
370
    50
100
AcDbCircle
 10
165.132214
 20
188.221014
 30
0.0
 40
12.0
100
AcDbArc
 50
180.0
 51
270.0
  0
LINE
  5
289
330
1F
100
AcDbEntity
  8
LC-001-100-D00-0
 62
     7
370
    50
100
AcDbLine
 10
153.132214
 20
188.221014
 30
0.0
 11
153.132214
 21
250.79643
 31
0.0
  0
LINE
  5
28A
330
1F
100
AcDbEntity
  8
LC-001-100-D00-0
 62
     7
370
    50
100
AcDbLine
 10
143.932214
 20
263.954104
 30
0.0
 11
153.132214
 21
250.79643
 31
0.0
  0
LINE
  5
28B
330
1F
100
AcDbEntity
  8
LC-001-100-D00-0
 62
     7
370
    50
100
AcDbLine
 10
143.932214
 20
263.954104
 30
0.0
 11
143.932214
 21
269.922038
 31
0.0
  0
ARC
  5
28C
330
1F
100
AcDbEntity
  8
LC-001-100-D00-0
 62
     7
370
    50
100
AcDbCircle
 10
141.932214
 20
269.922038
 30
0.0
 40
2.0
100
AcDbArc
 50
0.0
 51
90.0
  0
LINE
  5
28D
330
1F
100
AcDbEntity
  8
LC-001-100-D00-0
 62
     7
370
    50
100
AcDbLine
 10
141.884532
 20
271.922038
 30
0.0
 11
141.932214
 21
271.922038
 31
0.0
  0
ARC
  5
28E
330
1F
100
AcDbEntity
  8
LC-001-100-D00-0
 62
     7
370
    50
100
AcDbCircle
 10
141.884532
 20
274.922038
 30
0.0
 40
3.000000000000101
100
AcDbArc
 50
183.0
 51
270.0
  0
LINE
  5
28F
330
1F
100
AcDbEntity
  8
LC-001-100-D00-0
 62
     7
370
    50
100
AcDbLine
 10
138.674158
 20
278.857657
 30
0.0
 11
138.888644
 21
274.76503
 31
0.0
  0
ARC
  5
290
330
1F
100
AcDbEntity
  8
LC-001-100-D00-0
 62
     7
370
    50
100
AcDbCircle
 10
137.176214
 20
278.779153
 30
0.0
 40
1.500000000000082
100
AcDbArc
 50
3.0
 51
85.768923
  0
LINE
  5
291
330
1F
100
AcDbEntity
  8
LC-001-100-D00-0
 62
     7
370
    50
100
AcDbLine
 10
122.192025
 20
281.391794
 30
0.0
 11
137.286883
 21
280.275065
 31
0.0
  0
LINE
  5
292
330
1F
100
AcDbEntity
  8
LC-001-100-D00-0
 62
     7
370
    50
100
AcDbLine
 10
116.322668
 20
283.738038
 30
0.0
 11
122.192025
 21
281.391794
 31
0.0
  0
LINE
  5
293
330
1F
100
AcDbEntity
  8
LC-001-100-D00-0
 62
     7
370
    50
100
AcDbLine
 10
83.132214
 20
286.058938
 30
0.0
 11
116.322668
 21
283.738038
 31
0.0
  0
LINE
  5
294
330
1F
100
AcDbEntity
  8
LC-001-100-D00-0
 62
     7
370
    50
100
AcDbLine
 10
83.132214
 20
286.921527
 30
0.0
 11
83.132214
 21
286.058938
 31
0.0
  0
ARC
  5
295
330
1F
100
AcDbEntity
  8
LC-001-100-D00-0
 62
     7
370
    50
100
AcDbCircle
 10
85.132214
 20
286.921527
 30
0.0
 40
1.999999999999582
100
AcDbArc
 50
86.000005
 51
180.0
  0
LINE
  5
296
330
1F
100
AcDbEntity
  8
LC-001-100-D00-0
 62
     7
370
    50
100
AcDbLine
 10
85.271727
 20
288.916655
 30
0.0
 11
117.000281
 21
286.697981
 31
0.0
  0
LINE
  5
297
330
1F
100
AcDbEntity
  8
LC-001-100-D00-0
 62
     7
370
    50
100
AcDbLine
 10
117.000281
 20
286.697981
 30
0.0
 11
122.875391
 21
284.349437
 31
0.0
  0
LINE
  5
298
330
1F
100
AcDbEntity
  8
LC-001-100-D00-0
 62
     7
370
    50
100
AcDbLine
 10
122.875391
 20
284.349437
 30
0.0
 11
141.13079
 21
282.998888
 31
0.0
  0
LINE
  5
299
330
1F
100
AcDbEntity
  8
LC-001-100-D00-0
 62
     7
370
    50
100
AcDbLine
 10
141.13079
 20
282.998888
 30
0.0
 11
141.538675
 21
275.215964
 31
0.0
  0
ARC
  5
29A
330
1F
100
AcDbEntity
  8
LC-001-100-D00-0
 62
     7
370
    50
100
AcDbCircle
 10
142.537305
 20
275.2683
 30
0.0
 40
0.9999999999999959
100
AcDbArc
 50
183.0
 51
270.0
  0
LINE
  5
29B
330
1F
100
AcDbEntity
  8
LC-001-100-D00-0
 62
     7
370
    50
100
AcDbLine
 10
142.537305
 20
274.2683
 30
0.0
 11
144.382214
 21
274.2683
 31
0.0
  0
LINE
  5
29C
330
1F
100
AcDbEntity
  8
LC-001-100-D00-0
 62
     7
370
    50
100
AcDbLine
 10
144.382214
 20
274.2683
 30
0.0
 11
144.382214
 21
280.221014
 31
0.0
  0
LINE
  5
29D
330
1F
100
AcDbEntity
  8
LC-001-100-D00-0
 62
     7
370
    50
100
AcDbLine
 10
144.382214
 20
280.221014
 30
0.0
 11
146.382214
 21
280.221014
 31
0.0
  0
LINE
  5
29E
330
1F
100
AcDbEntity
  8
LC-001-100-D00-0
 62
     7
370
    50
100
AcDbLine
 10
146.382214
 20
263.458093
 30
0.0
 11
146.382214
 21
280.221014
 31
0.0
  0
ARC
  5
29F
330
1F
100
AcDbEntity
  8
LC-001-100-D00-0
 62
     7
370
    50
100
AcDbCircle
 10
146.882214
 20
263.458093
 30
0.0
 40
0.5
100
AcDbArc
 50
180.0
 51
270.0
  0
LINE
  5
2A0
330
1F
100
AcDbEntity
  8
LC-001-100-D00-0
 62
     7
370
    50
100
AcDbLine
 10
146.882214
 20
262.958093
 30
0.0
 11
155.647511
 21
262.958093
 31
0.0
  0
LINE
  5
2A1
330
1F
100
AcDbEntity
  8
LC-001-100-D00-0
 62
     7
370
    50
100
AcDbLine
 10
155.647511
 20
262.161284
 30
0.0
 11
155.647511
 21
262.958093
 31
0.0
  0
LINE
  5
2A2
330
1F
100
AcDbEntity
  8
LC-001-100-D00-0
 62
     7
370
    50
100
AcDbLine
 10
155.647511
 20
262.161284
 30
0.0
 11
155.832214
 21
262.161284
 31
0.0
  0
ARC
  5
2A3
330
1F
100
AcDbEntity
  8
LC-001-100-D00-0
 62
     7
370
    50
100
AcDbCircle
 10
155.832214
 20
261.361284
 30
0.0
 40
0.8000000000000114
100
AcDbArc
 50
0.0
 51
90.0
  0
LINE
  5
2A4
330
1F
100
AcDbEntity
  8
LC-001-100-D00-0
 62
     7
370
    50
100
AcDbLine
 10
156.632214
 20
260.969262
 30
0.0
 11
156.632214
 21
261.361284
 31
0.0
  0
ARC
  5
2A5
330
1F
100
AcDbEntity
  8
LC-001-100-D00-0
 62
     7
370
    50
100
AcDbCircle
 10
155.832214
 20
260.969262
 30
0.0
 40
0.8000000000000114
100
AcDbArc
 50
270.0
 51
0.0
  0
LINE
  5
2A6
330
1F
100
AcDbEntity
  8
LC-001-100-D00-0
 62
     7
370
    50
100
AcDbLine
 10
155.647511
 20
260.169262
 30
0.0
 11
155.832214
 21
260.169262
 31
0.0
  0
LINE
  5
2A7
330
1F
100
AcDbEntity
  8
LC-001-100-D00-0
 62
     7
370
    50
100
AcDbLine
 10
155.647511
 20
258.675245
 30
0.0
 11
155.647511
 21
260.169262
 31
0.0
  0
LINE
  5
2A8
330
1F
100
AcDbEntity
  8
LC-001-100-D00-0
 62
     7
370
    50
100
AcDbLine
 10
155.647511
 20
258.675245
 30
0.0
 11
155.832214
 21
258.675245
 31
0.0
  0
ARC
  5
2A9
330
1F
100
AcDbEntity
  8
LC-001-100-D00-0
 62
     7
370
    50
100
AcDbCircle
 10
155.832214
 20
257.875245
 30
0.0
 40
0.8000000000000114
100
AcDbArc
 50
0.0
 51
90.0
  0
LINE
  5
2AA
330
1F
100
AcDbEntity
  8
LC-001-100-D00-0
 62
     7
370
    50
100
AcDbLine
 10
156.632214
 20
257.483223
 30
0.0
 11
156.632214
 21
257.875245
 31
0.0
  0
ARC
  5
2AB
330
1F
100
AcDbEntity
  8
LC-001-100-D00-0
 62
     7
370
    50
100
AcDbCircle
 10
155.832214
 20
257.483223
 30
0.0
 40
0.8000000000000114
100
AcDbArc
 50
270.0
 51
0.0
  0
LINE
  5
2AC
330
1F
100
AcDbEntity
  8
LC-001-100-D00-0
 62
     7
370
    50
100
AcDbLine
 10
155.647511
 20
256.683223
 30
0.0
 11
155.832214
 21
256.683223
 31
0.0
  0
LINE
  5
2AD
330
1F
100
AcDbEntity
  8
LC-001-100-D00-0
 62
     7
370
    50
100
AcDbLine
 10
155.647511
 20
253.74499
 30
0.0
 11
155.647511
 21
256.683223
 31
0.0
  0
LINE
  5
2AE
330
1F
100
AcDbEntity
  8
LC-001-100-D00-0
 62
     7
370
    50
100
AcDbLine
 10
155.647511
 20
253.74499
 30
0.0
 11
156.132214
 21
253.74499
 31
0.0
  0
LINE
  5
2AF
330
1F
100
AcDbEntity
  8
LC-001-100-D00-0
 62
     7
370
    50
100
AcDbLine
 10
156.132214
 20
188.221014
 30
0.0
 11
156.132214
 21
253.74499
 31
0.0
  0
ARC
  5
2B0
330
1F
100
AcDbEntity
  8
LC-001-100-D00-0
 62
     7
370
    50
100
AcDbCircle
 10
165.132214
 20
188.221014
 30
0.0
 40
9.0
100
AcDbArc
 50
180.0
 51
270.0
  0
LINE
  5
2B1
330
1F
100
AcDbEntity
  8
LC-001-100-D00-0
 62
     7
370
    50
100
AcDbLine
 10
165.132214
 20
179.221014
 30
0.0
 11
199.932214
 21
179.221014
 31
0.0
  0
ARC
  5
2B2
330
1F
100
AcDbEntity
  8
LC-001-100-D00-0
 62
     7
370
    50
100
AcDbCircle
 10
199.932214
 20
182.221014
 30
0.0
 40
3.000000000000057
100
AcDbArc
 50
270.0
 51
0.0
  0
LINE
  5
2B3
330
1F
100
AcDbEntity
  8
LC-001-100-D00-0
 62
     7
370
    50
100
AcDbLine
 10
202.932214
 20
247.221014
 30
0.0
 11
202.932214
 21
182.221014
 31
0.0
  0
LINE
  5
2B4
330
1F
100
AcDbEntity
  8
LC-001-100-D00-0
 62
     7
370
    50
100
AcDbLine
 10
202.932214
 20
247.221014
 30
0.0
 11
205.302865
 21
247.221014
 31
0.0
  0
ARC
  5
2B5
330
1F
100
AcDbEntity
  8
LC-001-100-D00-0
 62
     7
370
    50
100
AcDbCircle
 10
203.982482
 20
245.979143
 30
0.0
 40
1.812638000000031
100
AcDbArc
 50
317.852548
 51
43.244882
  0
LINE
  5
2B6
330
1F
100
AcDbEntity
  8
LC-001-100-D00-0
 62
     7
370
    50
100
AcDbLine
 10
205.326408
 20
244.762789
 30
0.0
 11
205.914493
 21
182.232389
 31
0.0
  0
LINE
  5
2B7
330
1F
100
AcDbEntity
  8
LC-001-100-D00-0
 62
     7
370
    50
100
AcDbLine
 10
213.332214
 20
175.221014
 30
0.0
 11
211.232214
 21
175.221014
 31
0.0
  0
ARC
  5
2B8
330
1F
100
AcDbEntity
  8
LC-001-100-D00-0
 62
     7
370
    50
100
AcDbCircle
 10
257.350067
 20
182.260603
 30
0.0
 40
3.000000000000022
100
AcDbArc
 50
285.0
 51
359.461161
  0
ARC
  5
2B9
330
1F
100
AcDbEntity
  8
LC-001-100-D00-0
 62
     7
370
    50
100
AcDbCircle
 10
262.591635
 20
178.120724
 30
0.0
 40
0.4999999999999965
100
AcDbArc
 50
35.0
 51
147.080028
  0
LINE
  5
2BA
330
1F
100
AcDbEntity
  8
LC-001-100-D00-0
 62
     7
370
    50
100
AcDbLine
 10
263.001211
 20
178.407512
 30
0.0
 11
264.532214
 21
176.221014
 31
0.0
  0
LINE
  5
2BB
330
1F
100
AcDbEntity
  8
LC-001-100-D00-0
 62
     7
370
    50
100
AcDbLine
 10
201.732214
 20
176.221014
 30
0.0
 11
208.132214
 21
176.221014
 31
0.0
  0
LINE
  5
2BC
330
1F
100
AcDbEntity
  8
LC-001-100-D00-0
 62
     7
370
    50
100
AcDbLine
 10
258.132214
 20
176.221014
 30
0.0
 11
264.532214
 21
176.221014
 31
0.0
  0
LINE
  5
2BD
330
1F
100
AcDbEntity
  8
LC-001-100-D00-0
 62
     7
370
    50
100
AcDbLine
 10
267.532214
 20
176.221014
 30
0.0
 11
267.532214
 21
117.221014
 31
0.0
  0
LINE
  5
2BE
330
1F
100
AcDbEntity
  8
LC-001-100-D00-0
 62
     7
370
    50
100
AcDbLine
 10
198.732214
 20
117.221014
 30
0.0
 11
267.532214
 21
117.221014
 31
0.0
  0
LINE
  5
2BF
330
1F
100
AcDbEntity
  8
LC-001-100-D00-0
 62
     7
370
    50
100
AcDbLine
 10
269.694392
 20
117.221014
 30
0.0
 11
270.632214
 21
120.721014
 31
0.0
  0
LINE
  5
2C0
330
1F
100
AcDbEntity
  8
LC-001-100-D00-0
 62
     7
370
    50
100
AcDbLine
 10
270.632214
 20
120.721014
 30
0.0
 11
270.632214
 21
176.221014
 31
0.0
  0
ARC
  5
2C1
330
1F
100
AcDbEntity
  8
LC-001-100-D00-0
 62
     7
370
    50
100
AcDbCircle
 10
301.132214
 20
188.221014
 30
0.0
 40
12.0
100
AcDbArc
 50
270.0
 51
0.0
  0
LINE
  5
2C2
330
1F
100
AcDbEntity
  8
LC-001-100-D00-0
 62
     7
370
    50
100
AcDbLine
 10
313.132214
 20
250.79643
 30
0.0
 11
313.132214
 21
188.221014
 31
0.0
  0
LINE
  5
2C3
330
1F
100
AcDbEntity
  8
LC-001-100-D00-0
 62
     7
370
    50
100
AcDbLine
 10
313.132214
 20
250.79643
 30
0.0
 11
322.332214
 21
263.954104
 31
0.0
  0
LINE
  5
2C4
330
1F
100
AcDbEntity
  8
LC-001-100-D00-0
 62
     7
370
    50
100
AcDbLine
 10
322.332214
 20
269.922038
 30
0.0
 11
322.332214
 21
263.954104
 31
0.0
  0
ARC
  5
2C5
330
1F
100
AcDbEntity
  8
LC-001-100-D00-0
 62
     7
370
    50
100
AcDbCircle
 10
324.332214
 20
269.922038
 30
0.0
 40
2.0
100
AcDbArc
 50
90.0
 51
180.0
  0
ARC
  5
2C6
330
1F
100
AcDbEntity
  8
LC-001-100-D00-0
 62
     7
370
    50
100
AcDbCircle
 10
324.379895
 20
274.922038
 30
0.0
 40
3.0
100
AcDbArc
 50
270.0
 51
357.0
  0
LINE
  5
2C7
330
1F
100
AcDbEntity
  8
LC-001-100-D00-0
 62
     7
370
    50
100
AcDbLine
 10
327.375784
 20
274.76503
 30
0.0
 11
327.59027
 21
278.857657
 31
0.0
  0
ARC
  5
2C8
330
1F
100
AcDbEntity
  8
LC-001-100-D00-0
 62
     7
370
    50
100
AcDbCircle
 10
329.088214
 20
278.779153
 30
0.0
 40
1.499999999999935
100
AcDbArc
 50
94.231077
 51
177.0
  0
LINE
  5
2C9
330
1F
100
AcDbEntity
  8
LC-001-100-D00-0
 62
     7
370
    50
100
AcDbLine
 10
328.977545
 20
280.275065
 30
0.0
 11
344.072403
 21
281.391794
 31
0.0
  0
LINE
  5
2CA
330
1F
100
AcDbEntity
  8
LC-001-100-D00-0
 62
     7
370
    50
100
AcDbLine
 10
344.072403
 20
281.391794
 30
0.0
 11
349.94176
 21
283.738038
 31
0.0
  0
LINE
  5
2CB
330
1F
100
AcDbEntity
  8
LC-001-100-D00-0
 62
     7
370
    50
100
AcDbLine
 10
349.94176
 20
283.738038
 30
0.0
 11
383.132214
 21
286.058938
 31
0.0
  0
LINE
  5
2CC
330
1F
100
AcDbEntity
  8
LC-001-100-D00-0
 62
     7
370
    50
100
AcDbLine
 10
383.132214
 20
286.058938
 30
0.0
 11
383.132214
 21
286.921527
 31
0.0
  0
ARC
  5
2CD
330
1F
100
AcDbEntity
  8
LC-001-100-D00-0
 62
     7
370
    50
100
AcDbCircle
 10
381.132214
 20
286.921527
 30
0.0
 40
1.999999999999545
100
AcDbArc
 50
0.0
 51
93.999995
  0
LINE
  5
2CE
330
1F
100
AcDbEntity
  8
LC-001-100-D00-0
 62
     7
370
    50
100
AcDbLine
 10
349.264147
 20
286.697981
 30
0.0
 11
380.992701
 21
288.916655
 31
0.0
  0
LINE
  5
2CF
330
1F
100
AcDbEntity
  8
LC-001-100-D00-0
 62
     7
370
    50
100
AcDbLine
 10
117.000281
 20
286.697981
 30
0.0
 11
349.264147
 21
286.697981
 31
0.0
  0
LINE
  5
2D0
330
1F
100
AcDbEntity
  8
LC-001-100-D00-0
 62
     7
370
    50
100
AcDbLine
 10
343.389037
 20
284.349437
 30
0.0
 11
349.264147
 21
286.697981
 31
0.0
  0
LINE
  5
2D1
330
1F
100
AcDbEntity
  8
LC-001-100-D00-0
 62
     7
370
    50
100
AcDbLine
 10
122.875391
 20
284.349437
 30
0.0
 11
343.389037
 21
284.349437
 31
0.0
  0
LINE
  5
2D2
330
1F
100
AcDbEntity
  8
LC-001-100-D00-0
 62
     7
370
    50
100
AcDbLine
 10
325.133638
 20
282.998888
 30
0.0
 11
343.389037
 21
284.349437
 31
0.0
  0
LINE
  5
2D3
330
1F
100
AcDbEntity
  8
LC-001-100-D00-0
 62
     7
370
    50
100
AcDbLine
 10
141.13079
 20
282.998888
 30
0.0
 11
141.132214
 21
282.998888
 31
0.0
  0
LINE
  5
2D4
330
1F
100
AcDbEntity
  8
LC-001-100-D00-0
 62
     7
370
    50
100
AcDbLine
 10
325.132214
 20
282.998888
 30
0.0
 11
325.133638
 21
282.998888
 31
0.0
  0
LINE
  5
2D5
330
1F
100
AcDbEntity
  8
LC-001-100-D00-0
 62
     7
370
    50
100
AcDbLine
 10
324.725752
 20
275.215964
 30
0.0
 11
325.133638
 21
282.998888
 31
0.0
  0
ARC
  5
2D6
330
1F
100
AcDbEntity
  8
LC-001-100-D00-0
 62
     7
370
    50
100
AcDbCircle
 10
323.727123
 20
275.2683
 30
0.0
 40
1.0
100
AcDbArc
 50
270.0
 51
357.0
  0
LINE
  5
2D7
330
1F
100
AcDbEntity
  8
LC-001-100-D00-0
 62
     7
370
    50
100
AcDbLine
 10
321.882214
 20
280.221014
 30
0.0
 11
321.882214
 21
274.2683
 31
0.0
  0
LINE
  5
2D8
330
1F
100
AcDbEntity
  8
LC-001-100-D00-0
 62
     7
370
    50
100
AcDbLine
 10
252.932214
 20
175.221014
 30
0.0
 11
252.932214
 21
177.971014
 31
0.0
  0
LINE
  5
2D9
330
1F
100
AcDbEntity
  8
LC-001-100-D00-0
 62
     7
370
    50
100
AcDbLine
 10
213.332214
 20
175.221014
 30
0.0
 11
252.932214
 21
175.221014
 31
0.0
  0
LINE
  5
2DA
330
1F
100
AcDbEntity
  8
LC-001-100-D00-0
 62
     7
370
    50
100
AcDbLine
 10
319.882214
 20
280.221014
 30
0.0
 11
319.882214
 21
263.458093
 31
0.0
  0
LINE
  5
2DB
330
1F
100
AcDbEntity
  8
LC-001-100-D00-0
 62
     7
370
    50
100
AcDbLine
 10
255.032214
 20
175.221014
 30
0.0
 11
255.032214
 21
123.121014
 31
0.0
  0
LINE
  5
2DC
330
1F
100
AcDbEntity
  8
LC-001-100-D00-0
 62
     7
370
    50
100
AcDbLine
 10
211.232214
 20
123.121014
 30
0.0
 11
255.032214
 21
123.121014
 31
0.0
  0
LINE
  5
2DD
330
1F
100
AcDbEntity
  8
LC-001-100-D00-0
 62
     7
370
    50
100
AcDbLine
 10
257.194392
 20
123.121014
 30
0.0
 11
258.132214
 21
126.621014
 31
0.0
  0
LINE
  5
2DE
330
1F
100
AcDbEntity
  8
LC-001-100-D00-0
 62
     7
370
    50
100
AcDbLine
 10
258.132214
 20
126.621014
 30
0.0
 11
258.132214
 21
176.621014
 31
0.0
  0
LINE
  5
2DF
330
1F
100
AcDbEntity
  8
LC-001-100-D00-0
 62
     7
370
    50
100
AcDbLine
 10
258.132214
 20
176.621014
 30
0.0
 11
261.632214
 21
177.558836
 31
0.0
  0
LINE
  5
2E0
330
1F
100
AcDbEntity
  8
LC-001-100-D00-0
 62
     7
370
    50
100
AcDbLine
 10
262.17192
 20
178.392457
 30
0.0
 11
261.632214
 21
177.558836
 31
0.0
  0
ARC
  5
2E1
330
1F
100
AcDbEntity
  8
LC-001-100-D00-0
 62
     7
370
    50
100
AcDbCircle
 10
310.432214
 20
260.969262
 30
0.0
 40
0.7999999999999545
100
AcDbArc
 50
180.0
 51
270.0
  0
LINE
  5
2E2
330
1F
100
AcDbEntity
  8
LC-001-100-D00-0
 62
     7
370
    50
100
AcDbLine
 10
155.832214
 20
260.169262
 30
0.0
 11
191.884615
 21
260.169262
 31
0.0
  0
LINE
  5
2E3
330
1F
100
AcDbEntity
  8
LC-001-100-D00-0
 62
     7
370
    50
100
AcDbLine
 10
274.379813
 20
260.169262
 30
0.0
 11
310.432214
 21
260.169262
 31
0.0
  0
LINE
  5
2E4
330
1F
100
AcDbEntity
  8
LC-001-100-D00-0
 62
     7
370
    50
100
AcDbLine
 10
310.616917
 20
260.169262
 30
0.0
 11
310.616917
 21
258.675245
 31
0.0
  0
ARC
  5
2E5
330
1F
100
AcDbEntity
  8
LC-001-100-D00-0
 62
     7
370
    50
100
AcDbCircle
 10
310.432214
 20
257.875245
 30
0.0
 40
0.8000000000000114
100
AcDbArc
 50
90.0
 51
180.0
  0
LINE
  5
2E6
330
1F
100
AcDbEntity
  8
LC-001-100-D00-0
 62
     7
370
    50
100
AcDbLine
 10
155.832214
 20
258.675245
 30
0.0
 11
191.670214
 21
258.675245
 31
0.0
  0
LINE
  5
2E7
330
1F
100
AcDbEntity
  8
LC-001-100-D00-0
 62
     7
370
    50
100
AcDbLine
 10
274.594214
 20
258.675245
 30
0.0
 11
310.432214
 21
258.675245
 31
0.0
  0
LINE
  5
2E8
330
1F
100
AcDbEntity
  8
LC-001-100-D00-0
 62
     7
370
    50
100
AcDbLine
 10
309.632214
 20
257.875245
 30
0.0
 11
309.632214
 21
257.483223
 31
0.0
  0
ARC
  5
2E9
330
1F
100
AcDbEntity
  8
LC-001-100-D00-0
 62
     7
370
    50
100
AcDbCircle
 10
310.432214
 20
257.483223
 30
0.0
 40
0.8000000000000114
100
AcDbArc
 50
180.0
 51
270.0
  0
LINE
  5
2EA
330
1F
100
AcDbEntity
  8
LC-001-100-D00-0
 62
     7
370
    50
100
AcDbLine
 10
155.832214
 20
256.683223
 30
0.0
 11
191.632214
 21
256.683223
 31
0.0
  0
LINE
  5
2EB
330
1F
100
AcDbEntity
  8
LC-001-100-D00-0
 62
     7
370
    50
100
AcDbLine
 10
274.632214
 20
256.683223
 30
0.0
 11
310.432214
 21
256.683223
 31
0.0
  0
LINE
  5
2EC
330
1F
100
AcDbEntity
  8
LC-001-100-D00-0
 62
     7
370
    50
100
AcDbLine
 10
310.616917
 20
256.683223
 30
0.0
 11
310.616917
 21
253.74499
 31
0.0
  0
LINE
  5
2ED
330
1F
100
AcDbEntity
  8
LC-001-100-D00-0
 62
     7
370
    50
100
AcDbLine
 10
310.132214
 20
253.74499
 30
0.0
 11
310.132214
 21
188.221014
 31
0.0
  0
LINE
  5
2EE
330
1F
100
AcDbEntity
  8
LC-001-100-D00-0
 62
     7
370
    50
100
AcDbLine
 10
156.132214
 20
253.74499
 30
0.0
 11
191.632214
 21
253.74499
 31
0.0
  0
LINE
  5
2EF
330
1F
100
AcDbEntity
  8
LC-001-100-D00-0
 62
     7
370
    50
100
AcDbLine
 10
274.632214
 20
253.74499
 30
0.0
 11
310.132214
 21
253.74499
 31
0.0
  0
ARC
  5
2F0
330
1F
100
AcDbEntity
  8
LC-001-100-D00-0
 62
     7
370
    50
100
AcDbCircle
 10
301.132214
 20
188.221014
 30
0.0
 40
9.0
100
AcDbArc
 50
270.0
 51
0.0
  0
ARC
  5
2F1
330
1F
100
AcDbEntity
  8
LC-001-100-D00-0
 62
     7
370
    50
100
AcDbCircle
 10
266.332214
 20
182.221014
 30
0.0
 40
3.0
100
AcDbArc
 50
180.0
 51
270.0
  0
LINE
  5
2F2
330
1F
100
AcDbEntity
  8
LC-001-100-D00-0
 62
     7
370
    50
100
AcDbLine
 10
263.332214
 20
182.221014
 30
0.0
 11
263.332214
 21
247.221014
 31
0.0
  0
ARC
  5
2F3
330
1F
100
AcDbEntity
  8
LC-001-100-D00-0
 62
     7
370
    50
100
AcDbCircle
 10
262.281946
 20
245.979143
 30
0.0
 40
1.812637999999971
100
AcDbArc
 50
136.755118
 51
222.147452
  0
LINE
  5
2F4
330
1F
100
AcDbEntity
  8
LC-001-100-D00-0
 62
     7
370
    50
100
AcDbLine
 10
205.326408
 20
244.762789
 30
0.0
 11
218.160835
 21
244.762789
 31
0.0
  0
LINE
  5
2F5
330
1F
100
AcDbEntity
  8
LC-001-100-D00-0
 62
     7
370
    50
100
AcDbLine
 10
260.932214
 20
244.762789
 30
0.0
 11
260.93802
 21
244.762789
 31
0.0
  0
LINE
  5
2F6
330
1F
100
AcDbEntity
  8
LC-001-100-D00-0
 62
     7
370
    50
100
AcDbLine
 10
205.302865
 20
247.221014
 30
0.0
 11
218.149682
 21
247.221014
 31
0.0
  0
LINE
  5
2F7
330
1F
100
AcDbEntity
  8
LC-001-100-D00-0
 62
     7
370
    50
100
AcDbLine
 10
260.349934
 20
182.232389
 30
0.0
 11
260.93802
 21
244.762789
 31
0.0
  0
LINE
  5
2F8
330
1F
100
AcDbEntity
  8
LC-001-100-D00-0
 62
     7
370
    50
100
AcDbLine
 10
309.632214
 20
261.361284
 30
0.0
 11
309.632214
 21
260.969262
 31
0.0
  0
ARC
  5
2F9
330
1F
100
AcDbEntity
  8
LC-001-100-D00-0
 62
     7
370
    50
100
AcDbCircle
 10
310.432214
 20
261.361284
 30
0.0
 40
0.8000000000000682
100
AcDbArc
 50
90.0
 51
180.0
  0
LINE
  5
2FA
330
1F
100
AcDbEntity
  8
LC-001-100-D00-0
 62
     7
370
    50
100
AcDbLine
 10
310.432214
 20
262.161284
 30
0.0
 11
310.616917
 21
262.161284
 31
0.0
  0
LINE
  5
2FB
330
1F
100
AcDbEntity
  8
LC-001-100-D00-0
 62
     7
370
    50
100
AcDbLine
 10
310.616917
 20
262.958093
 30
0.0
 11
310.616917
 21
262.161284
 31
0.0
  0
LINE
  5
2FC
330
1F
100
AcDbEntity
  8
LC-001-100-D00-0
 62
     7
370
    50
100
AcDbLine
 10
310.616917
 20
262.958093
 30
0.0
 11
319.382214
 21
262.958093
 31
0.0
  0
ARC
  5
2FD
330
1F
100
AcDbEntity
  8
LC-001-100-D00-0
 62
     7
370
    50
100
AcDbCircle
 10
319.382214
 20
263.458093
 30
0.0
 40
0.5
100
AcDbArc
 50
270.0
 51
0.0
  0
LINE
  5
2FE
330
1F
100
AcDbEntity
  8
LC-001-100-D00-0
 62
     7
370
    50
100
AcDbLine
 10
319.882214
 20
280.221014
 30
0.0
 11
321.882214
 21
280.221014
 31
0.0
  0
LINE
  5
2FF
330
1F
100
AcDbEntity
  8
LC-001-100-D00-0
 62
     7
370
    50
100
AcDbLine
 10
260.961562
 20
247.221014
 30
0.0
 11
263.332214
 21
247.221014
 31
0.0
  0
LINE
  5
300
330
1F
100
AcDbEntity
  8
LC-001-100-D00-0
 62
     7
370
    50
100
AcDbLine
 10
266.332214
 20
179.221014
 30
0.0
 11
301.132214
 21
179.221014
 31
0.0
  0
LINE
  5
301
330
1F
100
AcDbEntity
  8
LC-001-100-D00-0
 62
     7
370
    50
100
AcDbLine
 10
310.132214
 20
253.74499
 30
0.0
 11
310.616917
 21
253.74499
 31
0.0
  0
LINE
  5
302
330
1F
100
AcDbEntity
  8
LC-001-100-D00-0
 62
     7
370
    50
100
AcDbLine
 10
310.432214
 20
256.683223
 30
0.0
 11
310.616917
 21
256.683223
 31
0.0
  0
LINE
  5
303
330
1F
100
AcDbEntity
  8
LC-001-100-D00-0
 62
     7
370
    50
100
AcDbLine
 10
310.432214
 20
258.675245
 30
0.0
 11
310.616917
 21
258.675245
 31
0.0
  0
LINE
  5
304
330
1F
100
AcDbEntity
  8
LC-001-100-D00-0
 62
     7
370
    50
100
AcDbLine
 10
310.432214
 20
260.169262
 30
0.0
 11
310.616917
 21
260.169262
 31
0.0
  0
LINE
  5
305
330
1F
100
AcDbEntity
  8
LC-001-100-D00-0
 62
     7
370
    50
100
AcDbLine
 10
255.032214
 20
123.121014
 30
0.0
 11
257.194392
 21
123.121014
 31
0.0
  0
LINE
  5
306
330
1F
100
AcDbEntity
  8
LC-001-100-D00-0
 62
     7
370
    50
100
AcDbLine
 10
321.882214
 20
274.2683
 30
0.0
 11
323.727123
 21
274.2683
 31
0.0
  0
LINE
  5
307
330
1F
100
AcDbEntity
  8
LC-001-100-D00-0
 62
     7
370
    50
100
AcDbLine
 10
324.332214
 20
271.922038
 30
0.0
 11
324.379895
 21
271.922038
 31
0.0
  0
LINE
  5
308
330
1F
100
AcDbEntity
  8
LC-001-100-D00-0
 62
     7
370
    50
100
AcDbLine
 10
301.132214
 20
176.221014
 30
0.0
 11
270.632214
 21
176.221014
 31
0.0
  0
LINE
  5
309
330
1F
100
AcDbEntity
  8
LC-001-100-D00-0
 62
     7
370
    50
100
AcDbLine
 10
267.532214
 20
117.221014
 30
0.0
 11
269.694392
 21
117.221014
 31
0.0
  0
LINE
  5
30A
330
1F
100
AcDbEntity
  8
LC-001-100-D00-0
 62
     7
370
    50
100
AcDbLine
 10
267.532214
 20
176.221014
 30
0.0
 11
264.532214
 21
176.221014
 31
0.0
  0
LINE
  5
30B
330
1F
100
AcDbEntity
  8
LC-001-100-D00-0
 62
     7
370
    50
100
AcDbLine
 10
255.032214
 20
175.221014
 30
0.0
 11
252.932214
 21
175.221014
 31
0.0
  0
LINE
  5
30C
330
1F
100
AcDbEntity
  8
LC-001-100-D00-0
 62
     7
370
    50
100
AcDbLine
 10
155.647511
 20
262.958093
 30
0.0
 11
192.835316
 21
262.958093
 31
0.0
  0
LINE
  5
30D
330
1F
100
AcDbEntity
  8
LC-001-100-D00-0
 62
     7
370
    50
100
AcDbLine
 10
273.429112
 20
262.958093
 30
0.0
 11
310.616917
 21
262.958093
 31
0.0
  0
LINE
  5
30E
330
1F
100
AcDbEntity
  8
LC-001-100-D00-0
 62
     7
370
    50
100
AcDbLine
 10
155.832214
 20
262.161284
 30
0.0
 11
192.483941
 21
262.161284
 31
0.0
  0
LINE
  5
30F
330
1F
100
AcDbEntity
  8
LC-001-100-D00-0
 62
     7
370
    50
100
AcDbLine
 10
273.780487
 20
262.161284
 30
0.0
 11
310.432214
 21
262.161284
 31
0.0
  0
INSERT
  5
342
330
1F
100
AcDbEntity
  8
LC-001-100-D00-0
 62
     7
370
    25
100
AcDbBlockReference
  2
KLON2
 10
0.0
 20
0.0
 30
0.0
  0
INSERT
  5
371
330
1F
100
AcDbEntity
  8
LC-001-100-D00-0
 62
     7
370
    25
100
AcDbBlockReference
  2
KLON3
 10
0.0
 20
0.0
 30
0.0
  0
INSERT
  5
37A
330
1F
100
AcDbEntity
  8
LC-001-100-D00-0
 62
     7
370
    50
100
AcDbBlockReference
  2
KLON4
 10
0.0
 20
0.0
 30
0.0
  0
INSERT
  5
382
330
1F
100
AcDbEntity
  8
LC-001-100-D00-0
 62
     7
370
    25
100
AcDbBlockReference
  2
KLON5
 10
0.0
 20
0.0
 30
0.0
  0
INSERT
  5
3A4
330
1F
100
AcDbEntity
  8
LC-001-100-D00-0
 62
     7
370
    25
100
AcDbBlockReference
  2
KLON6
 10
0.0
 20
0.0
 30
0.0
  0
INSERT
  5
3B9
330
1F
100
AcDbEntity
  8
LC-001-100-D00-0
 62
     7
370
    25
100
AcDbBlockReference
  2
KLON7
 10
0.0
 20
0.0
 30
0.0
  0
INSERT
  5
3CC
330
1F
100
AcDbEntity
  8
LC-001-100-D00-0
 62
     7
370
    25
100
AcDbBlockReference
  2
KLON8
 10
0.0
 20
0.0
 30
0.0
  0
LINE
  5
3CD
330
1F
100
AcDbEntity
  8
LC-001-100-D00-0
 62
     7
370
    50
100
AcDbLine
 10
273.969956
 20
157.720309
 30
0.0
 11
275.882855
 21
159.633208
 31
0.0
  0
INSERT
  5
3D3
330
1F
100
AcDbEntity
  8
LC-001-100-D00-0
 62
     7
370
    50
100
AcDbBlockReference
  2
KLON9
 10
0.0
 20
0.0
 30
0.0
  0
DIMENSION
  5
3D6
330
1F
100
AcDbEntity
  8
LC-001-100-D00-0
 62
     7
370
    25
100
AcDbDimension
  2
*D30
 10
288.132214
 20
-8.133768
 30
0.0
 11
227.26385
 21
22.666232
 31
0.0
 70
   160
  1
%%c110
 71
     5
 42
110.0
  3
LC-DIM-L-0140-02-02
100
AcDbAlignedDimension
 13
178.132214
 23
94.721014
 33
0.0
 14
288.132214
 24
94.721014
 34
0.0
100
AcDbRotatedDimension
  0
DIMENSION
  5
3E4
330
1F
100
AcDbEntity
  8
LC-001-100-D00-0
 62
     7
370
    25
100
AcDbDimension
  2
*D31
 10
73.540116
 20
176.221014
 30
0.0
 11
42.740116
 21
223.73969
 31
0.0
 70
   160
  1
110
 71
     5
 42
109.837924
 53
90.0
  3
LC-DIM-L-0140-02-02
100
AcDbAlignedDimension
 13
83.132214
 23
286.058938
 33
0.0
 14
165.132214
 24
176.221014
 34
0.0
 50
90.0
100
AcDbRotatedDimension
  0
DIMENSION
  5
3F1
330
1F
100
AcDbEntity
  8
LC-001-100-D00-0
 62
     7
370
    25
100
AcDbDimension
  2
*D32
 10
383.132214
 20
308.921527
 30
0.0
 11
231.99227
 21
339.721527
 31
0.0
 70
   160
  1
%%c300
 71
     5
 42
300.0
  3
LC-DIM-L-0140-02-02
100
AcDbAlignedDimension
 13
83.132214
 23
286.058938
 33
0.0
 14
383.132214
 24
286.058938
 34
0.0
100
AcDbRotatedDimension
  0
DIMENSION
  5
3FE
330
1F
100
AcDbEntity
  8
LC-001-100-D00-0
 62
     7
370
    25
100
AcDbDimension
  2
*D33
 10
119.70783
 20
247.221014
 30
0.0
 11
88.90783
 21
223.73969
 31
0.0
 70
   160
  1
50
 71
     5
 42
49.5
 53
90.0
  3
LC-DIM-L-0140-02-02
100
AcDbAlignedDimension
 13
191.632214
 23
197.721014
 33
0.0
 14
202.932214
 24
247.221014
 34
0.0
 50
90.0
100
AcDbRotatedDimension
  0
DIMENSION
  5
40D
330
1F
100
AcDbEntity
  8
LC-001-100-D00-0
 62
     7
370
    25
100
AcDbDimension
  2
*D34
 10
258.132214
 20
81.560232
 30
0.0
 11
355.802626
 21
112.360232
 31
0.0
 70
   160
  1
%%c50
 71
     5
 42
50.0
  3
LC-DIM-L-0140-02-02
100
AcDbAlignedDimension
 13
208.132214
 23
126.621014
 33
0.0
 14
258.132214
 24
126.621014
 34
0.0
100
AcDbRotatedDimension
  0
DIMENSION
  5
41B
330
1F
100
AcDbEntity
  8
LC-001-100-D00-0
 62
     7
370
    25
100
AcDbDimension
  2
*D35
 10
270.632214
 20
39.386232
 30
0.0
 11
228.150324
 21
70.186232
 31
0.0
 70
   160
  1
%%c75
 71
     5
 42
75.0
  3
LC-DIM-L-0140-02-02
100
AcDbAlignedDimension
 13
195.632214
 23
120.721014
 33
0.0
 14
270.632214
 24
120.721014
 34
0.0
100
AcDbRotatedDimension
  0
DIMENSION
  5
428
330
1F
100
AcDbEntity
  8
LC-001-100-D00-0
 62
     7
370
    25
100
AcDbDimension
  2
*D36
 10
29.580078
 20
94.721014
 30
0.0
 11
-1.219922
 21
193.826232
 31
0.0
 70
   160
  1
183
 71
     5
 42
191.337924
 53
90.0
  3
LC-DIM-L-0140-02-02
100
AcDbAlignedDimension
 13
83.132214
 23
286.058938
 33
0.0
 14
178.132214
 24
94.721014
 34
0.0
 50
90.0
100
AcDbRotatedDimension
  0
DIMENSION
  5
435
330
1F
100
AcDbEntity
  8
LC-001-100-D00-0
 62
     7
370
    25
100
AcDbDimension
  2
*D37
 10
313.132214
 20
-55.653768
 30
0.0
 11
225.490901
 21
-24.853768
 31
0.0
 70
   160
  1
%%c160
 71
     5
 42
160.0
  3
LC-DIM-L-0140-02-02
100
AcDbAlignedDimension
 13
153.132214
 23
188.221014
 33
0.0
 14
313.132214
 24
188.221014
 34
0.0
100
AcDbRotatedDimension
  0
LINE
  5
443
330
1F
100
AcDbEntity
  8
LC-001-100-D00-0
  6
DASHDOT
 62
     7
370
    25
100
AcDbLine
 10
233.132214
 20
288.716473
 30
0.0
 11
233.132214
 21
95.49604
 31
0.0
  0
ENDSEC
  0
SECTION
  2
OBJECTS
  0
DICTIONARY
  5
C
330
0
100
AcDbDictionary
281
     1
  3
ACAD_GROUP
350
D
  3
ACAD_LAYOUT
350
1A
  3
ACAD_MLINESTYLE
350
17
  3
ACAD_PLOTSETTINGS
350
19
  3
ACAD_PLOTSTYLENAME
350
E
  0
DICTIONARY
  5
D
102
{ACAD_REACTORS
330
C
102
}
330
C
100
AcDbDictionary
281
     1
  0
DICTIONARY
  5
1A
102
{ACAD_REACTORS
330
C
102
}
330
C
100
AcDbDictionary
281
     1
  3
Layout1
350
1E
  3
Layout2
350
26
  3
Model
350
22
  0
DICTIONARY
  5
17
102
{ACAD_REACTORS
330
C
102
}
330
C
100
AcDbDictionary
281
     1
  3
Standard
350
18
  0
DICTIONARY
  5
19
102
{ACAD_REACTORS
330
C
102
}
330
C
100
AcDbDictionary
281
     1
  0
ACDBDICTIONARYWDFLT
  5
E
102
{ACAD_REACTORS
330
C
102
}
330
C
100
AcDbDictionary
281
     1
  3
Normal
350
F
100
AcDbDictionaryWithDefault
340
F
  0
LAYOUT
  5
1E
102
{ACAD_REACTORS
330
1A
102
}
330
1A
100
AcDbPlotSettings
  1

  2

  4

  6

 40
0.0
 41
0.0
 42
0.0
 43
0.0
 44
0.0
 45
0.0
 46
0.0
 47
0.0
 48
0.0
 49
0.0
140
0.0
141
0.0
142
1.0
143
1.0
 70
   688
 72
     0
 73
     0
 74
     5
  7

 75
    16
147
1.0
148
0.0
149
0.0
100
AcDbLayout
  1
Layout1
 70
     1
 71
     1
 10
-221.989802
 20
-127.527768
 11
618.010198
 21
466.472232
 12
0.0
 22
0.0
 32
0.0
 14
-221.989802
 24
-127.527768
 34
0.0
 15
618.010198
 25
466.472232
 35
0.0
146
0.0
 13
0.0
 23
0.0
 33
0.0
 16
1.0
 26
0.0
 36
0.0
 17
0.0
 27
1.0
 37
0.0
 76
     0
330
1B
  0
LAYOUT
  5
26
102
{ACAD_REACTORS
330
1A
102
}
330
1A
100
AcDbPlotSettings
  1

  2

  4

  6

 40
0.0
 41
0.0
 42
0.0
 43
0.0
 44
0.0
 45
0.0
 46
0.0
 47
0.0
 48
0.0
 49
0.0
140
0.0
141
0.0
142
1.0
143
1.0
 70
   688
 72
     0
 73
     0
 74
     5
  7

 75
    16
147
1.0
148
0.0
149
0.0
100
AcDbLayout
  1
Layout2
 70
     1
 71
     2
 10
0.0
 20
0.0
 11
0.0
 21
0.0
 12
0.0
 22
0.0
 32
0.0
 14
0.0
 24
0.0
 34
0.0
 15
0.0
 25
0.0
 35
0.0
146
0.0
 13
0.0
 23
0.0
 33
0.0
 16
1.0
 26
0.0
 36
0.0
 17
0.0
 27
1.0
 37
0.0
 76
     0
330
23
  0
LAYOUT
  5
22
102
{ACAD_REACTORS
330
1A
102
}
330
1A
100
AcDbPlotSettings
  1

  2

  4

  6

 40
0.0
 41
0.0
 42
0.0
 43
0.0
 44
0.0
 45
0.0
 46
0.0
 47
0.0
 48
0.0
 49
0.0
140
0.0
141
0.0
142
1.0
143
1.0
 70
  1776
 72
     0
 73
     0
 74
     0
  7

 75
     0
147
1.0
148
0.0
149
0.0
100
AcDbLayout
  1
Model
 70
     1
 71
     0
 10
-221.989802
 20
-127.527768
 11
618.010198
 21
466.472232
 12
0.0
 22
0.0
 32
0.0
 14
-221.989802
 24
-127.527768
 34
0.0
 15
618.010198
 25
466.472232
 35
0.0
146
0.0
 13
0.0
 23
0.0
 33
0.0
 16
1.0
 26
0.0
 36
0.0
 17
0.0
 27
1.0
 37
0.0
 76
     0
330
1F
  0
MLINESTYLE
  5
18
102
{ACAD_REACTORS
330
17
102
}
330
17
100
AcDbMlineStyle
  2
Standard
 70
     0
  3

 62
   256
 51
90.0
 52
90.0
 71
     2
 49
0.5
 62
   256
  6
BYLAYER
 49
-0.5
 62
   256
  6
BYLAYER
  0
ACDBPLACEHOLDER
  5
F
102
{ACAD_REACTORS
330
E
102
}
330
E
  0
ENDSEC
  0
EOF
