  0
SECTION
  2
HEADER
  9
$ACADVER
  1
AC1009
  9
$DWGCODEPAGE
  3
ansi_1252
  9
$INSBASE
 10
0.0
 20
0.0
 30
0.0
  9
$EXTMIN
 10
0.0
 20
0.0
 30
0.0
  9
$EXTMAX
 10
420.0
 20
297.0
 30
0.0
  9
$LIMMIN
 10
0.0
 20
0.0
  9
$LIMMAX
 10
420.0
 20
297.0
  9
$ORTHOMODE
 70
     0
  9
$REGENMODE
 70
     1
  9
$FILLMODE
 70
     1
  9
$QTEXTMODE
 70
     0
  9
$MIRRTEXT
 70
     1
  9
$DRAGMODE
 70
     2
  9
$LTSCALE
 40
1.0
  9
$OSMODE
 70
    37
  9
$ATTMODE
 70
     1
  9
$TEXTSIZE
 40
3.5
  9
$TRACEWID
 40
1.0
  9
$TEXTSTYLE
  7
STANDARD
  9
$CLAYER
  8
0
  9
$CELTYPE
  6
BYLAYER
  9
$CECOLOR
 62
   256
  9
$DIMSCALE
 40
1.0
  9
$DIMASZ
 40
4.0
  9
$DIMEXO
 40
1.0
  9
$DIMDLI
 40
3.75
  9
$DIMRND
 40
0.0
  9
$DIMDLE
 40
0.0
  9
$DIMEXE
 40
1.0
  9
$DIMTP
 40
0.0
  9
$DIMTM
 40
0.0
  9
$DIMTXT
 40
9.8777777778
  9
$DIMCEN
 40
2.5
  9
$DIMTSZ
 40
0.0
  9
$DIMTOL
 70
     0
  9
$DIMLIM
 70
     0
  9
$DIMTIH
 70
     1
  9
$DIMTOH
 70
     1
  9
$DIMSE1
 70
     0
  9
$DIMSE2
 70
     0
  9
$DIMTAD
 70
     1
  9
$DIMZIN
 70
     0
  9
$DIMBLK
  1

  9
$DIMASO
 70
     1
  9
$DIMSHO
 70
     1
  9
$DIMPOST
  1

  9
$DIMAPOST
  1

  9
$DIMALT
 70
     0
  9
$DIMALTD
 70
     3
  9
$DIMALTF
 40
0.0393700787
  9
$DIMLFAC
 40
2.0
  9
$DIMTOFL
 70
     1
  9
$DIMTVP
 40
0.0
  9
$DIMTIX
 70
     0
  9
$DIMSOXD
 70
     0
  9
$DIMSAH
 70
     0
  9
$DIMBLK1
  1

  9
$DIMBLK2
  1

  9
$DIMSTYLE
  2
ISO-25
  9
$DIMCLRD
 70
     0
  9
$DIMCLRE
 70
     0
  9
$DIMCLRT
 70
     0
  9
$DIMTFAC
 40
1.0
  9
$DIMGAP
 40
1.524
  9
$LUNITS
 70
     2
  9
$LUPREC
 70
     2
  9
$SKETCHINC
 40
1.0
  9
$FILLETRAD
 40
10.0
  9
$AUNITS
 70
     0
  9
$AUPREC
 70
     2
  9
$MENU
  1
.
  9
$ELEVATION
 40
0.0
  9
$PELEVATION
 40
0.0
  9
$THICKNESS
 40
0.0
  9
$LIMCHECK
 70
     0
  9
$CHAMFERA
 40
0.0
  9
$CHAMFERB
 40
0.0
  9
$SKPOLY
 70
     0
  9
$TDCREATE
 40
2460123.366113403
  9
$TDUPDATE
 40
2460123.366113947
  9
$TDINDWG
 40
0.0000000116
  9
$TDUSRTIMER
 40
0.0000000116
  9
$USRTIMER
 70
     1
  9
$ANGBASE
 50
0.0
  9
$ANGDIR
 70
     0
  9
$PDMODE
 70
     0
  9
$PDSIZE
 40
-1.0
  9
$PLINEWID
 40
0.0
  9
$COORDS
 70
     1
  9
$SPLFRAME
 70
     0
  9
$SPLINETYPE
 70
     6
  9
$SPLINESEGS
 70
     8
  9
$ATTDIA
 70
     0
  9
$ATTREQ
 70
     1
  9
$HANDLING
 70
     1
  9
$HANDSEED
  5
15D
  9
$SURFTAB1
 70
     6
  9
$SURFTAB2
 70
     6
  9
$SURFTYPE
 70
     6
  9
$SURFU
 70
     6
  9
$SURFV
 70
     6
  9
$UCSNAME
  2

  9
$UCSORG
 10
0.0
 20
0.0
 30
0.0
  9
$UCSXDIR
 10
1.0
 20
0.0
 30
0.0
  9
$UCSYDIR
 10
0.0
 20
1.0
 30
0.0
  9
$PUCSNAME
  2

  9
$PUCSORG
 10
0.0
 20
0.0
 30
0.0
  9
$PUCSXDIR
 10
1.0
 20
0.0
 30
0.0
  9
$PUCSYDIR
 10
0.0
 20
1.0
 30
0.0
  9
$USERI1
 70
     0
  9
$USERI2
 70
     0
  9
$USERI3
 70
     0
  9
$USERI4
 70
     0
  9
$USERI5
 70
     0
  9
$USERR1
 40
0.0
  9
$USERR2
 40
0.0
  9
$USERR3
 40
0.0
  9
$USERR4
 40
0.0
  9
$USERR5
 40
0.0
  9
$WORLDVIEW
 70
     1
  9
$SHADEDGE
 70
     3
  9
$SHADEDIF
 70
    70
  9
$TILEMODE
 70
     1
  9
$MAXACTVP
 70
    64
  9
$PLIMCHECK
 70
     0
  9
$PEXTMIN
 10
1.0000000000E+20
 20
1.0000000000E+20
 30
1.0000000000E+20
  9
$PEXTMAX
 10
-1.0000000000E+20
 20
-1.0000000000E+20
 30
-1.0000000000E+20
  9
$PLIMMIN
 10
0.0
 20
0.0
  9
$PLIMMAX
 10
420.0
 20
297.0
  9
$UNITMODE
 70
     0
  9
$VISRETAIN
 70
     1
  9
$PLINEGEN
 70
     0
  9
$PSLTSCALE
 70
     1
  0
ENDSEC
  0
SECTION
  2
TABLES
  0
TABLE
  2
VPORT
 70
     1
  0
VPORT
  2
*ACTIVE
 70
     0
 10
0.0
 20
0.0
 11
1.0
 21
1.0
 12
210.0
 22
148.5
 13
0.0
 23
0.0
 14
10.0
 24
10.0
 15
10.0
 25
10.0
 16
0.0
 26
0.0
 36
1.0
 17
0.0
 27
0.0
 37
0.0
 40
297.0
 41
1.4141414141
 42
50.0
 43
0.0
 44
0.0
 50
0.0
 51
0.0
 71
     0
 72
  2000
 73
     1
 74
     3
 75
     0
 76
     0
 77
     0
 78
     0
  0
ENDTAB
  0
TABLE
  2
LTYPE
 70
     6
  0
LTYPE
  2
CONTINUOUS
 70
     0
  3
Solid line
 72
    65
 73
     0
 40
0.0
  0
LTYPE
  2
HIDDEN
 70
     0
  3
Hidden __ __ __ __ __ __ __ __ __ __ __ __ __ __
 72
    65
 73
     2
 40
1.905
 49
1.27
 49
-0.635
  0
LTYPE
  2
PHANTOM
 70
     0
  3
Phantom ______  __  __  ______  __  __  ______
 72
    65
 73
     6
 40
12.7
 49
6.35
 49
-1.27
 49
1.27
 49
-1.27
 49
1.27
 49
-1.27
  0
LTYPE
  2
CENTER
 70
     0
  3
Center ____ _ ____ _ ____ _ ____ _ ____ _ ____
 72
    65
 73
     4
 40
10.16
 49
6.35
 49
-1.27
 49
1.27
 49
-1.27
  0
LTYPE
  2
CENTERX2
 70
     0
  3
Center (2x) ________  __  ________  __  _____
 72
    65
 73
     4
 40
20.32
 49
12.7
 49
-2.54
 49
2.54
 49
-2.54
  0
LTYPE
  2
DOT2
 70
     0
  3
Dot (.5x) ........................................
 72
    65
 73
     2
 40
0.635
 49
0.0
 49
-0.635
  0
ENDTAB
  0
TABLE
  2
LAYER
 70
     7
  0
LAYER
  2
0
 70
     0
 62
     7
  6
CONTINUOUS
  0
LAYER
  2
FORMAT
 70
     0
 62
     7
  6
CONTINUOUS
  0
LAYER
  2
RED
 70
     0
 62
     1
  6
CONTINUOUS
  0
LAYER
  2
GREEN
 70
     0
 62
   114
  6
CONTINUOUS
  0
LAYER
  2
BLUE
 70
     0
 62
     5
  6
CONTINUOUS
  0
LAYER
  2
BLATTFORMAT
 70
     0
 62
     7
  6
CONTINUOUS
  0
LAYER
  2
BEMAßUNG
 70
     0
 62
     7
  6
CONTINUOUS
  0
ENDTAB
  0
TABLE
  2
STYLE
 70
     1
  0
STYLE
  2
STANDARD
 70
     0
 40
0.0
 41
1.0
 50
0.0
 71
     0
 42
3.5
  3
txt
  4

  0
ENDTAB
  0
TABLE
  2
VIEW
 70
     0
  0
ENDTAB
  0
TABLE
  2
UCS
 70
     0
  0
ENDTAB
  0
TABLE
  2
APPID
 70
     1
  0
APPID
  2
ACAD
 70
     0
  0
ENDTAB
  0
TABLE
  2
DIMSTYLE
 70
     3
  0
DIMSTYLE
  2
ISO-25
 70
     0
  3

  4

  5

  6

  7

 40
1.0
 41
2.5
 42
0.625
 43
3.75
 44
1.25
 45
0.0
 46
0.0
 47
0.0
 48
0.0
140
2.5
141
2.5
142
0.0
143
0.0393700787
144
1.0
145
0.0
146
1.0
147
0.625
 71
     0
 72
     0
 73
     0
 74
     0
 75
     0
 76
     0
 77
     1
 78
     8
170
     0
171
     3
172
     1
173
     0
174
     0
175
     0
176
     0
177
     0
178
     0
  0
DIMSTYLE
  2
SLDDIMSTYLE0
 70
     0
  3

  4

  5

  6

  7

 40
1.0
 41
4.0
 42
0.0625
 43
0.38
 44
0.0
 45
0.000000001
 46
0.0
 47
0.0
 48
0.0
140
7.1912923177
141
0.09
142
0.0
143
25.4
144
1.0
145
0.0
146
1.0
147
1.7978230794
 71
     0
 72
     0
 73
     0
 74
     0
 75
     0
 76
     0
 77
     1
 78
    12
170
     0
171
     2
172
     0
173
     1
174
     0
175
     0
176
     0
177
     0
178
     0
  0
DIMSTYLE
  2
SLDDIMSTYLE1
 70
     0
  3

  4

  5

  6

  7

 40
1.0
 41
4.0
 42
0.0625
 43
0.38
 44
0.0
 45
0.000000001
 46
0.0
 47
0.0
 48
0.0
140
7.1912923177
141
0.09
142
0.0
143
25.4
144
1.0
145
0.0
146
1.0
147
1.7978230794
 71
     0
 72
     0
 73
     0
 74
     0
 75
     0
 76
     0
 77
     1
 78
    12
170
     0
171
     2
172
     0
173
     1
174
     0
175
     0
176
     0
177
     0
178
     0
  0
ENDTAB
  0
ENDSEC
  0
SECTION
  2
BLOCKS
  0
BLOCK
  8
0
  2
$MODEL_SPACE
 70
     0
 10
0.0
 20
0.0
 30
0.0
  3
$MODEL_SPACE
  1

  0
ENDBLK
  5
21
  8
0
  0
BLOCK
 67
     1
  8
0
  2
$PAPER_SPACE
 70
     0
 10
0.0
 20
0.0
 30
0.0
  3
$PAPER_SPACE
  1

  0
ENDBLK
  5
1D
 67
     1
  8
0
  0
BLOCK
  8
0
  2
_D
 70
     0
 10
0.0
 20
0.0
 30
0.0
  3
_D
  1

  0
SOLID
  5
10E
  8
BEMAßUNG
 10
250.6230402566
 20
261.2635989875
 30
0.0
 11
246.6230402566
 21
262.1635989875
 31
0.0
 12
246.6230402566
 22
260.3635989875
 32
0.0
 13
246.6230402566
 23
260.3635989875
 33
0.0
  0
SOLID
  5
10F
  8
BEMAßUNG
 10
167.2014480738
 20
261.2635989875
 30
0.0
 11
171.2014480738
 21
260.3635989875
 31
0.0
 12
171.2014480738
 22
262.1635989875
 32
0.0
 13
171.2014480738
 23
262.1635989875
 33
0.0
  0
LINE
  5
110
  8
BEMAßUNG
 10
250.6230402566
 20
252.1637957621
 30
0.0
 11
250.6230402566
 21
262.2635989875
 31
0.0
  0
LINE
  5
111
  8
BEMAßUNG
 10
167.2014480738
 20
252.1637957621
 30
0.0
 11
167.2014480738
 21
262.2635989875
 31
0.0
  0
LINE
  5
112
  8
BEMAßUNG
 10
250.6230402566
 20
261.2635989875
 30
0.0
 11
167.2014480738
 21
261.2635989875
 31
0.0
  0
TEXT
  5
113
  8
BEMAßUNG
 10
204.1960424508
 20
263.8806672795
 30
68.4740662936
 40
7.4083333333
  1
83
 50
0.0
 41
0.7
 11
204.1960424508
 21
261.2635989875
 31
68.4740662936
 73
     1
  0
ENDBLK
  5
10D
  8
0
  0
BLOCK
  8
0
  2
_D_1
 70
     0
 10
0.0
 20
0.0
 30
0.0
  3
_D_1
  1

  0
SOLID
  5
119
  8
BEMAßUNG
 10
267.107525461
 20
251.1637957621
 30
0.0
 11
266.207525461
 21
247.1637957621
 31
0.0
 12
268.007525461
 22
247.1637957621
 32
0.0
 13
268.007525461
 23
247.1637957621
 33
0.0
  0
SOLID
  5
11A
  8
BEMAßUNG
 10
267.107525461
 20
157.1637957621
 30
0.0
 11
268.007525461
 21
161.1637957621
 31
0.0
 12
266.207525461
 22
161.1637957621
 32
0.0
 13
266.207525461
 23
161.1637957621
 33
0.0
  0
LINE
  5
11B
  8
BEMAßUNG
 10
251.6230402566
 20
251.1637957621
 30
0.0
 11
268.107525461
 21
251.1637957621
 31
0.0
  0
LINE
  5
11C
  8
BEMAßUNG
 10
247.749006264
 20
157.1637957621
 30
0.0
 11
268.107525461
 21
157.1637957621
 31
0.0
  0
LINE
  5
11D
  8
BEMAßUNG
 10
267.107525461
 20
251.1637957621
 30
0.0
 11
267.107525461
 21
157.1637957621
 31
0.0
  0
TEXT
  5
11E
  8
BEMAßUNG
 10
264.4904571689
 20
199.2588101307
 30
68.4740662936
 40
7.4083333333
  1
94
 50
90.0
 41
0.7
 11
267.107525461
 21
199.2588101307
 31
68.4740662936
 73
     1
  0
ENDBLK
  5
118
  8
0
  0
ENDSEC
  0
SECTION
  2
ENTITIES
  0
LINE
  5
79
  8
0
  6
CONTINUOUS
 62
     7
 10
179.9294906728
 20
97.6295691203
 30
0.0
 11
237.8949976575
 21
97.6295691203
 31
0.0
  0
ARC
  5
7A
  8
0
  6
CONTINUOUS
 62
     7
 10
208.9122441652
 20
54.7795691203
 30
0.0
 40
77.15
 50
62.8435785241
 51
117.1564214759
  0
ARC
  5
7B
  8
0
  6
CONTINUOUS
 62
     7
 10
237.8949976575
 20
111.2795691203
 30
0.0
 40
13.64999999999999
 50
270.0
 51
62.8435785241
  0
ARC
  5
7C
  8
0
  6
CONTINUOUS
 62
     7
 10
179.9294906728
 20
111.2795691203
 30
0.0
 40
13.65000000000001
 50
117.1564214759
 51
180.0
  0
ARC
  5
7D
  8
0
  6
CONTINUOUS
 62
     7
 10
179.9294906728
 20
111.2795691203
 30
0.0
 40
13.65000000000001
 50
180.0
 51
270.0
  0
ARC
  5
7E
  8
0
  6
CONTINUOUS
 62
     7
 10
208.9122441652
 20
54.9795691203
 30
0.0
 40
72.50000000000001
 50
62.8435785241
 51
89.4279672927
  0
ARC
  5
7F
  8
0
  6
CONTINUOUS
 62
     7
 10
204.5565973486
 20
125.6559021457
 30
0.0
 40
5.478906948291105
 50
21.6454445638
 51
37.3461960058
  0
LINE
  5
80
  8
0
  6
CONTINUOUS
 62
     7
 10
209.6491548605
 20
127.6768621495
 30
0.0
 11
209.6491548605
 21
102.2785412654
 31
0.0
  0
ARC
  5
81
  8
0
  6
CONTINUOUS
 62
     7
 10
205.2729252893
 20
103.902677226
 30
0.0
 40
4.667890624065811
 50
321.2285007292
 51
339.6387616885
  0
ARC
  5
82
  8
0
  6
CONTINUOUS
 62
     7
 10
213.2949714859
 20
104.32441501
 30
0.0
 40
5.513283304325331
 50
201.7822903155
 51
217.3504472668
  0
LINE
  5
83
  8
0
  6
CONTINUOUS
 62
     7
 10
208.1753334699
 20
102.2785412654
 30
0.0
 11
208.1753334699
 21
127.6768621495
 31
0.0
  0
ARC
  5
84
  8
0
  6
CONTINUOUS
 62
     7
 10
212.5344692541
 20
126.0707815679
 30
0.0
 40
4.645595722830994
 50
141.2341815836
 51
159.7741778468
  0
ARC
  5
85
  8
0
  6
CONTINUOUS
 62
     7
 10
208.9122441652
 20
54.9795691203
 30
0.0
 40
72.50000000000001
 50
90.5720327073
 51
117.1564214759
  0
ARC
  5
86
  8
0
  6
CONTINUOUS
 62
     7
 10
237.8949976575
 20
111.4795691203
 30
0.0
 40
9.000000000000007
 50
270.0
 51
62.8435785241
  0
ARC
  5
87
  8
0
  6
CONTINUOUS
 62
     7
 10
179.9294906728
 20
111.4795691203
 30
0.0
 40
9.000000000000014
 50
117.1564214759
 51
270.0
  0
LINE
  5
88
  8
0
  6
CONTINUOUS
 62
     7
 10
179.9294906728
 20
102.4795691203
 30
0.0
 11
208.1753334699
 21
102.4795691203
 31
0.0
  0
LINE
  5
89
  8
0
  6
CONTINUOUS
 62
     7
 10
209.6491548605
 20
102.4795691203
 30
0.0
 11
237.8949976575
 21
102.4795691203
 31
0.0
  0
ARC
  5
8A
  8
0
  6
CONTINUOUS
 62
     7
 10
208.9122441652
 20
54.9795691203
 30
0.0
 40
76.70000000000002
 50
62.8435785241
 51
117.1564214759
  0
ARC
  5
8B
  8
0
  6
CONTINUOUS
 62
     7
 10
237.8949976575
 20
111.4795691203
 30
0.0
 40
13.20000000000001
 50
270.0
 51
62.8435785241
  0
ARC
  5
8C
  8
0
  6
CONTINUOUS
 62
     7
 10
179.9294906728
 20
111.4795691203
 30
0.0
 40
13.20000000000001
 50
117.1564214759
 51
270.0
  0
LINE
  5
8D
  8
0
  6
CONTINUOUS
 62
     7
 10
179.9294906728
 20
98.2795691203
 30
0.0
 11
237.8949976575
 21
98.2795691203
 31
0.0
  0
LINE
  5
8E
  8
0
  6
CENTER
 62
     7
 10
261.7768584957
 20
114.9777017075
 30
0.0
 11
156.0476298346
 21
114.9777017075
 31
0.0
  0
LINE
  5
8F
  8
0
  6
CONTINUOUS
 62
     7
 10
259.7768584957
 20
102.9777017075
 30
0.0
 11
259.7768584957
 21
114.9777017075
 31
0.0
  0
SOLID
  5
90
  8
0
  6
CONTINUOUS
 62
     7
 10
259.7768584957
 20
114.9777017075
 30
0.0
 11
258.2768584957
 21
108.9777017075
 31
0.0
 12
261.2768584957
 22
108.9777017075
 32
0.0
 13
261.2768584957
 23
108.9777017075
 33
0.0
  0
LINE
  5
91
  8
0
  6
CONTINUOUS
 62
     7
 10
158.0476298346
 20
102.9777017075
 30
0.0
 11
158.0476298346
 21
114.9777017075
 31
0.0
  0
SOLID
  5
92
  8
0
  6
CONTINUOUS
 62
     7
 10
158.0476298346
 20
114.9777017075
 30
0.0
 11
156.5476298346
 21
108.9777017075
 31
0.0
 12
159.5476298346
 22
108.9777017075
 32
0.0
 13
159.5476298346
 23
108.9777017075
 33
0.0
  0
TEXT
  5
93
  8
0
  6
CONTINUOUS
 62
     7
 10
262.282033627
 20
106.7107916514
 30
0.0
 40
6.35
  1
A
 41
0.7
 11
262.282033627
 21
113.0607916514
 31
0.0
 73
     3
  0
TEXT
  5
94
  8
0
  6
CONTINUOUS
 62
     7
 10
149.2795168753
 20
106.7107916514
 30
0.0
 40
6.35
  1
A
 41
0.7
 11
149.2795168753
 21
113.0607916514
 31
0.0
 73
     3
  0
LINE
  5
95
  8
0
  6
CONTINUOUS
 62
     7
 10
208.9122441697
 20
251.1637957666
 30
0.0
 11
208.17522122
 21
250.4267728169
 31
0.0
  0
LINE
  5
96
  8
0
  6
CONTINUOUS
 62
     7
 10
209.5958002034
 20
247.3572237397
 30
0.0
 11
208.2521417721
 21
246.0135653085
 31
0.0
  0
LINE
  5
97
  8
0
  6
CONTINUOUS
 62
     7
 10
209.5160323739
 20
242.7873278497
 30
0.0
 11
208.3425603525
 21
241.6138558284
 31
0.0
  0
LINE
  5
98
  8
0
  6
CONTINUOUS
 62
     7
 10
249.32339671
 20
251.1637957621
 30
0.0
 11
246.1873476503
 21
248.0277467024
 31
0.0
  0
LINE
  5
99
  8
0
  6
CONTINUOUS
 62
     7
 10
249.3135247705
 20
246.6637957621
 30
0.0
 11
246.1873476503
 21
243.5376186419
 31
0.0
  0
LINE
  5
9A
  8
0
  6
CONTINUOUS
 62
     7
 10
248.323951028
 20
241.184093959
 30
0.0
 11
246.7274983455
 21
239.5876412765
 31
0.0
  0
LINE
  5
9B
  8
0
  6
CONTINUOUS
 62
     7
 10
248.323951028
 20
236.6939658985
 30
0.0
 11
246.7274983455
 21
235.097513216
 31
0.0
  0
LINE
  5
9C
  8
0
  6
CONTINUOUS
 62
     7
 10
248.323951028
 20
232.2038378379
 30
0.0
 11
246.7274983455
 21
230.6073851554
 31
0.0
  0
LINE
  5
9D
  8
0
  6
CONTINUOUS
 62
     7
 10
248.323951028
 20
227.7137097774
 30
0.0
 11
246.7274983455
 21
226.1172570949
 31
0.0
  0
LINE
  5
9E
  8
0
  6
CONTINUOUS
 62
     7
 10
248.323951028
 20
223.2235817168
 30
0.0
 11
246.7274983455
 21
221.6271290344
 31
0.0
  0
LINE
  5
9F
  8
0
  6
CONTINUOUS
 62
     7
 10
248.323951028
 20
218.7334536563
 30
0.0
 11
246.7274983455
 21
217.1370009738
 31
0.0
  0
LINE
  5
A0
  8
0
  6
CONTINUOUS
 62
     7
 10
248.323951028
 20
214.2433255958
 30
0.0
 11
246.7274983455
 21
212.6468729133
 31
0.0
  0
LINE
  5
A1
  8
0
  6
CONTINUOUS
 62
     7
 10
248.323951028
 20
209.7531975352
 30
0.0
 11
246.7274983455
 21
208.1567448528
 31
0.0
  0
LINE
  5
A2
  8
0
  6
CONTINUOUS
 62
     7
 10
248.323951028
 20
205.2630694747
 30
0.0
 11
246.7274983455
 21
203.6666167922
 31
0.0
  0
LINE
  5
A3
  8
0
  6
CONTINUOUS
 62
     7
 10
248.323951028
 20
200.7729414142
 30
0.0
 11
246.7274983455
 21
199.1764887317
 31
0.0
  0
LINE
  5
A4
  8
0
  6
CONTINUOUS
 62
     7
 10
248.323951028
 20
196.2828133536
 30
0.0
 11
246.7274983455
 21
194.6863606712
 31
0.0
  0
LINE
  5
A5
  8
0
  6
CONTINUOUS
 62
     7
 10
248.323951028
 20
191.7926852931
 30
0.0
 11
246.7274983455
 21
190.1962326106
 31
0.0
  0
LINE
  5
A6
  8
0
  6
CONTINUOUS
 62
     7
 10
248.323951028
 20
187.3025572326
 30
0.0
 11
246.7274983455
 21
185.7061045501
 31
0.0
  0
LINE
  5
A7
  8
0
  6
CONTINUOUS
 62
     7
 10
248.323951028
 20
182.812429172
 30
0.0
 11
246.7274983455
 21
181.2159764896
 31
0.0
  0
LINE
  5
A8
  8
0
  6
CONTINUOUS
 62
     7
 10
248.323951028
 20
178.3223011115
 30
0.0
 11
246.7274983455
 21
176.725848429
 31
0.0
  0
LINE
  5
A9
  8
0
  6
CONTINUOUS
 62
     7
 10
248.323951028
 20
173.832173051
 30
0.0
 11
246.7274983455
 21
172.2357203685
 31
0.0
  0
LINE
  5
AA
  8
0
  6
CONTINUOUS
 62
     7
 10
248.323951028
 20
169.3420449904
 30
0.0
 11
246.7274983455
 21
167.7455923079
 31
0.0
  0
LINE
  5
AB
  8
0
  6
CONTINUOUS
 62
     7
 10
248.323951028
 20
164.8519169299
 30
0.0
 11
246.7274983455
 21
163.2554642474
 31
0.0
  0
LINE
  5
AC
  8
0
  6
CONTINUOUS
 62
     7
 10
248.323951028
 20
160.3617888694
 30
0.0
 11
246.7274983455
 21
158.7653361869
 31
0.0
  0
LINE
  5
AD
  8
0
  6
CONTINUOUS
 62
     7
 10
168.5010916204
 20
251.1637957621
 30
0.0
 11
167.2014480738
 21
249.8641522155
 31
0.0
  0
LINE
  5
AE
  8
0
  6
CONTINUOUS
 62
     7
 10
168.4912196809
 20
246.6637957621
 30
0.0
 11
167.4089847564
 21
245.5815608376
 31
0.0
  0
LINE
  5
AF
  8
0
  6
CONTINUOUS
 62
     7
 10
171.6218161876
 20
249.7943922688
 30
0.0
 11
169.1320109482
 21
247.3045870294
 31
0.0
  0
LINE
  5
B0
  8
0
  6
CONTINUOUS
 62
     7
 10
171.63714068
 20
245.3195887007
 30
0.0
 11
169.5005373024
 21
243.182985323
 31
0.0
  0
LINE
  5
B1
  8
0
  6
CONTINUOUS
 62
     7
 10
171.0969899849
 20
240.289309945
 30
0.0
 11
169.5005373024
 21
238.6928572625
 31
0.0
  0
LINE
  5
B2
  8
0
  6
CONTINUOUS
 62
     7
 10
171.0969899849
 20
235.7991818844
 30
0.0
 11
169.5005373024
 21
234.2027292019
 31
0.0
  0
LINE
  5
B3
  8
0
  6
CONTINUOUS
 62
     7
 10
171.0969899849
 20
231.3090538239
 30
0.0
 11
169.5005373024
 21
229.7126011414
 31
0.0
  0
LINE
  5
B4
  8
0
  6
CONTINUOUS
 62
     7
 10
171.0969899849
 20
226.8189257634
 30
0.0
 11
169.5005373024
 21
225.2224730809
 31
0.0
  0
LINE
  5
B5
  8
0
  6
CONTINUOUS
 62
     7
 10
171.0969899849
 20
222.3287977028
 30
0.0
 11
169.5005373024
 21
220.7323450203
 31
0.0
  0
LINE
  5
B6
  8
0
  6
CONTINUOUS
 62
     7
 10
171.0969899849
 20
217.8386696423
 30
0.0
 11
169.5005373024
 21
216.2422169598
 31
0.0
  0
LINE
  5
B7
  8
0
  6
CONTINUOUS
 62
     7
 10
171.0969899849
 20
213.3485415817
 30
0.0
 11
169.5005373024
 21
211.7520888993
 31
0.0
  0
LINE
  5
B8
  8
0
  6
CONTINUOUS
 62
     7
 10
171.0969899849
 20
208.8584135212
 30
0.0
 11
169.5005373024
 21
207.2619608387
 31
0.0
  0
LINE
  5
B9
  8
0
  6
CONTINUOUS
 62
     7
 10
171.0969899849
 20
204.3682854607
 30
0.0
 11
169.5005373024
 21
202.7718327782
 31
0.0
  0
LINE
  5
BA
  8
0
  6
CONTINUOUS
 62
     7
 10
171.0969899849
 20
199.8781574001
 30
0.0
 11
169.5005373024
 21
198.2817047177
 31
0.0
  0
LINE
  5
BB
  8
0
  6
CONTINUOUS
 62
     7
 10
171.0969899849
 20
195.3880293396
 30
0.0
 11
169.5005373024
 21
193.7915766571
 31
0.0
  0
LINE
  5
BC
  8
0
  6
CONTINUOUS
 62
     7
 10
171.0969899849
 20
190.8979012791
 30
0.0
 11
169.5005373024
 21
189.3014485966
 31
0.0
  0
LINE
  5
BD
  8
0
  6
CONTINUOUS
 62
     7
 10
171.0969899849
 20
186.4077732185
 30
0.0
 11
169.5005373024
 21
184.8113205361
 31
0.0
  0
LINE
  5
BE
  8
0
  6
CONTINUOUS
 62
     7
 10
171.0969899849
 20
181.917645158
 30
0.0
 11
169.5005373024
 21
180.3211924755
 31
0.0
  0
LINE
  5
BF
  8
0
  6
CONTINUOUS
 62
     7
 10
171.0969899849
 20
177.4275170975
 30
0.0
 11
169.5005373024
 21
175.831064415
 31
0.0
  0
LINE
  5
C0
  8
0
  6
CONTINUOUS
 62
     7
 10
171.0969899849
 20
172.9373890369
 30
0.0
 11
169.5005373024
 21
171.3409363545
 31
0.0
  0
LINE
  5
C1
  8
0
  6
CONTINUOUS
 62
     7
 10
171.0969899849
 20
168.4472609764
 30
0.0
 11
169.5005373024
 21
166.8508082939
 31
0.0
  0
LINE
  5
C2
  8
0
  6
CONTINUOUS
 62
     7
 10
171.0969899849
 20
163.9571329159
 30
0.0
 11
169.5005373024
 21
162.3606802334
 31
0.0
  0
LINE
  5
C3
  8
0
  6
CONTINUOUS
 62
     7
 10
171.0969899849
 20
159.4670048553
 30
0.0
 11
169.6510580302
 21
158.0210729007
 31
0.0
  0
LINE
  5
C4
  8
0
  6
CONTINUOUS
 62
     7
 10
166.8227294854
 20
248.3520298365
 30
0.0
 11
168.2498426482
 21
246.9249166737
 31
0.0
  0
LINE
  5
C5
  8
0
  6
CONTINUOUS
 62
     7
 10
248.6924773821
 20
246.9137957621
 30
0.0
 11
249.7302042688
 21
246.9137957621
 31
0.0
  0
LINE
  5
C6
  8
0
  6
CONTINUOUS
 62
     7
 10
249.7249106539
 20
249.4137957621
 30
0.0
 11
248.6924773821
 21
249.4137957621
 31
0.0
  0
LINE
  5
C7
  8
0
  6
CONTINUOUS
 62
     7
 10
168.0998536325
 20
246.9137957621
 30
0.0
 11
169.1320109482
 21
246.9137957621
 31
0.0
  0
LINE
  5
C8
  8
0
  6
CONTINUOUS
 62
     7
 10
169.1320109482
 20
249.4137957621
 30
0.0
 11
168.0943114807
 21
249.4137957621
 31
0.0
  0
POLYLINE
  5
C9
  8
0
  6
CONTINUOUS
 62
     7
 66
     1
 10
0.0
 20
0.0
 30
0.0
 70
   128
  0
VERTEX
  5
11F
  8
0
  6
CONTINUOUS
 62
     7
 10
250.914151182
 20
247.6383506347
 30
0.0
  0
VERTEX
  5
120
  8
0
  6
CONTINUOUS
 62
     7
 10
251.0268805386
 20
248.0286541177
 30
0.0
  0
VERTEX
  5
121
  8
0
  6
CONTINUOUS
 62
     7
 10
251.0036996599
 20
248.4343827591
 30
0.0
  0
VERTEX
  5
122
  8
0
  6
CONTINUOUS
 62
     7
 10
250.8487210508
 20
248.8079068385
 30
0.0
  0
VERTEX
  5
123
  8
0
  6
CONTINUOUS
 62
     7
 10
250.5773778448
 20
249.1153676353
 30
0.0
  0
VERTEX
  5
124
  8
0
  6
CONTINUOUS
 62
     7
 10
250.2107135912
 20
249.3264861293
 30
0.0
  0
VERTEX
  5
125
  8
0
  6
CONTINUOUS
 62
     7
 10
249.7793620441
 20
249.4129321482
 30
0.0
  0
VERTEX
  5
126
  8
0
  6
CONTINUOUS
 62
     7
 10
249.328300624
 20
249.3535176846
 30
0.0
  0
VERTEX
  5
127
  8
0
  6
CONTINUOUS
 62
     7
 10
248.9170568034
 20
249.1452728449
 30
0.0
  0
VERTEX
  5
128
  8
0
  6
CONTINUOUS
 62
     7
 10
248.6078548981
 20
248.8152898898
 30
0.0
  0
VERTEX
  5
129
  8
0
  6
CONTINUOUS
 62
     7
 10
248.4415681266
 20
248.4181413278
 30
0.0
  0
VERTEX
  5
12A
  8
0
  6
CONTINUOUS
 62
     7
 10
248.4238130119
 20
248.0108129165
 30
0.0
  0
VERTEX
  5
12B
  8
0
  6
CONTINUOUS
 62
     7
 10
248.5399250455
 20
247.6314712533
 30
0.0
  0
VERTEX
  5
12C
  8
0
  6
CONTINUOUS
 62
     7
 10
248.7751945674
 20
247.3052206375
 30
0.0
  0
VERTEX
  5
12D
  8
0
  6
CONTINUOUS
 62
     7
 10
249.116078104
 20
247.0592560972
 30
0.0
  0
VERTEX
  5
12E
  8
0
  6
CONTINUOUS
 62
     7
 10
249.5382901292
 20
246.9273406192
 30
0.0
  0
VERTEX
  5
12F
  8
0
  6
CONTINUOUS
 62
     7
 10
249.9960566845
 20
246.9397766918
 30
0.0
  0
VERTEX
  5
130
  8
0
  6
CONTINUOUS
 62
     7
 10
250.4252865278
 20
247.1051273399
 30
0.0
  0
VERTEX
  5
131
  8
0
  6
CONTINUOUS
 62
     7
 10
250.7635379072
 20
247.3998415534
 30
0.0
  0
VERTEX
  5
132
  8
0
  6
CONTINUOUS
 62
     7
 10
250.914151182
 20
247.6383506347
 30
0.0
  0
SEQEND
  5
159
  8
0
  6
CONTINUOUS
 62
     7
  0
POLYLINE
  5
CA
  8
0
  6
CONTINUOUS
 62
     7
 66
     1
 10
0.0
 20
0.0
 30
0.0
 70
   128
  0
VERTEX
  5
133
  8
0
  6
CONTINUOUS
 62
     7
 10
169.2417505699
 20
247.552869449
 30
0.0
  0
VERTEX
  5
134
  8
0
  6
CONTINUOUS
 62
     7
 10
169.3868932192
 20
247.9282095346
 30
0.0
  0
VERTEX
  5
135
  8
0
  6
CONTINUOUS
 62
     7
 10
169.3987563229
 20
248.3308074057
 30
0.0
  0
VERTEX
  5
136
  8
0
  6
CONTINUOUS
 62
     7
 10
169.2782273194
 20
248.7086554432
 30
0.0
  0
VERTEX
  5
137
  8
0
  6
CONTINUOUS
 62
     7
 10
169.038984646
 20
249.0325832933
 30
0.0
  0
VERTEX
  5
138
  8
0
  6
CONTINUOUS
 62
     7
 10
168.694718647
 20
249.2751282013
 30
0.0
  0
VERTEX
  5
139
  8
0
  6
CONTINUOUS
 62
     7
 10
168.2703370308
 20
249.4024004503
 30
0.0
  0
VERTEX
  5
13A
  8
0
  6
CONTINUOUS
 62
     7
 10
167.8124242494
 20
249.3845437112
 30
0.0
  0
VERTEX
  5
13B
  8
0
  6
CONTINUOUS
 62
     7
 10
167.3854232678
 20
249.2140516657
 30
0.0
  0
VERTEX
  5
13C
  8
0
  6
CONTINUOUS
 62
     7
 10
167.0512738341
 20
248.9155511631
 30
0.0
  0
VERTEX
  5
13D
  8
0
  6
CONTINUOUS
 62
     7
 10
166.8489355292
 20
248.5360810432
 30
0.0
  0
VERTEX
  5
13E
  8
0
  6
CONTINUOUS
 62
     7
 10
166.7905820703
 20
248.1262509821
 30
0.0
  0
VERTEX
  5
13F
  8
0
  6
CONTINUOUS
 62
     7
 10
166.8710684818
 20
247.7290905621
 30
0.0
  0
VERTEX
  5
140
  8
0
  6
CONTINUOUS
 62
     7
 10
167.0774416351
 20
247.3797446769
 30
0.0
  0
VERTEX
  5
141
  8
0
  6
CONTINUOUS
 62
     7
 10
167.3921238284
 20
247.1094196479
 30
0.0
  0
VERTEX
  5
142
  8
0
  6
CONTINUOUS
 62
     7
 10
167.7906390254
 20
246.9478240521
 30
0.0
  0
VERTEX
  5
143
  8
0
  6
CONTINUOUS
 62
     7
 10
168.2367539068
 20
246.9212582745
 30
0.0
  0
VERTEX
  5
144
  8
0
  6
CONTINUOUS
 62
     7
 10
168.67883572
 20
247.0448233832
 30
0.0
  0
VERTEX
  5
145
  8
0
  6
CONTINUOUS
 62
     7
 10
169.0538573028
 20
247.3098156599
 30
0.0
  0
VERTEX
  5
146
  8
0
  6
CONTINUOUS
 62
     7
 10
169.2417505699
 20
247.552869449
 30
0.0
  0
SEQEND
  5
15A
  8
0
  6
CONTINUOUS
 62
     7
  0
LINE
  5
CB
  8
0
  6
CONTINUOUS
 62
     7
 10
167.4089847564
 20
246.6637957621
 30
0.0
 11
169.1320109482
 21
246.6637957621
 31
0.0
  0
LINE
  5
CC
  8
0
  6
CONTINUOUS
 62
     7
 10
169.1320109482
 20
246.6637957621
 30
0.0
 11
169.1320109482
 21
249.6637957621
 31
0.0
  0
LINE
  5
CD
  8
0
  6
CONTINUOUS
 62
     7
 10
167.2014480738
 20
249.6637957621
 30
0.0
 11
169.1320109482
 21
249.6637957621
 31
0.0
  0
LINE
  5
CE
  8
0
  6
CONTINUOUS
 62
     7
 10
167.2014480738
 20
249.6637957621
 30
0.0
 11
167.2014480738
 21
251.1637957621
 31
0.0
  0
LINE
  5
CF
  8
0
  6
CONTINUOUS
 62
     7
 10
167.2014480738
 20
251.1637957621
 30
0.0
 11
170.0293357042
 21
251.1637957621
 31
0.0
  0
ARC
  5
D0
  8
0
  6
CONTINUOUS
 62
     7
 10
170.0752028444
 20
249.6012804261
 30
0.0
 40
1.56318839862813
 50
2.2919952493
 51
91.6814165194
  0
LINE
  5
D1
  8
0
  6
CONTINUOUS
 62
     7
 10
171.63714068
 20
241.6637957621
 30
0.0
 11
171.63714068
 21
249.6637957621
 31
0.0
  0
LINE
  5
D2
  8
0
  6
CONTINUOUS
 62
     7
 10
171.0969899849
 20
241.1637957621
 30
0.0
 11
171.63714068
 21
241.6637957621
 31
0.0
  0
LINE
  5
D3
  8
0
  6
CONTINUOUS
 62
     7
 10
171.0969899849
 20
157.1637957621
 30
0.0
 11
171.0969899849
 21
241.1637957621
 31
0.0
  0
ARC
  5
D4
  8
0
  6
CONTINUOUS
 62
     7
 10
171.0293339092
 20
158.6926773204
 30
0.0
 40
1.529577873695616
 50
181.831344434
 51
271.7289057236
  0
LINE
  5
D5
  8
0
  6
CONTINUOUS
 62
     7
 10
169.5005373024
 20
158.6437957621
 30
0.0
 11
169.5005373024
 21
245.1637957621
 31
0.0
  0
LINE
  5
D6
  8
0
  6
CONTINUOUS
 62
     7
 10
167.4089847564
 20
245.1637957621
 30
0.0
 11
169.5005373024
 21
245.1637957621
 31
0.0
  0
LINE
  5
D7
  8
0
  6
CONTINUOUS
 62
     7
 10
167.4089847564
 20
245.1637957621
 30
0.0
 11
167.4089847564
 21
246.6637957621
 31
0.0
  0
LINE
  5
D8
  8
0
  6
CONTINUOUS
 62
     7
 10
171.0754820664
 20
157.1637957621
 30
0.0
 11
171.0969899849
 21
157.1637957621
 31
0.0
  0
LINE
  5
D9
  8
0
  6
CONTINUOUS
 62
     7
 10
175.5934881818
 20
241.1637957621
 30
0.0
 11
171.0969899849
 21
241.1637957621
 31
0.0
  0
LINE
  5
DA
  8
0
  6
CONTINUOUS
 62
     7
 10
175.5934881818
 20
157.1637957621
 30
0.0
 11
175.5934881818
 21
241.1637957621
 31
0.0
  0
LINE
  5
DB
  8
0
  6
CONTINUOUS
 62
     7
 10
175.5934881818
 20
157.1637957621
 30
0.0
 11
171.0969899849
 21
157.1637957621
 31
0.0
  0
LINE
  5
DC
  8
0
  6
CONTINUOUS
 62
     7
 10
248.323951028
 20
245.1637957621
 30
0.0
 11
250.4155035739
 21
245.1637957621
 31
0.0
  0
LINE
  5
DD
  8
0
  6
CONTINUOUS
 62
     7
 10
248.323951028
 20
245.1637957621
 30
0.0
 11
248.323951028
 21
158.6437957621
 31
0.0
  0
ARC
  5
DE
  8
0
  6
CONTINUOUS
 62
     7
 10
246.7923869144
 20
158.6956223678
 30
0.0
 40
1.532440743066916
 50
268.3778424848
 51
358.0619073576
  0
LINE
  5
DF
  8
0
  6
CONTINUOUS
 62
     7
 10
246.7274983455
 20
241.1637957621
 30
0.0
 11
246.7274983455
 21
157.1637957621
 31
0.0
  0
LINE
  5
E0
  8
0
  6
CONTINUOUS
 62
     7
 10
246.1873476503
 20
241.6637957621
 30
0.0
 11
246.7274983455
 21
241.1637957621
 31
0.0
  0
LINE
  5
E1
  8
0
  6
CONTINUOUS
 62
     7
 10
246.1873476503
 20
249.6637957621
 30
0.0
 11
246.1873476503
 21
241.6637957621
 31
0.0
  0
ARC
  5
E2
  8
0
  6
CONTINUOUS
 62
     7
 10
247.7570123784
 20
249.592998202
 30
0.0
 40
1.571260529996419
 50
88.6090849741
 51
177.4175032572
  0
LINE
  5
E3
  8
0
  6
CONTINUOUS
 62
     7
 10
247.7951526262
 20
251.1637957621
 30
0.0
 11
250.6230402566
 21
251.1637957621
 31
0.0
  0
LINE
  5
E4
  8
0
  6
CONTINUOUS
 62
     7
 10
250.6230402566
 20
251.1637957621
 30
0.0
 11
250.6230402566
 21
249.6637957621
 31
0.0
  0
LINE
  5
E5
  8
0
  6
CONTINUOUS
 62
     7
 10
248.6924773821
 20
249.6637957621
 30
0.0
 11
250.6230402566
 21
249.6637957621
 31
0.0
  0
LINE
  5
E6
  8
0
  6
CONTINUOUS
 62
     7
 10
248.6924773821
 20
249.6637957621
 30
0.0
 11
248.6924773821
 21
246.6637957621
 31
0.0
  0
LINE
  5
E7
  8
0
  6
CONTINUOUS
 62
     7
 10
248.6924773821
 20
246.6637957621
 30
0.0
 11
250.4155035739
 21
246.6637957621
 31
0.0
  0
LINE
  5
E8
  8
0
  6
CONTINUOUS
 62
     7
 10
250.4155035739
 20
246.6637957621
 30
0.0
 11
250.4155035739
 21
245.1637957621
 31
0.0
  0
LINE
  5
E9
  8
0
  6
CONTINUOUS
 62
     7
 10
246.7274983455
 20
157.1637957621
 30
0.0
 11
246.749006264
 21
157.1637957621
 31
0.0
  0
LINE
  5
EA
  8
0
  6
CONTINUOUS
 62
     7
 10
242.2310001485
 20
157.1637957621
 30
0.0
 11
242.2310001485
 21
241.1637957621
 31
0.0
  0
LINE
  5
EB
  8
0
  6
CONTINUOUS
 62
     7
 10
246.7274983455
 20
241.1637957621
 30
0.0
 11
242.2310001485
 21
241.1637957621
 31
0.0
  0
LINE
  5
EC
  8
0
  6
CONTINUOUS
 62
     7
 10
246.7274983455
 20
157.1637957621
 30
0.0
 11
242.2310001485
 21
157.1637957621
 31
0.0
  0
LINE
  5
ED
  8
0
  6
CONTINUOUS
 62
     7
 10
175.8216988392
 20
249.6637957621
 30
0.0
 11
171.63714068
 21
249.6637957621
 31
0.0
  0
LINE
  5
EE
  8
0
  6
CONTINUOUS
 62
     7
 10
175.8216988392
 20
249.6637957621
 30
0.0
 11
175.8216988392
 21
241.6637957621
 31
0.0
  0
LINE
  5
EF
  8
0
  6
CONTINUOUS
 62
     7
 10
175.8216988392
 20
241.6637957621
 30
0.0
 11
171.63714068
 21
241.6637957621
 31
0.0
  0
LINE
  5
F0
  8
0
  6
CONTINUOUS
 62
     7
 10
175.8216988392
 20
241.6637957621
 30
0.0
 11
175.5934881818
 21
241.1637957621
 31
0.0
  0
LINE
  5
F1
  8
0
  6
CONTINUOUS
 62
     7
 10
209.6491548605
 20
250.4139099974
 30
0.0
 11
209.6360615678
 21
249.6637957621
 31
0.0
  0
LINE
  5
F2
  8
0
  6
CONTINUOUS
 62
     7
 10
209.6360615678
 20
249.6637957621
 30
0.0
 11
209.4977364918
 21
241.7391574691
 31
0.0
  0
ARC
  5
F3
  8
0
  6
CONTINUOUS
 62
     7
 10
208.9122441652
 20
241.7493772756
 30
0.0
 40
0.585581513571463
 50
181.0
 51
359.0
  0
LINE
  5
F4
  8
0
  6
CONTINUOUS
 62
     7
 10
208.3267518385
 20
241.7391574691
 30
0.0
 11
208.1884267626
 21
249.6637957621
 31
0.0
  0
LINE
  5
F5
  8
0
  6
CONTINUOUS
 62
     7
 10
208.1884267626
 20
249.6637957621
 30
0.0
 11
208.1753334699
 21
250.4139099974
 31
0.0
  0
ARC
  5
F6
  8
0
  6
CONTINUOUS
 62
     7
 10
208.9122441652
 20
250.4267728215
 30
0.0
 40
0.7370229474545984
 50
359.0
 51
181.0
  0
LINE
  5
F7
  8
0
  6
CONTINUOUS
 62
     7
 10
246.1873476503
 20
241.6637957621
 30
0.0
 11
242.0027894911
 21
241.6637957621
 31
0.0
  0
LINE
  5
F8
  8
0
  6
CONTINUOUS
 62
     7
 10
242.0027894911
 20
249.6637957621
 30
0.0
 11
242.0027894911
 21
241.6637957621
 31
0.0
  0
LINE
  5
F9
  8
0
  6
CONTINUOUS
 62
     7
 10
246.1873476503
 20
249.6637957621
 30
0.0
 11
242.0027894911
 21
249.6637957621
 31
0.0
  0
LINE
  5
FA
  8
0
  6
CONTINUOUS
 62
     7
 10
242.0027894911
 20
241.6637957621
 30
0.0
 11
242.2310001485
 21
241.1637957621
 31
0.0
  0
POLYLINE
  5
FB
  8
0
  6
CONTINUOUS
 62
     7
 66
     1
 10
0.0
 20
0.0
 30
0.0
 70
   128
  0
VERTEX
  5
147
  8
0
  6
CONTINUOUS
 62
     7
 10
175.137066867
 20
251.1637957621
 30
0.0
  0
VERTEX
  5
148
  8
0
  6
CONTINUOUS
 62
     7
 10
175.2706319389
 20
251.1349736827
 30
0.0
  0
VERTEX
  5
149
  8
0
  6
CONTINUOUS
 62
     7
 10
175.39906418
 20
251.0496150608
 30
0.0
  0
VERTEX
  5
14A
  8
0
  6
CONTINUOUS
 62
     7
 10
175.5174280113
 20
250.9110001805
 30
0.0
  0
VERTEX
  5
14B
  8
0
  6
CONTINUOUS
 62
     7
 10
175.6211747772
 20
250.7244559338
 30
0.0
  0
VERTEX
  5
14C
  8
0
  6
CONTINUOUS
 62
     7
 10
175.7063175475
 20
250.4971511116
 30
0.0
  0
VERTEX
  5
14D
  8
0
  6
CONTINUOUS
 62
     7
 10
175.7695843334
 20
250.2378209106
 30
0.0
  0
VERTEX
  5
14E
  8
0
  6
CONTINUOUS
 62
     7
 10
175.8085438279
 20
249.9564312451
 30
0.0
  0
VERTEX
  5
14F
  8
0
  6
CONTINUOUS
 62
     7
 10
175.8216988392
 20
249.6637957621
 30
0.0
  0
SEQEND
  5
15B
  8
0
  6
CONTINUOUS
 62
     7
  0
LINE
  5
FC
  8
0
  6
CONTINUOUS
 62
     7
 10
170.0293357042
 20
251.1637957621
 30
0.0
 11
175.137066867
 21
251.1637957621
 31
0.0
  0
POLYLINE
  5
FD
  8
0
  6
CONTINUOUS
 62
     7
 66
     1
 10
0.0
 20
0.0
 30
0.0
 70
   128
  0
VERTEX
  5
150
  8
0
  6
CONTINUOUS
 62
     7
 10
242.0027894911
 20
249.6637957621
 30
0.0
  0
VERTEX
  5
151
  8
0
  6
CONTINUOUS
 62
     7
 10
242.0159445025
 20
249.9564312451
 30
0.0
  0
VERTEX
  5
152
  8
0
  6
CONTINUOUS
 62
     7
 10
242.0549039969
 20
250.2378209106
 30
0.0
  0
VERTEX
  5
153
  8
0
  6
CONTINUOUS
 62
     7
 10
242.1181707828
 20
250.4971511116
 30
0.0
  0
VERTEX
  5
154
  8
0
  6
CONTINUOUS
 62
     7
 10
242.2033135532
 20
250.7244559338
 30
0.0
  0
VERTEX
  5
155
  8
0
  6
CONTINUOUS
 62
     7
 10
242.307060319
 20
250.9110001805
 30
0.0
  0
VERTEX
  5
156
  8
0
  6
CONTINUOUS
 62
     7
 10
242.4254241503
 20
251.0496150608
 30
0.0
  0
VERTEX
  5
157
  8
0
  6
CONTINUOUS
 62
     7
 10
242.5538563914
 20
251.1349736827
 30
0.0
  0
VERTEX
  5
158
  8
0
  6
CONTINUOUS
 62
     7
 10
242.6874214634
 20
251.1637957621
 30
0.0
  0
SEQEND
  5
15C
  8
0
  6
CONTINUOUS
 62
     7
  0
LINE
  5
FE
  8
0
  6
CONTINUOUS
 62
     7
 10
242.6874214634
 20
251.1637957621
 30
0.0
 11
247.7951526262
 21
251.1637957621
 31
0.0
  0
LINE
  5
FF
  8
0
  6
CONTINUOUS
 62
     7
 10
242.0027894911
 20
241.6637957621
 30
0.0
 11
209.4915381437
 21
241.6637957621
 31
0.0
  0
LINE
  5
100
  8
0
  6
CONTINUOUS
 62
     7
 10
242.2310001485
 20
241.1637957621
 30
0.0
 11
208.9122441652
 21
241.1637957621
 31
0.0
  0
LINE
  5
101
  8
0
  6
CONTINUOUS
 62
     7
 10
242.0027894911
 20
249.6637957621
 30
0.0
 11
209.6360615678
 21
249.6637957621
 31
0.0
  0
LINE
  5
102
  8
0
  6
CONTINUOUS
 62
     7
 10
208.9122441652
 20
251.1637957621
 30
0.0
 11
242.6874214634
 21
251.1637957621
 31
0.0
  0
LINE
  5
103
  8
0
  6
CONTINUOUS
 62
     7
 10
208.9122441652
 20
241.1637957621
 30
0.0
 11
175.5934881818
 21
241.1637957621
 31
0.0
  0
LINE
  5
104
  8
0
  6
CONTINUOUS
 62
     7
 10
208.3329501866
 20
241.6637957621
 30
0.0
 11
175.8216988392
 21
241.6637957621
 31
0.0
  0
LINE
  5
105
  8
0
  6
CONTINUOUS
 62
     7
 10
208.1884267626
 20
249.6637957621
 30
0.0
 11
175.8216988392
 21
249.6637957621
 31
0.0
  0
LINE
  5
106
  8
0
  6
CONTINUOUS
 62
     7
 10
175.137066867
 20
251.1637957621
 30
0.0
 11
208.9122441652
 21
251.1637957621
 31
0.0
  0
LINE
  5
107
  8
0
  6
CONTINUOUS
 62
     7
 10
242.2310001485
 20
157.1637957621
 30
0.0
 11
175.5934881818
 21
157.1637957621
 31
0.0
  0
LINE
  5
108
  8
0
  6
CENTERX2
 62
     7
 10
208.9122441652
 20
157.1637957621
 30
0.0
 11
208.9122441652
 21
251.1637957621
 31
0.0
  0
DIMENSION
  5
109
  8
BEMAßUNG
  2
_D
 10
167.2014480738
 20
261.2635989875
 30
0.0
 11
209.6836968089
 21
261.2635989875
 31
0.0
 70
   160
  1
<>
  3
SLDDIMSTYLE0
 13
250.6230402566
 23
251.1637957621
 33
0.0
 14
167.2014480738
 24
251.1637957621
 34
0.0
  0
DIMENSION
  5
114
  8
BEMAßUNG
  2
_D_1
 10
267.107525461
 20
157.1637957621
 30
0.0
 11
267.107525461
 21
204.7464644889
 31
0.0
 70
   160
  1
<>
  3
SLDDIMSTYLE1
 13
250.6230402566
 23
251.1637957621
 33
0.0
 14
246.749006264
 24
157.1637957621
 34
0.0
 50
90.0
  0
ENDSEC
  0
EOF
