  0
SECTION
  2
HEADER
  9
$ACADVER
  1
AC1009
  9
$INSBASE
 10
0.0
 20
0.0
 30
0.0
  9
$EXTMIN
 10
-315.0
 20
-148.5
 30
0.0
  9
$EXTMAX
 10
525.0
 20
445.5
 30
0.0
  9
$LIMMIN
 10
-315.0
 20
-148.5
  9
$LIMMAX
 10
525.0
 20
445.5
  9
$ORTHOMODE
 70
     0
  9
$REGENMODE
 70
     1
  9
$FILLMODE
 70
     1
  9
$QTEXTMODE
 70
     0
  9
$MIRRTEXT
 70
     1
  9
$DRAGMODE
 70
     2
  9
$LTSCALE
 40
2.0
  9
$OSMODE
 70
     0
  9
$ATTMODE
 70
     1
  9
$TEXTSIZE
 40
0.2
  9
$TRACEWID
 40
0.05
  9
$TEXTSTYLE
  7
STANDARD
  9
$CLAYER
  8
0
  9
$CELTYPE
  6
BYLAYER
  9
$CECOLOR
 62
     7
  9
$DIMSCALE
 40
2.0
  9
$DIMASZ
 40
3.5
  9
$DIMEXO
 40
0.0625
  9
$DIMDLI
 40
0.38
  9
$DIMRND
 40
0.0
  9
$DIMDLE
 40
0.0
  9
$DIMEXE
 40
0.18
  9
$DIMTP
 40
0.0
  9
$DIMTM
 40
0.0
  9
$DIMTXT
 40
3.5
  9
$DIMCEN
 40
0.09
  9
$DIMTSZ
 40
0.0
  9
$DIMTOL
 70
     0
  9
$DIMLIM
 70
     0
  9
$DIMTIH
 70
     1
  9
$DIMTOH
 70
     1
  9
$DIMSE1
 70
     0
  9
$DIMSE2
 70
     0
  9
$DIMTAD
 70
     1
  9
$DIMZIN
 70
     0
  9
$DIMBLK
  1

  9
$DIMASO
 70
     1
  9
$DIMSHO
 70
     1
  9
$DIMPOST
  1

  9
$DIMAPOST
  1

  9
$DIMALT
 70
     0
  9
$DIMALTD
 70
     2
  9
$DIMALTF
 40
25.4
  9
$DIMLFAC
 40
1.0
  9
$DIMTOFL
 70
     0
  9
$DIMTVP
 40
0.0
  9
$DIMTIX
 70
     0
  9
$DIMSOXD
 70
     0
  9
$DIMSAH
 70
     0
  9
$DIMBLK1
  1

  9
$DIMBLK2
  1

  9
$DIMSTYLE
  2
STANDARD
  9
$DIMCLRD
 70
     0
  9
$DIMCLRE
 70
     0
  9
$DIMCLRT
 70
     0
  9
$DIMTFAC
 40
1.0
  9
$DIMGAP
 40
0.09
  9
$LUNITS
 70
     2
  9
$LUPREC
 70
     2
  9
$AXISMODE
 70
     0
  9
$AXISUNIT
 10
0.0
 20
0.0
  9
$SKETCHINC
 40
0.1
  9
$FILLETRAD
 40
0.0
  9
$AUNITS
 70
     0
  9
$AUPREC
 70
     0
  9
$MENU
  1
acad
  9
$ELEVATION
 40
0.0
  9
$PELEVATION
 40
0.0
  9
$THICKNESS
 40
0.0
  9
$LIMCHECK
 70
     0
  9
$BLIPMODE
 70
     1
  9
$CHAMFERA
 40
0.0
  9
$CHAMFERB
 40
0.0
  9
$SKPOLY
 70
     0
  9
$TDCREATE
 40
0.000000000
  9
$TDUPDATE
 40
0.000000000
  9
$TDINDWG
 40
0.0000000000
  9
$TDUSRTIMER
 40
0.0000000000
  9
$USRTIMER
 70
     1
  9
$ANGBASE
 50
0.0
  9
$ANGDIR
 70
     0
  9
$PDMODE
 70
     0
  9
$PDSIZE
 40
0.0
  9
$PLINEWID
 40
0.0
  9
$COORDS
 70
     0
  9
$SPLFRAME
 70
     0
  9
$SPLINETYPE
 70
     6
  9
$SPLINESEGS
 70
     8
  9
$ATTDIA
 70
     0
  9
$ATTREQ
 70
     1
  9
$HANDLING
 70
     1
  9
$HANDSEED
  5
B9
  9
$SURFTAB1
 70
     6
  9
$SURFTAB2
 70
     6
  9
$SURFTYPE
 70
     6
  9
$SURFU
 70
     6
  9
$SURFV
 70
     6
  9
$UCSNAME
  2

  9
$UCSORG
 10
0.0
 20
0.0
 30
0.0
  9
$UCSXDIR
 10
1.0
 20
0.0
 30
0.0
  9
$UCSYDIR
 10
0.0
 20
1.0
 30
0.0
  9
$PUCSNAME
  2

  9
$PUCSORG
 10
0.0
 20
0.0
 30
0.0
  9
$PUCSXDIR
 10
1.0
 20
0.0
 30
0.0
  9
$PUCSYDIR
 10
0.0
 20
1.0
 30
0.0
  9
$USERI1
 70
     0
  9
$USERI2
 70
     0
  9
$USERI3
 70
     0
  9
$USERI4
 70
     0
  9
$USERI5
 70
     0
  9
$USERR1
 40
0.0
  9
$USERR2
 40
0.0
  9
$USERR3
 40
0.0
  9
$USERR4
 40
0.0
  9
$USERR5
 40
0.0
  9
$WORLDVIEW
 70
     1
  9
$SHADEDGE
 70
     3
  9
$SHADEDIF
 70
    70
  9
$TILEMODE
 70
     1
  9
$MAXACTVP
 70
    16
  9
$PINSBASE
 10
0.0
 20
0.0
 30
0.0
  9
$PLIMCHECK
 70
     0
  9
$PEXTMIN
 10
1.000000E+20
 20
1.000000E+20
 30
1.000000E+20
  9
$PEXTMAX
 10
-1.000000E+20
 20
-1.000000E+20
 30
-1.000000E+20
  9
$PLIMMIN
 10
-315.0
 20
-148.5
  9
$PLIMMAX
 10
525.0
 20
445.5
  9
$UNITMODE
 70
     0
  9
$VISRETAIN
 70
     0
  9
$PLINEGEN
 70
     1
  9
$PSLTSCALE
 70
     0
  9
$TREEDEPTH
 70
  3020
  9
$DWGCODEPAGE
  3
dos850
  0
ENDSEC
  0
SECTION
  2
TABLES
  0
TABLE
  2
VPORT
 70
     1
  0
VPORT
  2
*ACTIVE
 70
     0
 10
0.0
 20
0.0
 11
1.0
 21
1.0
 12
420.0
 22
297.0
 13
0.0
 23
0.0
 14
1.0
 24
1.0
 15
0.0
 25
0.0
 16
0.0
 26
0.0
 36
1.0
 17
-315.0
 27
-148.5
 37
0.0
 40
594.0
 41
1.604229
 42
50.0
 43
0.0
 44
0.0
 50
0.0
 51
0.0
 71
     0
 72
   100
 73
     1
 74
     1
 75
     0
 76
     0
 77
     0
 78
     0
  0
ENDTAB
  0
TABLE
  2
LTYPE
 70
     1
  0
LTYPE
  2
CONTINUOUS
 70
    64
  3
Solid line
 72
    65
 73
     0
 40
0.0
  0
ENDTAB
  0
TABLE
  2
LAYER
 70
     9
  0
LAYER
  2
0
 70
     0
 62
     7
  6
CONTINUOUS
  0
LAYER
  2
LC-INFO-1-2-MM-A3-0
 70
     1
 62
    -1
  6
CONTINUOUS
  0
LAYER
  2
LC-005-003-MTH-0
 70
     0
 62
     2
  6
CONTINUOUS
  0
LAYER
  2
LC-006-003-MTG-0
 70
     0
 62
     2
  6
CONTINUOUS
  0
LAYER
  2
LC-004-003-----0
 70
     0
 62
     2
  6
CONTINUOUS
  0
LAYER
  2
LC-001-000-----0
 70
     0
 62
     7
  6
CONTINUOUS
  0
LAYER
  2
LC-002-002-----0
 70
     0
 62
     1
  6
CONTINUOUS
  0
LAYER
  2
LC-003-002-RND-0
 70
     0
 62
     1
  6
CONTINUOUS
  0
LAYER
  2
LC-000
 70
     0
 62
     7
  6
CONTINUOUS
  0
ENDTAB
  0
TABLE
  2
STYLE
 70
     4
  0
STYLE
  2
STANDARD
 70
     0
 40
0.0
 41
1.0
 50
0.0
 71
     0
 42
0.0
  3
txt
  4

  0
STYLE
  2
LC-STANDARD
 70
    64
 40
0.0
 41
1.0
 50
0.0
 71
     0
 42
3.5
  3
MONOTXT
  4

  0
STYLE
  2
LC-TXTSTYLE-150-400-0-0-A2
 70
    64
 40
0.0
 41
1.0
 50
15.0
 71
     0
 42
3.5
  3
MONOTXT
  4

  0
STYLE
  2
LC-TXTSTYLE-150-400-0-0-D3
 70
    64
 40
0.0
 41
1.0
 50
15.0
 71
     0
 42
3.5
  3
LC-STANDARD
  4

  0
ENDTAB
  0
TABLE
  2
VIEW
 70
     0
  0
ENDTAB
  0
TABLE
  2
UCS
 70
     0
  0
ENDTAB
  0
TABLE
  2
APPID
 70
     1
  0
APPID
  2
ACAD
 70
     0
  0
ENDTAB
  0
TABLE
  2
DIMSTYLE
 70
     3
  0
DIMSTYLE
  2
STANDARD
 70
     0
  3

  4

  5

  6

  7

 40
1.0
 41
0.18
 42
0.0625
 43
0.38
 44
0.18
 45
0.0
 46
0.0
 47
0.0
 48
0.0
 71
     0
 72
     0
 73
     1
 74
     1
 75
     0
 76
     0
 77
     0
 78
     0
140
0.18
141
0.09
142
0.0
143
25.4
144
1.0
145
0.0
146
1.0
147
0.09
170
     0
171
     2
172
     0
173
     0
174
     0
175
     0
176
     0
177
     0
178
     0
  0
DIMSTYLE
  2
LC-STANDARD
 70
     0
  3

  4

  5

  6

  7

 40
1.0
 41
3.5
 42
0.0
 43
7.5
 44
1.8
 45
0.0
 46
0.0
 47
0.0
 48
0.0
 71
     0
 72
     0
 73
     0
 74
     0
 75
     0
 76
     0
 77
     1
 78
     8
140
3.5
141
0.0
142
0.0
143
25.4
144
1.0
145
0.0
146
0.71
147
1.5
170
     0
171
     2
172
     1
173
     0
174
     0
175
     0
176
     0
177
     0
178
     3
  0
DIMSTYLE
  2
LC-DIM-L-0140-02-02
 70
     0
  3

  4

  5

  6

  7

 40
2.0
 41
3.5
 42
0.0
 43
7.5
 44
1.8
 45
0.0
 46
0.0
 47
0.0
 48
0.0
 71
     0
 72
     0
 73
     0
 74
     0
 75
     0
 76
     0
 77
     1
 78
     8
140
14.0
141
0.0
142
0.0
143
25.4
144
1.0
145
0.0
146
0.71
147
1.5
170
     0
171
     2
172
     0
173
     0
174
     0
175
     0
176
     2
177
     2
178
     8
  0
ENDTAB
  0
ENDSEC
  0
SECTION
  2
BLOCKS
  0
BLOCK
  8
0
  5
23
  2
*D0
 70
    65
 10
0.0
 20
0.0
 30
0.0
  3
*D0
  0
LINE
  8
LC-005-003-MTH-0
  6
CONTINUOUS
  5
25
 10
58.718872
 20
272.867507
 30
0.0
 11
58.718872
 21
310.8
 31
0.0
  0
LINE
  8
LC-005-003-MTH-0
  6
CONTINUOUS
  5
26
 10
173.718872
 20
272.867507
 30
0.0
 11
173.718872
 21
310.8
 31
0.0
  0
LINE
  8
LC-006-003-MTG-0
  6
CONTINUOUS
  5
28
 10
58.718872
 20
294.0
 30
0.0
 11
173.718872
 21
294.0
 31
0.0
  0
LINE
  8
LC-004-003-----0
  6
CONTINUOUS
  5
2A
 10
86.479328
 20
297.654733
 30
0.0
 11
58.718872
 21
294.0
 31
0.0
  0
LINE
  8
LC-004-003-----0
  6
CONTINUOUS
  5
2B
 10
58.718872
 20
294.0
 30
0.0
 11
86.479328
 21
290.345267
 31
0.0
  0
LINE
  8
LC-004-003-----0
  6
CONTINUOUS
  5
2C
 10
86.479328
 20
290.345267
 30
0.0
 11
86.479328
 21
297.654733
 31
0.0
  0
LINE
  8
LC-004-003-----0
  6
CONTINUOUS
  5
2D
 10
86.541609
 20
296.704503
 30
0.0
 11
65.998872
 21
294.0
 31
0.0
  0
LINE
  8
LC-004-003-----0
  6
CONTINUOUS
  5
2E
 10
65.998872
 20
294.0
 30
0.0
 11
86.541609
 21
291.295497
 31
0.0
  0
LINE
  8
LC-004-003-----0
  6
CONTINUOUS
  5
2F
 10
86.603891
 20
295.754272
 30
0.0
 11
73.278872
 21
294.0
 31
0.0
  0
LINE
  8
LC-004-003-----0
  6
CONTINUOUS
  5
30
 10
73.278872
 20
294.0
 30
0.0
 11
86.603891
 21
292.245728
 31
0.0
  0
LINE
  8
LC-004-003-----0
  6
CONTINUOUS
  5
31
 10
86.666172
 20
294.804041
 30
0.0
 11
80.558872
 21
294.0
 31
0.0
  0
LINE
  8
LC-004-003-----0
  6
CONTINUOUS
  5
32
 10
80.558872
 20
294.0
 30
0.0
 11
86.666172
 21
293.195959
 31
0.0
  0
LINE
  8
LC-004-003-----0
  6
CONTINUOUS
  5
33
 10
145.958416
 20
290.345267
 30
0.0
 11
173.718872
 21
294.0
 31
0.0
  0
LINE
  8
LC-004-003-----0
  6
CONTINUOUS
  5
34
 10
173.718872
 20
294.0
 30
0.0
 11
145.958416
 21
297.654733
 31
0.0
  0
LINE
  8
LC-004-003-----0
  6
CONTINUOUS
  5
35
 10
145.958416
 20
297.654733
 30
0.0
 11
145.958416
 21
290.345267
 31
0.0
  0
LINE
  8
LC-004-003-----0
  6
CONTINUOUS
  5
36
 10
145.896134
 20
291.295497
 30
0.0
 11
166.438872
 21
294.0
 31
0.0
  0
LINE
  8
LC-004-003-----0
  6
CONTINUOUS
  5
37
 10
166.438872
 20
294.0
 30
0.0
 11
145.896134
 21
296.704503
 31
0.0
  0
LINE
  8
LC-004-003-----0
  6
CONTINUOUS
  5
38
 10
145.833853
 20
292.245728
 30
0.0
 11
159.158872
 21
294.0
 31
0.0
  0
LINE
  8
LC-004-003-----0
  6
CONTINUOUS
  5
39
 10
159.158872
 20
294.0
 30
0.0
 11
145.833853
 21
295.754272
 31
0.0
  0
LINE
  8
LC-004-003-----0
  6
CONTINUOUS
  5
3A
 10
145.771571
 20
293.195959
 30
0.0
 11
151.878872
 21
294.0
 31
0.0
  0
LINE
  8
LC-004-003-----0
  6
CONTINUOUS
  5
3B
 10
151.878872
 20
294.0
 30
0.0
 11
145.771571
 21
294.804041
 31
0.0
  0
TEXT
  8
LC-004-003-----0
  6
CONTINUOUS
 62
     8
  5
3D
 10
90.803252
 20
301.827554
 30
0.0
 40
28.0
  1
115
 41
0.9
 51
15.0
  7
LC-TXTSTYLE-150-400-0-0-D0
 72
     1
 11
120.567032
 21
301.827554
 31
0.0
  0
ENDBLK
  8
0
  5
3E
  0
BLOCK
  8
0
  5
40
  2
BLK1
 70
    64
 10
0.0
 20
0.0
 30
0.0
  3
BLK1
  0
ENDBLK
  8
0
  5
41
  0
ENDSEC
  0
SECTION
  2
ENTITIES
  0
VIEWPORT
  8
LC-000
  5
B4
 67
     1
 68
     1
 10
420.0
 20
297.0
 30
0.0
 40
840.0
 41
594.0
 69
     1
1001
ACAD
1000
MVIEW
1002
{
1070
    16
1010
0.0
1020
0.0
1030
0.0
1010
0.0
1020
0.0
1030
1.0
1040
0.0
1040
594.0
1040
420.0
1040
297.0
1040
50.0
1040
0.0
1040
0.0
1070
     0
1070
   100
1070
     1
1070
     1
1070
     0
1070
     0
1070
     0
1070
     0
1040
0.0
1040
0.0
1040
0.0
1040
1.0
1040
1.0
1040
0.0
1040
0.0
1070
     0
1002
{
1002
}
1002
}
  0
VIEWPORT
  8
0
  5
B5
 67
     1
 68
     1
 10
0.0
 20
0.0
 30
0.0
 40
0.0
 41
0.0
 69
     1
1001
ACAD
1000
MVIEW
1002
{
1070
    16
1010
0.0
1020
0.0
1030
0.0
1010
0.0
1020
0.0
1030
1.0
1040
0.0
1040
594.0
1040
0.0
1040
0.0
1040
50.0
1040
0.0
1040
0.0
1070
     0
1070
   100
1070
     0
1070
     1
1070
     0
1070
     0
1070
     0
1070
     0
1040
0.0
1040
0.0
1040
0.0
1040
0.5
1040
0.5
1040
0.5
1040
0.5
1070
     0
1002
{
1002
}
1002
}
  0
DIMENSION
  8
0
  5
42
  2
*D0
 10
116.218872
 20
294.0
 30
0.0
 11
116.218872
 21
294.0
 31
0.0
 13
58.718872
 23
272.867507
 33
0.0
 14
173.718872
 24
272.867507
 34
0.0
  3
LC-DIM-L-0140-02-02
  0
INSERT
  8
0
  5
44
  2
BLK1
 10
0.0
 20
0.0
 30
0.0
  0
LINE
  8
LC-002-002-----0
  6
CONTINUOUS
  5
46
 10
170.718872
 20
160.867507
 30
0.0
 11
61.718872
 21
160.867507
 31
0.0
  0
LINE
  8
LC-002-002-----0
  6
CONTINUOUS
  5
47
 10
58.718872
 20
163.867507
 30
0.0
 11
58.718872
 21
272.867507
 31
0.0
  0
LINE
  8
LC-002-002-----0
  6
CONTINUOUS
  5
48
 10
61.718872
 20
275.867507
 30
0.0
 11
170.718872
 21
275.867507
 31
0.0
  0
LINE
  8
LC-002-002-----0
  6
CONTINUOUS
  5
49
 10
173.718872
 20
272.867507
 30
0.0
 11
173.718872
 21
163.867507
 31
0.0
  0
ARC
  8
LC-003-002-RND-0
  6
CONTINUOUS
  5
4B
 10
170.718872
 20
272.867507
 30
0.0
 40
3.0
 50
0.0
 51
90.0
  0
ARC
  8
LC-003-002-RND-0
  6
CONTINUOUS
  5
4C
 10
61.718872
 20
272.867507
 30
0.0
 40
3.0
 50
90.0
 51
180.0
  0
ARC
  8
LC-003-002-RND-0
  6
CONTINUOUS
  5
4D
 10
61.718872
 20
163.867507
 30
0.0
 40
3.0
 50
180.0
 51
270.0
  0
ARC
  8
LC-003-002-RND-0
  6
CONTINUOUS
  5
4E
 10
170.718872
 20
163.867507
 30
0.0
 40
3.0
 50
270.0
 51
0.0
  0
LINE
  8
LC-002-002-----0
  6
CONTINUOUS
  5
4F
 10
80.272339
 20
239.608482
 30
0.0
 11
82.336459
 21
243.460258
 31
0.0
  0
LINE
  8
LC-002-002-----0
  6
CONTINUOUS
  5
50
 10
85.560837
 20
236.77444
 30
0.0
 11
87.624957
 21
240.626216
 31
0.0
  0
ARC
  8
LC-003-002-RND-0
  6
CONTINUOUS
  5
51
 10
77.929378
 20
245.82196
 30
0.0
 40
5.0
 50
331.813679
 51
61.726123
  0
ARC
  8
LC-003-002-RND-0
  6
CONTINUOUS
  5
52
 10
89.967918
 20
234.412739
 30
0.0
 40
5.0
 50
151.813679
 51
241.726123
  0
ARC
  8
LC-003-002-RND-0
  6
CONTINUOUS
  5
53
 10
89.967918
 20
234.412739
 30
0.0
 40
11.0
 50
151.813679
 51
241.726123
  0
ARC
  8
LC-003-002-RND-0
  6
CONTINUOUS
  5
54
 10
77.929378
 20
245.82196
 30
0.0
 40
11.0
 50
331.813679
 51
61.726123
  0
ARC
  8
LC-002-002-----0
  6
CONTINUOUS
  5
55
 10
81.718872
 20
252.867507
 30
0.0
 40
3.0
 50
61.726123
 51
241.726123
  0
ARC
  8
LC-002-002-----0
  6
CONTINUOUS
  5
56
 10
86.178424
 20
227.367191
 30
0.0
 40
3.0
 50
241.726123
 51
61.726123
  0
LINE
  8
LC-002-002-----0
  6
CONTINUOUS
  5
57
 10
92.275277
 20
239.608482
 30
0.0
 11
94.339397
 21
243.460258
 31
0.0
  0
LINE
  8
LC-002-002-----0
  6
CONTINUOUS
  5
58
 10
97.563774
 20
236.77444
 30
0.0
 11
99.627894
 21
240.626216
 31
0.0
  0
ARC
  8
LC-003-002-RND-0
  6
CONTINUOUS
  5
59
 10
89.932316
 20
245.82196
 30
0.0
 40
5.0
 50
331.813679
 51
61.726123
  0
ARC
  8
LC-003-002-RND-0
  6
CONTINUOUS
  5
5A
 10
101.970855
 20
234.412739
 30
0.0
 40
5.0
 50
151.813679
 51
241.726123
  0
ARC
  8
LC-003-002-RND-0
  6
CONTINUOUS
  5
5B
 10
101.970855
 20
234.412739
 30
0.0
 40
11.0
 50
151.813679
 51
241.726123
  0
ARC
  8
LC-003-002-RND-0
  6
CONTINUOUS
  5
5C
 10
89.932316
 20
245.82196
 30
0.0
 40
11.0
 50
331.813679
 51
61.726123
  0
ARC
  8
LC-002-002-----0
  6
CONTINUOUS
  5
5D
 10
93.721809
 20
252.867507
 30
0.0
 40
3.0
 50
61.726123
 51
241.726123
  0
ARC
  8
LC-002-002-----0
  6
CONTINUOUS
  5
5E
 10
98.181362
 20
227.367191
 30
0.0
 40
3.0
 50
241.726123
 51
61.726123
  0
LINE
  8
LC-002-002-----0
  6
CONTINUOUS
  5
5F
 10
104.278214
 20
239.608482
 30
0.0
 11
106.342335
 21
243.460258
 31
0.0
  0
LINE
  8
LC-002-002-----0
  6
CONTINUOUS
  5
60
 10
109.566712
 20
236.77444
 30
0.0
 11
111.630832
 21
240.626216
 31
0.0
  0
ARC
  8
LC-003-002-RND-0
  6
CONTINUOUS
  5
61
 10
101.935253
 20
245.82196
 30
0.0
 40
5.0
 50
331.813679
 51
61.726123
  0
ARC
  8
LC-003-002-RND-0
  6
CONTINUOUS
  5
62
 10
113.973793
 20
234.412739
 30
0.0
 40
5.0
 50
151.813679
 51
241.726123
  0
ARC
  8
LC-003-002-RND-0
  6
CONTINUOUS
  5
63
 10
113.973793
 20
234.412739
 30
0.0
 40
11.0
 50
151.813679
 51
241.726123
  0
ARC
  8
LC-003-002-RND-0
  6
CONTINUOUS
  5
64
 10
101.935253
 20
245.82196
 30
0.0
 40
11.0
 50
331.813679
 51
61.726123
  0
ARC
  8
LC-002-002-----0
  6
CONTINUOUS
  5
65
 10
105.724747
 20
252.867507
 30
0.0
 40
3.0
 50
61.726123
 51
241.726123
  0
ARC
  8
LC-002-002-----0
  6
CONTINUOUS
  5
66
 10
110.184299
 20
227.367191
 30
0.0
 40
3.0
 50
241.726123
 51
61.726123
  0
LINE
  8
LC-002-002-----0
  6
CONTINUOUS
  5
67
 10
94.977897
 20
182.420974
 30
0.0
 11
91.126121
 21
184.485094
 31
0.0
  0
LINE
  8
LC-002-002-----0
  6
CONTINUOUS
  5
68
 10
97.811939
 20
187.709472
 30
0.0
 11
93.960163
 21
189.773592
 31
0.0
  0
ARC
  8
LC-003-002-RND-0
  6
CONTINUOUS
  5
69
 10
88.764419
 20
180.078013
 30
0.0
 40
5.0
 50
61.813679
 51
151.726123
  0
ARC
  8
LC-003-002-RND-0
  6
CONTINUOUS
  5
6A
 10
100.17364
 20
192.116553
 30
0.0
 40
5.0
 50
241.813679
 51
331.726123
  0
ARC
  8
LC-003-002-RND-0
  6
CONTINUOUS
  5
6B
 10
100.17364
 20
192.116553
 30
0.0
 40
11.0
 50
241.813679
 51
331.726123
  0
ARC
  8
LC-003-002-RND-0
  6
CONTINUOUS
  5
6C
 10
88.764419
 20
180.078013
 30
0.0
 40
11.0
 50
61.813679
 51
151.726123
  0
ARC
  8
LC-002-002-----0
  6
CONTINUOUS
  5
6D
 10
81.718872
 20
183.867507
 30
0.0
 40
3.0
 50
151.726123
 51
331.726123
  0
ARC
  8
LC-002-002-----0
  6
CONTINUOUS
  5
6E
 10
107.219188
 20
188.327059
 30
0.0
 40
3.0
 50
331.726123
 51
151.726123
  0
LINE
  8
LC-002-002-----0
  6
CONTINUOUS
  5
6F
 10
94.977897
 20
194.423912
 30
0.0
 11
91.126121
 21
196.488032
 31
0.0
  0
LINE
  8
LC-002-002-----0
  6
CONTINUOUS
  5
70
 10
97.811939
 20
199.712409
 30
0.0
 11
93.960163
 21
201.77653
 31
0.0
  0
ARC
  8
LC-003-002-RND-0
  6
CONTINUOUS
  5
71
 10
88.764419
 20
192.080951
 30
0.0
 40
5.0
 50
61.813679
 51
151.726123
  0
ARC
  8
LC-003-002-RND-0
  6
CONTINUOUS
  5
72
 10
100.17364
 20
204.119491
 30
0.0
 40
5.0
 50
241.813679
 51
331.726123
  0
ARC
  8
LC-003-002-RND-0
  6
CONTINUOUS
  5
73
 10
100.17364
 20
204.119491
 30
0.0
 40
11.0
 50
241.813679
 51
331.726123
  0
ARC
  8
LC-003-002-RND-0
  6
CONTINUOUS
  5
74
 10
88.764419
 20
192.080951
 30
0.0
 40
11.0
 50
61.813679
 51
151.726123
  0
ARC
  8
LC-002-002-----0
  6
CONTINUOUS
  5
75
 10
81.718872
 20
195.870445
 30
0.0
 40
3.0
 50
151.726123
 51
331.726123
  0
ARC
  8
LC-002-002-----0
  6
CONTINUOUS
  5
76
 10
107.219188
 20
200.329997
 30
0.0
 40
3.0
 50
331.726123
 51
151.726123
  0
LINE
  8
LC-002-002-----0
  6
CONTINUOUS
  5
77
 10
94.977897
 20
206.42685
 30
0.0
 11
91.126121
 21
208.49097
 31
0.0
  0
LINE
  8
LC-002-002-----0
  6
CONTINUOUS
  5
78
 10
97.811939
 20
211.715347
 30
0.0
 11
93.960163
 21
213.779467
 31
0.0
  0
ARC
  8
LC-003-002-RND-0
  6
CONTINUOUS
  5
79
 10
88.764419
 20
204.083889
 30
0.0
 40
5.0
 50
61.813679
 51
151.726123
  0
ARC
  8
LC-003-002-RND-0
  6
CONTINUOUS
  5
7A
 10
100.17364
 20
216.122428
 30
0.0
 40
5.0
 50
241.813679
 51
331.726123
  0
ARC
  8
LC-003-002-RND-0
  6
CONTINUOUS
  5
7B
 10
100.17364
 20
216.122428
 30
0.0
 40
11.0
 50
241.813679
 51
331.726123
  0
ARC
  8
LC-003-002-RND-0
  6
CONTINUOUS
  5
7C
 10
88.764419
 20
204.083889
 30
0.0
 40
11.0
 50
61.813679
 51
151.726123
  0
ARC
  8
LC-002-002-----0
  6
CONTINUOUS
  5
7D
 10
81.718872
 20
207.873382
 30
0.0
 40
3.0
 50
151.726123
 51
331.726123
  0
ARC
  8
LC-002-002-----0
  6
CONTINUOUS
  5
7E
 10
107.219188
 20
212.332935
 30
0.0
 40
3.0
 50
331.726123
 51
151.726123
  0
LINE
  8
LC-002-002-----0
  6
CONTINUOUS
  5
7F
 10
152.165405
 20
197.126532
 30
0.0
 11
150.101284
 21
193.274756
 31
0.0
  0
LINE
  8
LC-002-002-----0
  6
CONTINUOUS
  5
80
 10
146.876907
 20
199.960574
 30
0.0
 11
144.812787
 21
196.108798
 31
0.0
  0
ARC
  8
LC-003-002-RND-0
  6
CONTINUOUS
  5
81
 10
154.508366
 20
190.913054
 30
0.0
 40
5.0
 50
151.813679
 51
241.726123
  0
ARC
  8
LC-003-002-RND-0
  6
CONTINUOUS
  5
82
 10
142.469826
 20
202.322276
 30
0.0
 40
5.0
 50
331.813679
 51
61.726123
  0
ARC
  8
LC-003-002-RND-0
  6
CONTINUOUS
  5
83
 10
142.469826
 20
202.322276
 30
0.0
 40
11.0
 50
331.813679
 51
61.726123
  0
ARC
  8
LC-003-002-RND-0
  6
CONTINUOUS
  5
84
 10
154.508366
 20
190.913054
 30
0.0
 40
11.0
 50
151.813679
 51
241.726123
  0
ARC
  8
LC-002-002-----0
  6
CONTINUOUS
  5
85
 10
150.718872
 20
183.867507
 30
0.0
 40
3.0
 50
241.726123
 51
61.726123
  0
ARC
  8
LC-002-002-----0
  6
CONTINUOUS
  5
86
 10
146.25932
 20
209.367823
 30
0.0
 40
3.0
 50
61.726123
 51
241.726123
  0
LINE
  8
LC-002-002-----0
  6
CONTINUOUS
  5
87
 10
140.162467
 20
197.126532
 30
0.0
 11
138.098347
 21
193.274756
 31
0.0
  0
LINE
  8
LC-002-002-----0
  6
CONTINUOUS
  5
88
 10
134.873969
 20
199.960574
 30
0.0
 11
132.809849
 21
196.108798
 31
0.0
  0
ARC
  8
LC-003-002-RND-0
  6
CONTINUOUS
  5
89
 10
142.505428
 20
190.913054
 30
0.0
 40
5.0
 50
151.813679
 51
241.726123
  0
ARC
  8
LC-003-002-RND-0
  6
CONTINUOUS
  5
8A
 10
130.466888
 20
202.322276
 30
0.0
 40
5.0
 50
331.813679
 51
61.726123
  0
ARC
  8
LC-003-002-RND-0
  6
CONTINUOUS
  5
8B
 10
130.466888
 20
202.322276
 30
0.0
 40
11.0
 50
331.813679
 51
61.726123
  0
ARC
  8
LC-003-002-RND-0
  6
CONTINUOUS
  5
8C
 10
142.505428
 20
190.913054
 30
0.0
 40
11.0
 50
151.813679
 51
241.726123
  0
ARC
  8
LC-002-002-----0
  6
CONTINUOUS
  5
8D
 10
138.715934
 20
183.867507
 30
0.0
 40
3.0
 50
241.726123
 51
61.726123
  0
ARC
  8
LC-002-002-----0
  6
CONTINUOUS
  5
8E
 10
134.256382
 20
209.367823
 30
0.0
 40
3.0
 50
61.726123
 51
241.726123
  0
LINE
  8
LC-002-002-----0
  6
CONTINUOUS
  5
8F
 10
128.159529
 20
197.126532
 30
0.0
 11
126.095409
 21
193.274756
 31
0.0
  0
LINE
  8
LC-002-002-----0
  6
CONTINUOUS
  5
90
 10
122.871032
 20
199.960574
 30
0.0
 11
120.806911
 21
196.108798
 31
0.0
  0
ARC
  8
LC-003-002-RND-0
  6
CONTINUOUS
  5
91
 10
130.50249
 20
190.913054
 30
0.0
 40
5.0
 50
151.813679
 51
241.726123
  0
ARC
  8
LC-003-002-RND-0
  6
CONTINUOUS
  5
92
 10
118.46395
 20
202.322276
 30
0.0
 40
5.0
 50
331.813679
 51
61.726123
  0
ARC
  8
LC-003-002-RND-0
  6
CONTINUOUS
  5
93
 10
118.46395
 20
202.322276
 30
0.0
 40
11.0
 50
331.813679
 51
61.726123
  0
ARC
  8
LC-003-002-RND-0
  6
CONTINUOUS
  5
94
 10
130.50249
 20
190.913054
 30
0.0
 40
11.0
 50
151.813679
 51
241.726123
  0
ARC
  8
LC-002-002-----0
  6
CONTINUOUS
  5
95
 10
126.712996
 20
183.867507
 30
0.0
 40
3.0
 50
241.726123
 51
61.726123
  0
ARC
  8
LC-002-002-----0
  6
CONTINUOUS
  5
96
 10
122.253444
 20
209.367823
 30
0.0
 40
3.0
 50
61.726123
 51
241.726123
  0
LINE
  8
LC-002-002-----0
  6
CONTINUOUS
  5
97
 10
137.459847
 20
254.31404
 30
0.0
 11
141.311623
 21
252.24992
 31
0.0
  0
LINE
  8
LC-002-002-----0
  6
CONTINUOUS
  5
98
 10
134.625805
 20
249.025542
 30
0.0
 11
138.477581
 21
246.961422
 31
0.0
  0
ARC
  8
LC-003-002-RND-0
  6
CONTINUOUS
  5
99
 10
143.673324
 20
256.657001
 30
0.0
 40
5.0
 50
241.813679
 51
331.726123
  0
ARC
  8
LC-003-002-RND-0
  6
CONTINUOUS
  5
9A
 10
132.264103
 20
244.618461
 30
0.0
 40
5.0
 50
61.813679
 51
151.726123
  0
ARC
  8
LC-003-002-RND-0
  6
CONTINUOUS
  5
9B
 10
132.264103
 20
244.618461
 30
0.0
 40
11.0
 50
61.813679
 51
151.726123
  0
ARC
  8
LC-003-002-RND-0
  6
CONTINUOUS
  5
9C
 10
143.673324
 20
256.657001
 30
0.0
 40
11.0
 50
241.813679
 51
331.726123
  0
ARC
  8
LC-002-002-----0
  6
CONTINUOUS
  5
9D
 10
150.718872
 20
252.867507
 30
0.0
 40
3.0
 50
331.726123
 51
151.726123
  0
ARC
  8
LC-002-002-----0
  6
CONTINUOUS
  5
9E
 10
125.218556
 20
248.407955
 30
0.0
 40
3.0
 50
151.726123
 51
331.726123
  0
LINE
  8
LC-002-002-----0
  6
CONTINUOUS
  5
9F
 10
137.459847
 20
242.311102
 30
0.0
 11
141.311623
 21
240.246982
 31
0.0
  0
LINE
  8
LC-002-002-----0
  6
CONTINUOUS
  5
A0
 10
134.625805
 20
237.022605
 30
0.0
 11
138.477581
 21
234.958484
 31
0.0
  0
ARC
  8
LC-003-002-RND-0
  6
CONTINUOUS
  5
A1
 10
143.673324
 20
244.654063
 30
0.0
 40
5.0
 50
241.813679
 51
331.726123
  0
ARC
  8
LC-003-002-RND-0
  6
CONTINUOUS
  5
A2
 10
132.264103
 20
232.615523
 30
0.0
 40
5.0
 50
61.813679
 51
151.726123
  0
ARC
  8
LC-003-002-RND-0
  6
CONTINUOUS
  5
A3
 10
132.264103
 20
232.615523
 30
0.0
 40
11.0
 50
61.813679
 51
151.726123
  0
ARC
  8
LC-003-002-RND-0
  6
CONTINUOUS
  5
A4
 10
143.673324
 20
244.654063
 30
0.0
 40
11.0
 50
241.813679
 51
331.726123
  0
ARC
  8
LC-002-002-----0
  6
CONTINUOUS
  5
A5
 10
150.718872
 20
240.864569
 30
0.0
 40
3.0
 50
331.726123
 51
151.726123
  0
ARC
  8
LC-002-002-----0
  6
CONTINUOUS
  5
A6
 10
125.218556
 20
236.405017
 30
0.0
 40
3.0
 50
151.726123
 51
331.726123
  0
LINE
  8
LC-002-002-----0
  6
CONTINUOUS
  5
A7
 10
137.459847
 20
230.308164
 30
0.0
 11
141.311623
 21
228.244044
 31
0.0
  0
LINE
  8
LC-002-002-----0
  6
CONTINUOUS
  5
A8
 10
134.625805
 20
225.019667
 30
0.0
 11
138.477581
 21
222.955547
 31
0.0
  0
ARC
  8
LC-003-002-RND-0
  6
CONTINUOUS
  5
A9
 10
143.673324
 20
232.651125
 30
0.0
 40
5.0
 50
241.813679
 51
331.726123
  0
ARC
  8
LC-003-002-RND-0
  6
CONTINUOUS
  5
AA
 10
132.264103
 20
220.612586
 30
0.0
 40
5.0
 50
61.813679
 51
151.726123
  0
ARC
  8
LC-003-002-RND-0
  6
CONTINUOUS
  5
AB
 10
132.264103
 20
220.612586
 30
0.0
 40
11.0
 50
61.813679
 51
151.726123
  0
ARC
  8
LC-003-002-RND-0
  6
CONTINUOUS
  5
AC
 10
143.673324
 20
232.651125
 30
0.0
 40
11.0
 50
241.813679
 51
331.726123
  0
ARC
  8
LC-002-002-----0
  6
CONTINUOUS
  5
AD
 10
150.718872
 20
228.861632
 30
0.0
 40
3.0
 50
331.726123
 51
151.726123
  0
ARC
  8
LC-002-002-----0
  6
CONTINUOUS
  5
AE
 10
125.218556
 20
224.402079
 30
0.0
 40
3.0
 50
151.726123
 51
331.726123
  0
LINE
  8
LC-002-002-----0
  6
CONTINUOUS
 62
     2
  5
AF
 10
77.419885
 20
305.316
 30
0.0
 11
92.419885
 21
305.316
 31
0.0
  0
LINE
  8
LC-002-002-----0
  6
CONTINUOUS
 62
     2
  5
B0
 10
92.419885
 20
305.316
 30
0.0
 11
92.419885
 21
320.316
 31
0.0
  0
LINE
  8
LC-002-002-----0
  6
CONTINUOUS
 62
     2
  5
B1
 10
77.419885
 20
320.316
 30
0.0
 11
92.419885
 21
320.316
 31
0.0
  0
LINE
  8
LC-002-002-----0
  6
CONTINUOUS
 62
     2
  5
B2
 10
77.419885
 20
305.316
 30
0.0
 11
77.419885
 21
320.316
 31
0.0
  0
ENDSEC
  0
EOF
