  0
SECTION
  2
HEADER
  9
$ACADVER
  1
AC1009
  9
$INSBASE
 10
0.0
 20
0.0
 30
0.0
  9
$EXTMIN
 10
0.0
 20
0.0
 30
0.0
  9
$EXTMAX
 10
840.0
 20
594.0
 30
0.0
  9
$LIMMIN
 10
0.0
 20
0.0
  9
$LIMMAX
 10
840.0
 20
594.0
  9
$ORTHOMODE
 70
     0
  9
$REGENMODE
 70
     1
  9
$FILLMODE
 70
     1
  9
$QTEXTMODE
 70
     0
  9
$MIRRTEXT
 70
     1
  9
$DRAGMODE
 70
     2
  9
$LTSCALE
 40
2.0
  9
$OSMODE
 70
     0
  9
$ATTMODE
 70
     1
  9
$TEXTSIZE
 40
0.2
  9
$TRACEWID
 40
0.05
  9
$TEXTSTYLE
  7
STANDARD
  9
$CLAYER
  8
0
  9
$CELTYPE
  6
BYLAYER
  9
$CECOLOR
 62
     7
  9
$DIMSCALE
 40
2.0
  9
$DIMASZ
 40
3.5
  9
$DIMEXO
 40
0.0625
  9
$DIMDLI
 40
0.38
  9
$DIMRND
 40
0.0
  9
$DIMDLE
 40
0.0
  9
$DIMEXE
 40
0.18
  9
$DIMTP
 40
0.0
  9
$DIMTM
 40
0.0
  9
$DIMTXT
 40
3.5
  9
$DIMCEN
 40
0.09
  9
$DIMTSZ
 40
0.0
  9
$DIMTOL
 70
     0
  9
$DIMLIM
 70
     0
  9
$DIMTIH
 70
     1
  9
$DIMTOH
 70
     1
  9
$DIMSE1
 70
     0
  9
$DIMSE2
 70
     0
  9
$DIMTAD
 70
     1
  9
$DIMZIN
 70
     0
  9
$DIMBLK
  1

  9
$DIMASO
 70
     1
  9
$DIMSHO
 70
     1
  9
$DIMPOST
  1

  9
$DIMAPOST
  1

  9
$DIMALT
 70
     0
  9
$DIMALTD
 70
     2
  9
$DIMALTF
 40
25.4
  9
$DIMLFAC
 40
1.0
  9
$DIMTOFL
 70
     0
  9
$DIMTVP
 40
0.0
  9
$DIMTIX
 70
     0
  9
$DIMSOXD
 70
     0
  9
$DIMSAH
 70
     0
  9
$DIMBLK1
  1

  9
$DIMBLK2
  1

  9
$DIMSTYLE
  2
STANDARD
  9
$DIMCLRD
 70
     0
  9
$DIMCLRE
 70
     0
  9
$DIMCLRT
 70
     0
  9
$DIMTFAC
 40
1.0
  9
$DIMGAP
 40
0.09
  9
$LUNITS
 70
     2
  9
$LUPREC
 70
     2
  9
$AXISMODE
 70
     0
  9
$AXISUNIT
 10
0.0
 20
0.0
  9
$SKETCHINC
 40
0.1
  9
$FILLETRAD
 40
0.0
  9
$AUNITS
 70
     0
  9
$AUPREC
 70
     0
  9
$MENU
  1
acad
  9
$ELEVATION
 40
0.0
  9
$PELEVATION
 40
0.0
  9
$THICKNESS
 40
0.0
  9
$LIMCHECK
 70
     0
  9
$BLIPMODE
 70
     1
  9
$CHAMFERA
 40
0.0
  9
$CHAMFERB
 40
0.0
  9
$SKPOLY
 70
     0
  9
$TDCREATE
 40
0.000000000
  9
$TDUPDATE
 40
0.000000000
  9
$TDINDWG
 40
0.0000000000
  9
$TDUSRTIMER
 40
0.0000000000
  9
$USRTIMER
 70
     1
  9
$ANGBASE
 50
0.0
  9
$ANGDIR
 70
     0
  9
$PDMODE
 70
     0
  9
$PDSIZE
 40
0.0
  9
$PLINEWID
 40
0.0
  9
$COORDS
 70
     0
  9
$SPLFRAME
 70
     0
  9
$SPLINETYPE
 70
     6
  9
$SPLINESEGS
 70
     8
  9
$ATTDIA
 70
     0
  9
$ATTREQ
 70
     1
  9
$HANDLING
 70
     1
  9
$HANDSEED
  5
F2
  9
$SURFTAB1
 70
     6
  9
$SURFTAB2
 70
     6
  9
$SURFTYPE
 70
     6
  9
$SURFU
 70
     6
  9
$SURFV
 70
     6
  9
$UCSNAME
  2

  9
$UCSORG
 10
0.0
 20
0.0
 30
0.0
  9
$UCSXDIR
 10
1.0
 20
0.0
 30
0.0
  9
$UCSYDIR
 10
0.0
 20
1.0
 30
0.0
  9
$PUCSNAME
  2

  9
$PUCSORG
 10
0.0
 20
0.0
 30
0.0
  9
$PUCSXDIR
 10
1.0
 20
0.0
 30
0.0
  9
$PUCSYDIR
 10
0.0
 20
1.0
 30
0.0
  9
$USERI1
 70
     0
  9
$USERI2
 70
     0
  9
$USERI3
 70
     0
  9
$USERI4
 70
     0
  9
$USERI5
 70
     0
  9
$USERR1
 40
0.0
  9
$USERR2
 40
0.0
  9
$USERR3
 40
0.0
  9
$USERR4
 40
0.0
  9
$USERR5
 40
0.0
  9
$WORLDVIEW
 70
     1
  9
$SHADEDGE
 70
     3
  9
$SHADEDIF
 70
    70
  9
$TILEMODE
 70
     1
  9
$MAXACTVP
 70
    16
  9
$PINSBASE
 10
0.0
 20
0.0
 30
0.0
  9
$PLIMCHECK
 70
     0
  9
$PEXTMIN
 10
1.000000E+20
 20
1.000000E+20
 30
1.000000E+20
  9
$PEXTMAX
 10
-1.000000E+20
 20
-1.000000E+20
 30
-1.000000E+20
  9
$PLIMMIN
 10
0.0
 20
0.0
  9
$PLIMMAX
 10
840.0
 20
594.0
  9
$UNITMODE
 70
     0
  9
$VISRETAIN
 70
     0
  9
$PLINEGEN
 70
     1
  9
$PSLTSCALE
 70
     0
  9
$TREEDEPTH
 70
  3020
  9
$DWGCODEPAGE
  3
dos850
  0
ENDSEC
  0
SECTION
  2
TABLES
  0
TABLE
  2
VPORT
 70
     1
  0
VPORT
  2
*ACTIVE
 70
     0
 10
0.0
 20
0.0
 11
1.0
 21
1.0
 12
420.0
 22
297.0
 13
0.0
 23
0.0
 14
1.0
 24
1.0
 15
0.0
 25
0.0
 16
0.0
 26
0.0
 36
1.0
 17
0.0
 27
0.0
 37
0.0
 40
594.0
 41
1.604229
 42
50.0
 43
0.0
 44
0.0
 50
0.0
 51
0.0
 71
     0
 72
   100
 73
     1
 74
     1
 75
     0
 76
     0
 77
     0
 78
     0
  0
ENDTAB
  0
TABLE
  2
LTYPE
 70
     2
  0
LTYPE
  2
CONTINUOUS
 70
    64
  3
Solid line
 72
    65
 73
     0
 40
0.0
  0
LTYPE
  2
DASHDOT
 70
    64
  3
__ . __ . __ . __ . __
 72
    65
 73
     4
 40
7.5
 49
5.0
 49
-1.25
 49
0.0
 49
-1.25
  0
ENDTAB
  0
TABLE
  2
LAYER
 70
     8
  0
LAYER
  2
0
 70
     0
 62
     7
  6
CONTINUOUS
  0
LAYER
  2
LC-INFO-1-2-MM-A3-0
 70
     1
 62
    -1
  6
CONTINUOUS
  0
LAYER
  2
LC-003-003-MTH-0
 70
     0
 62
     2
  6
CONTINUOUS
  0
LAYER
  2
LC-004-003-MTG-0
 70
     0
 62
     2
  6
CONTINUOUS
  0
LAYER
  2
LC-002-003-----0
 70
     0
 62
     2
  6
CONTINUOUS
  0
LAYER
  2
LC-005-005-----0
 70
     0
 62
     2
  6
CONTINUOUS
  0
LAYER
  2
LC-001-002-----0
 70
     0
 62
     2
  6
DASHDOT
  0
LAYER
  2
LC-000
 70
     0
 62
     7
  6
CONTINUOUS
  0
ENDTAB
  0
TABLE
  2
STYLE
 70
     4
  0
STYLE
  2
STANDARD
 70
     0
 40
0.0
 41
1.0
 50
0.0
 71
     0
 42
0.0
  3
txt
  4

  0
STYLE
  2
LC-STANDARD
 70
    64
 40
0.0
 41
1.0
 50
0.0
 71
     0
 42
3.5
  3
MONOTXT
  4

  0
STYLE
  2
LC-TXTSTYLE-150-400-0-0-D2
 70
    64
 40
0.0
 41
1.0
 50
15.0
 71
     0
 42
3.5
  3
MONOTXT
  4

  0
STYLE
  2
LC-TXTSTYLE-150-400-0-0-D3
 70
    64
 40
0.0
 41
1.0
 50
15.0
 71
     0
 42
3.5
  3
LC-STANDARD
  4

  0
ENDTAB
  0
TABLE
  2
VIEW
 70
     0
  0
ENDTAB
  0
TABLE
  2
UCS
 70
     0
  0
ENDTAB
  0
TABLE
  2
APPID
 70
     1
  0
APPID
  2
ACAD
 70
     0
  0
ENDTAB
  0
TABLE
  2
DIMSTYLE
 70
     3
  0
DIMSTYLE
  2
STANDARD
 70
     0
  3

  4

  5

  6

  7

 40
1.0
 41
0.18
 42
0.0625
 43
0.38
 44
0.18
 45
0.0
 46
0.0
 47
0.0
 48
0.0
 71
     0
 72
     0
 73
     1
 74
     1
 75
     0
 76
     0
 77
     0
 78
     0
140
0.18
141
0.09
142
0.0
143
25.4
144
1.0
145
0.0
146
1.0
147
0.09
170
     0
171
     2
172
     0
173
     0
174
     0
175
     0
176
     0
177
     0
178
     0
  0
DIMSTYLE
  2
LC-STANDARD
 70
     0
  3

  4

  5

  6

  7

 40
1.0
 41
3.5
 42
0.0
 43
7.5
 44
1.8
 45
0.0
 46
0.0
 47
0.0
 48
0.0
 71
     0
 72
     0
 73
     0
 74
     0
 75
     0
 76
     0
 77
     1
 78
     8
140
3.5
141
0.0
142
0.0
143
25.4
144
1.0
145
0.0
146
0.71
147
1.5
170
     0
171
     2
172
     1
173
     0
174
     0
175
     0
176
     0
177
     0
178
     3
  0
DIMSTYLE
  2
LC-DIM-L-0090-02-02
 70
     0
  3

  4

  5

  6

  7

 40
2.0
 41
3.5
 42
0.0
 43
7.5
 44
1.8
 45
0.0
 46
0.0
 47
0.0
 48
0.0
 71
     0
 72
     0
 73
     0
 74
     0
 75
     0
 76
     0
 77
     1
 78
     8
140
9.0
141
0.0
142
0.0
143
25.4
144
1.0
145
0.0
146
0.71
147
1.5
170
     0
171
     2
172
     0
173
     0
174
     0
175
     0
176
     2
177
     2
178
     6
  0
ENDTAB
  0
ENDSEC
  0
SECTION
  2
BLOCKS
  0
BLOCK
  8
0
  5
23
  2
*D0
 70
    65
 10
0.0
 20
0.0
 30
0.0
  3
*D0
  0
LINE
  8
LC-003-003-MTH-0
  6
CONTINUOUS
  5
25
 10
253.890064
 20
309.185816
 30
0.0
 11
253.890064
 21
330.8
 31
0.0
  0
LINE
  8
LC-003-003-MTH-0
  6
CONTINUOUS
  5
26
 10
345.890064
 20
309.185816
 30
0.0
 11
345.890064
 21
330.8
 31
0.0
  0
LINE
  8
LC-004-003-MTG-0
  6
CONTINUOUS
  5
28
 10
253.890064
 20
320.0
 30
0.0
 11
345.890064
 21
320.0
 31
0.0
  0
LINE
  8
LC-002-003-----0
  6
CONTINUOUS
  5
2A
 10
271.736072
 20
322.349471
 30
0.0
 11
253.890064
 21
320.0
 31
0.0
  0
LINE
  8
LC-002-003-----0
  6
CONTINUOUS
  5
2B
 10
253.890064
 20
320.0
 30
0.0
 11
271.736072
 21
317.650529
 31
0.0
  0
LINE
  8
LC-002-003-----0
  6
CONTINUOUS
  5
2C
 10
271.736072
 20
317.650529
 30
0.0
 11
271.736072
 21
322.349471
 31
0.0
  0
LINE
  8
LC-002-003-----0
  6
CONTINUOUS
  5
2D
 10
271.77611
 20
321.738609
 30
0.0
 11
258.570064
 21
320.0
 31
0.0
  0
LINE
  8
LC-002-003-----0
  6
CONTINUOUS
  5
2E
 10
258.570064
 20
320.0
 30
0.0
 11
271.77611
 21
318.261391
 31
0.0
  0
LINE
  8
LC-002-003-----0
  6
CONTINUOUS
  5
2F
 10
271.816148
 20
321.127746
 30
0.0
 11
263.250064
 21
320.0
 31
0.0
  0
LINE
  8
LC-002-003-----0
  6
CONTINUOUS
  5
30
 10
263.250064
 20
320.0
 30
0.0
 11
271.816148
 21
318.872254
 31
0.0
  0
LINE
  8
LC-002-003-----0
  6
CONTINUOUS
  5
31
 10
271.856186
 20
320.516884
 30
0.0
 11
267.930064
 21
320.0
 31
0.0
  0
LINE
  8
LC-002-003-----0
  6
CONTINUOUS
  5
32
 10
267.930064
 20
320.0
 30
0.0
 11
271.856186
 21
319.483116
 31
0.0
  0
LINE
  8
LC-002-003-----0
  6
CONTINUOUS
  5
33
 10
328.044057
 20
317.650529
 30
0.0
 11
345.890064
 21
320.0
 31
0.0
  0
LINE
  8
LC-002-003-----0
  6
CONTINUOUS
  5
34
 10
345.890064
 20
320.0
 30
0.0
 11
328.044057
 21
322.349471
 31
0.0
  0
LINE
  8
LC-002-003-----0
  6
CONTINUOUS
  5
35
 10
328.044057
 20
322.349471
 30
0.0
 11
328.044057
 21
317.650529
 31
0.0
  0
LINE
  8
LC-002-003-----0
  6
CONTINUOUS
  5
36
 10
328.004019
 20
318.261391
 30
0.0
 11
341.210064
 21
320.0
 31
0.0
  0
LINE
  8
LC-002-003-----0
  6
CONTINUOUS
  5
37
 10
341.210064
 20
320.0
 30
0.0
 11
328.004019
 21
321.738609
 31
0.0
  0
LINE
  8
LC-002-003-----0
  6
CONTINUOUS
  5
38
 10
327.963981
 20
318.872254
 30
0.0
 11
336.530064
 21
320.0
 31
0.0
  0
LINE
  8
LC-002-003-----0
  6
CONTINUOUS
  5
39
 10
336.530064
 20
320.0
 30
0.0
 11
327.963981
 21
321.127746
 31
0.0
  0
LINE
  8
LC-002-003-----0
  6
CONTINUOUS
  5
3A
 10
327.923943
 20
319.483116
 30
0.0
 11
331.850064
 21
320.0
 31
0.0
  0
LINE
  8
LC-002-003-----0
  6
CONTINUOUS
  5
3B
 10
331.850064
 20
320.0
 30
0.0
 11
327.923943
 21
320.516884
 31
0.0
  0
TEXT
  8
LC-002-003-----0
  6
CONTINUOUS
 62
     6
  5
3D
 10
285.464838
 20
330.431999
 30
0.0
 40
18.0
  1
Ø92
 41
0.9
 51
15.0
  7
LC-TXTSTYLE-150-400-0-0-D0
 72
     1
 11
302.68531
 21
330.431999
 31
0.0
  0
ENDBLK
  8
0
  5
3E
  0
BLOCK
  8
0
  5
40
  2
*D1
 70
    65
 10
0.0
 20
0.0
 30
0.0
  3
*D1
  0
LINE
  8
LC-003-003-MTH-0
  6
CONTINUOUS
  5
41
 10
299.890064
 20
266.185816
 30
0.0
 11
410.8
 21
266.185816
 31
0.0
  0
LINE
  8
LC-003-003-MTH-0
  6
CONTINUOUS
  5
42
 10
345.890064
 20
309.185816
 30
0.0
 11
410.8
 21
309.185816
 31
0.0
  0
LINE
  8
LC-002-003-----0
  6
CONTINUOUS
  5
43
 10
402.349471
 20
248.339808
 30
0.0
 11
400.0
 21
266.185816
 31
0.0
  0
LINE
  8
LC-002-003-----0
  6
CONTINUOUS
  5
44
 10
400.0
 20
266.185816
 30
0.0
 11
397.650529
 21
248.339808
 31
0.0
  0
LINE
  8
LC-002-003-----0
  6
CONTINUOUS
  5
45
 10
397.650529
 20
248.339808
 30
0.0
 11
402.349471
 21
248.339808
 31
0.0
  0
LINE
  8
LC-002-003-----0
  6
CONTINUOUS
  5
46
 10
401.738609
 20
248.29977
 30
0.0
 11
400.0
 21
261.505816
 31
0.0
  0
LINE
  8
LC-002-003-----0
  6
CONTINUOUS
  5
47
 10
400.0
 20
261.505816
 30
0.0
 11
398.261391
 21
248.29977
 31
0.0
  0
LINE
  8
LC-002-003-----0
  6
CONTINUOUS
  5
48
 10
401.127746
 20
248.259732
 30
0.0
 11
400.0
 21
256.825816
 31
0.0
  0
LINE
  8
LC-002-003-----0
  6
CONTINUOUS
  5
49
 10
400.0
 20
256.825816
 30
0.0
 11
398.872254
 21
248.259732
 31
0.0
  0
LINE
  8
LC-002-003-----0
  6
CONTINUOUS
  5
4A
 10
400.516884
 20
248.219694
 30
0.0
 11
400.0
 21
252.145816
 31
0.0
  0
LINE
  8
LC-002-003-----0
  6
CONTINUOUS
  5
4B
 10
400.0
 20
252.145816
 30
0.0
 11
399.483116
 21
248.219694
 31
0.0
  0
LINE
  8
LC-002-003-----0
  6
CONTINUOUS
  5
4C
 10
397.650529
 20
327.031823
 30
0.0
 11
400.0
 21
309.185816
 31
0.0
  0
LINE
  8
LC-002-003-----0
  6
CONTINUOUS
  5
4D
 10
400.0
 20
309.185816
 30
0.0
 11
402.349471
 21
327.031823
 31
0.0
  0
LINE
  8
LC-002-003-----0
  6
CONTINUOUS
  5
4E
 10
402.349471
 20
327.031823
 30
0.0
 11
397.650529
 21
327.031823
 31
0.0
  0
LINE
  8
LC-002-003-----0
  6
CONTINUOUS
  5
4F
 10
398.261391
 20
327.071861
 30
0.0
 11
400.0
 21
313.865816
 31
0.0
  0
LINE
  8
LC-002-003-----0
  6
CONTINUOUS
  5
50
 10
400.0
 20
313.865816
 30
0.0
 11
401.738609
 21
327.071861
 31
0.0
  0
LINE
  8
LC-002-003-----0
  6
CONTINUOUS
  5
51
 10
398.872254
 20
327.111899
 30
0.0
 11
400.0
 21
318.545816
 31
0.0
  0
LINE
  8
LC-002-003-----0
  6
CONTINUOUS
  5
52
 10
400.0
 20
318.545816
 30
0.0
 11
401.127746
 21
327.111899
 31
0.0
  0
LINE
  8
LC-002-003-----0
  6
CONTINUOUS
  5
53
 10
399.483116
 20
327.151938
 30
0.0
 11
400.0
 21
323.225816
 31
0.0
  0
LINE
  8
LC-002-003-----0
  6
CONTINUOUS
  5
54
 10
400.0
 20
323.225816
 30
0.0
 11
400.516884
 21
327.151938
 31
0.0
  0
LINE
  8
LC-004-003-MTG-0
  6
CONTINUOUS
  5
55
 10
400.0
 20
240.985816
 30
0.0
 11
400.0
 21
367.188336
 31
0.0
  0
TEXT
  8
LC-002-003-----0
  6
CONTINUOUS
 62
     6
  5
56
 10
389.568001
 20
336.461062
 30
0.0
 40
18.0
  1
42
 50
90.0
 51
15.0
  7
LC-TXTSTYLE-150-400-0-0-D0
  0
ENDBLK
  8
0
  5
57
  0
BLOCK
  8
0
  5
59
  2
*X2
 70
    65
 10
253.890064
 20
298.185816
 30
0.0
  3
*X2
  0
LINE
  8
LC-005-005-----0
  6
CONTINUOUS
  5
5B
 10
298.185816
 20
298.185816
 30
0.0
 11
299.890064
 21
299.890064
 31
0.0
  0
LINE
  8
LC-005-005-----0
  6
CONTINUOUS
  5
5C
 10
293.943175
 20
298.185816
 30
0.0
 11
296.443175
 21
300.685816
 31
0.0
  0
LINE
  8
LC-005-005-----0
  6
CONTINUOUS
  5
5D
 10
289.700534
 20
298.185816
 30
0.0
 11
292.200534
 21
300.685816
 31
0.0
  0
LINE
  8
LC-005-005-----0
  6
CONTINUOUS
  5
5E
 10
285.457894
 20
298.185816
 30
0.0
 11
287.957894
 21
300.685816
 31
0.0
  0
LINE
  8
LC-005-005-----0
  6
CONTINUOUS
  5
5F
 10
281.215253
 20
298.185816
 30
0.0
 11
283.715253
 21
300.685816
 31
0.0
  0
LINE
  8
LC-005-005-----0
  6
CONTINUOUS
  5
60
 10
276.972612
 20
298.185816
 30
0.0
 11
279.472612
 21
300.685816
 31
0.0
  0
LINE
  8
LC-005-005-----0
  6
CONTINUOUS
  5
61
 10
272.729972
 20
298.185816
 30
0.0
 11
275.229972
 21
300.685816
 31
0.0
  0
LINE
  8
LC-005-005-----0
  6
CONTINUOUS
  5
62
 10
268.487331
 20
298.185816
 30
0.0
 11
270.987331
 21
300.685816
 31
0.0
  0
LINE
  8
LC-005-005-----0
  6
CONTINUOUS
  5
63
 10
264.24469
 20
298.185816
 30
0.0
 11
266.74469
 21
300.685816
 31
0.0
  0
LINE
  8
LC-005-005-----0
  6
CONTINUOUS
  5
64
 10
260.00205
 20
298.185816
 30
0.0
 11
262.00205
 21
300.185816
 31
0.0
  0
LINE
  8
LC-005-005-----0
  6
CONTINUOUS
  5
65
 10
263.390064
 20
301.573831
 30
0.0
 11
265.390064
 21
303.573831
 31
0.0
  0
LINE
  8
LC-005-005-----0
  6
CONTINUOUS
  5
66
 10
263.390064
 20
305.816471
 30
0.0
 11
265.390064
 21
307.816471
 31
0.0
  0
LINE
  8
LC-005-005-----0
  6
CONTINUOUS
  5
67
 10
260.516768
 20
307.185816
 30
0.0
 11
262.516768
 21
309.185816
 31
0.0
  0
LINE
  8
LC-005-005-----0
  6
CONTINUOUS
  5
68
 10
256.274128
 20
307.185816
 30
0.0
 11
258.274128
 21
309.185816
 31
0.0
  0
LINE
  8
LC-005-005-----0
  6
CONTINUOUS
  5
69
 10
253.890064
 20
309.044393
 30
0.0
 11
254.031487
 21
309.185816
 31
0.0
  0
ENDBLK
  8
0
  5
6A
  0
BLOCK
  8
0
  5
6C
  2
*X3
 70
    65
 10
299.890064
 20
289.185816
 30
0.0
  3
*X3
  0
LINE
  8
LC-005-005-----0
  6
CONTINUOUS
  5
6D
 10
306.156774
 20
289.185816
 30
0.0
 11
309.390064
 21
292.419102
 31
0.0
  0
LINE
  8
LC-005-005-----0
  6
CONTINUOUS
  5
6E
 10
305.890064
 20
293.161745
 30
0.0
 11
309.390064
 21
296.66174
 31
0.0
  0
LINE
  8
LC-005-005-----0
  6
CONTINUOUS
  5
6F
 10
305.870137
 20
297.384455
 30
0.0
 11
308.399286
 21
299.913601
 31
0.0
  0
LINE
  8
LC-005-005-----0
  6
CONTINUOUS
  5
70
 10
302.428855
 20
298.185816
 30
0.0
 11
304.928858
 21
300.685816
 31
0.0
  0
LINE
  8
LC-005-005-----0
  6
CONTINUOUS
  5
71
 10
299.890064
 20
299.889666
 30
0.0
 11
300.686215
 21
300.685816
 31
0.0
  0
ENDBLK
  8
0
  5
72
  0
BLOCK
  8
0
  5
74
  2
*X4
 70
    65
 10
298.390064
 20
266.185816
 30
0.0
  3
*X4
  0
LINE
  8
LC-005-005-----0
  6
CONTINUOUS
  5
75
 10
326.772448
 20
271.617722
 30
0.0
 11
332.26109
 21
277.106357
 31
0.0
  0
LINE
  8
LC-005-005-----0
  6
CONTINUOUS
  5
76
 10
334.390064
 20
279.235328
 30
0.0
 11
336.390064
 21
281.235326
 31
0.0
  0
LINE
  8
LC-005-005-----0
  6
CONTINUOUS
  5
77
 10
317.097891
 20
266.185816
 30
0.0
 11
322.184793
 21
271.272711
 31
0.0
  0
LINE
  8
LC-005-005-----0
  6
CONTINUOUS
  5
78
 10
334.390064
 20
283.477966
 30
0.0
 11
336.390064
 21
285.477964
 31
0.0
  0
LINE
  8
LC-005-005-----0
  6
CONTINUOUS
  5
79
 10
312.855248
 20
266.185816
 30
0.0
 11
314.85525
 21
268.185816
 31
0.0
  0
LINE
  8
LC-005-005-----0
  6
CONTINUOUS
  5
7A
 10
334.390064
 20
287.720604
 30
0.0
 11
336.390064
 21
289.720601
 31
0.0
  0
LINE
  8
LC-005-005-----0
  6
CONTINUOUS
  5
7B
 10
308.612604
 20
266.185816
 30
0.0
 11
310.612607
 21
268.185816
 31
0.0
  0
LINE
  8
LC-005-005-----0
  6
CONTINUOUS
  5
7C
 10
334.390064
 20
291.963242
 30
0.0
 11
336.390064
 21
293.963239
 31
0.0
  0
LINE
  8
LC-005-005-----0
  6
CONTINUOUS
  5
7D
 10
340.612646
 20
298.185816
 30
0.0
 11
341.390064
 21
298.963233
 31
0.0
  0
LINE
  8
LC-005-005-----0
  6
CONTINUOUS
  5
7E
 10
304.369961
 20
266.185816
 30
0.0
 11
306.369963
 21
268.185816
 31
0.0
  0
LINE
  8
LC-005-005-----0
  6
CONTINUOUS
  5
7F
 10
334.390064
 20
296.20588
 30
0.0
 11
338.370006
 21
300.185816
 31
0.0
  0
LINE
  8
LC-005-005-----0
  6
CONTINUOUS
  5
80
 10
345.370015
 20
307.185816
 30
0.0
 11
345.890064
 21
307.705865
 31
0.0
  0
LINE
  8
LC-005-005-----0
  6
CONTINUOUS
  5
81
 10
300.127317
 20
266.185816
 30
0.0
 11
302.12732
 21
268.185816
 31
0.0
  0
LINE
  8
LC-005-005-----0
  6
CONTINUOUS
  5
82
 10
334.390064
 20
300.448518
 30
0.0
 11
336.390064
 21
302.448515
 31
0.0
  0
LINE
  8
LC-005-005-----0
  6
CONTINUOUS
  5
83
 10
341.127371
 20
307.185816
 30
0.0
 11
343.127374
 21
309.185816
 31
0.0
  0
LINE
  8
LC-005-005-----0
  6
CONTINUOUS
  5
84
 10
334.390064
 20
304.691156
 30
0.0
 11
336.390064
 21
306.691153
 31
0.0
  0
LINE
  8
LC-005-005-----0
  6
CONTINUOUS
  5
85
 10
336.884728
 20
307.185816
 30
0.0
 11
338.884731
 21
309.185816
 31
0.0
  0
LINE
  8
LC-005-005-----0
  6
CONTINUOUS
  5
86
 10
334.390064
 20
308.933793
 30
0.0
 11
334.642087
 21
309.185816
 31
0.0
  0
ENDBLK
  8
0
  5
87
  0
BLOCK
  8
0
  5
89
  2
*X5
 70
    65
 10
295.06251
 20
266.340826
 30
0.0
  3
*X5
  0
LINE
  8
LC-005-005-----0
  6
CONTINUOUS
  5
8A
 10
295.539021
 20
268.73219
 30
0.0
 11
297.918557
 21
266.352655
 31
0.0
  0
LINE
  8
LC-005-005-----0
  6
CONTINUOUS
  5
8B
 10
295.789115
 20
272.724737
 30
0.0
 11
298.961829
 21
269.552023
 31
0.0
  0
LINE
  8
LC-005-005-----0
  6
CONTINUOUS
  5
8C
 10
297.355644
 20
275.400849
 30
0.0
 11
300.005101
 21
272.751392
 31
0.0
  0
LINE
  8
LC-005-005-----0
  6
CONTINUOUS
  5
8D
 10
298.668838
 20
278.330295
 30
0.0
 11
301.048373
 21
275.95076
 31
0.0
  0
LINE
  8
LC-005-005-----0
  6
CONTINUOUS
  5
8E
 10
299.712111
 20
281.529664
 30
0.0
 11
302.091646
 21
279.150128
 31
0.0
  0
LINE
  8
LC-005-005-----0
  6
CONTINUOUS
  5
8F
 10
300.755383
 20
284.729032
 30
0.0
 11
303.134918
 21
282.349497
 31
0.0
  0
LINE
  8
LC-005-005-----0
  6
CONTINUOUS
  5
90
 10
301.798655
 20
287.9284
 30
0.0
 11
304.17819
 21
285.548865
 31
0.0
  0
LINE
  8
LC-005-005-----0
  6
CONTINUOUS
  5
91
 10
304.251468
 20
289.718228
 30
0.0
 11
305.221463
 21
288.748234
 31
0.0
  0
ENDBLK
  8
0
  5
92
  0
BLOCK
  8
0
  5
94
  2
*X6
 70
    65
 10
257.140064
 20
300.685816
 30
0.0
  3
*X6
  0
LINE
  8
LC-005-005-----0
  6
CONTINUOUS
  5
95
 10
257.295322
 20
302.733218
 30
0.0
 11
259.187471
 21
300.841072
 31
0.0
  0
LINE
  8
LC-005-005-----0
  6
CONTINUOUS
  5
96
 10
257.193458
 20
304.249295
 30
0.0
 11
260.703548
 21
300.73921
 31
0.0
  0
LINE
  8
LC-005-005-----0
  6
CONTINUOUS
  5
97
 10
257.590347
 20
305.266619
 30
0.0
 11
261.720871
 21
301.1361
 31
0.0
  0
LINE
  8
LC-005-005-----0
  6
CONTINUOUS
  5
98
 10
258.253111
 20
306.018069
 30
0.0
 11
262.47232
 21
301.798865
 31
0.0
  0
LINE
  8
LC-005-005-----0
  6
CONTINUOUS
  5
99
 10
259.163109
 20
306.522285
 30
0.0
 11
262.976535
 21
302.708864
 31
0.0
  0
LINE
  8
LC-005-005-----0
  6
CONTINUOUS
  5
9A
 10
260.427604
 20
306.672004
 30
0.0
 11
263.126252
 21
303.973359
 31
0.0
  0
ENDBLK
  8
0
  5
9B
  0
BLOCK
  8
0
  5
9D
  2
*X7
 70
    65
 10
336.640064
 20
300.685816
 30
0.0
  3
*X7
  0
LINE
  8
LC-005-005-----0
  6
CONTINUOUS
  5
9E
 10
337.046465
 20
302.178088
 30
0.0
 11
338.13234
 21
301.092214
 31
0.0
  0
LINE
  8
LC-005-005-----0
  6
CONTINUOUS
  5
9F
 10
336.654906
 20
303.983859
 30
0.0
 11
339.938112
 21
300.700658
 31
0.0
  0
LINE
  8
LC-005-005-----0
  6
CONTINUOUS
  5
A0
 10
336.98002
 20
305.072958
 30
0.0
 11
341.02721
 21
301.025773
 31
0.0
  0
LINE
  8
LC-005-005-----0
  6
CONTINUOUS
  5
A1
 10
337.590577
 20
305.876615
 30
0.0
 11
341.830866
 21
301.636331
 31
0.0
  0
LINE
  8
LC-005-005-----0
  6
CONTINUOUS
  5
A2
 10
338.44423
 20
306.437176
 30
0.0
 11
342.391426
 21
302.489985
 31
0.0
  0
LINE
  8
LC-005-005-----0
  6
CONTINUOUS
  5
A3
 10
339.609955
 20
306.685665
 30
0.0
 11
342.639913
 21
303.655711
 31
0.0
  0
ENDBLK
  8
0
  5
A4
  0
ENDSEC
  0
SECTION
  2
ENTITIES
  0
VIEWPORT
  8
LC-000
  5
EE
 67
     1
 68
     1
 10
420.0
 20
297.0
 30
0.0
 40
840.0
 41
594.0
 69
     1
1001
ACAD
1000
MVIEW
1002
{
1070
    16
1010
0.0
1020
0.0
1030
0.0
1010
0.0
1020
0.0
1030
1.0
1040
0.0
1040
594.0
1040
420.0
1040
297.0
1040
50.0
1040
0.0
1040
0.0
1070
     0
1070
   100
1070
     1
1070
     1
1070
     0
1070
     0
1070
     0
1070
     0
1040
0.0
1040
0.0
1040
0.0
1040
1.0
1040
1.0
1040
0.0
1040
0.0
1070
     0
1002
{
1002
}
1002
}
  0
VIEWPORT
  8
0
  5
EF
 67
     1
 68
     1
 10
0.0
 20
0.0
 30
0.0
 40
0.0
 41
0.0
 69
     1
1001
ACAD
1000
MVIEW
1002
{
1070
    16
1010
0.0
1020
0.0
1030
0.0
1010
0.0
1020
0.0
1030
1.0
1040
0.0
1040
594.0
1040
0.0
1040
0.0
1040
50.0
1040
0.0
1040
0.0
1070
     0
1070
   100
1070
     0
1070
     1
1070
     0
1070
     0
1070
     0
1070
     0
1040
0.0
1040
0.0
1040
0.0
1040
0.5
1040
0.5
1040
0.5
1040
0.5
1070
     0
1002
{
1002
}
1002
}
  0
DIMENSION
  8
0
  5
A5
  2
*D0
 10
299.890064
 20
320.0
 30
0.0
 11
299.890064
 21
320.0
 31
0.0
  1
%%c<>
 13
253.890064
 23
309.185816
 33
0.0
 14
345.890064
 24
309.185816
 34
0.0
  3
LC-DIM-L-0090-02-02
  0
DIMENSION
  8
0
  5
A6
  2
*D1
 10
400.0
 20
315.414
 30
0.0
 11
400.0
 21
315.414
 31
0.0
  1
42
 13
345.890064
 23
309.185816
 33
0.0
 14
299.890064
 24
266.185816
 34
0.0
 50
90.0
  3
LC-DIM-L-0090-02-02
  0
INSERT
  8
0
  5
A7
  2
*X2
 10
253.890064
 20
298.185816
 30
0.0
  0
INSERT
  8
0
  5
A8
  2
*X3
 10
299.890064
 20
289.185816
 30
0.0
  0
INSERT
  8
0
  5
A9
  2
*X4
 10
298.390064
 20
266.185816
 30
0.0
  0
INSERT
  8
0
  5
AA
  2
*X5
 10
295.06251
 20
266.340826
 30
0.0
  0
INSERT
  8
0
  5
AB
  2
*X6
 10
257.140064
 20
300.685816
 30
0.0
  0
INSERT
  8
0
  5
AC
  2
*X7
 10
336.640064
 20
300.685816
 30
0.0
  0
LINE
  8
LC-001-002-----0
  5
AF
 10
299.890064
 20
309.185816
 30
0.0
 11
299.890064
 21
300.685816
 31
0.0
  0
LINE
  8
LC-001-002-----0
  6
CONTINUOUS
 62
     1
  5
B0
 10
491.890064
 20
320.852064
 30
0.0
 11
491.890064
 21
254.519568
 31
0.0
  0
CIRCLE
  8
LC-001-002-----0
  6
CONTINUOUS
 62
     1
  5
B1
 10
482.390064
 20
287.685816
 30
0.0
 40
46.0
  0
CIRCLE
  8
LC-001-002-----0
  6
CONTINUOUS
 62
     1
  5
B2
 10
482.390064
 20
287.685816
 30
0.0
 40
34.5
  0
ARC
  8
LC-001-002-----0
  6
CONTINUOUS
 62
     1
  5
B3
 10
482.390064
 20
287.685816
 30
0.0
 40
16.962818
 50
304.059148
 51
55.940852
  0
LINE
  8
LC-001-002-----0
  6
CONTINUOUS
 62
     1
  5
B4
 10
345.890064
 20
309.185816
 30
0.0
 11
253.890064
 21
309.185816
 31
0.0
  0
LINE
  8
LC-001-002-----0
  6
CONTINUOUS
 62
     1
  5
B5
 10
253.890064
 20
309.185816
 30
0.0
 11
253.890064
 21
307.185816
 31
0.0
  0
LINE
  8
LC-001-002-----0
  6
CONTINUOUS
 62
     1
  5
B6
 10
253.890064
 20
307.185816
 30
0.0
 11
263.390064
 21
307.185816
 31
0.0
  0
LINE
  8
LC-001-002-----0
  6
CONTINUOUS
 62
     1
  5
B7
 10
263.390064
 20
307.185816
 30
0.0
 11
263.390064
 21
300.185816
 31
0.0
  0
LINE
  8
LC-001-002-----0
  6
CONTINUOUS
 62
     1
  5
B8
 10
263.390064
 20
300.185816
 30
0.0
 11
258.390064
 21
300.185816
 31
0.0
  0
LINE
  8
LC-001-002-----0
  6
CONTINUOUS
 62
     1
  5
B9
 10
258.390064
 20
300.185816
 30
0.0
 11
258.390064
 21
298.185816
 31
0.0
  0
LINE
  8
LC-001-002-----0
  6
CONTINUOUS
 62
     1
  5
BA
 10
341.390064
 20
298.185816
 30
0.0
 11
341.390064
 21
300.185816
 31
0.0
  0
LINE
  8
LC-001-002-----0
  6
CONTINUOUS
 62
     1
  5
BB
 10
341.390064
 20
300.185816
 30
0.0
 11
336.390064
 21
300.185816
 31
0.0
  0
LINE
  8
LC-001-002-----0
  6
CONTINUOUS
 62
     1
  5
BC
 10
336.390064
 20
300.185816
 30
0.0
 11
336.390064
 21
307.185816
 31
0.0
  0
LINE
  8
LC-001-002-----0
  6
CONTINUOUS
 62
     1
  5
BD
 10
336.390064
 20
307.185816
 30
0.0
 11
345.890064
 21
307.185816
 31
0.0
  0
LINE
  8
LC-001-002-----0
  6
CONTINUOUS
 62
     1
  5
BE
 10
345.890064
 20
307.185816
 30
0.0
 11
345.890064
 21
309.185816
 31
0.0
  0
LINE
  8
LC-001-002-----0
  6
CONTINUOUS
 62
     1
  5
BF
 10
265.390064
 20
309.185816
 30
0.0
 11
265.390064
 21
300.685816
 31
0.0
  0
LINE
  8
LC-001-002-----0
  6
CONTINUOUS
 62
     1
  5
C0
 10
309.390064
 20
289.185816
 30
0.0
 11
305.890064
 21
289.185816
 31
0.0
  0
LINE
  8
LC-001-002-----0
  6
CONTINUOUS
 62
     1
  5
C1
 10
336.390064
 20
298.185816
 30
0.0
 11
341.390064
 21
298.185816
 31
0.0
  0
LINE
  8
LC-001-002-----0
  6
CONTINUOUS
 62
     1
  5
C2
 10
334.390064
 20
309.185816
 30
0.0
 11
334.390064
 21
278.338921
 31
0.0
  0
LINE
  8
LC-001-002-----0
  6
CONTINUOUS
 62
     1
  5
C3
 10
317.390064
 20
266.185816
 30
0.0
 11
298.390064
 21
266.185816
 31
0.0
  0
LINE
  8
LC-001-002-----0
  6
CONTINUOUS
 62
     1
  5
C4
 10
336.390064
 20
298.185816
 30
0.0
 11
336.390064
 21
277.185816
 31
0.0
  0
LINE
  8
LC-001-002-----0
  6
CONTINUOUS
 62
     1
  5
C5
 10
317.390064
 20
266.185816
 30
0.0
 11
336.390064
 21
277.185816
 31
0.0
  0
LINE
  8
LC-001-002-----0
  6
CONTINUOUS
 62
     1
  5
C6
 10
316.852883
 20
268.185816
 30
0.0
 11
334.390064
 21
278.338921
 31
0.0
  0
LINE
  8
LC-001-002-----0
  6
CONTINUOUS
 62
     1
  5
C7
 10
316.852883
 20
268.185816
 30
0.0
 11
299.042238
 21
268.185816
 31
0.0
  0
LINE
  8
LC-001-002-----0
  6
CONTINUOUS
 62
     1
  5
C8
 10
298.390064
 20
266.185816
 30
0.0
 11
305.890064
 21
289.185816
 31
0.0
  0
LINE
  8
LC-001-002-----0
  6
CONTINUOUS
 62
     1
  5
C9
 10
305.228033
 20
293.606772
 30
0.0
 11
305.890064
 21
293.391665
 31
0.0
  0
ARC
  8
LC-001-002-----0
  6
CONTINUOUS
 62
     1
  5
CA
 10
302.37085
 20
294.535127
 30
0.0
 40
1.0
 50
72.0
 51
162.0
  0
LINE
  8
LC-001-002-----0
  6
CONTINUOUS
 62
     1
  5
CB
 10
303.797434
 20
294.071601
 30
0.0
 11
303.797434
 21
294.071601
 31
0.0
  0
ARC
  8
LC-001-002-----0
  6
CONTINUOUS
 62
     1
  5
CC
 10
302.846378
 20
294.380618
 30
0.0
 40
1.0
 50
342.0
 51
72.0
  0
LINE
  8
LC-001-002-----0
  6
CONTINUOUS
 62
     1
  5
CD
 10
302.679867
 20
295.486183
 30
0.0
 11
303.155395
 21
295.331675
 31
0.0
  0
LINE
  8
LC-001-002-----0
  6
CONTINUOUS
 62
     1
  5
CE
 10
305.890064
 20
289.185816
 30
0.0
 11
302.561365
 21
290.267376
 31
0.0
  0
ARC
  8
LC-001-002-----0
  6
CONTINUOUS
 62
     1
  5
CF
 10
302.703872
 20
292.323997
 30
0.0
 40
2.0
 50
161.999981
 51
252.0
  0
LINE
  8
LC-001-002-----0
  6
CONTINUOUS
 62
     1
  5
D0
 10
300.801759
 20
292.942031
 30
0.0
 11
301.419793
 21
294.844144
 31
0.0
  0
LINE
  8
LC-001-002-----0
  6
CONTINUOUS
 62
     1
  5
D1
 10
334.390064
 20
278.338921
 30
0.0
 11
302.353033
 21
278.338921
 31
0.0
  0
LINE
  8
LC-001-002-----0
  6
CONTINUOUS
 62
     1
  5
D2
 10
297.914699
 20
266.340826
 30
0.0
 11
305.414699
 21
289.340826
 31
0.0
  0
LINE
  8
LC-001-002-----0
  6
CONTINUOUS
 62
     1
  5
D3
 10
295.06251
 20
267.270888
 30
0.0
 11
295.992572
 21
270.123077
 31
0.0
  0
LINE
  8
LC-001-002-----0
  6
CONTINUOUS
 62
     1
  5
D4
 10
295.06251
 20
267.270888
 30
0.0
 11
297.914699
 21
266.340826
 31
0.0
  0
LINE
  8
LC-001-002-----0
  6
CONTINUOUS
 62
     1
  5
D5
 10
303.98795
 20
289.80385
 30
0.0
 11
305.654275
 21
294.913913
 31
0.0
  0
LINE
  8
LC-001-002-----0
  6
CONTINUOUS
 62
     1
  5
D6
 10
297.697685
 20
275.352092
 30
0.0
 11
304.22818
 21
295.378944
 31
0.0
  0
LINE
  8
LC-001-002-----0
  6
CONTINUOUS
 62
     1
  5
D7
 10
302.561365
 20
290.267376
 30
0.0
 11
302.085838
 21
290.421884
 31
0.0
  0
ARC
  8
LC-001-002-----0
  6
CONTINUOUS
 62
     1
  5
D8
 10
296.302592
 20
271.073807
 30
0.0
 40
1.0
 50
161.939528
 51
251.939376
  0
LINE
  8
LC-001-002-----0
  6
CONTINUOUS
 62
     1
  5
D9
 10
295.992572
 20
270.123077
 30
0.0
 11
295.992572
 21
270.123077
 31
0.0
  0
LINE
  8
LC-001-002-----0
  6
CONTINUOUS
 62
     1
  5
DA
 10
297.697685
 20
275.352092
 30
0.0
 11
297.697685
 21
275.352092
 31
0.0
  0
ARC
  8
LC-001-002-----0
  6
CONTINUOUS
 62
     1
  5
DB
 10
297.387664
 20
274.401362
 30
0.0
 40
1.0
 50
71.939528
 51
161.939509
  0
LINE
  8
LC-001-002-----0
  6
CONTINUOUS
 62
     1
  5
DC
 10
295.351862
 20
271.383828
 30
0.0
 11
296.436935
 21
274.711382
 31
0.0
  0
ARC
  8
LC-001-002-----0
  6
CONTINUOUS
 62
     1
  5
DD
 10
304.941729
 20
295.146265
 30
0.0
 40
0.75
 50
341.939645
 51
161.939549
  0
LINE
  8
LC-001-002-----0
  6
CONTINUOUS
 62
     1
  5
DE
 10
309.390064
 20
297.685816
 30
0.0
 11
309.390064
 21
289.185816
 31
0.0
  0
ARC
  8
LC-001-002-----0
  6
CONTINUOUS
 62
     1
  5
DF
 10
306.390064
 20
297.685816
 30
0.0
 40
3.0
 50
0.0
 51
89.999981
  0
LINE
  8
LC-001-002-----0
  6
CONTINUOUS
 62
     1
  5
E0
 10
265.390064
 20
300.685816
 30
0.0
 11
306.390064
 21
300.685816
 31
0.0
  0
LINE
  8
LC-001-002-----0
  6
CONTINUOUS
 62
     1
  5
E1
 10
305.890064
 20
289.185816
 30
0.0
 11
305.890064
 21
297.185816
 31
0.0
  0
ARC
  8
LC-001-002-----0
  6
CONTINUOUS
 62
     1
  5
E2
 10
304.890064
 20
297.185816
 30
0.0
 40
1.0
 50
0.0
 51
89.999981
  0
LINE
  8
LC-001-002-----0
  6
CONTINUOUS
 62
     1
  5
E3
 10
258.390064
 20
298.185816
 30
0.0
 11
304.890064
 21
298.185816
 31
0.0
  0
CIRCLE
  8
LC-001-002-----0
  6
CONTINUOUS
 62
     1
  5
E4
 10
260.140064
 20
303.685816
 30
0.0
 40
3.0
  0
CIRCLE
  8
LC-001-002-----0
  6
CONTINUOUS
 62
     1
  5
E5
 10
339.640064
 20
303.685816
 30
0.0
 40
3.0
  0
LINE
  8
LC-001-002-----0
  5
E6
 10
289.1556
 20
280.909607
 30
0.0
 11
300.899454
 21
291.461399
 31
0.0
  0
ARC
  8
LC-001-002-----0
  5
E7
 10
288.411749
 20
280.241261
 30
0.0
 40
1.0
 50
41.939528
 51
131.939509
  0
LINE
  8
LC-001-002-----0
  5
E8
 10
285.139926
 20
278.645901
 30
0.0
 11
287.743403
 21
280.985112
 31
0.0
  0
ARC
  8
LC-001-002-----0
  5
E9
 10
285.808272
 20
277.902051
 30
0.0
 40
1.0
 50
131.939528
 51
221.939376
  0
LINE
  8
LC-001-002-----0
  5
EA
 10
282.832869
 20
275.228667
 30
0.0
 11
285.064421
 21
277.233705
 31
0.0
  0
LINE
  8
LC-001-002-----0
  5
EB
 10
282.832869
 20
275.228667
 30
0.0
 11
284.837907
 21
272.997115
 31
0.0
  0
LINE
  8
LC-001-002-----0
  5
EC
 10
284.837907
 20
272.997115
 30
0.0
 11
301.940645
 21
288.363836
 31
0.0
  0
ENDSEC
  0
EOF
