  0
SECTION
  2
HEADER
  9
$ACADVER
  1
AC1015
  9
$ACADMAINTVER
 70
     6
  9
$DWGCODEPAGE
  3
ANSI_1252
  9
$INSBASE
 10
0.0
 20
0.0
 30
0.0
  9
$EXTMIN
 10
-118.782642
 20
-86.201609
 30
0.0
  9
$EXTMAX
 10
721.217358
 20
507.798391
 30
0.0
  9
$LIMMIN
 10
-118.782642
 20
-86.201609
  9
$LIMMAX
 10
721.217358
 20
507.798391
  9
$ORTHOMODE
 70
     0
  9
$REGENMODE
 70
     1
  9
$FILLMODE
 70
     1
  9
$QTEXTMODE
 70
     0
  9
$MIRRTEXT
 70
     1
  9
$LTSCALE
 40
2.0
  9
$ATTMODE
 70
     1
  9
$TEXTSIZE
 40
2.5
  9
$TRACEWID
 40
1.0
  9
$TEXTSTYLE
  7
Standard
  9
$CLAYER
  8
0
  9
$CELTYPE
  6
ByLayer
  9
$CECOLOR
 62
     7
  9
$CELTSCALE
 40
1.0
  9
$DISPSILH
 70
     0
  9
$DIMSCALE
 40
2.0
  9
$DIMASZ
 40
3.5
  9
$DIMEXO
 40
0.625
  9
$DIMDLI
 40
3.75
  9
$DIMRND
 40
0.0
  9
$DIMDLE
 40
0.0
  9
$DIMEXE
 40
1.25
  9
$DIMTP
 40
0.0
  9
$DIMTM
 40
0.0
  9
$DIMTXT
 40
3.5
  9
$DIMCEN
 40
2.5
  9
$DIMTSZ
 40
0.0
  9
$DIMTOL
 70
     0
  9
$DIMLIM
 70
     0
  9
$DIMTIH
 70
     0
  9
$DIMTOH
 70
     0
  9
$DIMSE1
 70
     0
  9
$DIMSE2
 70
     0
  9
$DIMTAD
 70
     1
  9
$DIMZIN
 70
     8
  9
$DIMBLK
  1

  9
$DIMASO
 70
     1
  9
$DIMSHO
 70
     1
  9
$DIMPOST
  1

  9
$DIMAPOST
  1

  9
$DIMALT
 70
     0
  9
$DIMALTD
 70
     3
  9
$DIMALTF
 40
0.03937
  9
$DIMLFAC
 40
1.0
  9
$DIMTOFL
 70
     1
  9
$DIMTVP
 40
0.0
  9
$DIMTIX
 70
     0
  9
$DIMSOXD
 70
     0
  9
$DIMSAH
 70
     0
  9
$DIMBLK1
  1

  9
$DIMBLK2
  1

  9
$DIMSTYLE
  2
ISO-25
  9
$DIMCLRD
 70
     0
  9
$DIMCLRE
 70
     0
  9
$DIMCLRT
 70
     0
  9
$DIMTFAC
 40
1.0
  9
$DIMGAP
 40
0.625
  9
$DIMJUST
 70
     0
  9
$DIMSD1
 70
     0
  9
$DIMSD2
 70
     0
  9
$DIMTOLJ
 70
     0
  9
$DIMTZIN
 70
     8
  9
$DIMALTZ
 70
     0
  9
$DIMALTTZ
 70
     0
  9
$DIMUPT
 70
     0
  9
$DIMDEC
 70
     2
  9
$DIMTDEC
 70
     2
  9
$DIMALTU
 70
     2
  9
$DIMALTTD
 70
     3
  9
$DIMTXSTY
  7
Standard
  9
$DIMAUNIT
 70
     0
  9
$DIMADEC
 70
     0
  9
$DIMALTRND
 40
0.0
  9
$DIMAZIN
 70
     0
  9
$DIMDSEP
 70
    44
  9
$DIMATFIT
 70
     3
  9
$DIMFRAC
 70
     0
  9
$DIMLDRBLK
  1

  9
$DIMLUNIT
 70
     2
  9
$DIMLWD
 70
    -2
  9
$DIMLWE
 70
    -2
  9
$DIMTMOVE
 70
     0
  9
$LUNITS
 70
     2
  9
$LUPREC
 70
     4
  9
$SKETCHINC
 40
1.0
  9
$FILLETRAD
 40
10.0
  9
$AUNITS
 70
     0
  9
$AUPREC
 70
     0
  9
$MENU
  1
.
  9
$ELEVATION
 40
0.0
  9
$PELEVATION
 40
0.0
  9
$THICKNESS
 40
0.0
  9
$LIMCHECK
 70
     0
  9
$CHAMFERA
 40
10.0
  9
$CHAMFERB
 40
10.0
  9
$CHAMFERC
 40
20.0
  9
$CHAMFERD
 40
0.0
  9
$SKPOLY
 70
     0
  9
$TDCREATE
 40
2456940.302461435
  9
$TDUCREATE
 40
2456940.219128102
  9
$TDUPDATE
 40
2456940.302461447
  9
$TDUUPDATE
 40
2456940.219128113
  9
$TDINDWG
 40
0.0000000116
  9
$TDUSRTIMER
 40
0.0000000116
  9
$USRTIMER
 70
     1
  9
$ANGBASE
 50
0.0
  9
$ANGDIR
 70
     0
  9
$PDMODE
 70
     0
  9
$PDSIZE
 40
0.0
  9
$PLINEWID
 40
0.0
  9
$SPLFRAME
 70
     0
  9
$SPLINETYPE
 70
     6
  9
$SPLINESEGS
 70
     8
  9
$HANDSEED
  5
65A
  9
$SURFTAB1
 70
     6
  9
$SURFTAB2
 70
     6
  9
$SURFTYPE
 70
     6
  9
$SURFU
 70
     6
  9
$SURFV
 70
     6
  9
$UCSBASE
  2

  9
$UCSNAME
  2

  9
$UCSORG
 10
0.0
 20
0.0
 30
0.0
  9
$UCSXDIR
 10
1.0
 20
0.0
 30
0.0
  9
$UCSYDIR
 10
0.0
 20
1.0
 30
0.0
  9
$UCSORTHOREF
  2

  9
$UCSORTHOVIEW
 70
     0
  9
$UCSORGTOP
 10
0.0
 20
0.0
 30
0.0
  9
$UCSORGBOTTOM
 10
0.0
 20
0.0
 30
0.0
  9
$UCSORGLEFT
 10
0.0
 20
0.0
 30
0.0
  9
$UCSORGRIGHT
 10
0.0
 20
0.0
 30
0.0
  9
$UCSORGFRONT
 10
0.0
 20
0.0
 30
0.0
  9
$UCSORGBACK
 10
0.0
 20
0.0
 30
0.0
  9
$PUCSBASE
  2

  9
$PUCSNAME
  2

  9
$PUCSORG
 10
0.0
 20
0.0
 30
0.0
  9
$PUCSXDIR
 10
1.0
 20
0.0
 30
0.0
  9
$PUCSYDIR
 10
0.0
 20
1.0
 30
0.0
  9
$PUCSORTHOREF
  2

  9
$PUCSORTHOVIEW
 70
     0
  9
$PUCSORGTOP
 10
0.0
 20
0.0
 30
0.0
  9
$PUCSORGBOTTOM
 10
0.0
 20
0.0
 30
0.0
  9
$PUCSORGLEFT
 10
0.0
 20
0.0
 30
0.0
  9
$PUCSORGRIGHT
 10
0.0
 20
0.0
 30
0.0
  9
$PUCSORGFRONT
 10
0.0
 20
0.0
 30
0.0
  9
$PUCSORGBACK
 10
0.0
 20
0.0
 30
0.0
  9
$USERI1
 70
     0
  9
$USERI2
 70
     0
  9
$USERI3
 70
     0
  9
$USERI4
 70
     0
  9
$USERI5
 70
     0
  9
$USERR1
 40
0.0
  9
$USERR2
 40
0.0
  9
$USERR3
 40
0.0
  9
$USERR4
 40
0.0
  9
$USERR5
 40
0.0
  9
$WORLDVIEW
 70
     1
  9
$SHADEDGE
 70
     3
  9
$SHADEDIF
 70
    70
  9
$TILEMODE
 70
     1
  9
$MAXACTVP
 70
    64
  9
$PINSBASE
 10
0.0
 20
0.0
 30
0.0
  9
$PLIMCHECK
 70
     0
  9
$PEXTMIN
 10
-118.782642
 20
-86.201609
 30
0.0
  9
$PEXTMAX
 10
721.217358
 20
507.798391
 30
0.0
  9
$PLIMMIN
 10
-118.782642
 20
-86.201609
  9
$PLIMMAX
 10
721.217358
 20
507.798391
  9
$UNITMODE
 70
     0
  9
$VISRETAIN
 70
     1
  9
$PLINEGEN
 70
     0
  9
$PSLTSCALE
 70
     1
  9
$TREEDEPTH
 70
  3020
  9
$CMLSTYLE
  2
Standard
  9
$CMLJUST
 70
     0
  9
$CMLSCALE
 40
20.0
  9
$PROXYGRAPHICS
 70
     1
  9
$MEASUREMENT
 70
     1
  9
$CELWEIGHT
370
    -1
  9
$ENDCAPS
280
     0
  9
$JOINSTYLE
280
     0
  9
$LWDISPLAY
290
     0
  9
$INSUNITS
 70
     4
  9
$HYPERLINKBASE
  1

  9
$STYLESHEET
  1

  9
$XEDIT
290
     1
  9
$CEPSNTYPE
380
     0
  9
$PSTYLEMODE
290
     1
  9
$FINGERPRINTGUID
  2
{FAEB1C30-E019-11D5-929B-00C0DF256EC4}
  9
$VERSIONGUID
  2
{FAEB1C32-E019-11D5-929B-00C0DF256EC4}
  9
$EXTNAMES
290
     1
  9
$PSVPSCALE
 40
0.0
  9
$OLESTARTUP
290
     0
  0
ENDSEC
  0
SECTION
  2
CLASSES
  0
CLASS
  1
ACDBDICTIONARYWDFLT
  2
AcDbDictionaryWithDefault
  3
ObjectDBX Classes
 90
        0
280
     0
281
     0
  0
CLASS
  1
ACDBPLACEHOLDER
  2
AcDbPlaceHolder
  3
ObjectDBX Classes
 90
        0
280
     0
281
     0
  0
CLASS
  1
LAYOUT
  2
AcDbLayout
  3
ObjectDBX Classes
 90
        0
280
     0
281
     0
  0
ENDSEC
  0
SECTION
  2
TABLES
  0
TABLE
  2
VPORT
  5
8
330
0
100
AcDbSymbolTable
 70
     2
  0
VPORT
  5
29
330
8
100
AcDbSymbolTableRecord
100
AcDbViewportTableRecord
  2
*ACTIVE
 70
     0
 10
0.0
 20
0.0
 11
1.0
 21
1.0
 12
301.217358
 22
210.798391
 13
0.0
 23
0.0
 14
1.0
 24
1.0
 15
0.0
 25
0.0
 16
0.0
 26
0.0
 36
1.0
 17
0.0
 27
0.0
 37
0.0
 40
594.0
 41
1.414141
 42
50.0
 43
0.0
 44
0.0
 50
0.0
 51
0.0
 71
    16
 72
   100
 73
     1
 74
     0
 75
     0
 76
     0
 77
     0
 78
     0
281
     0
 65
     0
110
0.0
120
0.0
130
0.0
111
1.0
121
0.0
131
0.0
112
0.0
122
1.0
132
0.0
 79
     0
146
0.0
  0
ENDTAB
  0
TABLE
  2
LTYPE
  5
5
330
0
100
AcDbSymbolTable
 70
     3
  0
LTYPE
  5
14
330
5
100
AcDbSymbolTableRecord
100
AcDbLinetypeTableRecord
  2
ByBlock
 70
     0
  3

 72
    65
 73
     0
 40
0.0
  0
LTYPE
  5
15
330
5
100
AcDbSymbolTableRecord
100
AcDbLinetypeTableRecord
  2
ByLayer
 70
     0
  3

 72
    65
 73
     0
 40
0.0
  0
LTYPE
  5
16
330
5
100
AcDbSymbolTableRecord
100
AcDbLinetypeTableRecord
  2
Continuous
 70
     0
  3
Solid line
 72
    65
 73
     0
 40
0.0
  0
LTYPE
  5
2A
330
5
100
AcDbSymbolTableRecord
100
AcDbLinetypeTableRecord
  2
DASHED
 70
     0
  3
__ __ __ __ __
 72
    65
 73
     2
 40
6.25
 49
5.0
 74
     4
 75
     0
340
0
 46
1.0
 50
0.0
 44
0.0
 45
0.0
 49
-1.25
 74
     4
 75
     0
340
0
 46
1.0
 50
0.0
 44
0.0
 45
0.0
  0
LTYPE
  5
620
330
5
100
AcDbSymbolTableRecord
100
AcDbLinetypeTableRecord
  2
DASHDOT
 70
     0
  3
__ . __ . __ . __ . __
 72
    65
 73
     4
 40
7.5
 49
5.0
 74
     4
 75
     0
340
0
 46
1.0
 50
0.0
 44
0.0
 45
0.0
 49
-1.25
 74
     4
 75
     0
340
0
 46
1.0
 50
0.0
 44
0.0
 45
0.0
 49
0.0
 74
     4
 75
     0
340
0
 46
1.0
 50
0.0
 44
0.0
 45
0.0
 49
-1.25
 74
     4
 75
     0
340
0
 46
1.0
 50
0.0
 44
0.0
 45
0.0
  0
ENDTAB
  0
TABLE
  2
LAYER
  5
2
330
0
100
AcDbSymbolTable
 70
     9
  0
LAYER
  5
10
330
2
100
AcDbSymbolTableRecord
100
AcDbLayerTableRecord
  2
0
 70
     0
 62
     7
  6
Continuous
370
    -3
390
F
  0
LAYER
  5
2B
330
2
100
AcDbSymbolTableRecord
100
AcDbLayerTableRecord
  2
LC-INFO-1-2-mm-A3-0
 70
     1
 62
     7
  6
ByBlock
370
    -3
390
F
  0
LAYER
  5
2C
330
2
100
AcDbSymbolTableRecord
100
AcDbLayerTableRecord
  2
LC-CUT-HIDDEN
 70
     0
 62
     7
  6
DASHED
370
    -3
390
F
  0
LAYER
  5
2D
330
2
100
AcDbSymbolTableRecord
100
AcDbLayerTableRecord
  2
LC-VIEWPORT
 70
     0
 62
     7
  6
ByBlock
370
    -3
390
F
  0
LAYER
  5
2E
330
2
100
AcDbSymbolTableRecord
100
AcDbLayerTableRecord
  2
LC-3D-HIDDEN
 70
     0
 62
     9
  6
DASHED
370
    -3
390
F
  0
LAYER
  5
31
330
2
100
AcDbSymbolTableRecord
100
AcDbLayerTableRecord
  2
LC-001-100-D00-0
 70
     0
 62
     1
  6
ByBlock
370
    -3
390
F
  0
LAYER
  5
5D8
330
2
100
AcDbSymbolTableRecord
100
AcDbLayerTableRecord
  2
LC-002-103-D00-0
 70
     0
 62
     2
  6
ByBlock
370
    -3
390
F
  0
LAYER
  5
5DA
330
2
100
AcDbSymbolTableRecord
100
AcDbLayerTableRecord
  2
Defpoints
 70
     0
 62
     7
  6
Continuous
290
     0
370
    -3
390
F
  0
LAYER
  5
623
330
2
100
AcDbSymbolTableRecord
100
AcDbLayerTableRecord
  2
LC-003-003-----0
 70
     0
 62
     2
  6
ByBlock
370
    -3
390
F
  0
ENDTAB
  0
TABLE
  2
STYLE
  5
3
330
0
100
AcDbSymbolTable
 70
     4
  0
STYLE
  5
11
330
3
100
AcDbSymbolTableRecord
100
AcDbTextStyleTableRecord
  2
Standard
 70
     0
 40
0.0
 41
1.0
 50
0.0
 71
     0
 42
2.5
  3
txt
  4

  0
STYLE
  5
2F
330
3
100
AcDbSymbolTableRecord
100
AcDbTextStyleTableRecord
  2
LCTX0-400-0-0pDIN-Schrift
 70
     0
 40
0.0
 41
0.75
 50
0.0
 71
     0
 42
3.5
  3
TXT
  4

  0
STYLE
  5
30
330
3
100
AcDbSymbolTableRecord
100
AcDbTextStyleTableRecord
  2
LCTX15-400-0-0-Arial
 70
     0
 40
0.0
 41
0.8
 50
0.0
 71
     0
 42
3.5
  3

  4

1001
ACAD
1000
Arial
1071
 16777218
  0
STYLE
  5
5D6
330
3
100
AcDbSymbolTableRecord
100
AcDbTextStyleTableRecord
  2
LCTX15-400-0-0pDIN-Schrift
 70
     0
 40
2.5
 41
0.8
 50
15.0
 71
     0
 42
3.5
  3
STANDARD
  4

  0
ENDTAB
  0
TABLE
  2
VIEW
  5
6
330
0
100
AcDbSymbolTable
 70
     0
  0
ENDTAB
  0
TABLE
  2
UCS
  5
7
330
0
100
AcDbSymbolTable
 70
     0
  0
ENDTAB
  0
TABLE
  2
APPID
  5
9
330
0
100
AcDbSymbolTable
 70
     1
  0
APPID
  5
12
330
9
100
AcDbSymbolTableRecord
100
AcDbRegAppTableRecord
  2
ACAD
 70
     0
  0
ENDTAB
  0
TABLE
  2
DIMSTYLE
  5
A
330
0
100
AcDbSymbolTable
 70
     3
100
AcDbDimStyleTable
  0
DIMSTYLE
105
27
330
A
100
AcDbSymbolTableRecord
100
AcDbDimStyleTableRecord
  2
ISO-25
 70
     0
 41
2.5
 42
0.625
 43
3.75
 44
1.25
 73
     0
 74
     0
 77
     1
 78
     8
140
2.5
141
2.5
143
0.03937
147
0.625
171
     3
172
     1
271
     2
272
     2
274
     3
278
    44
283
     0
284
     8
340
11
  0
DIMSTYLE
105
5D7
102
{ACAD_REACTORS
330
5D9
330
5E7
330
5F5
330
611
330
624
330
632
330
63F
330
64C
102
}
330
A
100
AcDbSymbolTableRecord
100
AcDbDimStyleTableRecord
  2
LC-DIM-L-0140-02-02
 70
     0
 40
2.0
 41
14.0
 42
0.0
 43
7.5
 44
1.8
 73
     0
 74
     0
 77
     1
 78
     8
 79
     2
140
14.0
141
0.0
146
0.71
147
1.5
176
     2
177
     2
178
     2
179
     2
271
     2
278
    44
289
     1
340
5D6
  0
DIMSTYLE
105
603
102
{ACAD_REACTORS
330
604
102
}
330
A
100
AcDbSymbolTableRecord
100
AcDbDimStyleTableRecord
  2
LC-DIM-L-0140-01-02
 70
     0
 40
2.0
 41
14.0
 42
0.0
 43
7.5
 44
1.8
 73
     0
 74
     0
 77
     1
 78
     8
 79
     2
140
14.0
141
0.0
146
0.71
147
1.5
176
     2
177
     2
178
     2
179
     1
271
     1
278
    44
289
     1
340
5D6
  0
ENDTAB
  0
TABLE
  2
BLOCK_RECORD
  5
1
330
0
100
AcDbSymbolTable
 70
    67
  0
BLOCK_RECORD
  5
1F
330
1
100
AcDbSymbolTableRecord
100
AcDbBlockTableRecord
  2
*Model_Space
340
22
  0
BLOCK_RECORD
  5
1B
330
1
100
AcDbSymbolTableRecord
100
AcDbBlockTableRecord
  2
*Paper_Space
340
1E
  0
BLOCK_RECORD
  5
23
330
1
100
AcDbSymbolTableRecord
100
AcDbBlockTableRecord
  2
*Paper_Space0
340
26
  0
BLOCK_RECORD
  5
79
330
1
100
AcDbSymbolTableRecord
100
AcDbBlockTableRecord
  2
POLY1
340
0
102
{BLKREFS
331
86
102
}
  0
BLOCK_RECORD
  5
87
330
1
100
AcDbSymbolTableRecord
100
AcDbBlockTableRecord
  2
POLY2
340
0
102
{BLKREFS
331
94
102
}
  0
BLOCK_RECORD
  5
96
330
1
100
AcDbSymbolTableRecord
100
AcDbBlockTableRecord
  2
POLY3
340
0
102
{BLKREFS
331
A3
102
}
  0
BLOCK_RECORD
  5
A5
330
1
100
AcDbSymbolTableRecord
100
AcDbBlockTableRecord
  2
POLY4
340
0
102
{BLKREFS
331
B2
102
}
  0
BLOCK_RECORD
  5
B3
330
1
100
AcDbSymbolTableRecord
100
AcDbBlockTableRecord
  2
POLY5
340
0
102
{BLKREFS
331
C0
102
}
  0
BLOCK_RECORD
  5
C2
330
1
100
AcDbSymbolTableRecord
100
AcDbBlockTableRecord
  2
POLY6
340
0
102
{BLKREFS
331
CF
102
}
  0
BLOCK_RECORD
  5
D0
330
1
100
AcDbSymbolTableRecord
100
AcDbBlockTableRecord
  2
POLY7
340
0
102
{BLKREFS
331
DD
102
}
  0
BLOCK_RECORD
  5
DF
330
1
100
AcDbSymbolTableRecord
100
AcDbBlockTableRecord
  2
POLY8
340
0
102
{BLKREFS
331
EC
102
}
  0
BLOCK_RECORD
  5
F7
330
1
100
AcDbSymbolTableRecord
100
AcDbBlockTableRecord
  2
POLY9
340
0
102
{BLKREFS
331
104
102
}
  0
BLOCK_RECORD
  5
105
330
1
100
AcDbSymbolTableRecord
100
AcDbBlockTableRecord
  2
POLY10
340
0
102
{BLKREFS
331
110
102
}
  0
BLOCK_RECORD
  5
119
330
1
100
AcDbSymbolTableRecord
100
AcDbBlockTableRecord
  2
POLY11
340
0
102
{BLKREFS
331
126
102
}
  0
BLOCK_RECORD
  5
127
330
1
100
AcDbSymbolTableRecord
100
AcDbBlockTableRecord
  2
POLY12
340
0
102
{BLKREFS
331
134
102
}
  0
BLOCK_RECORD
  5
135
330
1
100
AcDbSymbolTableRecord
100
AcDbBlockTableRecord
  2
POLY13
340
0
102
{BLKREFS
331
146
102
}
  0
BLOCK_RECORD
  5
148
330
1
100
AcDbSymbolTableRecord
100
AcDbBlockTableRecord
  2
POLY14
340
0
102
{BLKREFS
331
159
102
}
  0
BLOCK_RECORD
  5
16E
330
1
100
AcDbSymbolTableRecord
100
AcDbBlockTableRecord
  2
KLON1
340
0
102
{BLKREFS
331
173
102
}
  0
BLOCK_RECORD
  5
1D5
330
1
100
AcDbSymbolTableRecord
100
AcDbBlockTableRecord
  2
POLY15
340
0
102
{BLKREFS
331
1E6
102
}
  0
BLOCK_RECORD
  5
1E8
330
1
100
AcDbSymbolTableRecord
100
AcDbBlockTableRecord
  2
POLY16
340
0
102
{BLKREFS
331
1FB
102
}
  0
BLOCK_RECORD
  5
290
330
1
100
AcDbSymbolTableRecord
100
AcDbBlockTableRecord
  2
POLY17
340
0
102
{BLKREFS
331
2A1
102
}
  0
BLOCK_RECORD
  5
2A2
330
1
100
AcDbSymbolTableRecord
100
AcDbBlockTableRecord
  2
POLY18
340
0
102
{BLKREFS
331
2B3
102
}
  0
BLOCK_RECORD
  5
2B9
330
1
100
AcDbSymbolTableRecord
100
AcDbBlockTableRecord
  2
POLY19
340
0
102
{BLKREFS
331
2CA
102
}
  0
BLOCK_RECORD
  5
2CB
330
1
100
AcDbSymbolTableRecord
100
AcDbBlockTableRecord
  2
POLY20
340
0
102
{BLKREFS
331
2DE
102
}
  0
BLOCK_RECORD
  5
2E1
330
1
100
AcDbSymbolTableRecord
100
AcDbBlockTableRecord
  2
POLY21
340
0
102
{BLKREFS
331
2FA
102
}
  0
BLOCK_RECORD
  5
2FB
330
1
100
AcDbSymbolTableRecord
100
AcDbBlockTableRecord
  2
POLY22
340
0
102
{BLKREFS
331
314
102
}
  0
BLOCK_RECORD
  5
316
330
1
100
AcDbSymbolTableRecord
100
AcDbBlockTableRecord
  2
POLY23
340
0
102
{BLKREFS
331
329
102
}
  0
BLOCK_RECORD
  5
32A
330
1
100
AcDbSymbolTableRecord
100
AcDbBlockTableRecord
  2
POLY24
340
0
102
{BLKREFS
331
341
102
}
  0
BLOCK_RECORD
  5
357
330
1
100
AcDbSymbolTableRecord
100
AcDbBlockTableRecord
  2
POLY25
340
0
102
{BLKREFS
331
364
102
}
  0
BLOCK_RECORD
  5
36B
330
1
100
AcDbSymbolTableRecord
100
AcDbBlockTableRecord
  2
KLON2
340
0
102
{BLKREFS
331
370
102
}
  0
BLOCK_RECORD
  5
373
330
1
100
AcDbSymbolTableRecord
100
AcDbBlockTableRecord
  2
POLY26
340
0
102
{BLKREFS
331
386
102
}
  0
BLOCK_RECORD
  5
388
330
1
100
AcDbSymbolTableRecord
100
AcDbBlockTableRecord
  2
POLY27
340
0
102
{BLKREFS
331
399
102
}
  0
BLOCK_RECORD
  5
39C
330
1
100
AcDbSymbolTableRecord
100
AcDbBlockTableRecord
  2
KLON3
340
0
102
{BLKREFS
331
3A1
102
}
  0
BLOCK_RECORD
  5
3A6
330
1
100
AcDbSymbolTableRecord
100
AcDbBlockTableRecord
  2
POLY28
340
0
102
{BLKREFS
331
3B3
102
}
  0
BLOCK_RECORD
  5
3B4
330
1
100
AcDbSymbolTableRecord
100
AcDbBlockTableRecord
  2
KLON4
340
0
102
{BLKREFS
331
3B9
102
}
  0
BLOCK_RECORD
  5
3BB
330
1
100
AcDbSymbolTableRecord
100
AcDbBlockTableRecord
  2
POLY29
340
0
102
{BLKREFS
331
3CE
102
}
  0
BLOCK_RECORD
  5
3D0
330
1
100
AcDbSymbolTableRecord
100
AcDbBlockTableRecord
  2
POLY30
340
0
102
{BLKREFS
331
3E3
102
}
  0
BLOCK_RECORD
  5
3E5
330
1
100
AcDbSymbolTableRecord
100
AcDbBlockTableRecord
  2
KLON5
340
0
102
{BLKREFS
331
3EA
102
}
  0
BLOCK_RECORD
  5
3F4
330
1
100
AcDbSymbolTableRecord
100
AcDbBlockTableRecord
  2
POLY31
340
0
102
{BLKREFS
331
3FF
102
}
  0
BLOCK_RECORD
  5
404
330
1
100
AcDbSymbolTableRecord
100
AcDbBlockTableRecord
  2
POLY32
340
0
102
{BLKREFS
331
40F
102
}
  0
BLOCK_RECORD
  5
41A
330
1
100
AcDbSymbolTableRecord
100
AcDbBlockTableRecord
  2
POLY33
340
0
102
{BLKREFS
331
43F
102
}
  0
BLOCK_RECORD
  5
440
330
1
100
AcDbSymbolTableRecord
100
AcDbBlockTableRecord
  2
POLY34
340
0
102
{BLKREFS
331
451
102
}
  0
BLOCK_RECORD
  5
46C
330
1
100
AcDbSymbolTableRecord
100
AcDbBlockTableRecord
  2
KLON6
340
0
102
{BLKREFS
331
471
102
}
  0
BLOCK_RECORD
  5
472
330
1
100
AcDbSymbolTableRecord
100
AcDbBlockTableRecord
  2
KLON7
340
0
102
{BLKREFS
331
477
102
}
  0
BLOCK_RECORD
  5
4C3
330
1
100
AcDbSymbolTableRecord
100
AcDbBlockTableRecord
  2
KLON8
340
0
102
{BLKREFS
331
4CD
102
}
  0
BLOCK_RECORD
  5
4CE
330
1
100
AcDbSymbolTableRecord
100
AcDbBlockTableRecord
  2
KLON9
340
0
102
{BLKREFS
331
4D6
102
}
  0
BLOCK_RECORD
  5
4D7
330
1
100
AcDbSymbolTableRecord
100
AcDbBlockTableRecord
  2
KLON10
340
0
102
{BLKREFS
331
4E8
102
}
  0
BLOCK_RECORD
  5
4E9
330
1
100
AcDbSymbolTableRecord
100
AcDbBlockTableRecord
  2
KLON11
340
0
102
{BLKREFS
331
522
102
}
  0
BLOCK_RECORD
  5
524
330
1
100
AcDbSymbolTableRecord
100
AcDbBlockTableRecord
  2
KLON12
340
0
102
{BLKREFS
331
52B
102
}
  0
BLOCK_RECORD
  5
52C
330
1
100
AcDbSymbolTableRecord
100
AcDbBlockTableRecord
  2
KLON13
340
0
102
{BLKREFS
331
534
102
}
  0
BLOCK_RECORD
  5
537
330
1
100
AcDbSymbolTableRecord
100
AcDbBlockTableRecord
  2
KLON14
340
0
102
{BLKREFS
331
53F
102
}
  0
BLOCK_RECORD
  5
540
330
1
100
AcDbSymbolTableRecord
100
AcDbBlockTableRecord
  2
KLON15
340
0
102
{BLKREFS
331
548
102
}
  0
BLOCK_RECORD
  5
54A
330
1
100
AcDbSymbolTableRecord
100
AcDbBlockTableRecord
  2
KLON16
340
0
102
{BLKREFS
331
55B
102
}
  0
BLOCK_RECORD
  5
55C
330
1
100
AcDbSymbolTableRecord
100
AcDbBlockTableRecord
  2
KLON17
340
0
102
{BLKREFS
331
56C
102
}
  0
BLOCK_RECORD
  5
56D
330
1
100
AcDbSymbolTableRecord
100
AcDbBlockTableRecord
  2
KLON18
340
0
102
{BLKREFS
331
572
102
}
  0
BLOCK_RECORD
  5
573
330
1
100
AcDbSymbolTableRecord
100
AcDbBlockTableRecord
  2
KLON19
340
0
102
{BLKREFS
331
57A
102
}
  0
BLOCK_RECORD
  5
57B
330
1
100
AcDbSymbolTableRecord
100
AcDbBlockTableRecord
  2
KLON20
340
0
102
{BLKREFS
331
589
102
}
  0
BLOCK_RECORD
  5
58A
330
1
100
AcDbSymbolTableRecord
100
AcDbBlockTableRecord
  2
KLON21
340
0
102
{BLKREFS
331
598
102
}
  0
BLOCK_RECORD
  5
599
330
1
100
AcDbSymbolTableRecord
100
AcDbBlockTableRecord
  2
KLON22
340
0
102
{BLKREFS
331
5B9
102
}
  0
BLOCK_RECORD
  5
5BA
330
1
100
AcDbSymbolTableRecord
100
AcDbBlockTableRecord
  2
KLON23
340
0
102
{BLKREFS
331
5D5
102
}
  0
BLOCK_RECORD
  5
5DB
330
1
100
AcDbSymbolTableRecord
100
AcDbBlockTableRecord
  2
*D58
340
0
  0
BLOCK_RECORD
  5
5E8
330
1
100
AcDbSymbolTableRecord
100
AcDbBlockTableRecord
  2
*D59
340
0
  0
BLOCK_RECORD
  5
5F6
330
1
100
AcDbSymbolTableRecord
100
AcDbBlockTableRecord
  2
*D60
340
0
  0
BLOCK_RECORD
  5
605
330
1
100
AcDbSymbolTableRecord
100
AcDbBlockTableRecord
  2
*D61
340
0
  0
BLOCK_RECORD
  5
612
330
1
100
AcDbSymbolTableRecord
100
AcDbBlockTableRecord
  2
*D62
340
0
  0
BLOCK_RECORD
  5
625
330
1
100
AcDbSymbolTableRecord
100
AcDbBlockTableRecord
  2
*D63
340
0
  0
BLOCK_RECORD
  5
633
330
1
100
AcDbSymbolTableRecord
100
AcDbBlockTableRecord
  2
*D64
340
0
  0
BLOCK_RECORD
  5
640
330
1
100
AcDbSymbolTableRecord
100
AcDbBlockTableRecord
  2
*D65
340
0
  0
BLOCK_RECORD
  5
64D
330
1
100
AcDbSymbolTableRecord
100
AcDbBlockTableRecord
  2
*D66
340
0
  0
ENDTAB
  0
ENDSEC
  0
SECTION
  2
BLOCKS
  0
BLOCK
  5
20
330
1F
100
AcDbEntity
  8
0
100
AcDbBlockBegin
  2
*Model_Space
 70
     0
 71
     0
 10
0.0
 20
0.0
 30
0.0
  3
*Model_Space
  1

  0
ENDBLK
  5
21
330
1F
100
AcDbEntity
  8
0
100
AcDbBlockEnd
  0
BLOCK
  5
1C
330
1B
100
AcDbEntity
 67
     1
  8
0
100
AcDbBlockBegin
  2
*Paper_Space
 70
     0
 71
     0
 10
0.0
 20
0.0
 30
0.0
  3
*Paper_Space
  1

  0
ENDBLK
  5
1D
330
1B
100
AcDbEntity
 67
     1
  8
0
100
AcDbBlockEnd
  0
BLOCK
  5
24
330
23
100
AcDbEntity
  8
0
100
AcDbBlockBegin
  2
*Paper_Space0
 70
     0
 71
     0
 10
0.0
 20
0.0
 30
0.0
  3
*Paper_Space0
  1

  0
ENDBLK
  5
25
330
23
100
AcDbEntity
  8
0
100
AcDbBlockEnd
  0
BLOCK
  5
7A
330
79
100
AcDbEntity
  8
0
100
AcDbBlockBegin
  2
POLY1
 70
     0
 71
     0
 10
0.0
 20
0.0
 30
0.0
  3
POLY1
  1

  4
POLY1
  0
LINE
  5
7C
330
79
100
AcDbEntity
  8
LC-001-100-D00-0
 62
     7
370
    50
100
AcDbLine
 10
241.231168
 20
-1.384946
 30
0.0
 11
241.231168
 21
-1.384946
 31
0.0
  0
LINE
  5
7D
330
79
100
AcDbEntity
  8
LC-001-100-D00-0
 62
     7
370
    50
100
AcDbLine
 10
241.231168
 20
-1.384946
 30
0.0
 11
241.237415
 21
-1.38574
 31
0.0
  0
LINE
  5
7E
330
79
100
AcDbEntity
  8
LC-001-100-D00-0
 62
     7
370
    50
100
AcDbLine
 10
241.237415
 20
-1.38574
 30
0.0
 11
241.237415
 21
-1.38574
 31
0.0
  0
LINE
  5
7F
330
79
100
AcDbEntity
  8
LC-001-100-D00-0
 62
     7
370
    50
100
AcDbLine
 10
241.237415
 20
-1.38574
 30
0.0
 11
241.320661
 21
-1.396325
 31
0.0
  0
LINE
  5
80
330
79
100
AcDbEntity
  8
LC-001-100-D00-0
 62
     7
370
    50
100
AcDbLine
 10
241.320661
 20
-1.396325
 30
0.0
 11
241.320661
 21
-1.396325
 31
0.0
  0
LINE
  5
81
330
79
100
AcDbEntity
  8
LC-001-100-D00-0
 62
     7
370
    50
100
AcDbLine
 10
241.320661
 20
-1.396325
 30
0.0
 11
241.41306
 21
-1.408065
 31
0.0
  0
LINE
  5
82
330
79
100
AcDbEntity
  8
LC-001-100-D00-0
 62
     7
370
    50
100
AcDbLine
 10
241.41306
 20
-1.408065
 30
0.0
 11
241.41306
 21
-1.408065
 31
0.0
  0
LINE
  5
83
330
79
100
AcDbEntity
  8
LC-001-100-D00-0
 62
     7
370
    50
100
AcDbLine
 10
241.41306
 20
-1.408065
 30
0.0
 11
241.497536
 21
-1.418806
 31
0.0
  0
LINE
  5
84
330
79
100
AcDbEntity
  8
LC-001-100-D00-0
 62
     7
370
    50
100
AcDbLine
 10
241.497536
 20
-1.418806
 30
0.0
 11
241.497536
 21
-1.418806
 31
0.0
  0
LINE
  5
85
330
79
100
AcDbEntity
  8
LC-001-100-D00-0
 62
     7
370
    50
100
AcDbLine
 10
241.497536
 20
-1.418806
 30
0.0
 11
241.509254
 21
-1.420296
 31
0.0
  0
ENDBLK
  5
7B
330
79
100
AcDbEntity
  8
0
100
AcDbBlockEnd
  0
BLOCK
  5
88
330
87
100
AcDbEntity
  8
0
100
AcDbBlockBegin
  2
POLY2
 70
     0
 71
     0
 10
0.0
 20
0.0
 30
0.0
  3
POLY2
  1

  4
POLY2
  0
LINE
  5
8A
330
87
100
AcDbEntity
  8
LC-001-100-D00-0
 62
     7
370
    50
100
AcDbLine
 10
240.79817
 20
-1.970987
 30
0.0
 11
240.79817
 21
-1.970987
 31
0.0
  0
LINE
  5
8B
330
87
100
AcDbEntity
  8
LC-001-100-D00-0
 62
     7
370
    50
100
AcDbLine
 10
240.79817
 20
-1.970987
 30
0.0
 11
240.799661
 21
-1.959269
 31
0.0
  0
LINE
  5
8C
330
87
100
AcDbEntity
  8
LC-001-100-D00-0
 62
     7
370
    50
100
AcDbLine
 10
240.799661
 20
-1.959269
 30
0.0
 11
240.799661
 21
-1.959269
 31
0.0
  0
LINE
  5
8D
330
87
100
AcDbEntity
  8
LC-001-100-D00-0
 62
     7
370
    50
100
AcDbLine
 10
240.799661
 20
-1.959269
 30
0.0
 11
240.810411
 21
-1.874792
 31
0.0
  0
LINE
  5
8E
330
87
100
AcDbEntity
  8
LC-001-100-D00-0
 62
     7
370
    50
100
AcDbLine
 10
240.810411
 20
-1.874792
 30
0.0
 11
240.810411
 21
-1.874792
 31
0.0
  0
LINE
  5
8F
330
87
100
AcDbEntity
  8
LC-001-100-D00-0
 62
     7
370
    50
100
AcDbLine
 10
240.810411
 20
-1.874792
 30
0.0
 11
240.822164
 21
-1.782409
 31
0.0
  0
LINE
  5
90
330
87
100
AcDbEntity
  8
LC-001-100-D00-0
 62
     7
370
    50
100
AcDbLine
 10
240.822164
 20
-1.782409
 30
0.0
 11
240.822164
 21
-1.782409
 31
0.0
  0
LINE
  5
91
330
87
100
AcDbEntity
  8
LC-001-100-D00-0
 62
     7
370
    50
100
AcDbLine
 10
240.822164
 20
-1.782409
 30
0.0
 11
240.83273
 21
-1.699145
 31
0.0
  0
LINE
  5
92
330
87
100
AcDbEntity
  8
LC-001-100-D00-0
 62
     7
370
    50
100
AcDbLine
 10
240.83273
 20
-1.699145
 30
0.0
 11
240.83273
 21
-1.699145
 31
0.0
  0
LINE
  5
93
330
87
100
AcDbEntity
  8
LC-001-100-D00-0
 62
     7
370
    50
100
AcDbLine
 10
240.83273
 20
-1.699145
 30
0.0
 11
240.833523
 21
-1.692897
 31
0.0
  0
ENDBLK
  5
89
330
87
100
AcDbEntity
  8
0
100
AcDbBlockEnd
  0
BLOCK
  5
97
330
96
100
AcDbEntity
  8
0
100
AcDbBlockBegin
  2
POLY3
 70
     0
 71
     0
 10
0.0
 20
0.0
 30
0.0
  3
POLY3
  1

  4
POLY3
  0
LINE
  5
99
330
96
100
AcDbEntity
  8
LC-001-100-D00-0
 62
     7
370
    50
100
AcDbLine
 10
238.838817
 20
-1.08084
 30
0.0
 11
238.838817
 21
-1.08084
 31
0.0
  0
LINE
  5
9A
330
96
100
AcDbEntity
  8
LC-001-100-D00-0
 62
     7
370
    50
100
AcDbLine
 10
238.838817
 20
-1.08084
 30
0.0
 11
238.850534
 21
-1.08233
 31
0.0
  0
LINE
  5
9B
330
96
100
AcDbEntity
  8
LC-001-100-D00-0
 62
     7
370
    50
100
AcDbLine
 10
238.850534
 20
-1.08233
 30
0.0
 11
238.850534
 21
-1.08233
 31
0.0
  0
LINE
  5
9C
330
96
100
AcDbEntity
  8
LC-001-100-D00-0
 62
     7
370
    50
100
AcDbLine
 10
238.850534
 20
-1.08233
 30
0.0
 11
238.935012
 21
-1.093071
 31
0.0
  0
LINE
  5
9D
330
96
100
AcDbEntity
  8
LC-001-100-D00-0
 62
     7
370
    50
100
AcDbLine
 10
238.935012
 20
-1.093071
 30
0.0
 11
238.935012
 21
-1.093071
 31
0.0
  0
LINE
  5
9E
330
96
100
AcDbEntity
  8
LC-001-100-D00-0
 62
     7
370
    50
100
AcDbLine
 10
238.935012
 20
-1.093071
 30
0.0
 11
239.027379
 21
-1.104811
 31
0.0
  0
LINE
  5
9F
330
96
100
AcDbEntity
  8
LC-001-100-D00-0
 62
     7
370
    50
100
AcDbLine
 10
239.027379
 20
-1.104811
 30
0.0
 11
239.027379
 21
-1.104811
 31
0.0
  0
LINE
  5
A0
330
96
100
AcDbEntity
  8
LC-001-100-D00-0
 62
     7
370
    50
100
AcDbLine
 10
239.027379
 20
-1.104811
 30
0.0
 11
239.110661
 21
-1.115395
 31
0.0
  0
LINE
  5
A1
330
96
100
AcDbEntity
  8
LC-001-100-D00-0
 62
     7
370
    50
100
AcDbLine
 10
239.110661
 20
-1.115395
 30
0.0
 11
239.110661
 21
-1.115395
 31
0.0
  0
LINE
  5
A2
330
96
100
AcDbEntity
  8
LC-001-100-D00-0
 62
     7
370
    50
100
AcDbLine
 10
239.110661
 20
-1.115395
 30
0.0
 11
239.11691
 21
-1.116189
 31
0.0
  0
ENDBLK
  5
98
330
96
100
AcDbEntity
  8
0
100
AcDbBlockEnd
  0
BLOCK
  5
A6
330
A5
100
AcDbEntity
  8
0
100
AcDbBlockBegin
  2
POLY4
 70
     0
 71
     0
 10
0.0
 20
0.0
 30
0.0
  3
POLY4
  1

  4
POLY4
  0
LINE
  5
A8
330
A5
100
AcDbEntity
  8
LC-001-100-D00-0
 62
     7
370
    50
100
AcDbLine
 10
239.424857
 20
-1.513834
 30
0.0
 11
239.424857
 21
-1.513834
 31
0.0
  0
LINE
  5
A9
330
A5
100
AcDbEntity
  8
LC-001-100-D00-0
 62
     7
370
    50
100
AcDbLine
 10
239.424857
 20
-1.513834
 30
0.0
 11
239.424064
 21
-1.520082
 31
0.0
  0
LINE
  5
AA
330
A5
100
AcDbEntity
  8
LC-001-100-D00-0
 62
     7
370
    50
100
AcDbLine
 10
239.424064
 20
-1.520082
 30
0.0
 11
239.424064
 21
-1.520082
 31
0.0
  0
LINE
  5
AB
330
A5
100
AcDbEntity
  8
LC-001-100-D00-0
 62
     7
370
    50
100
AcDbLine
 10
239.424064
 20
-1.520082
 30
0.0
 11
239.413498
 21
-1.603346
 31
0.0
  0
LINE
  5
AC
330
A5
100
AcDbEntity
  8
LC-001-100-D00-0
 62
     7
370
    50
100
AcDbLine
 10
239.413498
 20
-1.603346
 30
0.0
 11
239.413498
 21
-1.603346
 31
0.0
  0
LINE
  5
AD
330
A5
100
AcDbEntity
  8
LC-001-100-D00-0
 62
     7
370
    50
100
AcDbLine
 10
239.413498
 20
-1.603346
 30
0.0
 11
239.40173
 21
-1.695728
 31
0.0
  0
LINE
  5
AE
330
A5
100
AcDbEntity
  8
LC-001-100-D00-0
 62
     7
370
    50
100
AcDbLine
 10
239.40173
 20
-1.695728
 30
0.0
 11
239.40173
 21
-1.695728
 31
0.0
  0
LINE
  5
AF
330
A5
100
AcDbEntity
  8
LC-001-100-D00-0
 62
     7
370
    50
100
AcDbLine
 10
239.40173
 20
-1.695728
 30
0.0
 11
239.391
 21
-1.780205
 31
0.0
  0
LINE
  5
B0
330
A5
100
AcDbEntity
  8
LC-001-100-D00-0
 62
     7
370
    50
100
AcDbLine
 10
239.391
 20
-1.780205
 30
0.0
 11
239.391
 21
-1.780205
 31
0.0
  0
LINE
  5
B1
330
A5
100
AcDbEntity
  8
LC-001-100-D00-0
 62
     7
370
    50
100
AcDbLine
 10
239.391
 20
-1.780205
 30
0.0
 11
239.389511
 21
-1.791923
 31
0.0
  0
ENDBLK
  5
A7
330
A5
100
AcDbEntity
  8
0
100
AcDbBlockEnd
  0
BLOCK
  5
B4
330
B3
100
AcDbEntity
  8
0
100
AcDbBlockBegin
  2
POLY5
 70
     0
 71
     0
 10
0.0
 20
0.0
 30
0.0
  3
POLY5
  1

  4
POLY5
  0
LINE
  5
B6
330
B3
100
AcDbEntity
  8
LC-001-100-D00-0
 62
     7
370
    50
100
AcDbLine
 10
239.728967
 20
0.878514
 30
0.0
 11
239.728967
 21
0.878514
 31
0.0
  0
LINE
  5
B7
330
B3
100
AcDbEntity
  8
LC-001-100-D00-0
 62
     7
370
    50
100
AcDbLine
 10
239.728967
 20
0.878514
 30
0.0
 11
239.727476
 21
0.866796
 31
0.0
  0
LINE
  5
B8
330
B3
100
AcDbEntity
  8
LC-001-100-D00-0
 62
     7
370
    50
100
AcDbLine
 10
239.727476
 20
0.866796
 30
0.0
 11
239.727476
 21
0.866796
 31
0.0
  0
LINE
  5
B9
330
B3
100
AcDbEntity
  8
LC-001-100-D00-0
 62
     7
370
    50
100
AcDbLine
 10
239.727476
 20
0.866796
 30
0.0
 11
239.716724
 21
0.782319
 31
0.0
  0
LINE
  5
BA
330
B3
100
AcDbEntity
  8
LC-001-100-D00-0
 62
     7
370
    50
100
AcDbLine
 10
239.716724
 20
0.782319
 30
0.0
 11
239.716724
 21
0.782319
 31
0.0
  0
LINE
  5
BB
330
B3
100
AcDbEntity
  8
LC-001-100-D00-0
 62
     7
370
    50
100
AcDbLine
 10
239.716724
 20
0.782319
 30
0.0
 11
239.705011
 21
0.689937
 31
0.0
  0
LINE
  5
BC
330
B3
100
AcDbEntity
  8
LC-001-100-D00-0
 62
     7
370
    50
100
AcDbLine
 10
239.705011
 20
0.689937
 30
0.0
 11
239.705011
 21
0.689937
 31
0.0
  0
LINE
  5
BD
330
B3
100
AcDbEntity
  8
LC-001-100-D00-0
 62
     7
370
    50
100
AcDbLine
 10
239.705011
 20
0.689937
 30
0.0
 11
239.69441
 21
0.606673
 31
0.0
  0
LINE
  5
BE
330
B3
100
AcDbEntity
  8
LC-001-100-D00-0
 62
     7
370
    50
100
AcDbLine
 10
239.69441
 20
0.606673
 30
0.0
 11
239.69441
 21
0.606673
 31
0.0
  0
LINE
  5
BF
330
B3
100
AcDbEntity
  8
LC-001-100-D00-0
 62
     7
370
    50
100
AcDbLine
 10
239.69441
 20
0.606673
 30
0.0
 11
239.693614
 21
0.600425
 31
0.0
  0
ENDBLK
  5
B5
330
B3
100
AcDbEntity
  8
0
100
AcDbBlockEnd
  0
BLOCK
  5
C3
330
C2
100
AcDbEntity
  8
0
100
AcDbBlockBegin
  2
POLY6
 70
     0
 71
     0
 10
0.0
 20
0.0
 30
0.0
  3
POLY6
  1

  4
POLY6
  0
LINE
  5
C5
330
C2
100
AcDbEntity
  8
LC-001-100-D00-0
 62
     7
370
    50
100
AcDbLine
 10
239.295969
 20
0.292474
 30
0.0
 11
239.295969
 21
0.292474
 31
0.0
  0
LINE
  5
C6
330
C2
100
AcDbEntity
  8
LC-001-100-D00-0
 62
     7
370
    50
100
AcDbLine
 10
239.295969
 20
0.292474
 30
0.0
 11
239.289723
 21
0.293268
 31
0.0
  0
LINE
  5
C7
330
C2
100
AcDbEntity
  8
LC-001-100-D00-0
 62
     7
370
    50
100
AcDbLine
 10
239.289723
 20
0.293268
 30
0.0
 11
239.289723
 21
0.293268
 31
0.0
  0
LINE
  5
C8
330
C2
100
AcDbEntity
  8
LC-001-100-D00-0
 62
     7
370
    50
100
AcDbLine
 10
239.289723
 20
0.293268
 30
0.0
 11
239.206476
 21
0.303852
 31
0.0
  0
LINE
  5
C9
330
C2
100
AcDbEntity
  8
LC-001-100-D00-0
 62
     7
370
    50
100
AcDbLine
 10
239.206476
 20
0.303852
 30
0.0
 11
239.206476
 21
0.303852
 31
0.0
  0
LINE
  5
CA
330
C2
100
AcDbEntity
  8
LC-001-100-D00-0
 62
     7
370
    50
100
AcDbLine
 10
239.206476
 20
0.303852
 30
0.0
 11
239.114078
 21
0.315592
 31
0.0
  0
LINE
  5
CB
330
C2
100
AcDbEntity
  8
LC-001-100-D00-0
 62
     7
370
    50
100
AcDbLine
 10
239.114078
 20
0.315592
 30
0.0
 11
239.114078
 21
0.315592
 31
0.0
  0
LINE
  5
CC
330
C2
100
AcDbEntity
  8
LC-001-100-D00-0
 62
     7
370
    50
100
AcDbLine
 10
239.114078
 20
0.315592
 30
0.0
 11
239.029601
 21
0.326333
 31
0.0
  0
LINE
  5
CD
330
C2
100
AcDbEntity
  8
LC-001-100-D00-0
 62
     7
370
    50
100
AcDbLine
 10
239.029601
 20
0.326333
 30
0.0
 11
239.029601
 21
0.326333
 31
0.0
  0
LINE
  5
CE
330
C2
100
AcDbEntity
  8
LC-001-100-D00-0
 62
     7
370
    50
100
AcDbLine
 10
239.029601
 20
0.326333
 30
0.0
 11
239.017884
 21
0.327823
 31
0.0
  0
ENDBLK
  5
C4
330
C2
100
AcDbEntity
  8
0
100
AcDbBlockEnd
  0
BLOCK
  5
D1
330
D0
100
AcDbEntity
  8
0
100
AcDbBlockBegin
  2
POLY7
 70
     0
 71
     0
 10
0.0
 20
0.0
 30
0.0
  3
POLY7
  1

  4
POLY7
  0
LINE
  5
D3
330
D0
100
AcDbEntity
  8
LC-001-100-D00-0
 62
     7
370
    50
100
AcDbLine
 10
241.102281
 20
0.421361
 30
0.0
 11
241.102281
 21
0.421361
 31
0.0
  0
LINE
  5
D4
330
D0
100
AcDbEntity
  8
LC-001-100-D00-0
 62
     7
370
    50
100
AcDbLine
 10
241.102281
 20
0.421361
 30
0.0
 11
241.103073
 21
0.427609
 31
0.0
  0
LINE
  5
D5
330
D0
100
AcDbEntity
  8
LC-001-100-D00-0
 62
     7
370
    50
100
AcDbLine
 10
241.103073
 20
0.427609
 30
0.0
 11
241.103073
 21
0.427609
 31
0.0
  0
LINE
  5
D6
330
D0
100
AcDbEntity
  8
LC-001-100-D00-0
 62
     7
370
    50
100
AcDbLine
 10
241.103073
 20
0.427609
 30
0.0
 11
241.11364
 21
0.510873
 31
0.0
  0
LINE
  5
D7
330
D0
100
AcDbEntity
  8
LC-001-100-D00-0
 62
     7
370
    50
100
AcDbLine
 10
241.11364
 20
0.510873
 30
0.0
 11
241.11364
 21
0.510873
 31
0.0
  0
LINE
  5
D8
330
D0
100
AcDbEntity
  8
LC-001-100-D00-0
 62
     7
370
    50
100
AcDbLine
 10
241.11364
 20
0.510873
 30
0.0
 11
241.125407
 21
0.603256
 31
0.0
  0
LINE
  5
D9
330
D0
100
AcDbEntity
  8
LC-001-100-D00-0
 62
     7
370
    50
100
AcDbLine
 10
241.125407
 20
0.603256
 30
0.0
 11
241.125407
 21
0.603256
 31
0.0
  0
LINE
  5
DA
330
D0
100
AcDbEntity
  8
LC-001-100-D00-0
 62
     7
370
    50
100
AcDbLine
 10
241.125407
 20
0.603256
 30
0.0
 11
241.136138
 21
0.687733
 31
0.0
  0
LINE
  5
DB
330
D0
100
AcDbEntity
  8
LC-001-100-D00-0
 62
     7
370
    50
100
AcDbLine
 10
241.136138
 20
0.687733
 30
0.0
 11
241.136138
 21
0.687733
 31
0.0
  0
LINE
  5
DC
330
D0
100
AcDbEntity
  8
LC-001-100-D00-0
 62
     7
370
    50
100
AcDbLine
 10
241.136138
 20
0.687733
 30
0.0
 11
241.137626
 21
0.69945
 31
0.0
  0
ENDBLK
  5
D2
330
D0
100
AcDbEntity
  8
0
100
AcDbBlockEnd
  0
BLOCK
  5
E0
330
DF
100
AcDbEntity
  8
0
100
AcDbBlockBegin
  2
POLY8
 70
     0
 71
     0
 10
0.0
 20
0.0
 30
0.0
  3
POLY8
  1

  4
POLY8
  0
LINE
  5
E2
330
DF
100
AcDbEntity
  8
LC-001-100-D00-0
 62
     7
370
    50
100
AcDbLine
 10
241.688321
 20
-0.011633
 30
0.0
 11
241.688321
 21
-0.011633
 31
0.0
  0
LINE
  5
E3
330
DF
100
AcDbEntity
  8
LC-001-100-D00-0
 62
     7
370
    50
100
AcDbLine
 10
241.688321
 20
-0.011633
 30
0.0
 11
241.676603
 21
-0.010143
 31
0.0
  0
LINE
  5
E4
330
DF
100
AcDbEntity
  8
LC-001-100-D00-0
 62
     7
370
    50
100
AcDbLine
 10
241.676603
 20
-0.010143
 30
0.0
 11
241.676603
 21
-0.010143
 31
0.0
  0
LINE
  5
E5
330
DF
100
AcDbEntity
  8
LC-001-100-D00-0
 62
     7
370
    50
100
AcDbLine
 10
241.676603
 20
-0.010143
 30
0.0
 11
241.592125
 21
0.000598
 31
0.0
  0
LINE
  5
E6
330
DF
100
AcDbEntity
  8
LC-001-100-D00-0
 62
     7
370
    50
100
AcDbLine
 10
241.592125
 20
0.000598
 30
0.0
 11
241.592125
 21
0.000598
 31
0.0
  0
LINE
  5
E7
330
DF
100
AcDbEntity
  8
LC-001-100-D00-0
 62
     7
370
    50
100
AcDbLine
 10
241.592125
 20
0.000598
 30
0.0
 11
241.499758
 21
0.012338
 31
0.0
  0
LINE
  5
E8
330
DF
100
AcDbEntity
  8
LC-001-100-D00-0
 62
     7
370
    50
100
AcDbLine
 10
241.499758
 20
0.012338
 30
0.0
 11
241.499758
 21
0.012338
 31
0.0
  0
LINE
  5
E9
330
DF
100
AcDbEntity
  8
LC-001-100-D00-0
 62
     7
370
    50
100
AcDbLine
 10
241.499758
 20
0.012338
 30
0.0
 11
241.416477
 21
0.022922
 31
0.0
  0
LINE
  5
EA
330
DF
100
AcDbEntity
  8
LC-001-100-D00-0
 62
     7
370
    50
100
AcDbLine
 10
241.416477
 20
0.022922
 30
0.0
 11
241.416477
 21
0.022922
 31
0.0
  0
LINE
  5
EB
330
DF
100
AcDbEntity
  8
LC-001-100-D00-0
 62
     7
370
    50
100
AcDbLine
 10
241.416477
 20
0.022922
 30
0.0
 11
241.410228
 21
0.023716
 31
0.0
  0
ENDBLK
  5
E1
330
DF
100
AcDbEntity
  8
0
100
AcDbBlockEnd
  0
BLOCK
  5
F8
330
F7
100
AcDbEntity
  8
0
100
AcDbBlockBegin
  2
POLY9
 70
     0
 71
     0
 10
0.0
 20
0.0
 30
0.0
  3
POLY9
  1

  4
POLY9
  0
LINE
  5
FA
330
F7
100
AcDbEntity
  8
LC-001-100-D00-0
 62
     7
370
    50
100
AcDbLine
 10
248.163568
 20
80.440548
 30
0.0
 11
248.163568
 21
80.440548
 31
0.0
  0
LINE
  5
FB
330
F7
100
AcDbEntity
  8
LC-001-100-D00-0
 62
     7
370
    50
100
AcDbLine
 10
248.163568
 20
80.440548
 30
0.0
 11
248.385571
 21
80.400255
 31
0.0
  0
LINE
  5
FC
330
F7
100
AcDbEntity
  8
LC-001-100-D00-0
 62
     7
370
    50
100
AcDbLine
 10
248.385571
 20
80.400255
 30
0.0
 11
248.385571
 21
80.400255
 31
0.0
  0
LINE
  5
FD
330
F7
100
AcDbEntity
  8
LC-001-100-D00-0
 62
     7
370
    50
100
AcDbLine
 10
248.385571
 20
80.400255
 30
0.0
 11
248.829577
 21
80.319668
 31
0.0
  0
LINE
  5
FE
330
F7
100
AcDbEntity
  8
LC-001-100-D00-0
 62
     7
370
    50
100
AcDbLine
 10
248.829577
 20
80.319668
 30
0.0
 11
248.829577
 21
80.319668
 31
0.0
  0
LINE
  5
FF
330
F7
100
AcDbEntity
  8
LC-001-100-D00-0
 62
     7
370
    50
100
AcDbLine
 10
248.829577
 20
80.319668
 30
0.0
 11
249.269157
 21
80.020306
 31
0.0
  0
LINE
  5
100
330
F7
100
AcDbEntity
  8
LC-001-100-D00-0
 62
     7
370
    50
100
AcDbLine
 10
249.269157
 20
80.020306
 30
0.0
 11
249.269157
 21
80.020306
 31
0.0
  0
LINE
  5
101
330
F7
100
AcDbEntity
  8
LC-001-100-D00-0
 62
     7
370
    50
100
AcDbLine
 10
249.269157
 20
80.020306
 30
0.0
 11
249.466382
 21
79.807574
 31
0.0
  0
LINE
  5
102
330
F7
100
AcDbEntity
  8
LC-001-100-D00-0
 62
     7
370
    50
100
AcDbLine
 10
249.466382
 20
79.807574
 30
0.0
 11
249.466382
 21
79.807574
 31
0.0
  0
LINE
  5
103
330
F7
100
AcDbEntity
  8
LC-001-100-D00-0
 62
     7
370
    50
100
AcDbLine
 10
249.466382
 20
79.807574
 30
0.0
 11
249.511557
 21
79.758846
 31
0.0
  0
ENDBLK
  5
F9
330
F7
100
AcDbEntity
  8
0
100
AcDbBlockEnd
  0
BLOCK
  5
106
330
105
100
AcDbEntity
  8
0
100
AcDbBlockBegin
  2
POLY10
 70
     0
 71
     0
 10
0.0
 20
0.0
 30
0.0
  3
POLY10
  1

  4
POLY10
  0
LINE
  5
108
330
105
100
AcDbEntity
  8
LC-001-100-D00-0
 62
     7
370
    50
100
AcDbLine
 10
249.511557
 20
6.142014
 30
0.0
 11
249.511557
 21
6.142014
 31
0.0
  0
LINE
  5
109
330
105
100
AcDbEntity
  8
LC-001-100-D00-0
 62
     7
370
    50
100
AcDbLine
 10
249.511557
 20
6.142014
 30
0.0
 11
249.348622
 21
5.984247
 31
0.0
  0
LINE
  5
10A
330
105
100
AcDbEntity
  8
LC-001-100-D00-0
 62
     7
370
    50
100
AcDbLine
 10
249.348622
 20
5.984247
 30
0.0
 11
249.348622
 21
5.984247
 31
0.0
  0
LINE
  5
10B
330
105
100
AcDbEntity
  8
LC-001-100-D00-0
 62
     7
370
    50
100
AcDbLine
 10
249.348622
 20
5.984247
 30
0.0
 11
249.123933
 21
5.766686
 31
0.0
  0
LINE
  5
10C
330
105
100
AcDbEntity
  8
LC-001-100-D00-0
 62
     7
370
    50
100
AcDbLine
 10
249.123933
 20
5.766686
 30
0.0
 11
249.123933
 21
5.766686
 31
0.0
  0
LINE
  5
10D
330
105
100
AcDbEntity
  8
LC-001-100-D00-0
 62
     7
370
    50
100
AcDbLine
 10
249.123933
 20
5.766686
 30
0.0
 11
248.84126
 21
5.639467
 31
0.0
  0
LINE
  5
10E
330
105
100
AcDbEntity
  8
LC-001-100-D00-0
 62
     7
370
    50
100
AcDbLine
 10
248.84126
 20
5.639467
 30
0.0
 11
248.84126
 21
5.639467
 31
0.0
  0
LINE
  5
10F
330
105
100
AcDbEntity
  8
LC-001-100-D00-0
 62
     7
370
    50
100
AcDbLine
 10
248.84126
 20
5.639467
 30
0.0
 11
248.763571
 21
5.604503
 31
0.0
  0
ENDBLK
  5
107
330
105
100
AcDbEntity
  8
0
100
AcDbBlockEnd
  0
BLOCK
  5
11A
330
119
100
AcDbEntity
  8
0
100
AcDbBlockBegin
  2
POLY11
 70
     0
 71
     0
 10
0.0
 20
0.0
 30
0.0
  3
POLY11
  1

  4
POLY11
  0
LINE
  5
11C
330
119
100
AcDbEntity
  8
LC-001-100-D00-0
 62
     7
370
    50
100
AcDbLine
 10
252.163569
 20
9.941978
 30
0.0
 11
252.163569
 21
9.941978
 31
0.0
  0
LINE
  5
11D
330
119
100
AcDbEntity
  8
LC-001-100-D00-0
 62
     7
370
    50
100
AcDbLine
 10
252.163569
 20
9.941978
 30
0.0
 11
252.141569
 21
9.71726
 31
0.0
  0
LINE
  5
11E
330
119
100
AcDbEntity
  8
LC-001-100-D00-0
 62
     7
370
    50
100
AcDbLine
 10
252.141569
 20
9.71726
 30
0.0
 11
252.141569
 21
9.71726
 31
0.0
  0
LINE
  5
11F
330
119
100
AcDbEntity
  8
LC-001-100-D00-0
 62
     7
370
    50
100
AcDbLine
 10
252.141569
 20
9.71726
 30
0.0
 11
252.09757
 21
9.267823
 31
0.0
  0
LINE
  5
120
330
119
100
AcDbEntity
  8
LC-001-100-D00-0
 62
     7
370
    50
100
AcDbLine
 10
252.09757
 20
9.267823
 30
0.0
 11
252.09757
 21
9.267823
 31
0.0
  0
LINE
  5
121
330
119
100
AcDbEntity
  8
LC-001-100-D00-0
 62
     7
370
    50
100
AcDbLine
 10
252.09757
 20
9.267823
 30
0.0
 11
251.852578
 21
8.842199
 31
0.0
  0
LINE
  5
122
330
119
100
AcDbEntity
  8
LC-001-100-D00-0
 62
     7
370
    50
100
AcDbLine
 10
251.852578
 20
8.842199
 30
0.0
 11
251.852578
 21
8.842199
 31
0.0
  0
LINE
  5
123
330
119
100
AcDbEntity
  8
LC-001-100-D00-0
 62
     7
370
    50
100
AcDbLine
 10
251.852578
 20
8.842199
 30
0.0
 11
251.690704
 21
8.650668
 31
0.0
  0
LINE
  5
124
330
119
100
AcDbEntity
  8
LC-001-100-D00-0
 62
     7
370
    50
100
AcDbLine
 10
251.690704
 20
8.650668
 30
0.0
 11
251.690704
 21
8.650668
 31
0.0
  0
LINE
  5
125
330
119
100
AcDbEntity
  8
LC-001-100-D00-0
 62
     7
370
    50
100
AcDbLine
 10
251.690704
 20
8.650668
 30
0.0
 11
251.673254
 21
8.63002
 31
0.0
  0
ENDBLK
  5
11B
330
119
100
AcDbEntity
  8
0
100
AcDbBlockEnd
  0
BLOCK
  5
128
330
127
100
AcDbEntity
  8
0
100
AcDbBlockBegin
  2
POLY12
 70
     0
 71
     0
 10
0.0
 20
0.0
 30
0.0
  3
POLY12
  1

  4
POLY12
  0
LINE
  5
12A
330
127
100
AcDbEntity
  8
LC-001-100-D00-0
 62
     7
370
    50
100
AcDbLine
 10
251.673254
 20
77.270841
 30
0.0
 11
251.673254
 21
77.270841
 31
0.0
  0
LINE
  5
12B
330
127
100
AcDbEntity
  8
LC-001-100-D00-0
 62
     7
370
    50
100
AcDbLine
 10
251.673254
 20
77.270841
 30
0.0
 11
251.804023
 21
77.086782
 31
0.0
  0
LINE
  5
12C
330
127
100
AcDbEntity
  8
LC-001-100-D00-0
 62
     7
370
    50
100
AcDbLine
 10
251.804023
 20
77.086782
 30
0.0
 11
251.804023
 21
77.086782
 31
0.0
  0
LINE
  5
12D
330
127
100
AcDbEntity
  8
LC-001-100-D00-0
 62
     7
370
    50
100
AcDbLine
 10
251.804023
 20
77.086782
 30
0.0
 11
252.065559
 21
76.718667
 31
0.0
  0
LINE
  5
12E
330
127
100
AcDbEntity
  8
LC-001-100-D00-0
 62
     7
370
    50
100
AcDbLine
 10
252.065559
 20
76.718667
 30
0.0
 11
252.065559
 21
76.718667
 31
0.0
  0
LINE
  5
12F
330
127
100
AcDbEntity
  8
LC-001-100-D00-0
 62
     7
370
    50
100
AcDbLine
 10
252.065559
 20
76.718667
 30
0.0
 11
252.15978
 21
76.236694
 31
0.0
  0
LINE
  5
130
330
127
100
AcDbEntity
  8
LC-001-100-D00-0
 62
     7
370
    50
100
AcDbLine
 10
252.15978
 20
76.236694
 30
0.0
 11
252.15978
 21
76.236694
 31
0.0
  0
LINE
  5
131
330
127
100
AcDbEntity
  8
LC-001-100-D00-0
 62
     7
370
    50
100
AcDbLine
 10
252.15978
 20
76.236694
 30
0.0
 11
252.1632
 21
75.985935
 31
0.0
  0
LINE
  5
132
330
127
100
AcDbEntity
  8
LC-001-100-D00-0
 62
     7
370
    50
100
AcDbLine
 10
252.1632
 20
75.985935
 30
0.0
 11
252.1632
 21
75.985935
 31
0.0
  0
LINE
  5
133
330
127
100
AcDbEntity
  8
LC-001-100-D00-0
 62
     7
370
    50
100
AcDbLine
 10
252.1632
 20
75.985935
 30
0.0
 11
252.163569
 21
75.958883
 31
0.0
  0
ENDBLK
  5
129
330
127
100
AcDbEntity
  8
0
100
AcDbBlockEnd
  0
BLOCK
  5
136
330
135
100
AcDbEntity
  8
0
100
AcDbBlockBegin
  2
POLY13
 70
     0
 71
     0
 10
0.0
 20
0.0
 30
0.0
  3
POLY13
  1

  4
POLY13
  0
LINE
  5
138
330
135
100
AcDbEntity
  8
LC-001-100-D00-0
 62
     7
370
    50
100
AcDbLine
 10
217.163569
 20
11.454397
 30
0.0
 11
217.163569
 21
11.454397
 31
0.0
  0
LINE
  5
139
330
135
100
AcDbEntity
  8
LC-001-100-D00-0
 62
     7
370
    50
100
AcDbLine
 10
217.163569
 20
11.454397
 30
0.0
 11
216.938743
 21
11.476505
 31
0.0
  0
LINE
  5
13A
330
135
100
AcDbEntity
  8
LC-001-100-D00-0
 62
     7
370
    50
100
AcDbLine
 10
216.938743
 20
11.476505
 30
0.0
 11
216.938743
 21
11.476505
 31
0.0
  0
LINE
  5
13B
330
135
100
AcDbEntity
  8
LC-001-100-D00-0
 62
     7
370
    50
100
AcDbLine
 10
216.938743
 20
11.476505
 30
0.0
 11
216.48909
 21
11.520721
 31
0.0
  0
LINE
  5
13C
330
135
100
AcDbEntity
  8
LC-001-100-D00-0
 62
     7
370
    50
100
AcDbLine
 10
216.48909
 20
11.520721
 30
0.0
 11
216.48909
 21
11.520721
 31
0.0
  0
LINE
  5
13D
330
135
100
AcDbEntity
  8
LC-001-100-D00-0
 62
     7
370
    50
100
AcDbLine
 10
216.48909
 20
11.520721
 30
0.0
 11
215.889793
 21
11.865518
 31
0.0
  0
LINE
  5
13E
330
135
100
AcDbEntity
  8
LC-001-100-D00-0
 62
     7
370
    50
100
AcDbLine
 10
215.889793
 20
11.865518
 30
0.0
 11
215.889793
 21
11.865518
 31
0.0
  0
LINE
  5
13F
330
135
100
AcDbEntity
  8
LC-001-100-D00-0
 62
     7
370
    50
100
AcDbLine
 10
215.889793
 20
11.865518
 30
0.0
 11
215.437482
 21
12.372986
 31
0.0
  0
LINE
  5
140
330
135
100
AcDbEntity
  8
LC-001-100-D00-0
 62
     7
370
    50
100
AcDbLine
 10
215.437482
 20
12.372986
 30
0.0
 11
215.437482
 21
12.372986
 31
0.0
  0
LINE
  5
141
330
135
100
AcDbEntity
  8
LC-001-100-D00-0
 62
     7
370
    50
100
AcDbLine
 10
215.437482
 20
12.372986
 30
0.0
 11
215.197742
 21
12.935422
 31
0.0
  0
LINE
  5
142
330
135
100
AcDbEntity
  8
LC-001-100-D00-0
 62
     7
370
    50
100
AcDbLine
 10
215.197742
 20
12.935422
 30
0.0
 11
215.197742
 21
12.935422
 31
0.0
  0
LINE
  5
143
330
135
100
AcDbEntity
  8
LC-001-100-D00-0
 62
     7
370
    50
100
AcDbLine
 10
215.197742
 20
12.935422
 30
0.0
 11
215.173279
 21
13.307123
 31
0.0
  0
LINE
  5
144
330
135
100
AcDbEntity
  8
LC-001-100-D00-0
 62
     7
370
    50
100
AcDbLine
 10
215.173279
 20
13.307123
 30
0.0
 11
215.173279
 21
13.307123
 31
0.0
  0
LINE
  5
145
330
135
100
AcDbEntity
  8
LC-001-100-D00-0
 62
     7
370
    50
100
AcDbLine
 10
215.173279
 20
13.307123
 30
0.0
 11
215.163569
 21
13.454668
 31
0.0
  0
ENDBLK
  5
137
330
135
100
AcDbEntity
  8
0
100
AcDbBlockEnd
  0
BLOCK
  5
149
330
148
100
AcDbEntity
  8
0
100
AcDbBlockBegin
  2
POLY14
 70
     0
 71
     0
 10
0.0
 20
0.0
 30
0.0
  3
POLY14
  1

  4
POLY14
  0
LINE
  5
14B
330
148
100
AcDbEntity
  8
LC-001-100-D00-0
 62
     7
370
    50
100
AcDbLine
 10
215.163569
 20
72.382556
 30
0.0
 11
215.163569
 21
72.382556
 31
0.0
  0
LINE
  5
14C
330
148
100
AcDbEntity
  8
LC-001-100-D00-0
 62
     7
370
    50
100
AcDbLine
 10
215.163569
 20
72.382556
 30
0.0
 11
215.185742
 21
72.608267
 31
0.0
  0
LINE
  5
14D
330
148
100
AcDbEntity
  8
LC-001-100-D00-0
 62
     7
370
    50
100
AcDbLine
 10
215.185742
 20
72.608267
 30
0.0
 11
215.185742
 21
72.608267
 31
0.0
  0
LINE
  5
14E
330
148
100
AcDbEntity
  8
LC-001-100-D00-0
 62
     7
370
    50
100
AcDbLine
 10
215.185742
 20
72.608267
 30
0.0
 11
215.230091
 21
73.059698
 31
0.0
  0
LINE
  5
14F
330
148
100
AcDbEntity
  8
LC-001-100-D00-0
 62
     7
370
    50
100
AcDbLine
 10
215.230091
 20
73.059698
 30
0.0
 11
215.230091
 21
73.059698
 31
0.0
  0
LINE
  5
150
330
148
100
AcDbEntity
  8
LC-001-100-D00-0
 62
     7
370
    50
100
AcDbLine
 10
215.230091
 20
73.059698
 30
0.0
 11
215.576056
 21
73.661196
 31
0.0
  0
LINE
  5
151
330
148
100
AcDbEntity
  8
LC-001-100-D00-0
 62
     7
370
    50
100
AcDbLine
 10
215.576056
 20
73.661196
 30
0.0
 11
215.576056
 21
73.661196
 31
0.0
  0
LINE
  5
152
330
148
100
AcDbEntity
  8
LC-001-100-D00-0
 62
     7
370
    50
100
AcDbLine
 10
215.576056
 20
73.661196
 30
0.0
 11
216.08504
 21
74.114402
 31
0.0
  0
LINE
  5
153
330
148
100
AcDbEntity
  8
LC-001-100-D00-0
 62
     7
370
    50
100
AcDbLine
 10
216.08504
 20
74.114402
 30
0.0
 11
216.08504
 21
74.114402
 31
0.0
  0
LINE
  5
154
330
148
100
AcDbEntity
  8
LC-001-100-D00-0
 62
     7
370
    50
100
AcDbLine
 10
216.08504
 20
74.114402
 30
0.0
 11
216.647148
 21
74.353129
 31
0.0
  0
LINE
  5
155
330
148
100
AcDbEntity
  8
LC-001-100-D00-0
 62
     7
370
    50
100
AcDbLine
 10
216.647148
 20
74.353129
 30
0.0
 11
216.647148
 21
74.353129
 31
0.0
  0
LINE
  5
156
330
148
100
AcDbEntity
  8
LC-001-100-D00-0
 62
     7
370
    50
100
AcDbLine
 10
216.647148
 20
74.353129
 30
0.0
 11
217.017497
 21
74.377329
 31
0.0
  0
LINE
  5
157
330
148
100
AcDbEntity
  8
LC-001-100-D00-0
 62
     7
370
    50
100
AcDbLine
 10
217.017497
 20
74.377329
 30
0.0
 11
217.017497
 21
74.377329
 31
0.0
  0
LINE
  5
158
330
148
100
AcDbEntity
  8
LC-001-100-D00-0
 62
     7
370
    50
100
AcDbLine
 10
217.017497
 20
74.377329
 30
0.0
 11
217.163569
 21
74.386874
 31
0.0
  0
ENDBLK
  5
14A
330
148
100
AcDbEntity
  8
0
100
AcDbBlockEnd
  0
BLOCK
  5
16F
330
16E
100
AcDbEntity
  8
0
100
AcDbBlockBegin
  2
KLON1
 70
     0
 71
     0
 10
0.0
 20
0.0
 30
0.0
  3
KLON1
  1

  4
KLON1
  0
LINE
  5
171
330
16E
100
AcDbEntity
  8
LC-001-100-D00-0
 62
     7
370
    15
100
AcDbLine
 10
187.242459
 20
44.45043
 30
0.0
 11
187.215575
 21
45.505062
 31
0.0
  0
LINE
  5
172
330
16E
100
AcDbEntity
  8
LC-001-100-D00-0
 62
     7
370
    15
100
AcDbLine
 10
187.215575
 20
45.505062
 30
0.0
 11
186.889316
 21
49.273728
 31
0.0
  0
ENDBLK
  5
170
330
16E
100
AcDbEntity
  8
0
100
AcDbBlockEnd
  0
BLOCK
  5
1D6
330
1D5
100
AcDbEntity
  8
0
100
AcDbBlockBegin
  2
POLY15
 70
     0
 71
     0
 10
0.0
 20
0.0
 30
0.0
  3
POLY15
  1

  4
POLY15
  0
LINE
  5
1D8
330
1D5
100
AcDbEntity
  8
LC-001-100-D00-0
 62
     7
370
    50
100
AcDbLine
 10
292.163569
 20
348.989954
 30
0.0
 11
292.163569
 21
348.989954
 31
0.0
  0
LINE
  5
1D9
330
1D5
100
AcDbEntity
  8
LC-001-100-D00-0
 62
     7
370
    50
100
AcDbLine
 10
292.163569
 20
348.989954
 30
0.0
 11
292.167462
 21
349.042074
 31
0.0
  0
LINE
  5
1DA
330
1D5
100
AcDbEntity
  8
LC-001-100-D00-0
 62
     7
370
    50
100
AcDbLine
 10
292.167462
 20
349.042074
 30
0.0
 11
292.167462
 21
349.042074
 31
0.0
  0
LINE
  5
1DB
330
1D5
100
AcDbEntity
  8
LC-001-100-D00-0
 62
     7
370
    50
100
AcDbLine
 10
292.167462
 20
349.042074
 30
0.0
 11
292.17645
 21
349.162398
 31
0.0
  0
LINE
  5
1DC
330
1D5
100
AcDbEntity
  8
LC-001-100-D00-0
 62
     7
370
    50
100
AcDbLine
 10
292.17645
 20
349.162398
 30
0.0
 11
292.17645
 21
349.162398
 31
0.0
  0
LINE
  5
1DD
330
1D5
100
AcDbEntity
  8
LC-001-100-D00-0
 62
     7
370
    50
100
AcDbLine
 10
292.17645
 20
349.162398
 30
0.0
 11
292.258117
 21
349.332968
 31
0.0
  0
LINE
  5
1DE
330
1D5
100
AcDbEntity
  8
LC-001-100-D00-0
 62
     7
370
    50
100
AcDbLine
 10
292.258117
 20
349.332968
 30
0.0
 11
292.258117
 21
349.332968
 31
0.0
  0
LINE
  5
1DF
330
1D5
100
AcDbEntity
  8
LC-001-100-D00-0
 62
     7
370
    50
100
AcDbLine
 10
292.258117
 20
349.332968
 30
0.0
 11
292.39606
 21
349.46669
 31
0.0
  0
LINE
  5
1E0
330
1D5
100
AcDbEntity
  8
LC-001-100-D00-0
 62
     7
370
    50
100
AcDbLine
 10
292.39606
 20
349.46669
 30
0.0
 11
292.39606
 21
349.46669
 31
0.0
  0
LINE
  5
1E1
330
1D5
100
AcDbEntity
  8
LC-001-100-D00-0
 62
     7
370
    50
100
AcDbLine
 10
292.39606
 20
349.46669
 30
0.0
 11
292.541002
 21
349.529743
 31
0.0
  0
LINE
  5
1E2
330
1D5
100
AcDbEntity
  8
LC-001-100-D00-0
 62
     7
370
    50
100
AcDbLine
 10
292.541002
 20
349.529743
 30
0.0
 11
292.541002
 21
349.529743
 31
0.0
  0
LINE
  5
1E3
330
1D5
100
AcDbEntity
  8
LC-001-100-D00-0
 62
     7
370
    50
100
AcDbLine
 10
292.541002
 20
349.529743
 30
0.0
 11
292.631092
 21
349.535453
 31
0.0
  0
LINE
  5
1E4
330
1D5
100
AcDbEntity
  8
LC-001-100-D00-0
 62
     7
370
    50
100
AcDbLine
 10
292.631092
 20
349.535453
 30
0.0
 11
292.631092
 21
349.535453
 31
0.0
  0
LINE
  5
1E5
330
1D5
100
AcDbEntity
  8
LC-001-100-D00-0
 62
     7
370
    50
100
AcDbLine
 10
292.631092
 20
349.535453
 30
0.0
 11
292.66357
 21
349.537512
 31
0.0
  0
ENDBLK
  5
1D7
330
1D5
100
AcDbEntity
  8
0
100
AcDbBlockEnd
  0
BLOCK
  5
1E9
330
1E8
100
AcDbEntity
  8
0
100
AcDbBlockBegin
  2
POLY16
 70
     0
 71
     0
 10
0.0
 20
0.0
 30
0.0
  3
POLY16
  1

  4
POLY16
  0
LINE
  5
1EB
330
1E8
100
AcDbEntity
  8
LC-001-100-D00-0
 62
     7
370
    50
100
AcDbLine
 10
294.663566
 20
349.537512
 30
0.0
 11
294.663566
 21
349.537512
 31
0.0
  0
LINE
  5
1EC
330
1E8
100
AcDbEntity
  8
LC-001-100-D00-0
 62
     7
370
    50
100
AcDbLine
 10
294.663566
 20
349.537512
 30
0.0
 11
294.706692
 21
349.533947
 31
0.0
  0
LINE
  5
1ED
330
1E8
100
AcDbEntity
  8
LC-001-100-D00-0
 62
     7
370
    50
100
AcDbLine
 10
294.706692
 20
349.533947
 30
0.0
 11
294.706692
 21
349.533947
 31
0.0
  0
LINE
  5
1EE
330
1E8
100
AcDbEntity
  8
LC-001-100-D00-0
 62
     7
370
    50
100
AcDbLine
 10
294.706692
 20
349.533947
 30
0.0
 11
294.80233
 21
349.526042
 31
0.0
  0
LINE
  5
1EF
330
1E8
100
AcDbEntity
  8
LC-001-100-D00-0
 62
     7
370
    50
100
AcDbLine
 10
294.80233
 20
349.526042
 30
0.0
 11
294.80233
 21
349.526042
 31
0.0
  0
LINE
  5
1F0
330
1E8
100
AcDbEntity
  8
LC-001-100-D00-0
 62
     7
370
    50
100
AcDbLine
 10
294.80233
 20
349.526042
 30
0.0
 11
294.939168
 21
349.457724
 31
0.0
  0
LINE
  5
1F1
330
1E8
100
AcDbEntity
  8
LC-001-100-D00-0
 62
     7
370
    50
100
AcDbLine
 10
294.939168
 20
349.457724
 30
0.0
 11
294.939168
 21
349.457724
 31
0.0
  0
LINE
  5
1F2
330
1E8
100
AcDbEntity
  8
LC-001-100-D00-0
 62
     7
370
    50
100
AcDbLine
 10
294.939168
 20
349.457724
 30
0.0
 11
295.058209
 21
349.342751
 31
0.0
  0
LINE
  5
1F3
330
1E8
100
AcDbEntity
  8
LC-001-100-D00-0
 62
     7
370
    50
100
AcDbLine
 10
295.058209
 20
349.342751
 30
0.0
 11
295.058209
 21
349.342751
 31
0.0
  0
LINE
  5
1F4
330
1E8
100
AcDbEntity
  8
LC-001-100-D00-0
 62
     7
370
    50
100
AcDbLine
 10
295.058209
 20
349.342751
 30
0.0
 11
295.140347
 21
349.187218
 31
0.0
  0
LINE
  5
1F5
330
1E8
100
AcDbEntity
  8
LC-001-100-D00-0
 62
     7
370
    50
100
AcDbLine
 10
295.140347
 20
349.187218
 30
0.0
 11
295.140347
 21
349.187218
 31
0.0
  0
LINE
  5
1F6
330
1E8
100
AcDbEntity
  8
LC-001-100-D00-0
 62
     7
370
    50
100
AcDbLine
 10
295.140347
 20
349.187218
 30
0.0
 11
295.163009
 21
349.06231
 31
0.0
  0
LINE
  5
1F7
330
1E8
100
AcDbEntity
  8
LC-001-100-D00-0
 62
     7
370
    50
100
AcDbLine
 10
295.163009
 20
349.06231
 30
0.0
 11
295.163009
 21
349.06231
 31
0.0
  0
LINE
  5
1F8
330
1E8
100
AcDbEntity
  8
LC-001-100-D00-0
 62
     7
370
    50
100
AcDbLine
 10
295.163009
 20
349.06231
 30
0.0
 11
295.163528
 21
348.99507
 31
0.0
  0
LINE
  5
1F9
330
1E8
100
AcDbEntity
  8
LC-001-100-D00-0
 62
     7
370
    50
100
AcDbLine
 10
295.163528
 20
348.99507
 30
0.0
 11
295.163528
 21
348.99507
 31
0.0
  0
LINE
  5
1FA
330
1E8
100
AcDbEntity
  8
LC-001-100-D00-0
 62
     7
370
    50
100
AcDbLine
 10
295.163528
 20
348.99507
 30
0.0
 11
295.163567
 21
348.989954
 31
0.0
  0
ENDBLK
  5
1EA
330
1E8
100
AcDbEntity
  8
0
100
AcDbBlockEnd
  0
BLOCK
  5
291
330
290
100
AcDbEntity
  8
0
100
AcDbBlockBegin
  2
POLY17
 70
     0
 71
     0
 10
0.0
 20
0.0
 30
0.0
  3
POLY17
  1

  4
POLY17
  0
LINE
  5
293
330
290
100
AcDbEntity
  8
LC-001-100-D00-0
 62
     7
370
    50
100
AcDbLine
 10
180.980062
 20
360.230354
 30
0.0
 11
180.980062
 21
360.230354
 31
0.0
  0
LINE
  5
294
330
290
100
AcDbEntity
  8
LC-001-100-D00-0
 62
     7
370
    50
100
AcDbLine
 10
180.980062
 20
360.230354
 30
0.0
 11
181.002154
 21
360.455059
 31
0.0
  0
LINE
  5
295
330
290
100
AcDbEntity
  8
LC-001-100-D00-0
 62
     7
370
    50
100
AcDbLine
 10
181.002154
 20
360.455059
 30
0.0
 11
181.002154
 21
360.455059
 31
0.0
  0
LINE
  5
296
330
290
100
AcDbEntity
  8
LC-001-100-D00-0
 62
     7
370
    50
100
AcDbLine
 10
181.002154
 20
360.455059
 30
0.0
 11
181.046346
 21
360.904535
 31
0.0
  0
LINE
  5
297
330
290
100
AcDbEntity
  8
LC-001-100-D00-0
 62
     7
370
    50
100
AcDbLine
 10
181.046346
 20
360.904535
 30
0.0
 11
181.046346
 21
360.904535
 31
0.0
  0
LINE
  5
298
330
290
100
AcDbEntity
  8
LC-001-100-D00-0
 62
     7
370
    50
100
AcDbLine
 10
181.046346
 20
360.904535
 30
0.0
 11
181.390985
 21
361.503689
 31
0.0
  0
LINE
  5
299
330
290
100
AcDbEntity
  8
LC-001-100-D00-0
 62
     7
370
    50
100
AcDbLine
 10
181.390985
 20
361.503689
 30
0.0
 11
181.390985
 21
361.503689
 31
0.0
  0
LINE
  5
29A
330
290
100
AcDbEntity
  8
LC-001-100-D00-0
 62
     7
370
    50
100
AcDbLine
 10
181.390985
 20
361.503689
 30
0.0
 11
181.898356
 21
361.956057
 31
0.0
  0
LINE
  5
29B
330
290
100
AcDbEntity
  8
LC-001-100-D00-0
 62
     7
370
    50
100
AcDbLine
 10
181.898356
 20
361.956057
 30
0.0
 11
181.898356
 21
361.956057
 31
0.0
  0
LINE
  5
29C
330
290
100
AcDbEntity
  8
LC-001-100-D00-0
 62
     7
370
    50
100
AcDbLine
 10
181.898356
 20
361.956057
 30
0.0
 11
182.46103
 21
362.196093
 31
0.0
  0
LINE
  5
29D
330
290
100
AcDbEntity
  8
LC-001-100-D00-0
 62
     7
370
    50
100
AcDbLine
 10
182.46103
 20
362.196093
 30
0.0
 11
182.46103
 21
362.196093
 31
0.0
  0
LINE
  5
29E
330
290
100
AcDbEntity
  8
LC-001-100-D00-0
 62
     7
370
    50
100
AcDbLine
 10
182.46103
 20
362.196093
 30
0.0
 11
182.833083
 21
362.220609
 31
0.0
  0
LINE
  5
29F
330
290
100
AcDbEntity
  8
LC-001-100-D00-0
 62
     7
370
    50
100
AcDbLine
 10
182.833083
 20
362.220609
 30
0.0
 11
182.833083
 21
362.220609
 31
0.0
  0
LINE
  5
2A0
330
290
100
AcDbEntity
  8
LC-001-100-D00-0
 62
     7
370
    50
100
AcDbLine
 10
182.833083
 20
362.220609
 30
0.0
 11
182.980928
 21
362.230351
 31
0.0
  0
ENDBLK
  5
292
330
290
100
AcDbEntity
  8
0
100
AcDbBlockEnd
  0
BLOCK
  5
2A3
330
2A2
100
AcDbEntity
  8
0
100
AcDbBlockBegin
  2
POLY18
 70
     0
 71
     0
 10
0.0
 20
0.0
 30
0.0
  3
POLY18
  1

  4
POLY18
  0
LINE
  5
2A5
330
2A2
100
AcDbEntity
  8
LC-001-100-D00-0
 62
     7
370
    50
100
AcDbLine
 10
112.009923
 20
362.230351
 30
0.0
 11
112.009923
 21
362.230351
 31
0.0
  0
LINE
  5
2A6
330
2A2
100
AcDbEntity
  8
LC-001-100-D00-0
 62
     7
370
    50
100
AcDbLine
 10
112.009923
 20
362.230351
 30
0.0
 11
112.168491
 21
362.219184
 31
0.0
  0
LINE
  5
2A7
330
2A2
100
AcDbEntity
  8
LC-001-100-D00-0
 62
     7
370
    50
100
AcDbLine
 10
112.168491
 20
362.219184
 30
0.0
 11
112.168491
 21
362.219184
 31
0.0
  0
LINE
  5
2A8
330
2A2
100
AcDbEntity
  8
LC-001-100-D00-0
 62
     7
370
    50
100
AcDbLine
 10
112.168491
 20
362.219184
 30
0.0
 11
112.551453
 21
362.192215
 31
0.0
  0
LINE
  5
2A9
330
2A2
100
AcDbEntity
  8
LC-001-100-D00-0
 62
     7
370
    50
100
AcDbLine
 10
112.551453
 20
362.192215
 30
0.0
 11
112.551453
 21
362.192215
 31
0.0
  0
LINE
  5
2AA
330
2A2
100
AcDbEntity
  8
LC-001-100-D00-0
 62
     7
370
    50
100
AcDbLine
 10
112.551453
 20
362.192215
 30
0.0
 11
113.120478
 21
361.938163
 31
0.0
  0
LINE
  5
2AB
330
2A2
100
AcDbEntity
  8
LC-001-100-D00-0
 62
     7
370
    50
100
AcDbLine
 10
113.120478
 20
361.938163
 30
0.0
 11
113.120478
 21
361.938163
 31
0.0
  0
LINE
  5
2AC
330
2A2
100
AcDbEntity
  8
LC-001-100-D00-0
 62
     7
370
    50
100
AcDbLine
 10
113.120478
 20
361.938163
 30
0.0
 11
113.620786
 21
361.477325
 31
0.0
  0
LINE
  5
2AD
330
2A2
100
AcDbEntity
  8
LC-001-100-D00-0
 62
     7
370
    50
100
AcDbLine
 10
113.620786
 20
361.477325
 30
0.0
 11
113.620786
 21
361.477325
 31
0.0
  0
LINE
  5
2AE
330
2A2
100
AcDbEntity
  8
LC-001-100-D00-0
 62
     7
370
    50
100
AcDbLine
 10
113.620786
 20
361.477325
 30
0.0
 11
113.949762
 21
360.8822
 31
0.0
  0
LINE
  5
2AF
330
2A2
100
AcDbEntity
  8
LC-001-100-D00-0
 62
     7
370
    50
100
AcDbLine
 10
113.949762
 20
360.8822
 30
0.0
 11
113.949762
 21
360.8822
 31
0.0
  0
LINE
  5
2B0
330
2A2
100
AcDbEntity
  8
LC-001-100-D00-0
 62
     7
370
    50
100
AcDbLine
 10
113.949762
 20
360.8822
 30
0.0
 11
113.990798
 21
360.44388
 31
0.0
  0
LINE
  5
2B1
330
2A2
100
AcDbEntity
  8
LC-001-100-D00-0
 62
     7
370
    50
100
AcDbLine
 10
113.990798
 20
360.44388
 30
0.0
 11
113.990798
 21
360.44388
 31
0.0
  0
LINE
  5
2B2
330
2A2
100
AcDbEntity
  8
LC-001-100-D00-0
 62
     7
370
    50
100
AcDbLine
 10
113.990798
 20
360.44388
 30
0.0
 11
114.010788
 21
360.230354
 31
0.0
  0
ENDBLK
  5
2A4
330
2A2
100
AcDbEntity
  8
0
100
AcDbBlockEnd
  0
BLOCK
  5
2BA
330
2B9
100
AcDbEntity
  8
0
100
AcDbBlockBegin
  2
POLY19
 70
     0
 71
     0
 10
0.0
 20
0.0
 30
0.0
  3
POLY19
  1

  4
POLY19
  0
LINE
  5
2BC
330
2B9
100
AcDbEntity
  8
LC-001-100-D00-0
 62
     7
370
    50
100
AcDbLine
 10
114.010788
 20
354.230357
 30
0.0
 11
114.010788
 21
354.230357
 31
0.0
  0
LINE
  5
2BD
330
2B9
100
AcDbEntity
  8
LC-001-100-D00-0
 62
     7
370
    50
100
AcDbLine
 10
114.010788
 20
354.230357
 30
0.0
 11
114.021828
 21
354.118036
 31
0.0
  0
LINE
  5
2BE
330
2B9
100
AcDbEntity
  8
LC-001-100-D00-0
 62
     7
370
    50
100
AcDbLine
 10
114.021828
 20
354.118036
 30
0.0
 11
114.021828
 21
354.118036
 31
0.0
  0
LINE
  5
2BF
330
2B9
100
AcDbEntity
  8
LC-001-100-D00-0
 62
     7
370
    50
100
AcDbLine
 10
114.021828
 20
354.118036
 30
0.0
 11
114.043913
 21
353.893333
 31
0.0
  0
LINE
  5
2C0
330
2B9
100
AcDbEntity
  8
LC-001-100-D00-0
 62
     7
370
    50
100
AcDbLine
 10
114.043913
 20
353.893333
 30
0.0
 11
114.043913
 21
353.893333
 31
0.0
  0
LINE
  5
2C1
330
2B9
100
AcDbEntity
  8
LC-001-100-D00-0
 62
     7
370
    50
100
AcDbLine
 10
114.043913
 20
353.893333
 30
0.0
 11
114.216186
 21
353.593773
 31
0.0
  0
LINE
  5
2C2
330
2B9
100
AcDbEntity
  8
LC-001-100-D00-0
 62
     7
370
    50
100
AcDbLine
 10
114.216186
 20
353.593773
 30
0.0
 11
114.216186
 21
353.593773
 31
0.0
  0
LINE
  5
2C3
330
2B9
100
AcDbEntity
  8
LC-001-100-D00-0
 62
     7
370
    50
100
AcDbLine
 10
114.216186
 20
353.593773
 30
0.0
 11
114.469842
 21
353.367562
 31
0.0
  0
LINE
  5
2C4
330
2B9
100
AcDbEntity
  8
LC-001-100-D00-0
 62
     7
370
    50
100
AcDbLine
 10
114.469842
 20
353.367562
 30
0.0
 11
114.469842
 21
353.367562
 31
0.0
  0
LINE
  5
2C5
330
2B9
100
AcDbEntity
  8
LC-001-100-D00-0
 62
     7
370
    50
100
AcDbLine
 10
114.469842
 20
353.367562
 30
0.0
 11
114.751214
 21
353.2475
 31
0.0
  0
LINE
  5
2C6
330
2B9
100
AcDbEntity
  8
LC-001-100-D00-0
 62
     7
370
    50
100
AcDbLine
 10
114.751214
 20
353.2475
 30
0.0
 11
114.751214
 21
353.2475
 31
0.0
  0
LINE
  5
2C7
330
2B9
100
AcDbEntity
  8
LC-001-100-D00-0
 62
     7
370
    50
100
AcDbLine
 10
114.751214
 20
353.2475
 30
0.0
 11
114.93729
 21
353.235232
 31
0.0
  0
LINE
  5
2C8
330
2B9
100
AcDbEntity
  8
LC-001-100-D00-0
 62
     7
370
    50
100
AcDbLine
 10
114.93729
 20
353.235232
 30
0.0
 11
114.93729
 21
353.235232
 31
0.0
  0
LINE
  5
2C9
330
2B9
100
AcDbEntity
  8
LC-001-100-D00-0
 62
     7
370
    50
100
AcDbLine
 10
114.93729
 20
353.235232
 30
0.0
 11
115.011263
 21
353.230355
 31
0.0
  0
ENDBLK
  5
2BB
330
2B9
100
AcDbEntity
  8
0
100
AcDbBlockEnd
  0
BLOCK
  5
2CC
330
2CB
100
AcDbEntity
  8
0
100
AcDbBlockBegin
  2
POLY20
 70
     0
 71
     0
 10
0.0
 20
0.0
 30
0.0
  3
POLY20
  1

  4
POLY20
  0
LINE
  5
2CE
330
2CB
100
AcDbEntity
  8
LC-001-100-D00-0
 62
     7
370
    50
100
AcDbLine
 10
179.979589
 20
353.230355
 30
0.0
 11
179.979589
 21
353.230355
 31
0.0
  0
LINE
  5
2CF
330
2CB
100
AcDbEntity
  8
LC-001-100-D00-0
 62
     7
370
    50
100
AcDbLine
 10
179.979589
 20
353.230355
 30
0.0
 11
180.018073
 21
353.23172
 31
0.0
  0
LINE
  5
2D0
330
2CB
100
AcDbEntity
  8
LC-001-100-D00-0
 62
     7
370
    50
100
AcDbLine
 10
180.018073
 20
353.23172
 30
0.0
 11
180.018073
 21
353.23172
 31
0.0
  0
LINE
  5
2D1
330
2CB
100
AcDbEntity
  8
LC-001-100-D00-0
 62
     7
370
    50
100
AcDbLine
 10
180.018073
 20
353.23172
 30
0.0
 11
180.168591
 21
353.237056
 31
0.0
  0
LINE
  5
2D2
330
2CB
100
AcDbEntity
  8
LC-001-100-D00-0
 62
     7
370
    50
100
AcDbLine
 10
180.168591
 20
353.237056
 30
0.0
 11
180.168591
 21
353.237056
 31
0.0
  0
LINE
  5
2D3
330
2CB
100
AcDbEntity
  8
LC-001-100-D00-0
 62
     7
370
    50
100
AcDbLine
 10
180.168591
 20
353.237056
 30
0.0
 11
180.425947
 21
353.314678
 31
0.0
  0
LINE
  5
2D4
330
2CB
100
AcDbEntity
  8
LC-001-100-D00-0
 62
     7
370
    50
100
AcDbLine
 10
180.425947
 20
353.314678
 30
0.0
 11
180.425947
 21
353.314678
 31
0.0
  0
LINE
  5
2D5
330
2CB
100
AcDbEntity
  8
LC-001-100-D00-0
 62
     7
370
    50
100
AcDbLine
 10
180.425947
 20
353.314678
 30
0.0
 11
180.704401
 21
353.513235
 31
0.0
  0
LINE
  5
2D6
330
2CB
100
AcDbEntity
  8
LC-001-100-D00-0
 62
     7
370
    50
100
AcDbLine
 10
180.704401
 20
353.513235
 30
0.0
 11
180.704401
 21
353.513235
 31
0.0
  0
LINE
  5
2D7
330
2CB
100
AcDbEntity
  8
LC-001-100-D00-0
 62
     7
370
    50
100
AcDbLine
 10
180.704401
 20
353.513235
 30
0.0
 11
180.900225
 21
353.793542
 31
0.0
  0
LINE
  5
2D8
330
2CB
100
AcDbEntity
  8
LC-001-100-D00-0
 62
     7
370
    50
100
AcDbLine
 10
180.900225
 20
353.793542
 30
0.0
 11
180.900225
 21
353.793542
 31
0.0
  0
LINE
  5
2D9
330
2CB
100
AcDbEntity
  8
LC-001-100-D00-0
 62
     7
370
    50
100
AcDbLine
 10
180.900225
 20
353.793542
 30
0.0
 11
180.974126
 21
354.0482
 31
0.0
  0
LINE
  5
2DA
330
2CB
100
AcDbEntity
  8
LC-001-100-D00-0
 62
     7
370
    50
100
AcDbLine
 10
180.974126
 20
354.0482
 30
0.0
 11
180.974126
 21
354.0482
 31
0.0
  0
LINE
  5
2DB
330
2CB
100
AcDbEntity
  8
LC-001-100-D00-0
 62
     7
370
    50
100
AcDbLine
 10
180.974126
 20
354.0482
 30
0.0
 11
180.978918
 21
354.195238
 31
0.0
  0
LINE
  5
2DC
330
2CB
100
AcDbEntity
  8
LC-001-100-D00-0
 62
     7
370
    50
100
AcDbLine
 10
180.978918
 20
354.195238
 30
0.0
 11
180.978918
 21
354.195238
 31
0.0
  0
LINE
  5
2DD
330
2CB
100
AcDbEntity
  8
LC-001-100-D00-0
 62
     7
370
    50
100
AcDbLine
 10
180.978918
 20
354.195238
 30
0.0
 11
180.980062
 21
354.230357
 31
0.0
  0
ENDBLK
  5
2CD
330
2CB
100
AcDbEntity
  8
0
100
AcDbBlockEnd
  0
BLOCK
  5
2E2
330
2E1
100
AcDbEntity
  8
0
100
AcDbBlockBegin
  2
POLY21
 70
     0
 71
     0
 10
0.0
 20
0.0
 30
0.0
  3
POLY21
  1

  4
POLY21
  0
LINE
  5
2E4
330
2E1
100
AcDbEntity
  8
LC-001-100-D00-0
 62
     7
370
    50
100
AcDbLine
 10
165.466816
 20
341.230353
 30
0.0
 11
165.466816
 21
341.230353
 31
0.0
  0
LINE
  5
2E5
330
2E1
100
AcDbEntity
  8
LC-001-100-D00-0
 62
     7
370
    50
100
AcDbLine
 10
165.466816
 20
341.230353
 30
0.0
 11
165.498851
 21
341.894711
 31
0.0
  0
LINE
  5
2E6
330
2E1
100
AcDbEntity
  8
LC-001-100-D00-0
 62
     7
370
    50
100
AcDbLine
 10
165.498851
 20
341.894711
 30
0.0
 11
165.498851
 21
341.894711
 31
0.0
  0
LINE
  5
2E7
330
2E1
100
AcDbEntity
  8
LC-001-100-D00-0
 62
     7
370
    50
100
AcDbLine
 10
165.498851
 20
341.894711
 30
0.0
 11
165.56385
 21
343.242704
 31
0.0
  0
LINE
  5
2E8
330
2E1
100
AcDbEntity
  8
LC-001-100-D00-0
 62
     7
370
    50
100
AcDbLine
 10
165.56385
 20
343.242704
 30
0.0
 11
165.56385
 21
343.242704
 31
0.0
  0
LINE
  5
2E9
330
2E1
100
AcDbEntity
  8
LC-001-100-D00-0
 62
     7
370
    50
100
AcDbLine
 10
165.56385
 20
343.242704
 30
0.0
 11
166.086767
 21
345.199001
 31
0.0
  0
LINE
  5
2EA
330
2E1
100
AcDbEntity
  8
LC-001-100-D00-0
 62
     7
370
    50
100
AcDbLine
 10
166.086767
 20
345.199001
 30
0.0
 11
166.086767
 21
345.199001
 31
0.0
  0
LINE
  5
2EB
330
2E1
100
AcDbEntity
  8
LC-001-100-D00-0
 62
     7
370
    50
100
AcDbLine
 10
166.086767
 20
345.199001
 30
0.0
 11
166.913968
 21
347.059906
 31
0.0
  0
LINE
  5
2EC
330
2E1
100
AcDbEntity
  8
LC-001-100-D00-0
 62
     7
370
    50
100
AcDbLine
 10
166.913968
 20
347.059906
 30
0.0
 11
166.913968
 21
347.059906
 31
0.0
  0
LINE
  5
2ED
330
2E1
100
AcDbEntity
  8
LC-001-100-D00-0
 62
     7
370
    50
100
AcDbLine
 10
166.913968
 20
347.059906
 30
0.0
 11
168.038073
 21
348.740087
 31
0.0
  0
LINE
  5
2EE
330
2E1
100
AcDbEntity
  8
LC-001-100-D00-0
 62
     7
370
    50
100
AcDbLine
 10
168.038073
 20
348.740087
 30
0.0
 11
168.038073
 21
348.740087
 31
0.0
  0
LINE
  5
2EF
330
2E1
100
AcDbEntity
  8
LC-001-100-D00-0
 62
     7
370
    50
100
AcDbLine
 10
168.038073
 20
348.740087
 30
0.0
 11
169.43939
 21
350.221593
 31
0.0
  0
LINE
  5
2F0
330
2E1
100
AcDbEntity
  8
LC-001-100-D00-0
 62
     7
370
    50
100
AcDbLine
 10
169.43939
 20
350.221593
 30
0.0
 11
169.43939
 21
350.221593
 31
0.0
  0
LINE
  5
2F1
330
2E1
100
AcDbEntity
  8
LC-001-100-D00-0
 62
     7
370
    50
100
AcDbLine
 10
169.43939
 20
350.221593
 30
0.0
 11
171.056091
 21
351.438824
 31
0.0
  0
LINE
  5
2F2
330
2E1
100
AcDbEntity
  8
LC-001-100-D00-0
 62
     7
370
    50
100
AcDbLine
 10
171.056091
 20
351.438824
 30
0.0
 11
171.056091
 21
351.438824
 31
0.0
  0
LINE
  5
2F3
330
2E1
100
AcDbEntity
  8
LC-001-100-D00-0
 62
     7
370
    50
100
AcDbLine
 10
171.056091
 20
351.438824
 30
0.0
 11
172.87107
 21
352.369114
 31
0.0
  0
LINE
  5
2F4
330
2E1
100
AcDbEntity
  8
LC-001-100-D00-0
 62
     7
370
    50
100
AcDbLine
 10
172.87107
 20
352.369114
 30
0.0
 11
172.87107
 21
352.369114
 31
0.0
  0
LINE
  5
2F5
330
2E1
100
AcDbEntity
  8
LC-001-100-D00-0
 62
     7
370
    50
100
AcDbLine
 10
172.87107
 20
352.369114
 30
0.0
 11
175.013004
 21
353.07436
 31
0.0
  0
LINE
  5
2F6
330
2E1
100
AcDbEntity
  8
LC-001-100-D00-0
 62
     7
370
    50
100
AcDbLine
 10
175.013004
 20
353.07436
 30
0.0
 11
175.013004
 21
353.07436
 31
0.0
  0
LINE
  5
2F7
330
2E1
100
AcDbEntity
  8
LC-001-100-D00-0
 62
     7
370
    50
100
AcDbLine
 10
175.013004
 20
353.07436
 30
0.0
 11
176.588566
 21
353.174057
 31
0.0
  0
LINE
  5
2F8
330
2E1
100
AcDbEntity
  8
LC-001-100-D00-0
 62
     7
370
    50
100
AcDbLine
 10
176.588566
 20
353.174057
 30
0.0
 11
176.588566
 21
353.174057
 31
0.0
  0
LINE
  5
2F9
330
2E1
100
AcDbEntity
  8
LC-001-100-D00-0
 62
     7
370
    50
100
AcDbLine
 10
176.588566
 20
353.174057
 30
0.0
 11
177.478268
 21
353.230355
 31
0.0
  0
ENDBLK
  5
2E3
330
2E1
100
AcDbEntity
  8
0
100
AcDbBlockEnd
  0
BLOCK
  5
2FC
330
2FB
100
AcDbEntity
  8
0
100
AcDbBlockBegin
  2
POLY22
 70
     0
 71
     0
 10
0.0
 20
0.0
 30
0.0
  3
POLY22
  1

  4
POLY22
  0
LINE
  5
2FE
330
2FB
100
AcDbEntity
  8
LC-001-100-D00-0
 62
     7
370
    50
100
AcDbLine
 10
117.512583
 20
353.230355
 30
0.0
 11
117.512583
 21
353.230355
 31
0.0
  0
LINE
  5
2FF
330
2FB
100
AcDbEntity
  8
LC-001-100-D00-0
 62
     7
370
    50
100
AcDbLine
 10
117.512583
 20
353.230355
 30
0.0
 11
118.154305
 21
353.200547
 31
0.0
  0
LINE
  5
300
330
2FB
100
AcDbEntity
  8
LC-001-100-D00-0
 62
     7
370
    50
100
AcDbLine
 10
118.154305
 20
353.200547
 30
0.0
 11
118.154305
 21
353.200547
 31
0.0
  0
LINE
  5
301
330
2FB
100
AcDbEntity
  8
LC-001-100-D00-0
 62
     7
370
    50
100
AcDbLine
 10
118.154305
 20
353.200547
 30
0.0
 11
119.454968
 21
353.140131
 31
0.0
  0
LINE
  5
302
330
2FB
100
AcDbEntity
  8
LC-001-100-D00-0
 62
     7
370
    50
100
AcDbLine
 10
119.454968
 20
353.140131
 30
0.0
 11
119.454968
 21
353.140131
 31
0.0
  0
LINE
  5
303
330
2FB
100
AcDbEntity
  8
LC-001-100-D00-0
 62
     7
370
    50
100
AcDbLine
 10
119.454968
 20
353.140131
 30
0.0
 11
121.370679
 21
352.648171
 31
0.0
  0
LINE
  5
304
330
2FB
100
AcDbEntity
  8
LC-001-100-D00-0
 62
     7
370
    50
100
AcDbLine
 10
121.370679
 20
352.648171
 30
0.0
 11
121.370679
 21
352.648171
 31
0.0
  0
LINE
  5
305
330
2FB
100
AcDbEntity
  8
LC-001-100-D00-0
 62
     7
370
    50
100
AcDbLine
 10
121.370679
 20
352.648171
 30
0.0
 11
123.222366
 21
351.853016
 31
0.0
  0
LINE
  5
306
330
2FB
100
AcDbEntity
  8
LC-001-100-D00-0
 62
     7
370
    50
100
AcDbLine
 10
123.222366
 20
351.853016
 30
0.0
 11
123.222366
 21
351.853016
 31
0.0
  0
LINE
  5
307
330
2FB
100
AcDbEntity
  8
LC-001-100-D00-0
 62
     7
370
    50
100
AcDbLine
 10
123.222366
 20
351.853016
 30
0.0
 11
124.920118
 21
350.747794
 31
0.0
  0
LINE
  5
308
330
2FB
100
AcDbEntity
  8
LC-001-100-D00-0
 62
     7
370
    50
100
AcDbLine
 10
124.920118
 20
350.747794
 30
0.0
 11
124.920118
 21
350.747794
 31
0.0
  0
LINE
  5
309
330
2FB
100
AcDbEntity
  8
LC-001-100-D00-0
 62
     7
370
    50
100
AcDbLine
 10
124.920118
 20
350.747794
 30
0.0
 11
126.421601
 21
349.362259
 31
0.0
  0
LINE
  5
30A
330
2FB
100
AcDbEntity
  8
LC-001-100-D00-0
 62
     7
370
    50
100
AcDbLine
 10
126.421601
 20
349.362259
 30
0.0
 11
126.421601
 21
349.362259
 31
0.0
  0
LINE
  5
30B
330
2FB
100
AcDbEntity
  8
LC-001-100-D00-0
 62
     7
370
    50
100
AcDbLine
 10
126.421601
 20
349.362259
 30
0.0
 11
127.659436
 21
347.758708
 31
0.0
  0
LINE
  5
30C
330
2FB
100
AcDbEntity
  8
LC-001-100-D00-0
 62
     7
370
    50
100
AcDbLine
 10
127.659436
 20
347.758708
 30
0.0
 11
127.659436
 21
347.758708
 31
0.0
  0
LINE
  5
30D
330
2FB
100
AcDbEntity
  8
LC-001-100-D00-0
 62
     7
370
    50
100
AcDbLine
 10
127.659436
 20
347.758708
 30
0.0
 11
128.611175
 21
345.954044
 31
0.0
  0
LINE
  5
30E
330
2FB
100
AcDbEntity
  8
LC-001-100-D00-0
 62
     7
370
    50
100
AcDbLine
 10
128.611175
 20
345.954044
 30
0.0
 11
128.611175
 21
345.954044
 31
0.0
  0
LINE
  5
30F
330
2FB
100
AcDbEntity
  8
LC-001-100-D00-0
 62
     7
370
    50
100
AcDbLine
 10
128.611175
 20
345.954044
 30
0.0
 11
129.354961
 21
343.780321
 31
0.0
  0
LINE
  5
310
330
2FB
100
AcDbEntity
  8
LC-001-100-D00-0
 62
     7
370
    50
100
AcDbLine
 10
129.354961
 20
343.780321
 30
0.0
 11
129.354961
 21
343.780321
 31
0.0
  0
LINE
  5
311
330
2FB
100
AcDbEntity
  8
LC-001-100-D00-0
 62
     7
370
    50
100
AcDbLine
 10
129.354961
 20
343.780321
 30
0.0
 11
129.462237
 21
342.162374
 31
0.0
  0
LINE
  5
312
330
2FB
100
AcDbEntity
  8
LC-001-100-D00-0
 62
     7
370
    50
100
AcDbLine
 10
129.462237
 20
342.162374
 30
0.0
 11
129.462237
 21
342.162374
 31
0.0
  0
LINE
  5
313
330
2FB
100
AcDbEntity
  8
LC-001-100-D00-0
 62
     7
370
    50
100
AcDbLine
 10
129.462237
 20
342.162374
 30
0.0
 11
129.524033
 21
341.230353
 31
0.0
  0
ENDBLK
  5
2FD
330
2FB
100
AcDbEntity
  8
0
100
AcDbBlockEnd
  0
BLOCK
  5
317
330
316
100
AcDbEntity
  8
0
100
AcDbBlockBegin
  2
POLY23
 70
     0
 71
     0
 10
0.0
 20
0.0
 30
0.0
  3
POLY23
  1

  4
POLY23
  0
LINE
  5
319
330
316
100
AcDbEntity
  8
LC-001-100-D00-0
 62
     7
370
    50
100
AcDbLine
 10
128.522526
 20
341.230353
 30
0.0
 11
128.522526
 21
341.230353
 31
0.0
  0
LINE
  5
31A
330
316
100
AcDbEntity
  8
LC-001-100-D00-0
 62
     7
370
    50
100
AcDbLine
 10
128.522526
 20
341.230353
 30
0.0
 11
128.400871
 21
342.466199
 31
0.0
  0
LINE
  5
31B
330
316
100
AcDbEntity
  8
LC-001-100-D00-0
 62
     7
370
    50
100
AcDbLine
 10
128.400871
 20
342.466199
 30
0.0
 11
128.400871
 21
342.466199
 31
0.0
  0
LINE
  5
31C
330
316
100
AcDbEntity
  8
LC-001-100-D00-0
 62
     7
370
    50
100
AcDbLine
 10
128.400871
 20
342.466199
 30
0.0
 11
128.157559
 21
344.937919
 31
0.0
  0
LINE
  5
31D
330
316
100
AcDbEntity
  8
LC-001-100-D00-0
 62
     7
370
    50
100
AcDbLine
 10
128.157559
 20
344.937919
 30
0.0
 11
128.157559
 21
344.937919
 31
0.0
  0
LINE
  5
31E
330
316
100
AcDbEntity
  8
LC-001-100-D00-0
 62
     7
370
    50
100
AcDbLine
 10
128.157559
 20
344.937919
 30
0.0
 11
126.263632
 21
348.226293
 31
0.0
  0
LINE
  5
31F
330
316
100
AcDbEntity
  8
LC-001-100-D00-0
 62
     7
370
    50
100
AcDbLine
 10
126.263632
 20
348.226293
 30
0.0
 11
126.263632
 21
348.226293
 31
0.0
  0
LINE
  5
320
330
316
100
AcDbEntity
  8
LC-001-100-D00-0
 62
     7
370
    50
100
AcDbLine
 10
126.263632
 20
348.226293
 30
0.0
 11
123.939459
 21
350.312831
 31
0.0
  0
LINE
  5
321
330
316
100
AcDbEntity
  8
LC-001-100-D00-0
 62
     7
370
    50
100
AcDbLine
 10
123.939459
 20
350.312831
 30
0.0
 11
123.939459
 21
350.312831
 31
0.0
  0
LINE
  5
322
330
316
100
AcDbEntity
  8
LC-001-100-D00-0
 62
     7
370
    50
100
AcDbLine
 10
123.939459
 20
350.312831
 30
0.0
 11
121.735083
 21
351.440929
 31
0.0
  0
LINE
  5
323
330
316
100
AcDbEntity
  8
LC-001-100-D00-0
 62
     7
370
    50
100
AcDbLine
 10
121.735083
 20
351.440929
 30
0.0
 11
121.735083
 21
351.440929
 31
0.0
  0
LINE
  5
324
330
316
100
AcDbEntity
  8
LC-001-100-D00-0
 62
     7
370
    50
100
AcDbLine
 10
121.735083
 20
351.440929
 30
0.0
 11
119.772098
 21
352.08747
 31
0.0
  0
LINE
  5
325
330
316
100
AcDbEntity
  8
LC-001-100-D00-0
 62
     7
370
    50
100
AcDbLine
 10
119.772098
 20
352.08747
 30
0.0
 11
119.772098
 21
352.08747
 31
0.0
  0
LINE
  5
326
330
316
100
AcDbEntity
  8
LC-001-100-D00-0
 62
     7
370
    50
100
AcDbLine
 10
119.772098
 20
352.08747
 30
0.0
 11
118.328015
 21
352.178788
 31
0.0
  0
LINE
  5
327
330
316
100
AcDbEntity
  8
LC-001-100-D00-0
 62
     7
370
    50
100
AcDbLine
 10
118.328015
 20
352.178788
 30
0.0
 11
118.328015
 21
352.178788
 31
0.0
  0
LINE
  5
328
330
316
100
AcDbEntity
  8
LC-001-100-D00-0
 62
     7
370
    50
100
AcDbLine
 10
118.328015
 20
352.178788
 30
0.0
 11
117.512583
 21
352.230353
 31
0.0
  0
ENDBLK
  5
318
330
316
100
AcDbEntity
  8
0
100
AcDbBlockEnd
  0
BLOCK
  5
32B
330
32A
100
AcDbEntity
  8
0
100
AcDbBlockBegin
  2
POLY24
 70
     0
 71
     0
 10
0.0
 20
0.0
 30
0.0
  3
POLY24
  1

  4
POLY24
  0
LINE
  5
32D
330
32A
100
AcDbEntity
  8
LC-001-100-D00-0
 62
     7
370
    50
100
AcDbLine
 10
177.478268
 20
352.230353
 30
0.0
 11
177.478268
 21
352.230353
 31
0.0
  0
LINE
  5
32E
330
32A
100
AcDbEntity
  8
LC-001-100-D00-0
 62
     7
370
    50
100
AcDbLine
 10
177.478268
 20
352.230353
 30
0.0
 11
176.380596
 21
352.138372
 31
0.0
  0
LINE
  5
32F
330
32A
100
AcDbEntity
  8
LC-001-100-D00-0
 62
     7
370
    50
100
AcDbLine
 10
176.380596
 20
352.138372
 30
0.0
 11
176.380596
 21
352.138372
 31
0.0
  0
LINE
  5
330
330
32A
100
AcDbEntity
  8
LC-001-100-D00-0
 62
     7
370
    50
100
AcDbLine
 10
176.380596
 20
352.138372
 30
0.0
 11
174.670453
 21
351.995068
 31
0.0
  0
LINE
  5
331
330
32A
100
AcDbEntity
  8
LC-001-100-D00-0
 62
     7
370
    50
100
AcDbLine
 10
174.670453
 20
351.995068
 30
0.0
 11
174.670453
 21
351.995068
 31
0.0
  0
LINE
  5
332
330
32A
100
AcDbEntity
  8
LC-001-100-D00-0
 62
     7
370
    50
100
AcDbLine
 10
174.670453
 20
351.995068
 30
0.0
 11
172.499923
 21
351.094774
 31
0.0
  0
LINE
  5
333
330
32A
100
AcDbEntity
  8
LC-001-100-D00-0
 62
     7
370
    50
100
AcDbLine
 10
172.499923
 20
351.094774
 30
0.0
 11
172.499923
 21
351.094774
 31
0.0
  0
LINE
  5
334
330
32A
100
AcDbEntity
  8
LC-001-100-D00-0
 62
     7
370
    50
100
AcDbLine
 10
172.499923
 20
351.094774
 30
0.0
 11
170.917647
 21
350.129811
 31
0.0
  0
LINE
  5
335
330
32A
100
AcDbEntity
  8
LC-001-100-D00-0
 62
     7
370
    50
100
AcDbLine
 10
170.917647
 20
350.129811
 30
0.0
 11
170.917647
 21
350.129811
 31
0.0
  0
LINE
  5
336
330
32A
100
AcDbEntity
  8
LC-001-100-D00-0
 62
     7
370
    50
100
AcDbLine
 10
170.917647
 20
350.129811
 30
0.0
 11
169.508942
 21
348.894067
 31
0.0
  0
LINE
  5
337
330
32A
100
AcDbEntity
  8
LC-001-100-D00-0
 62
     7
370
    50
100
AcDbLine
 10
169.508942
 20
348.894067
 30
0.0
 11
169.508942
 21
348.894067
 31
0.0
  0
LINE
  5
338
330
32A
100
AcDbEntity
  8
LC-001-100-D00-0
 62
     7
370
    50
100
AcDbLine
 10
169.508942
 20
348.894067
 30
0.0
 11
168.336411
 21
347.454721
 31
0.0
  0
LINE
  5
339
330
32A
100
AcDbEntity
  8
LC-001-100-D00-0
 62
     7
370
    50
100
AcDbLine
 10
168.336411
 20
347.454721
 30
0.0
 11
168.336411
 21
347.454721
 31
0.0
  0
LINE
  5
33A
330
32A
100
AcDbEntity
  8
LC-001-100-D00-0
 62
     7
370
    50
100
AcDbLine
 10
168.336411
 20
347.454721
 30
0.0
 11
167.42156
 21
345.823692
 31
0.0
  0
LINE
  5
33B
330
32A
100
AcDbEntity
  8
LC-001-100-D00-0
 62
     7
370
    50
100
AcDbLine
 10
167.42156
 20
345.823692
 30
0.0
 11
167.42156
 21
345.823692
 31
0.0
  0
LINE
  5
33C
330
32A
100
AcDbEntity
  8
LC-001-100-D00-0
 62
     7
370
    50
100
AcDbLine
 10
167.42156
 20
345.823692
 30
0.0
 11
166.653751
 21
343.759657
 31
0.0
  0
LINE
  5
33D
330
32A
100
AcDbEntity
  8
LC-001-100-D00-0
 62
     7
370
    50
100
AcDbLine
 10
166.653751
 20
343.759657
 30
0.0
 11
166.653751
 21
343.759657
 31
0.0
  0
LINE
  5
33E
330
32A
100
AcDbEntity
  8
LC-001-100-D00-0
 62
     7
370
    50
100
AcDbLine
 10
166.653751
 20
343.759657
 30
0.0
 11
166.537974
 21
342.180414
 31
0.0
  0
LINE
  5
33F
330
32A
100
AcDbEntity
  8
LC-001-100-D00-0
 62
     7
370
    50
100
AcDbLine
 10
166.537974
 20
342.180414
 30
0.0
 11
166.537974
 21
342.180414
 31
0.0
  0
LINE
  5
340
330
32A
100
AcDbEntity
  8
LC-001-100-D00-0
 62
     7
370
    50
100
AcDbLine
 10
166.537974
 20
342.180414
 30
0.0
 11
166.468324
 21
341.230353
 31
0.0
  0
ENDBLK
  5
32C
330
32A
100
AcDbEntity
  8
0
100
AcDbBlockEnd
  0
BLOCK
  5
358
330
357
100
AcDbEntity
  8
0
100
AcDbBlockBegin
  2
POLY25
 70
     0
 71
     0
 10
0.0
 20
0.0
 30
0.0
  3
POLY25
  1

  4
POLY25
  0
LINE
  5
35A
330
357
100
AcDbEntity
  8
LC-001-100-D00-0
 62
     7
370
    50
100
AcDbLine
 10
110.155593
 20
351.58403
 30
0.0
 11
110.155593
 21
351.58403
 31
0.0
  0
LINE
  5
35B
330
357
100
AcDbEntity
  8
LC-001-100-D00-0
 62
     7
370
    50
100
AcDbLine
 10
110.155593
 20
351.58403
 30
0.0
 11
110.141273
 21
351.615786
 31
0.0
  0
LINE
  5
35C
330
357
100
AcDbEntity
  8
LC-001-100-D00-0
 62
     7
370
    50
100
AcDbLine
 10
110.141273
 20
351.615786
 30
0.0
 11
110.141273
 21
351.615786
 31
0.0
  0
LINE
  5
35D
330
357
100
AcDbEntity
  8
LC-001-100-D00-0
 62
     7
370
    50
100
AcDbLine
 10
110.141273
 20
351.615786
 30
0.0
 11
110.057987
 21
351.800484
 31
0.0
  0
LINE
  5
35E
330
357
100
AcDbEntity
  8
LC-001-100-D00-0
 62
     7
370
    50
100
AcDbLine
 10
110.057987
 20
351.800484
 30
0.0
 11
110.057987
 21
351.800484
 31
0.0
  0
LINE
  5
35F
330
357
100
AcDbEntity
  8
LC-001-100-D00-0
 62
     7
370
    50
100
AcDbLine
 10
110.057987
 20
351.800484
 30
0.0
 11
110.01173
 21
352.024106
 31
0.0
  0
LINE
  5
360
330
357
100
AcDbEntity
  8
LC-001-100-D00-0
 62
     7
370
    50
100
AcDbLine
 10
110.01173
 20
352.024106
 30
0.0
 11
110.01173
 21
352.024106
 31
0.0
  0
LINE
  5
361
330
357
100
AcDbEntity
  8
LC-001-100-D00-0
 62
     7
370
    50
100
AcDbLine
 10
110.01173
 20
352.024106
 30
0.0
 11
110.009392
 21
352.211106
 31
0.0
  0
LINE
  5
362
330
357
100
AcDbEntity
  8
LC-001-100-D00-0
 62
     7
370
    50
100
AcDbLine
 10
110.009392
 20
352.211106
 30
0.0
 11
110.009392
 21
352.211106
 31
0.0
  0
LINE
  5
363
330
357
100
AcDbEntity
  8
LC-001-100-D00-0
 62
     7
370
    50
100
AcDbLine
 10
110.009392
 20
352.211106
 30
0.0
 11
110.009152
 21
352.230353
 31
0.0
  0
ENDBLK
  5
359
330
357
100
AcDbEntity
  8
0
100
AcDbBlockEnd
  0
BLOCK
  5
36C
330
36B
100
AcDbEntity
  8
0
100
AcDbBlockBegin
  2
KLON2
 70
     0
 71
     0
 10
0.0
 20
0.0
 30
0.0
  3
KLON2
  1

  4
KLON2
  0
LINE
  5
36E
330
36B
100
AcDbEntity
  8
LC-001-100-D00-0
 62
     7
370
    15
100
AcDbLine
 10
118.070531
 20
338.496571
 30
0.0
 11
117.116231
 21
340.494035
 31
0.0
  0
LINE
  5
36F
330
36B
100
AcDbEntity
  8
LC-001-100-D00-0
 62
     7
370
    15
100
AcDbLine
 10
117.116231
 20
340.494035
 30
0.0
 11
111.509721
 21
352.230353
 31
0.0
  0
ENDBLK
  5
36D
330
36B
100
AcDbEntity
  8
0
100
AcDbBlockEnd
  0
BLOCK
  5
374
330
373
100
AcDbEntity
  8
0
100
AcDbBlockBegin
  2
POLY26
 70
     0
 71
     0
 10
0.0
 20
0.0
 30
0.0
  3
POLY26
  1

  4
POLY26
  0
LINE
  5
376
330
373
100
AcDbEntity
  8
LC-001-100-D00-0
 62
     7
370
    50
100
AcDbLine
 10
127.020541
 20
278.230354
 30
0.0
 11
127.020541
 21
278.230354
 31
0.0
  0
LINE
  5
377
330
373
100
AcDbEntity
  8
LC-001-100-D00-0
 62
     7
370
    50
100
AcDbLine
 10
127.020541
 20
278.230354
 30
0.0
 11
126.179185
 21
278.303054
 31
0.0
  0
LINE
  5
378
330
373
100
AcDbEntity
  8
LC-001-100-D00-0
 62
     7
370
    50
100
AcDbLine
 10
126.179185
 20
278.303054
 30
0.0
 11
126.179185
 21
278.303054
 31
0.0
  0
LINE
  5
379
330
373
100
AcDbEntity
  8
LC-001-100-D00-0
 62
     7
370
    50
100
AcDbLine
 10
126.179185
 20
278.303054
 30
0.0
 11
124.381398
 21
278.458399
 31
0.0
  0
LINE
  5
37A
330
373
100
AcDbEntity
  8
LC-001-100-D00-0
 62
     7
370
    50
100
AcDbLine
 10
124.381398
 20
278.458399
 30
0.0
 11
124.381398
 21
278.458399
 31
0.0
  0
LINE
  5
37B
330
373
100
AcDbEntity
  8
LC-001-100-D00-0
 62
     7
370
    50
100
AcDbLine
 10
124.381398
 20
278.458399
 30
0.0
 11
122.20239
 21
279.599454
 31
0.0
  0
LINE
  5
37C
330
373
100
AcDbEntity
  8
LC-001-100-D00-0
 62
     7
370
    50
100
AcDbLine
 10
122.20239
 20
279.599454
 30
0.0
 11
122.20239
 21
279.599454
 31
0.0
  0
LINE
  5
37D
330
373
100
AcDbEntity
  8
LC-001-100-D00-0
 62
     7
370
    50
100
AcDbLine
 10
122.20239
 20
279.599454
 30
0.0
 11
120.343127
 21
281.287272
 31
0.0
  0
LINE
  5
37E
330
373
100
AcDbEntity
  8
LC-001-100-D00-0
 62
     7
370
    50
100
AcDbLine
 10
120.343127
 20
281.287272
 30
0.0
 11
120.343127
 21
281.287272
 31
0.0
  0
LINE
  5
37F
330
373
100
AcDbEntity
  8
LC-001-100-D00-0
 62
     7
370
    50
100
AcDbLine
 10
120.343127
 20
281.287272
 30
0.0
 11
118.997041
 21
283.452489
 31
0.0
  0
LINE
  5
380
330
373
100
AcDbEntity
  8
LC-001-100-D00-0
 62
     7
370
    50
100
AcDbLine
 10
118.997041
 20
283.452489
 30
0.0
 11
118.997041
 21
283.452489
 31
0.0
  0
LINE
  5
381
330
373
100
AcDbEntity
  8
LC-001-100-D00-0
 62
     7
370
    50
100
AcDbLine
 10
118.997041
 20
283.452489
 30
0.0
 11
118.533192
 21
285.492084
 31
0.0
  0
LINE
  5
382
330
373
100
AcDbEntity
  8
LC-001-100-D00-0
 62
     7
370
    50
100
AcDbLine
 10
118.533192
 20
285.492084
 30
0.0
 11
118.533192
 21
285.492084
 31
0.0
  0
LINE
  5
383
330
373
100
AcDbEntity
  8
LC-001-100-D00-0
 62
     7
370
    50
100
AcDbLine
 10
118.533192
 20
285.492084
 30
0.0
 11
118.515497
 21
286.586665
 31
0.0
  0
LINE
  5
384
330
373
100
AcDbEntity
  8
LC-001-100-D00-0
 62
     7
370
    50
100
AcDbLine
 10
118.515497
 20
286.586665
 30
0.0
 11
118.515497
 21
286.586665
 31
0.0
  0
LINE
  5
385
330
373
100
AcDbEntity
  8
LC-001-100-D00-0
 62
     7
370
    50
100
AcDbLine
 10
118.515497
 20
286.586665
 30
0.0
 11
118.513174
 21
286.730354
 31
0.0
  0
ENDBLK
  5
375
330
373
100
AcDbEntity
  8
0
100
AcDbBlockEnd
  0
BLOCK
  5
389
330
388
100
AcDbEntity
  8
0
100
AcDbBlockBegin
  2
POLY27
 70
     0
 71
     0
 10
0.0
 20
0.0
 30
0.0
  3
POLY27
  1

  4
POLY27
  0
LINE
  5
38B
330
388
100
AcDbEntity
  8
LC-001-100-D00-0
 62
     7
370
    50
100
AcDbLine
 10
176.477676
 20
286.730354
 30
0.0
 11
176.477676
 21
286.730354
 31
0.0
  0
LINE
  5
38C
330
388
100
AcDbEntity
  8
LC-001-100-D00-0
 62
     7
370
    50
100
AcDbLine
 10
176.477676
 20
286.730354
 30
0.0
 11
176.426939
 21
286.033416
 31
0.0
  0
LINE
  5
38D
330
388
100
AcDbEntity
  8
LC-001-100-D00-0
 62
     7
370
    50
100
AcDbLine
 10
176.426939
 20
286.033416
 30
0.0
 11
176.426939
 21
286.033416
 31
0.0
  0
LINE
  5
38E
330
388
100
AcDbEntity
  8
LC-001-100-D00-0
 62
     7
370
    50
100
AcDbLine
 10
176.426939
 20
286.033416
 30
0.0
 11
176.306855
 21
284.383932
 31
0.0
  0
LINE
  5
38F
330
388
100
AcDbEntity
  8
LC-001-100-D00-0
 62
     7
370
    50
100
AcDbLine
 10
176.306855
 20
284.383932
 30
0.0
 11
176.306855
 21
284.383932
 31
0.0
  0
LINE
  5
390
330
388
100
AcDbEntity
  8
LC-001-100-D00-0
 62
     7
370
    50
100
AcDbLine
 10
176.306855
 20
284.383932
 30
0.0
 11
175.197152
 21
281.955555
 31
0.0
  0
LINE
  5
391
330
388
100
AcDbEntity
  8
LC-001-100-D00-0
 62
     7
370
    50
100
AcDbLine
 10
175.197152
 20
281.955555
 30
0.0
 11
175.197152
 21
281.955555
 31
0.0
  0
LINE
  5
392
330
388
100
AcDbEntity
  8
LC-001-100-D00-0
 62
     7
370
    50
100
AcDbLine
 10
175.197152
 20
281.955555
 30
0.0
 11
173.222995
 21
279.847305
 31
0.0
  0
LINE
  5
393
330
388
100
AcDbEntity
  8
LC-001-100-D00-0
 62
     7
370
    50
100
AcDbLine
 10
173.222995
 20
279.847305
 30
0.0
 11
173.222995
 21
279.847305
 31
0.0
  0
LINE
  5
394
330
388
100
AcDbEntity
  8
LC-001-100-D00-0
 62
     7
370
    50
100
AcDbLine
 10
173.222995
 20
279.847305
 30
0.0
 11
170.701384
 21
278.480026
 31
0.0
  0
LINE
  5
395
330
388
100
AcDbEntity
  8
LC-001-100-D00-0
 62
     7
370
    50
100
AcDbLine
 10
170.701384
 20
278.480026
 30
0.0
 11
170.701384
 21
278.480026
 31
0.0
  0
LINE
  5
396
330
388
100
AcDbEntity
  8
LC-001-100-D00-0
 62
     7
370
    50
100
AcDbLine
 10
170.701384
 20
278.480026
 30
0.0
 11
168.858359
 21
278.311538
 31
0.0
  0
LINE
  5
397
330
388
100
AcDbEntity
  8
LC-001-100-D00-0
 62
     7
370
    50
100
AcDbLine
 10
168.858359
 20
278.311538
 30
0.0
 11
168.858359
 21
278.311538
 31
0.0
  0
LINE
  5
398
330
388
100
AcDbEntity
  8
LC-001-100-D00-0
 62
     7
370
    50
100
AcDbLine
 10
168.858359
 20
278.311538
 30
0.0
 11
167.970309
 21
278.230354
 31
0.0
  0
ENDBLK
  5
38A
330
388
100
AcDbEntity
  8
0
100
AcDbBlockEnd
  0
BLOCK
  5
39D
330
39C
100
AcDbEntity
  8
0
100
AcDbBlockBegin
  2
KLON3
 70
     0
 71
     0
 10
0.0
 20
0.0
 30
0.0
  3
KLON3
  1

  4
KLON3
  0
LINE
  5
39F
330
39C
100
AcDbEntity
  8
LC-001-100-D00-0
 62
     7
370
    15
100
AcDbLine
 10
183.481129
 20
352.230353
 30
0.0
 11
177.87462
 21
340.494035
 31
0.0
  0
LINE
  5
3A0
330
39C
100
AcDbEntity
  8
LC-001-100-D00-0
 62
     7
370
    15
100
AcDbLine
 10
177.87462
 20
340.494035
 30
0.0
 11
176.920318
 21
338.496571
 31
0.0
  0
ENDBLK
  5
39E
330
39C
100
AcDbEntity
  8
0
100
AcDbBlockEnd
  0
BLOCK
  5
3A7
330
3A6
100
AcDbEntity
  8
0
100
AcDbBlockBegin
  2
POLY28
 70
     0
 71
     0
 10
0.0
 20
0.0
 30
0.0
  3
POLY28
  1

  4
POLY28
  0
LINE
  5
3A9
330
3A6
100
AcDbEntity
  8
LC-001-100-D00-0
 62
     7
370
    50
100
AcDbLine
 10
184.981701
 20
352.230353
 30
0.0
 11
184.981701
 21
352.230353
 31
0.0
  0
LINE
  5
3AA
330
3A6
100
AcDbEntity
  8
LC-001-100-D00-0
 62
     7
370
    50
100
AcDbLine
 10
184.981701
 20
352.230353
 30
0.0
 11
184.977536
 21
352.146784
 31
0.0
  0
LINE
  5
3AB
330
3A6
100
AcDbEntity
  8
LC-001-100-D00-0
 62
     7
370
    50
100
AcDbLine
 10
184.977536
 20
352.146784
 30
0.0
 11
184.977536
 21
352.146784
 31
0.0
  0
LINE
  5
3AC
330
3A6
100
AcDbEntity
  8
LC-001-100-D00-0
 62
     7
370
    50
100
AcDbLine
 10
184.977536
 20
352.146784
 30
0.0
 11
184.968137
 21
351.958206
 31
0.0
  0
LINE
  5
3AD
330
3A6
100
AcDbEntity
  8
LC-001-100-D00-0
 62
     7
370
    50
100
AcDbLine
 10
184.968137
 20
351.958206
 30
0.0
 11
184.968137
 21
351.958206
 31
0.0
  0
LINE
  5
3AE
330
3A6
100
AcDbEntity
  8
LC-001-100-D00-0
 62
     7
370
    50
100
AcDbLine
 10
184.968137
 20
351.958206
 30
0.0
 11
184.906295
 21
351.741557
 31
0.0
  0
LINE
  5
3AF
330
3A6
100
AcDbEntity
  8
LC-001-100-D00-0
 62
     7
370
    50
100
AcDbLine
 10
184.906295
 20
351.741557
 30
0.0
 11
184.906295
 21
351.741557
 31
0.0
  0
LINE
  5
3B0
330
3A6
100
AcDbEntity
  8
LC-001-100-D00-0
 62
     7
370
    50
100
AcDbLine
 10
184.906295
 20
351.741557
 30
0.0
 11
184.849208
 21
351.614963
 31
0.0
  0
LINE
  5
3B1
330
3A6
100
AcDbEntity
  8
LC-001-100-D00-0
 62
     7
370
    50
100
AcDbLine
 10
184.849208
 20
351.614963
 30
0.0
 11
184.849208
 21
351.614963
 31
0.0
  0
LINE
  5
3B2
330
3A6
100
AcDbEntity
  8
LC-001-100-D00-0
 62
     7
370
    50
100
AcDbLine
 10
184.849208
 20
351.614963
 30
0.0
 11
184.835259
 21
351.58403
 31
0.0
  0
ENDBLK
  5
3A8
330
3A6
100
AcDbEntity
  8
0
100
AcDbBlockEnd
  0
BLOCK
  5
3B5
330
3B4
100
AcDbEntity
  8
0
100
AcDbBlockBegin
  2
KLON4
 70
     0
 71
     0
 10
0.0
 20
0.0
 30
0.0
  3
KLON4
  1

  4
KLON4
  0
LINE
  5
3B7
330
3B4
100
AcDbEntity
  8
LC-001-100-D00-0
 62
     7
370
    15
100
AcDbLine
 10
177.97855
 20
337.230353
 30
0.0
 11
178.977338
 21
339.321023
 31
0.0
  0
LINE
  5
3B8
330
3B4
100
AcDbEntity
  8
LC-001-100-D00-0
 62
     7
370
    15
100
AcDbLine
 10
178.977338
 20
339.321023
 30
0.0
 11
184.835259
 21
351.58403
 31
0.0
  0
ENDBLK
  5
3B6
330
3B4
100
AcDbEntity
  8
0
100
AcDbBlockEnd
  0
BLOCK
  5
3BC
330
3BB
100
AcDbEntity
  8
0
100
AcDbBlockBegin
  2
POLY29
 70
     0
 71
     0
 10
0.0
 20
0.0
 30
0.0
  3
POLY29
  1

  4
POLY29
  0
LINE
  5
3BE
330
3BB
100
AcDbEntity
  8
LC-001-100-D00-0
 62
     7
370
    50
100
AcDbLine
 10
167.970309
 20
276.730354
 30
0.0
 11
167.970309
 21
276.730354
 31
0.0
  0
LINE
  5
3BF
330
3BB
100
AcDbEntity
  8
LC-001-100-D00-0
 62
     7
370
    50
100
AcDbLine
 10
167.970309
 20
276.730354
 30
0.0
 11
168.705046
 21
276.778406
 31
0.0
  0
LINE
  5
3C0
330
3BB
100
AcDbEntity
  8
LC-001-100-D00-0
 62
     7
370
    50
100
AcDbLine
 10
168.705046
 20
276.778406
 30
0.0
 11
168.705046
 21
276.778406
 31
0.0
  0
LINE
  5
3C1
330
3BB
100
AcDbEntity
  8
LC-001-100-D00-0
 62
     7
370
    50
100
AcDbLine
 10
168.705046
 20
276.778406
 30
0.0
 11
170.563279
 21
276.899937
 31
0.0
  0
LINE
  5
3C2
330
3BB
100
AcDbEntity
  8
LC-001-100-D00-0
 62
     7
370
    50
100
AcDbLine
 10
170.563279
 20
276.899937
 30
0.0
 11
170.563279
 21
276.899937
 31
0.0
  0
LINE
  5
3C3
330
3BB
100
AcDbEntity
  8
LC-001-100-D00-0
 62
     7
370
    50
100
AcDbLine
 10
170.563279
 20
276.899937
 30
0.0
 11
173.373425
 21
278.095298
 31
0.0
  0
LINE
  5
3C4
330
3BB
100
AcDbEntity
  8
LC-001-100-D00-0
 62
     7
370
    50
100
AcDbLine
 10
173.373425
 20
278.095298
 30
0.0
 11
173.373425
 21
278.095298
 31
0.0
  0
LINE
  5
3C5
330
3BB
100
AcDbEntity
  8
LC-001-100-D00-0
 62
     7
370
    50
100
AcDbLine
 10
173.373425
 20
278.095298
 30
0.0
 11
175.933386
 21
280.3587
 31
0.0
  0
LINE
  5
3C6
330
3BB
100
AcDbEntity
  8
LC-001-100-D00-0
 62
     7
370
    50
100
AcDbLine
 10
175.933386
 20
280.3587
 30
0.0
 11
175.933386
 21
280.3587
 31
0.0
  0
LINE
  5
3C7
330
3BB
100
AcDbEntity
  8
LC-001-100-D00-0
 62
     7
370
    50
100
AcDbLine
 10
175.933386
 20
280.3587
 30
0.0
 11
177.594591
 21
283.352999
 31
0.0
  0
LINE
  5
3C8
330
3BB
100
AcDbEntity
  8
LC-001-100-D00-0
 62
     7
370
    50
100
AcDbLine
 10
177.594591
 20
283.352999
 30
0.0
 11
177.594591
 21
283.352999
 31
0.0
  0
LINE
  5
3C9
330
3BB
100
AcDbEntity
  8
LC-001-100-D00-0
 62
     7
370
    50
100
AcDbLine
 10
177.594591
 20
283.352999
 30
0.0
 11
177.978398
 21
285.609656
 31
0.0
  0
LINE
  5
3CA
330
3BB
100
AcDbEntity
  8
LC-001-100-D00-0
 62
     7
370
    50
100
AcDbLine
 10
177.978398
 20
285.609656
 30
0.0
 11
177.978398
 21
285.609656
 31
0.0
  0
LINE
  5
3CB
330
3BB
100
AcDbEntity
  8
LC-001-100-D00-0
 62
     7
370
    50
100
AcDbLine
 10
177.978398
 20
285.609656
 30
0.0
 11
177.97855
 21
286.729487
 31
0.0
  0
LINE
  5
3CC
330
3BB
100
AcDbEntity
  8
LC-001-100-D00-0
 62
     7
370
    50
100
AcDbLine
 10
177.97855
 20
286.729487
 30
0.0
 11
177.97855
 21
286.729487
 31
0.0
  0
LINE
  5
3CD
330
3BB
100
AcDbEntity
  8
LC-001-100-D00-0
 62
     7
370
    50
100
AcDbLine
 10
177.97855
 20
286.729487
 30
0.0
 11
177.97855
 21
286.730354
 31
0.0
  0
ENDBLK
  5
3BD
330
3BB
100
AcDbEntity
  8
0
100
AcDbBlockEnd
  0
BLOCK
  5
3D1
330
3D0
100
AcDbEntity
  8
0
100
AcDbBlockBegin
  2
POLY30
 70
     0
 71
     0
 10
0.0
 20
0.0
 30
0.0
  3
POLY30
  1

  4
POLY30
  0
LINE
  5
3D3
330
3D0
100
AcDbEntity
  8
LC-001-100-D00-0
 62
     7
370
    50
100
AcDbLine
 10
117.012299
 20
286.730354
 30
0.0
 11
117.012299
 21
286.730354
 31
0.0
  0
LINE
  5
3D4
330
3D0
100
AcDbEntity
  8
LC-001-100-D00-0
 62
     7
370
    50
100
AcDbLine
 10
117.012299
 20
286.730354
 30
0.0
 11
117.041388
 21
286.162083
 31
0.0
  0
LINE
  5
3D5
330
3D0
100
AcDbEntity
  8
LC-001-100-D00-0
 62
     7
370
    50
100
AcDbLine
 10
117.041388
 20
286.162083
 30
0.0
 11
117.041388
 21
286.162083
 31
0.0
  0
LINE
  5
3D6
330
3D0
100
AcDbEntity
  8
LC-001-100-D00-0
 62
     7
370
    50
100
AcDbLine
 10
117.041388
 20
286.162083
 30
0.0
 11
117.127767
 21
284.474631
 31
0.0
  0
LINE
  5
3D7
330
3D0
100
AcDbEntity
  8
LC-001-100-D00-0
 62
     7
370
    50
100
AcDbLine
 10
117.127767
 20
284.474631
 30
0.0
 11
117.127767
 21
284.474631
 31
0.0
  0
LINE
  5
3D8
330
3D0
100
AcDbEntity
  8
LC-001-100-D00-0
 62
     7
370
    50
100
AcDbLine
 10
117.127767
 20
284.474631
 30
0.0
 11
117.973166
 21
282.175759
 31
0.0
  0
LINE
  5
3D9
330
3D0
100
AcDbEntity
  8
LC-001-100-D00-0
 62
     7
370
    50
100
AcDbLine
 10
117.973166
 20
282.175759
 30
0.0
 11
117.973166
 21
282.175759
 31
0.0
  0
LINE
  5
3DA
330
3D0
100
AcDbEntity
  8
LC-001-100-D00-0
 62
     7
370
    50
100
AcDbLine
 10
117.973166
 20
282.175759
 30
0.0
 11
119.666137
 21
279.757889
 31
0.0
  0
LINE
  5
3DB
330
3D0
100
AcDbEntity
  8
LC-001-100-D00-0
 62
     7
370
    50
100
AcDbLine
 10
119.666137
 20
279.757889
 30
0.0
 11
119.666137
 21
279.757889
 31
0.0
  0
LINE
  5
3DC
330
3D0
100
AcDbEntity
  8
LC-001-100-D00-0
 62
     7
370
    50
100
AcDbLine
 10
119.666137
 20
279.757889
 30
0.0
 11
121.9909
 21
277.872086
 31
0.0
  0
LINE
  5
3DD
330
3D0
100
AcDbEntity
  8
LC-001-100-D00-0
 62
     7
370
    50
100
AcDbLine
 10
121.9909
 20
277.872086
 30
0.0
 11
121.9909
 21
277.872086
 31
0.0
  0
LINE
  5
3DE
330
3D0
100
AcDbEntity
  8
LC-001-100-D00-0
 62
     7
370
    50
100
AcDbLine
 10
121.9909
 20
277.872086
 30
0.0
 11
124.710544
 21
276.854098
 31
0.0
  0
LINE
  5
3DF
330
3D0
100
AcDbEntity
  8
LC-001-100-D00-0
 62
     7
370
    50
100
AcDbLine
 10
124.710544
 20
276.854098
 30
0.0
 11
124.710544
 21
276.854098
 31
0.0
  0
LINE
  5
3E0
330
3D0
100
AcDbEntity
  8
LC-001-100-D00-0
 62
     7
370
    50
100
AcDbLine
 10
124.710544
 20
276.854098
 30
0.0
 11
126.425933
 21
276.762206
 31
0.0
  0
LINE
  5
3E1
330
3D0
100
AcDbEntity
  8
LC-001-100-D00-0
 62
     7
370
    50
100
AcDbLine
 10
126.425933
 20
276.762206
 30
0.0
 11
126.425933
 21
276.762206
 31
0.0
  0
LINE
  5
3E2
330
3D0
100
AcDbEntity
  8
LC-001-100-D00-0
 62
     7
370
    50
100
AcDbLine
 10
126.425933
 20
276.762206
 30
0.0
 11
127.020541
 21
276.730354
 31
0.0
  0
ENDBLK
  5
3D2
330
3D0
100
AcDbEntity
  8
0
100
AcDbBlockEnd
  0
BLOCK
  5
3E6
330
3E5
100
AcDbEntity
  8
0
100
AcDbBlockBegin
  2
KLON5
 70
     0
 71
     0
 10
0.0
 20
0.0
 30
0.0
  3
KLON5
  1

  4
KLON5
  0
LINE
  5
3E8
330
3E5
100
AcDbEntity
  8
LC-001-100-D00-0
 62
     7
370
    15
100
AcDbLine
 10
110.155593
 20
351.58403
 30
0.0
 11
116.013511
 21
339.321023
 31
0.0
  0
LINE
  5
3E9
330
3E5
100
AcDbEntity
  8
LC-001-100-D00-0
 62
     7
370
    15
100
AcDbLine
 10
116.013511
 20
339.321023
 30
0.0
 11
117.012299
 21
337.230353
 31
0.0
  0
ENDBLK
  5
3E7
330
3E5
100
AcDbEntity
  8
0
100
AcDbBlockEnd
  0
BLOCK
  5
3F5
330
3F4
100
AcDbEntity
  8
0
100
AcDbBlockBegin
  2
POLY31
 70
     0
 71
     0
 10
0.0
 20
0.0
 30
0.0
  3
POLY31
  1

  4
POLY31
  0
LINE
  5
3F7
330
3F4
100
AcDbEntity
  8
LC-001-100-D00-0
 62
     7
370
    50
100
AcDbLine
 10
183.370208
 20
352.230353
 30
0.0
 11
183.370208
 21
352.230353
 31
0.0
  0
LINE
  5
3F8
330
3F4
100
AcDbEntity
  8
LC-001-100-D00-0
 62
     7
370
    50
100
AcDbLine
 10
183.370208
 20
352.230353
 30
0.0
 11
181.693398
 21
348.731555
 31
0.0
  0
LINE
  5
3F9
330
3F4
100
AcDbEntity
  8
LC-001-100-D00-0
 62
     7
370
    50
100
AcDbLine
 10
181.693398
 20
348.731555
 30
0.0
 11
181.693398
 21
348.731555
 31
0.0
  0
LINE
  5
3FA
330
3F4
100
AcDbEntity
  8
LC-001-100-D00-0
 62
     7
370
    50
100
AcDbLine
 10
181.693398
 20
348.731555
 30
0.0
 11
179.499182
 21
344.153148
 31
0.0
  0
LINE
  5
3FB
330
3F4
100
AcDbEntity
  8
LC-001-100-D00-0
 62
     7
370
    50
100
AcDbLine
 10
179.499182
 20
344.153148
 30
0.0
 11
179.499182
 21
344.153148
 31
0.0
  0
LINE
  5
3FC
330
3F4
100
AcDbEntity
  8
LC-001-100-D00-0
 62
     7
370
    50
100
AcDbLine
 10
179.499182
 20
344.153148
 30
0.0
 11
177.302538
 21
339.575905
 31
0.0
  0
LINE
  5
3FD
330
3F4
100
AcDbEntity
  8
LC-001-100-D00-0
 62
     7
370
    50
100
AcDbLine
 10
177.302538
 20
339.575905
 30
0.0
 11
177.302538
 21
339.575905
 31
0.0
  0
LINE
  5
3FE
330
3F4
100
AcDbEntity
  8
LC-001-100-D00-0
 62
     7
370
    50
100
AcDbLine
 10
177.302538
 20
339.575905
 30
0.0
 11
176.78456
 21
338.496571
 31
0.0
  0
ENDBLK
  5
3F6
330
3F4
100
AcDbEntity
  8
0
100
AcDbBlockEnd
  0
BLOCK
  5
405
330
404
100
AcDbEntity
  8
0
100
AcDbBlockBegin
  2
POLY32
 70
     0
 71
     0
 10
0.0
 20
0.0
 30
0.0
  3
POLY32
  1

  4
POLY32
  0
LINE
  5
407
330
404
100
AcDbEntity
  8
LC-001-100-D00-0
 62
     7
370
    50
100
AcDbLine
 10
118.206292
 20
338.496571
 30
0.0
 11
118.206292
 21
338.496571
 31
0.0
  0
LINE
  5
408
330
404
100
AcDbEntity
  8
LC-001-100-D00-0
 62
     7
370
    50
100
AcDbLine
 10
118.206292
 20
338.496571
 30
0.0
 11
117.688313
 21
339.575905
 31
0.0
  0
LINE
  5
409
330
404
100
AcDbEntity
  8
LC-001-100-D00-0
 62
     7
370
    50
100
AcDbLine
 10
117.688313
 20
339.575905
 30
0.0
 11
117.688313
 21
339.575905
 31
0.0
  0
LINE
  5
40A
330
404
100
AcDbEntity
  8
LC-001-100-D00-0
 62
     7
370
    50
100
AcDbLine
 10
117.688313
 20
339.575905
 30
0.0
 11
115.49167
 21
344.153148
 31
0.0
  0
LINE
  5
40B
330
404
100
AcDbEntity
  8
LC-001-100-D00-0
 62
     7
370
    50
100
AcDbLine
 10
115.49167
 20
344.153148
 30
0.0
 11
115.49167
 21
344.153148
 31
0.0
  0
LINE
  5
40C
330
404
100
AcDbEntity
  8
LC-001-100-D00-0
 62
     7
370
    50
100
AcDbLine
 10
115.49167
 20
344.153148
 30
0.0
 11
113.297453
 21
348.731555
 31
0.0
  0
LINE
  5
40D
330
404
100
AcDbEntity
  8
LC-001-100-D00-0
 62
     7
370
    50
100
AcDbLine
 10
113.297453
 20
348.731555
 30
0.0
 11
113.297453
 21
348.731555
 31
0.0
  0
LINE
  5
40E
330
404
100
AcDbEntity
  8
LC-001-100-D00-0
 62
     7
370
    50
100
AcDbLine
 10
113.297453
 20
348.731555
 30
0.0
 11
111.620642
 21
352.230353
 31
0.0
  0
ENDBLK
  5
406
330
404
100
AcDbEntity
  8
0
100
AcDbBlockEnd
  0
BLOCK
  5
41B
330
41A
100
AcDbEntity
  8
0
100
AcDbBlockBegin
  2
POLY33
 70
     0
 71
     0
 10
0.0
 20
0.0
 30
0.0
  3
POLY33
  1

  4
POLY33
  0
LINE
  5
41D
330
41A
100
AcDbEntity
  8
LC-001-100-D00-0
 62
     7
370
    50
100
AcDbLine
 10
198.46357
 20
336.930355
 30
0.0
 11
198.46357
 21
336.930355
 31
0.0
  0
LINE
  5
41E
330
41A
100
AcDbEntity
  8
LC-001-100-D00-0
 62
     7
370
    50
100
AcDbLine
 10
198.46357
 20
336.930355
 30
0.0
 11
198.431816
 21
336.860411
 31
0.0
  0
LINE
  5
41F
330
41A
100
AcDbEntity
  8
LC-001-100-D00-0
 62
     7
370
    50
100
AcDbLine
 10
198.431816
 20
336.860411
 30
0.0
 11
198.431816
 21
336.860411
 31
0.0
  0
LINE
  5
420
330
41A
100
AcDbEntity
  8
LC-001-100-D00-0
 62
     7
370
    50
100
AcDbLine
 10
198.431816
 20
336.860411
 30
0.0
 11
198.372934
 21
336.730713
 31
0.0
  0
LINE
  5
421
330
41A
100
AcDbEntity
  8
LC-001-100-D00-0
 62
     7
370
    50
100
AcDbLine
 10
198.372934
 20
336.730713
 30
0.0
 11
198.372934
 21
336.730713
 31
0.0
  0
LINE
  5
422
330
41A
100
AcDbEntity
  8
LC-001-100-D00-0
 62
     7
370
    50
100
AcDbLine
 10
198.372934
 20
336.730713
 30
0.0
 11
197.943252
 21
335.760486
 31
0.0
  0
LINE
  5
423
330
41A
100
AcDbEntity
  8
LC-001-100-D00-0
 62
     7
370
    50
100
AcDbLine
 10
197.943252
 20
335.760486
 30
0.0
 11
197.943252
 21
335.760486
 31
0.0
  0
LINE
  5
424
330
41A
100
AcDbEntity
  8
LC-001-100-D00-0
 62
     7
370
    50
100
AcDbLine
 10
197.943252
 20
335.760486
 30
0.0
 11
197.351575
 21
334.364607
 31
0.0
  0
LINE
  5
425
330
41A
100
AcDbEntity
  8
LC-001-100-D00-0
 62
     7
370
    50
100
AcDbLine
 10
197.351575
 20
334.364607
 30
0.0
 11
197.351575
 21
334.364607
 31
0.0
  0
LINE
  5
426
330
41A
100
AcDbEntity
  8
LC-001-100-D00-0
 62
     7
370
    50
100
AcDbLine
 10
197.351575
 20
334.364607
 30
0.0
 11
196.589305
 21
332.441754
 31
0.0
  0
LINE
  5
427
330
41A
100
AcDbEntity
  8
LC-001-100-D00-0
 62
     7
370
    50
100
AcDbLine
 10
196.589305
 20
332.441754
 30
0.0
 11
196.589305
 21
332.441754
 31
0.0
  0
LINE
  5
428
330
41A
100
AcDbEntity
  8
LC-001-100-D00-0
 62
     7
370
    50
100
AcDbLine
 10
196.589305
 20
332.441754
 30
0.0
 11
195.714992
 21
330.003033
 31
0.0
  0
LINE
  5
429
330
41A
100
AcDbEntity
  8
LC-001-100-D00-0
 62
     7
370
    50
100
AcDbLine
 10
195.714992
 20
330.003033
 30
0.0
 11
195.714992
 21
330.003033
 31
0.0
  0
LINE
  5
42A
330
41A
100
AcDbEntity
  8
LC-001-100-D00-0
 62
     7
370
    50
100
AcDbLine
 10
195.714992
 20
330.003033
 30
0.0
 11
194.79993
 21
327.0426
 31
0.0
  0
LINE
  5
42B
330
41A
100
AcDbEntity
  8
LC-001-100-D00-0
 62
     7
370
    50
100
AcDbLine
 10
194.79993
 20
327.0426
 30
0.0
 11
194.79993
 21
327.0426
 31
0.0
  0
LINE
  5
42C
330
41A
100
AcDbEntity
  8
LC-001-100-D00-0
 62
     7
370
    50
100
AcDbLine
 10
194.79993
 20
327.0426
 30
0.0
 11
193.961083
 21
323.633346
 31
0.0
  0
LINE
  5
42D
330
41A
100
AcDbEntity
  8
LC-001-100-D00-0
 62
     7
370
    50
100
AcDbLine
 10
193.961083
 20
323.633346
 30
0.0
 11
193.961083
 21
323.633346
 31
0.0
  0
LINE
  5
42E
330
41A
100
AcDbEntity
  8
LC-001-100-D00-0
 62
     7
370
    50
100
AcDbLine
 10
193.961083
 20
323.633346
 30
0.0
 11
193.313355
 21
319.861077
 31
0.0
  0
LINE
  5
42F
330
41A
100
AcDbEntity
  8
LC-001-100-D00-0
 62
     7
370
    50
100
AcDbLine
 10
193.313355
 20
319.861077
 30
0.0
 11
193.313355
 21
319.861077
 31
0.0
  0
LINE
  5
430
330
41A
100
AcDbEntity
  8
LC-001-100-D00-0
 62
     7
370
    50
100
AcDbLine
 10
193.313355
 20
319.861077
 30
0.0
 11
193.024983
 21
316.573808
 31
0.0
  0
LINE
  5
431
330
41A
100
AcDbEntity
  8
LC-001-100-D00-0
 62
     7
370
    50
100
AcDbLine
 10
193.024983
 20
316.573808
 30
0.0
 11
193.024983
 21
316.573808
 31
0.0
  0
LINE
  5
432
330
41A
100
AcDbEntity
  8
LC-001-100-D00-0
 62
     7
370
    50
100
AcDbLine
 10
193.024983
 20
316.573808
 30
0.0
 11
192.957461
 21
313.370875
 31
0.0
  0
LINE
  5
433
330
41A
100
AcDbEntity
  8
LC-001-100-D00-0
 62
     7
370
    50
100
AcDbLine
 10
192.957461
 20
313.370875
 30
0.0
 11
192.957461
 21
313.370875
 31
0.0
  0
LINE
  5
434
330
41A
100
AcDbEntity
  8
LC-001-100-D00-0
 62
     7
370
    50
100
AcDbLine
 10
192.957461
 20
313.370875
 30
0.0
 11
193.080136
 21
310.294217
 31
0.0
  0
LINE
  5
435
330
41A
100
AcDbEntity
  8
LC-001-100-D00-0
 62
     7
370
    50
100
AcDbLine
 10
193.080136
 20
310.294217
 30
0.0
 11
193.080136
 21
310.294217
 31
0.0
  0
LINE
  5
436
330
41A
100
AcDbEntity
  8
LC-001-100-D00-0
 62
     7
370
    50
100
AcDbLine
 10
193.080136
 20
310.294217
 30
0.0
 11
193.50068
 21
306.769013
 31
0.0
  0
LINE
  5
437
330
41A
100
AcDbEntity
  8
LC-001-100-D00-0
 62
     7
370
    50
100
AcDbLine
 10
193.50068
 20
306.769013
 30
0.0
 11
193.50068
 21
306.769013
 31
0.0
  0
LINE
  5
438
330
41A
100
AcDbEntity
  8
LC-001-100-D00-0
 62
     7
370
    50
100
AcDbLine
 10
193.50068
 20
306.769013
 30
0.0
 11
194.143555
 21
303.433658
 31
0.0
  0
LINE
  5
439
330
41A
100
AcDbEntity
  8
LC-001-100-D00-0
 62
     7
370
    50
100
AcDbLine
 10
194.143555
 20
303.433658
 30
0.0
 11
194.143555
 21
303.433658
 31
0.0
  0
LINE
  5
43A
330
41A
100
AcDbEntity
  8
LC-001-100-D00-0
 62
     7
370
    50
100
AcDbLine
 10
194.143555
 20
303.433658
 30
0.0
 11
195.016893
 21
300.026826
 31
0.0
  0
LINE
  5
43B
330
41A
100
AcDbEntity
  8
LC-001-100-D00-0
 62
     7
370
    50
100
AcDbLine
 10
195.016893
 20
300.026826
 30
0.0
 11
195.016893
 21
300.026826
 31
0.0
  0
LINE
  5
43C
330
41A
100
AcDbEntity
  8
LC-001-100-D00-0
 62
     7
370
    50
100
AcDbLine
 10
195.016893
 20
300.026826
 30
0.0
 11
195.68102
 21
298.043741
 31
0.0
  0
LINE
  5
43D
330
41A
100
AcDbEntity
  8
LC-001-100-D00-0
 62
     7
370
    50
100
AcDbLine
 10
195.68102
 20
298.043741
 30
0.0
 11
195.68102
 21
298.043741
 31
0.0
  0
LINE
  5
43E
330
41A
100
AcDbEntity
  8
LC-001-100-D00-0
 62
     7
370
    50
100
AcDbLine
 10
195.68102
 20
298.043741
 30
0.0
 11
196.058232
 21
296.917384
 31
0.0
  0
ENDBLK
  5
41C
330
41A
100
AcDbEntity
  8
0
100
AcDbBlockEnd
  0
BLOCK
  5
441
330
440
100
AcDbEntity
  8
0
100
AcDbBlockBegin
  2
POLY34
 70
     0
 71
     0
 10
0.0
 20
0.0
 30
0.0
  3
POLY34
  1

  4
POLY34
  0
LINE
  5
443
330
440
100
AcDbEntity
  8
LC-001-100-D00-0
 62
     7
370
    50
100
AcDbLine
 10
196.058232
 20
296.917384
 30
0.0
 11
196.058232
 21
296.917384
 31
0.0
  0
LINE
  5
444
330
440
100
AcDbEntity
  8
LC-001-100-D00-0
 62
     7
370
    50
100
AcDbLine
 10
196.058232
 20
296.917384
 30
0.0
 11
196.27885
 21
296.305692
 31
0.0
  0
LINE
  5
445
330
440
100
AcDbEntity
  8
LC-001-100-D00-0
 62
     7
370
    50
100
AcDbLine
 10
196.27885
 20
296.305692
 30
0.0
 11
196.27885
 21
296.305692
 31
0.0
  0
LINE
  5
446
330
440
100
AcDbEntity
  8
LC-001-100-D00-0
 62
     7
370
    50
100
AcDbLine
 10
196.27885
 20
296.305692
 30
0.0
 11
196.803496
 21
294.851047
 31
0.0
  0
LINE
  5
447
330
440
100
AcDbEntity
  8
LC-001-100-D00-0
 62
     7
370
    50
100
AcDbLine
 10
196.803496
 20
294.851047
 30
0.0
 11
196.803496
 21
294.851047
 31
0.0
  0
LINE
  5
448
330
440
100
AcDbEntity
  8
LC-001-100-D00-0
 62
     7
370
    50
100
AcDbLine
 10
196.803496
 20
294.851047
 30
0.0
 11
197.544483
 21
293.032182
 31
0.0
  0
LINE
  5
449
330
440
100
AcDbEntity
  8
LC-001-100-D00-0
 62
     7
370
    50
100
AcDbLine
 10
197.544483
 20
293.032182
 30
0.0
 11
197.544483
 21
293.032182
 31
0.0
  0
LINE
  5
44A
330
440
100
AcDbEntity
  8
LC-001-100-D00-0
 62
     7
370
    50
100
AcDbLine
 10
197.544483
 20
293.032182
 30
0.0
 11
198.09768
 21
291.747748
 31
0.0
  0
LINE
  5
44B
330
440
100
AcDbEntity
  8
LC-001-100-D00-0
 62
     7
370
    50
100
AcDbLine
 10
198.09768
 20
291.747748
 30
0.0
 11
198.09768
 21
291.747748
 31
0.0
  0
LINE
  5
44C
330
440
100
AcDbEntity
  8
LC-001-100-D00-0
 62
     7
370
    50
100
AcDbLine
 10
198.09768
 20
291.747748
 30
0.0
 11
198.409889
 21
291.049108
 31
0.0
  0
LINE
  5
44D
330
440
100
AcDbEntity
  8
LC-001-100-D00-0
 62
     7
370
    50
100
AcDbLine
 10
198.409889
 20
291.049108
 30
0.0
 11
198.409889
 21
291.049108
 31
0.0
  0
LINE
  5
44E
330
440
100
AcDbEntity
  8
LC-001-100-D00-0
 62
     7
370
    50
100
AcDbLine
 10
198.409889
 20
291.049108
 30
0.0
 11
198.445553
 21
290.970209
 31
0.0
  0
LINE
  5
44F
330
440
100
AcDbEntity
  8
LC-001-100-D00-0
 62
     7
370
    50
100
AcDbLine
 10
198.445553
 20
290.970209
 30
0.0
 11
198.445553
 21
290.970209
 31
0.0
  0
LINE
  5
450
330
440
100
AcDbEntity
  8
LC-001-100-D00-0
 62
     7
370
    50
100
AcDbLine
 10
198.445553
 20
290.970209
 30
0.0
 11
198.46357
 21
290.930353
 31
0.0
  0
ENDBLK
  5
442
330
440
100
AcDbEntity
  8
0
100
AcDbBlockEnd
  0
BLOCK
  5
46D
330
46C
100
AcDbEntity
  8
0
100
AcDbBlockBegin
  2
KLON6
 70
     0
 71
     0
 10
0.0
 20
0.0
 30
0.0
  3
KLON6
  1

  4
KLON6
  0
LINE
  5
46F
330
46C
100
AcDbEntity
  8
LC-001-100-D00-0
 62
     7
370
    15
100
AcDbLine
 10
178.21357
 20
293.596316
 30
0.0
 11
178.045118
 21
293.618494
 31
0.0
  0
LINE
  5
470
330
46C
100
AcDbEntity
  8
LC-001-100-D00-0
 62
     7
370
    15
100
AcDbLine
 10
178.045118
 20
293.618494
 30
0.0
 11
177.995425
 21
293.625036
 31
0.0
  0
ENDBLK
  5
46E
330
46C
100
AcDbEntity
  8
0
100
AcDbBlockEnd
  0
BLOCK
  5
473
330
472
100
AcDbEntity
  8
0
100
AcDbBlockBegin
  2
KLON7
 70
     0
 71
     0
 10
0.0
 20
0.0
 30
0.0
  3
KLON7
  1

  4
KLON7
  0
LINE
  5
475
330
472
100
AcDbEntity
  8
LC-001-100-D00-0
 62
     7
370
    15
100
AcDbLine
 10
116.995423
 20
301.655838
 30
0.0
 11
116.882022
 21
301.670769
 31
0.0
  0
LINE
  5
476
330
472
100
AcDbEntity
  8
LC-001-100-D00-0
 62
     7
370
    15
100
AcDbLine
 10
116.882022
 20
301.670769
 30
0.0
 11
116.713572
 21
301.692946
 31
0.0
  0
ENDBLK
  5
474
330
472
100
AcDbEntity
  8
0
100
AcDbBlockEnd
  0
BLOCK
  5
4C4
330
4C3
100
AcDbEntity
  8
0
100
AcDbBlockBegin
  2
KLON8
 70
     0
 71
     0
 10
0.0
 20
0.0
 30
0.0
  3
KLON8
  1

  4
KLON8
  0
LINE
  5
4C6
330
4C3
100
AcDbEntity
  8
LC-001-100-D00-0
 62
     7
370
    25
100
AcDbLine
 10
92.344974
 20
345.430354
 30
0.0
 11
92.71357
 21
345.79895
 31
0.0
  0
LINE
  5
4C7
330
4C3
100
AcDbEntity
  8
LC-001-100-D00-0
 62
     7
370
    25
100
AcDbLine
 10
93.524474
 20
346.609854
 30
0.0
 11
98.844974
 21
351.930354
 31
0.0
  0
LINE
  5
4C8
330
4C3
100
AcDbEntity
  8
LC-001-100-D00-0
 62
     7
370
    25
100
AcDbLine
 10
95.841881
 20
344.437131
 30
0.0
 11
98.131048
 21
346.726298
 31
0.0
  0
LINE
  5
4C9
330
4C3
100
AcDbEntity
  8
LC-001-100-D00-0
 62
     7
370
    25
100
AcDbLine
 10
100.335104
 20
348.930354
 30
0.0
 11
103.335104
 21
351.930354
 31
0.0
  0
LINE
  5
4CA
330
4C3
100
AcDbEntity
  8
LC-001-100-D00-0
 62
     7
370
    25
100
AcDbLine
 10
97.825234
 20
341.930354
 30
0.0
 11
97.968575
 21
342.073696
 31
0.0
  0
LINE
  5
4CB
330
4C3
100
AcDbEntity
  8
LC-001-100-D00-0
 62
     7
370
    25
100
AcDbLine
 10
101.96357
 20
346.06869
 30
0.0
 11
105.56357
 21
349.66869
 31
0.0
  0
LINE
  5
4CC
330
4C3
100
AcDbEntity
  8
LC-001-100-D00-0
 62
     7
370
    25
100
AcDbLine
 10
101.96357
 20
341.57855
 30
0.0
 11
105.56357
 21
345.17855
 31
0.0
  0
ENDBLK
  5
4C5
330
4C3
100
AcDbEntity
  8
0
100
AcDbBlockEnd
  0
BLOCK
  5
4CF
330
4CE
100
AcDbEntity
  8
0
100
AcDbBlockBegin
  2
KLON9
 70
     0
 71
     0
 10
0.0
 20
0.0
 30
0.0
  3
KLON9
  1

  4
KLON9
  0
LINE
  5
4D1
330
4CE
100
AcDbEntity
  8
LC-001-100-D00-0
 62
     7
370
    25
100
AcDbLine
 10
191.608047
 20
336.930354
 30
0.0
 11
192.96357
 21
338.285877
 31
0.0
  0
LINE
  5
4D2
330
4CE
100
AcDbEntity
  8
LC-001-100-D00-0
 62
     7
370
    25
100
AcDbLine
 10
196.951574
 20
342.27388
 30
0.0
 11
199.074437
 21
344.396744
 31
0.0
  0
LINE
  5
4D3
330
4CE
100
AcDbEntity
  8
LC-001-100-D00-0
 62
     7
370
    25
100
AcDbLine
 10
201.329684
 20
346.65199
 30
0.0
 11
204.608047
 21
349.930354
 31
0.0
  0
LINE
  5
4D4
330
4CE
100
AcDbEntity
  8
LC-001-100-D00-0
 62
     7
370
    25
100
AcDbLine
 10
204.598177
 20
345.430354
 30
0.0
 11
205.96357
 21
346.795747
 31
0.0
  0
LINE
  5
4D5
330
4CE
100
AcDbEntity
  8
LC-001-100-D00-0
 62
     7
370
    25
100
AcDbLine
 10
189.36357
 20
348.156245
 30
0.0
 11
193.137679
 21
351.930354
 31
0.0
  0
ENDBLK
  5
4D0
330
4CE
100
AcDbEntity
  8
0
100
AcDbBlockEnd
  0
BLOCK
  5
4D8
330
4D7
100
AcDbEntity
  8
0
100
AcDbBlockBegin
  2
KLON10
 70
     0
 71
     0
 10
0.0
 20
0.0
 30
0.0
  3
KLON10
  1

  4
KLON10
  0
LINE
  5
4DA
330
4D7
100
AcDbEntity
  8
LC-001-100-D00-0
 62
     7
370
    25
100
AcDbLine
 10
245.489584
 20
336.930354
 30
0.0
 11
249.009986
 21
340.450756
 31
0.0
  0
LINE
  5
4DB
330
4D7
100
AcDbEntity
  8
LC-001-100-D00-0
 62
     7
370
    25
100
AcDbLine
 10
240.999456
 20
336.930354
 30
0.0
 11
243.149456
 21
339.080354
 31
0.0
  0
LINE
  5
4DC
330
4D7
100
AcDbEntity
  8
LC-001-100-D00-0
 62
     7
370
    25
100
AcDbLine
 10
236.509328
 20
336.930354
 30
0.0
 11
241.96357
 21
342.384596
 31
0.0
  0
LINE
  5
4DD
330
4D7
100
AcDbEntity
  8
LC-001-100-D00-0
 62
     7
370
    25
100
AcDbLine
 10
232.0192
 20
336.930354
 30
0.0
 11
238.501427
 21
343.412581
 31
0.0
  0
LINE
  5
4DE
330
4D7
100
AcDbEntity
  8
LC-001-100-D00-0
 62
     7
370
    25
100
AcDbLine
 10
227.529071
 20
336.930354
 30
0.0
 11
234.074984
 21
343.476266
 31
0.0
  0
LINE
  5
4DF
330
4D7
100
AcDbEntity
  8
LC-001-100-D00-0
 62
     7
370
    25
100
AcDbLine
 10
223.038943
 20
336.930354
 30
0.0
 11
228.778492
 21
342.669903
 31
0.0
  0
LINE
  5
4E0
330
4D7
100
AcDbEntity
  8
LC-001-100-D00-0
 62
     7
370
    25
100
AcDbLine
 10
218.548815
 20
336.930354
 30
0.0
 11
227.46357
 21
345.845108
 31
0.0
  0
LINE
  5
4E1
330
4D7
100
AcDbEntity
  8
LC-001-100-D00-0
 62
     7
370
    25
100
AcDbLine
 10
214.058687
 20
336.930354
 30
0.0
 11
217.058687
 21
339.930354
 31
0.0
  0
LINE
  5
4E2
330
4D7
100
AcDbEntity
  8
LC-001-100-D00-0
 62
     7
370
    25
100
AcDbLine
 10
217.96357
 20
340.835236
 30
0.0
 11
220.555889
 21
343.427555
 31
0.0
  0
LINE
  5
4E3
330
4D7
100
AcDbEntity
  8
LC-001-100-D00-0
 62
     7
370
    25
100
AcDbLine
 10
209.568559
 20
336.930354
 30
0.0
 11
212.568559
 21
339.930354
 31
0.0
  0
LINE
  5
4E4
330
4D7
100
AcDbEntity
  8
LC-001-100-D00-0
 62
     7
370
    25
100
AcDbLine
 10
205.078431
 20
336.930354
 30
0.0
 11
208.078431
 21
339.930354
 31
0.0
  0
LINE
  5
4E5
330
4D7
100
AcDbEntity
  8
LC-001-100-D00-0
 62
     7
370
    25
100
AcDbLine
 10
200.588303
 20
336.930354
 30
0.0
 11
203.588303
 21
339.930354
 31
0.0
  0
LINE
  5
4E6
330
4D7
100
AcDbEntity
  8
LC-001-100-D00-0
 62
     7
370
    25
100
AcDbLine
 10
198.46357
 20
339.295748
 30
0.0
 11
201.46357
 21
342.295748
 31
0.0
  0
LINE
  5
4E7
330
4D7
100
AcDbEntity
  8
LC-001-100-D00-0
 62
     7
370
    25
100
AcDbLine
 10
199.106136
 20
344.428443
 30
0.0
 11
201.323114
 21
346.645421
 31
0.0
  0
ENDBLK
  5
4D9
330
4D7
100
AcDbEntity
  8
0
100
AcDbBlockEnd
  0
BLOCK
  5
4EA
330
4E9
100
AcDbEntity
  8
0
100
AcDbBlockBegin
  2
KLON11
 70
     0
 71
     0
 10
0.0
 20
0.0
 30
0.0
  3
KLON11
  1

  4
KLON11
  0
LINE
  5
4EC
330
4E9
100
AcDbEntity
  8
LC-001-100-D00-0
 62
     7
370
    25
100
AcDbLine
 10
250.838653
 20
288.397887
 30
0.0
 11
251.462483
 21
289.021716
 31
0.0
  0
LINE
  5
4ED
330
4E9
100
AcDbEntity
  8
LC-001-100-D00-0
 62
     7
370
    25
100
AcDbLine
 10
246.424575
 20
288.473936
 30
0.0
 11
248.243336
 21
290.292697
 31
0.0
  0
LINE
  5
4EE
330
4E9
100
AcDbEntity
  8
LC-001-100-D00-0
 62
     7
370
    25
100
AcDbLine
 10
237.858142
 20
284.397631
 30
0.0
 11
244.390864
 21
290.930354
 31
0.0
  0
LINE
  5
4EF
330
4E9
100
AcDbEntity
  8
LC-001-100-D00-0
 62
     7
370
    25
100
AcDbLine
 10
233.40317
 20
284.432787
 30
0.0
 11
239.900736
 21
290.930354
 31
0.0
  0
LINE
  5
4F0
330
4E9
100
AcDbEntity
  8
LC-001-100-D00-0
 62
     7
370
    25
100
AcDbLine
 10
229.502244
 20
285.021989
 30
0.0
 11
235.410608
 21
290.930354
 31
0.0
  0
LINE
  5
4F1
330
4E9
100
AcDbEntity
  8
LC-001-100-D00-0
 62
     7
370
    25
100
AcDbLine
 10
226.009043
 20
286.018917
 30
0.0
 11
230.92048
 21
290.930354
 31
0.0
  0
LINE
  5
4F2
330
4E9
100
AcDbEntity
  8
LC-001-100-D00-0
 62
     7
370
    25
100
AcDbLine
 10
222.846314
 20
287.346316
 30
0.0
 11
226.430352
 21
290.930354
 31
0.0
  0
LINE
  5
4F3
330
4E9
100
AcDbEntity
  8
LC-001-100-D00-0
 62
     7
370
    25
100
AcDbLine
 10
217.96357
 20
286.9537
 30
0.0
 11
221.940224
 21
290.930354
 31
0.0
  0
LINE
  5
4F4
330
4E9
100
AcDbEntity
  8
LC-001-100-D00-0
 62
     7
370
    25
100
AcDbLine
 10
214.450096
 20
287.930354
 30
0.0
 11
217.450096
 21
290.930354
 31
0.0
  0
LINE
  5
4F5
330
4E9
100
AcDbEntity
  8
LC-001-100-D00-0
 62
     7
370
    25
100
AcDbLine
 10
209.959968
 20
287.930354
 30
0.0
 11
212.959968
 21
290.930354
 31
0.0
  0
LINE
  5
4F6
330
4E9
100
AcDbEntity
  8
LC-001-100-D00-0
 62
     7
370
    25
100
AcDbLine
 10
205.46984
 20
287.930354
 30
0.0
 11
208.46984
 21
290.930354
 31
0.0
  0
LINE
  5
4F7
330
4E9
100
AcDbEntity
  8
LC-001-100-D00-0
 62
     7
370
    25
100
AcDbLine
 10
200.979712
 20
287.930354
 30
0.0
 11
203.979712
 21
290.930354
 31
0.0
  0
LINE
  5
4F8
330
4E9
100
AcDbEntity
  8
LC-001-100-D00-0
 62
     7
370
    25
100
AcDbLine
 10
196.696355
 20
288.137125
 30
0.0
 11
199.489584
 21
290.930354
 31
0.0
  0
LINE
  5
4F9
330
4E9
100
AcDbEntity
  8
LC-001-100-D00-0
 62
     7
370
    25
100
AcDbLine
 10
192.728593
 20
288.659491
 30
0.0
 11
195.402459
 21
291.333357
 31
0.0
  0
LINE
  5
4FA
330
4E9
100
AcDbEntity
  8
LC-001-100-D00-0
 62
     7
370
    25
100
AcDbLine
 10
175.436673
 20
275.857699
 30
0.0
 11
178.786224
 21
279.20725
 31
0.0
  0
LINE
  5
4FB
330
4E9
100
AcDbEntity
  8
LC-001-100-D00-0
 62
     7
370
    25
100
AcDbLine
 10
188.760831
 20
289.181857
 30
0.0
 11
191.434696
 21
291.855722
 31
0.0
  0
LINE
  5
4FC
330
4E9
100
AcDbEntity
  8
LC-001-100-D00-0
 62
     7
370
    25
100
AcDbLine
 10
168.544815
 20
273.455969
 30
0.0
 11
172.875847
 21
277.787001
 31
0.0
  0
LINE
  5
4FD
330
4E9
100
AcDbEntity
  8
LC-001-100-D00-0
 62
     7
370
    25
100
AcDbLine
 10
176.856922
 20
281.768076
 30
0.0
 11
181.187954
 21
286.099108
 31
0.0
  0
LINE
  5
4FE
330
4E9
100
AcDbEntity
  8
LC-001-100-D00-0
 62
     7
370
    25
100
AcDbLine
 10
184.793068
 20
289.704222
 30
0.0
 11
187.466934
 21
292.378088
 31
0.0
  0
LINE
  5
4FF
330
4E9
100
AcDbEntity
  8
LC-001-100-D00-0
 62
     7
370
    25
100
AcDbLine
 10
164.029071
 20
273.430354
 30
0.0
 11
167.029071
 21
276.430354
 31
0.0
  0
LINE
  5
500
330
4E9
100
AcDbEntity
  8
LC-001-100-D00-0
 62
     7
370
    25
100
AcDbLine
 10
178.21357
 20
287.614852
 30
0.0
 11
183.499172
 21
292.900454
 31
0.0
  0
LINE
  5
501
330
4E9
100
AcDbEntity
  8
LC-001-100-D00-0
 62
     7
370
    25
100
AcDbLine
 10
159.538943
 20
273.430354
 30
0.0
 11
162.538943
 21
276.430354
 31
0.0
  0
LINE
  5
502
330
4E9
100
AcDbEntity
  8
LC-001-100-D00-0
 62
     7
370
    25
100
AcDbLine
 10
178.21357
 20
292.10498
 30
0.0
 11
179.53141
 21
293.42282
 31
0.0
  0
LINE
  5
503
330
4E9
100
AcDbEntity
  8
LC-001-100-D00-0
 62
     7
370
    25
100
AcDbLine
 10
155.048815
 20
273.430354
 30
0.0
 11
158.048815
 21
276.430354
 31
0.0
  0
LINE
  5
504
330
4E9
100
AcDbEntity
  8
LC-001-100-D00-0
 62
     7
370
    25
100
AcDbLine
 10
150.558687
 20
273.430354
 30
0.0
 11
153.558687
 21
276.430354
 31
0.0
  0
LINE
  5
505
330
4E9
100
AcDbEntity
  8
LC-001-100-D00-0
 62
     7
370
    25
100
AcDbLine
 10
146.068559
 20
273.430354
 30
0.0
 11
149.068559
 21
276.430354
 31
0.0
  0
LINE
  5
506
330
4E9
100
AcDbEntity
  8
LC-001-100-D00-0
 62
     7
370
    25
100
AcDbLine
 10
141.578431
 20
273.430354
 30
0.0
 11
144.578431
 21
276.430354
 31
0.0
  0
LINE
  5
507
330
4E9
100
AcDbEntity
  8
LC-001-100-D00-0
 62
     7
370
    25
100
AcDbLine
 10
137.088303
 20
273.430354
 30
0.0
 11
140.088303
 21
276.430354
 31
0.0
  0
LINE
  5
508
330
4E9
100
AcDbEntity
  8
LC-001-100-D00-0
 62
     7
370
    25
100
AcDbLine
 10
132.598175
 20
273.430354
 30
0.0
 11
135.598175
 21
276.430354
 31
0.0
  0
LINE
  5
509
330
4E9
100
AcDbEntity
  8
LC-001-100-D00-0
 62
     7
370
    25
100
AcDbLine
 10
128.108047
 20
273.430354
 30
0.0
 11
131.108047
 21
276.430354
 31
0.0
  0
LINE
  5
50A
330
4E9
100
AcDbEntity
  8
LC-001-100-D00-0
 62
     7
370
    25
100
AcDbLine
 10
124.004803
 20
273.817238
 30
0.0
 11
126.63393
 21
276.446365
 31
0.0
  0
LINE
  5
50B
330
4E9
100
AcDbEntity
  8
LC-001-100-D00-0
 62
     7
370
    25
100
AcDbLine
 10
120.766635
 20
275.069197
 30
0.0
 11
123.007175
 21
277.309738
 31
0.0
  0
LINE
  5
50C
330
4E9
100
AcDbEntity
  8
LC-001-100-D00-0
 62
     7
370
    25
100
AcDbLine
 10
118.140863
 20
276.933554
 30
0.0
 11
120.265386
 21
279.058077
 31
0.0
  0
LINE
  5
50D
330
4E9
100
AcDbEntity
  8
LC-001-100-D00-0
 62
     7
370
    25
100
AcDbLine
 10
116.052608
 20
279.335426
 30
0.0
 11
118.223205
 21
281.506024
 31
0.0
  0
LINE
  5
50E
330
4E9
100
AcDbEntity
  8
LC-001-100-D00-0
 62
     7
370
    25
100
AcDbLine
 10
114.531035
 20
282.303982
 30
0.0
 11
116.948537
 21
284.721484
 31
0.0
  0
LINE
  5
50F
330
4E9
100
AcDbEntity
  8
LC-001-100-D00-0
 62
     7
370
    25
100
AcDbLine
 10
113.745103
 20
286.008178
 30
0.0
 11
116.71357
 21
288.976645
 31
0.0
  0
LINE
  5
510
330
4E9
100
AcDbEntity
  8
LC-001-100-D00-0
 62
     7
370
    25
100
AcDbLine
 10
113.71357
 20
290.466773
 30
0.0
 11
116.71357
 21
293.466773
 31
0.0
  0
LINE
  5
511
330
4E9
100
AcDbEntity
  8
LC-001-100-D00-0
 62
     7
370
    25
100
AcDbLine
 10
113.71357
 20
294.956901
 30
0.0
 11
116.71357
 21
297.956901
 31
0.0
  0
LINE
  5
512
330
4E9
100
AcDbEntity
  8
LC-001-100-D00-0
 62
     7
370
    25
100
AcDbLine
 10
113.373348
 20
299.106807
 30
0.0
 11
116.047214
 21
301.780673
 31
0.0
  0
LINE
  5
513
330
4E9
100
AcDbEntity
  8
LC-001-100-D00-0
 62
     7
370
    25
100
AcDbLine
 10
109.405586
 20
299.629173
 30
0.0
 11
112.079451
 21
302.303039
 31
0.0
  0
LINE
  5
514
330
4E9
100
AcDbEntity
  8
LC-001-100-D00-0
 62
     7
370
    25
100
AcDbLine
 10
105.437823
 20
300.151539
 30
0.0
 11
108.111689
 21
302.825404
 31
0.0
  0
LINE
  5
515
330
4E9
100
AcDbEntity
  8
LC-001-100-D00-0
 62
     7
370
    25
100
AcDbLine
 10
101.470061
 20
300.673904
 30
0.0
 11
104.143927
 21
303.34777
 31
0.0
  0
LINE
  5
516
330
4E9
100
AcDbEntity
  8
LC-001-100-D00-0
 62
     7
370
    25
100
AcDbLine
 10
97.891557
 20
301.585528
 30
0.0
 11
100.209613
 21
303.903585
 31
0.0
  0
LINE
  5
517
330
4E9
100
AcDbEntity
  8
LC-001-100-D00-0
 62
     7
370
    25
100
AcDbLine
 10
95.372858
 20
303.556958
 30
0.0
 11
97.505101
 21
305.6892
 31
0.0
  0
LINE
  5
518
330
4E9
100
AcDbEntity
  8
LC-001-100-D00-0
 62
     7
370
    25
100
AcDbLine
 10
93.794025
 20
306.468252
 30
0.0
 11
96.46357
 21
309.137797
 31
0.0
  0
LINE
  5
519
330
4E9
100
AcDbEntity
  8
LC-001-100-D00-0
 62
     7
370
    25
100
AcDbLine
 10
93.46357
 20
310.627926
 30
0.0
 11
96.46357
 21
313.627926
 31
0.0
  0
LINE
  5
51A
330
4E9
100
AcDbEntity
  8
LC-001-100-D00-0
 62
     7
370
    25
100
AcDbLine
 10
93.46357
 20
315.118054
 30
0.0
 11
96.46357
 21
318.118054
 31
0.0
  0
LINE
  5
51B
330
4E9
100
AcDbEntity
  8
LC-001-100-D00-0
 62
     7
370
    25
100
AcDbLine
 10
93.46357
 20
319.608182
 30
0.0
 11
96.46357
 21
322.608182
 31
0.0
  0
LINE
  5
51C
330
4E9
100
AcDbEntity
  8
LC-001-100-D00-0
 62
     7
370
    25
100
AcDbLine
 10
93.46357
 20
324.09831
 30
0.0
 11
96.46357
 21
327.09831
 31
0.0
  0
LINE
  5
51D
330
4E9
100
AcDbEntity
  8
LC-001-100-D00-0
 62
     7
370
    25
100
AcDbLine
 10
93.46357
 20
328.588438
 30
0.0
 11
96.46357
 21
331.588438
 31
0.0
  0
LINE
  5
51E
330
4E9
100
AcDbEntity
  8
LC-001-100-D00-0
 62
     7
370
    25
100
AcDbLine
 10
93.46357
 20
333.078566
 30
0.0
 11
96.46357
 21
336.078566
 31
0.0
  0
LINE
  5
51F
330
4E9
100
AcDbEntity
  8
LC-001-100-D00-0
 62
     7
370
    25
100
AcDbLine
 10
93.46357
 20
337.568694
 30
0.0
 11
96.46357
 21
340.568694
 31
0.0
  0
LINE
  5
520
330
4E9
100
AcDbEntity
  8
LC-001-100-D00-0
 62
     7
370
    25
100
AcDbLine
 10
93.46357
 20
342.058822
 30
0.0
 11
95.823579
 21
344.418831
 31
0.0
  0
LINE
  5
521
330
4E9
100
AcDbEntity
  8
LC-001-100-D00-0
 62
     7
370
    25
100
AcDbLine
 10
93.46357
 20
346.54895
 30
0.0
 11
93.499955
 21
346.585335
 31
0.0
  0
ENDBLK
  5
4EB
330
4E9
100
AcDbEntity
  8
0
100
AcDbBlockEnd
  0
BLOCK
  5
525
330
524
100
AcDbEntity
  8
0
100
AcDbBlockBegin
  2
KLON12
 70
     0
 71
     0
 10
0.0
 20
0.0
 30
0.0
  3
KLON12
  1

  4
KLON12
  0
LINE
  5
527
330
524
100
AcDbEntity
  8
LC-001-100-D00-0
 62
     7
370
    25
100
AcDbLine
 10
183.112684
 20
348.360641
 30
0.0
 11
179.242971
 21
352.230354
 31
0.0
  0
LINE
  5
528
330
524
100
AcDbEntity
  8
LC-001-100-D00-0
 62
     7
370
    25
100
AcDbLine
 10
179.242971
 20
352.230354
 30
0.0
 11
174.360613
 21
357.112712
 31
0.0
  0
LINE
  5
529
330
524
100
AcDbEntity
  8
LC-001-100-D00-0
 62
     7
370
    25
100
AcDbLine
 10
185.357754
 20
350.605711
 30
0.0
 11
183.160071
 21
352.803394
 31
0.0
  0
LINE
  5
52A
330
524
100
AcDbEntity
  8
LC-001-100-D00-0
 62
     7
370
    25
100
AcDbLine
 10
182.980928
 20
352.982537
 30
0.0
 11
176.605683
 21
359.357782
 31
0.0
  0
ENDBLK
  5
526
330
524
100
AcDbEntity
  8
0
100
AcDbBlockEnd
  0
BLOCK
  5
52D
330
52C
100
AcDbEntity
  8
0
100
AcDbBlockBegin
  2
KLON13
 70
     0
 71
     0
 10
0.0
 20
0.0
 30
0.0
  3
KLON13
  1

  4
KLON13
  0
LINE
  5
52F
330
52C
100
AcDbEntity
  8
LC-001-100-D00-0
 62
     7
370
    25
100
AcDbLine
 10
116.446878
 20
352.16465
 30
0.0
 11
115.381175
 21
353.230354
 31
0.0
  0
LINE
  5
530
330
52C
100
AcDbEntity
  8
LC-001-100-D00-0
 62
     7
370
    25
100
AcDbLine
 10
115.381175
 20
353.230354
 30
0.0
 11
114.010789
 21
354.60074
 31
0.0
  0
LINE
  5
531
330
52C
100
AcDbEntity
  8
LC-001-100-D00-0
 62
     7
370
    25
100
AcDbLine
 10
114.010789
 20
354.60074
 30
0.0
 11
107.758372
 21
360.853156
 31
0.0
  0
LINE
  5
532
330
52C
100
AcDbEntity
  8
LC-001-100-D00-0
 62
     7
370
    25
100
AcDbLine
 10
107.758372
 20
360.853156
 30
0.0
 11
107.069766
 21
361.541762
 31
0.0
  0
LINE
  5
533
330
52C
100
AcDbEntity
  8
LC-001-100-D00-0
 62
     7
370
    25
100
AcDbLine
 10
114.010789
 20
359.09087
 30
0.0
 11
110.871305
 21
362.230354
 31
0.0
  0
ENDBLK
  5
52E
330
52C
100
AcDbEntity
  8
0
100
AcDbBlockEnd
  0
BLOCK
  5
538
330
537
100
AcDbEntity
  8
0
100
AcDbBlockBegin
  2
KLON14
 70
     0
 71
     0
 10
0.0
 20
0.0
 30
0.0
  3
KLON14
  1

  4
KLON14
  0
LINE
  5
53A
330
537
100
AcDbEntity
  8
LC-001-100-D00-0
 62
     7
370
    25
100
AcDbLine
 10
196.96357
 20
352.470263
 30
0.0
 11
194.46357
 21
354.970263
 31
0.0
  0
LINE
  5
53B
330
537
100
AcDbEntity
  8
LC-001-100-D00-0
 62
     7
370
    25
100
AcDbLine
 10
203.46357
 20
350.460393
 30
0.0
 11
201.46357
 21
352.460393
 31
0.0
  0
LINE
  5
53C
330
537
100
AcDbEntity
  8
LC-001-100-D00-0
 62
     7
370
    25
100
AcDbLine
 10
199.99361
 20
353.930354
 30
0.0
 11
197.036743
 21
356.88722
 31
0.0
  0
LINE
  5
53D
330
537
100
AcDbEntity
  8
LC-001-100-D00-0
 62
     7
370
    25
100
AcDbLine
 10
203.46357
 20
354.950523
 30
0.0
 11
200.473655
 21
357.940439
 31
0.0
  0
LINE
  5
53E
330
537
100
AcDbEntity
  8
LC-001-100-D00-0
 62
     7
370
    25
100
AcDbLine
 10
203.46357
 20
359.440663
 30
0.0
 11
202.718725
 21
360.185509
 31
0.0
  0
ENDBLK
  5
539
330
537
100
AcDbEntity
  8
0
100
AcDbBlockEnd
  0
BLOCK
  5
541
330
540
100
AcDbEntity
  8
0
100
AcDbBlockBegin
  2
KLON15
 70
     0
 71
     0
 10
0.0
 20
0.0
 30
0.0
  3
KLON15
  1

  4
KLON15
  0
LINE
  5
543
330
540
100
AcDbEntity
  8
LC-001-100-D00-0
 62
     7
370
    50
100
AcDbLine
 10
91.740406
 20
349.930354
 30
0.0
 11
91.46357
 21
350.20719
 31
0.0
  0
LINE
  5
544
330
540
100
AcDbEntity
  8
LC-001-100-D00-0
 62
     7
370
    50
100
AcDbLine
 10
93.46357
 20
352.69732
 30
0.0
 11
91.46357
 21
354.69732
 31
0.0
  0
LINE
  5
545
330
540
100
AcDbEntity
  8
LC-001-100-D00-0
 62
     7
370
    50
100
AcDbLine
 10
98.220666
 20
352.430354
 30
0.0
 11
97.96357
 21
352.68745
 31
0.0
  0
LINE
  5
546
330
540
100
AcDbEntity
  8
LC-001-100-D00-0
 62
     7
370
    50
100
AcDbLine
 10
96.720666
 20
353.930354
 30
0.0
 11
91.46357
 21
359.18745
 31
0.0
  0
LINE
  5
547
330
540
100
AcDbEntity
  8
LC-001-100-D00-0
 62
     7
370
    50
100
AcDbLine
 10
100.46357
 20
354.67759
 30
0.0
 11
98.357912
 21
356.783248
 31
0.0
  0
ENDBLK
  5
542
330
540
100
AcDbEntity
  8
0
100
AcDbBlockEnd
  0
BLOCK
  5
54B
330
54A
100
AcDbEntity
  8
0
100
AcDbBlockBegin
  2
KLON16
 70
     0
 71
     0
 10
0.0
 20
0.0
 30
0.0
  3
KLON16
  1

  4
KLON16
  0
LINE
  5
54D
330
54A
100
AcDbEntity
  8
LC-001-100-D00-0
 62
     7
370
    25
100
AcDbLine
 10
187.61357
 20
319.465492
 30
0.0
 11
190.46357
 21
322.315492
 31
0.0
  0
LINE
  5
54E
330
54A
100
AcDbEntity
  8
LC-001-100-D00-0
 62
     7
370
    25
100
AcDbLine
 10
187.61357
 20
323.95562
 30
0.0
 11
190.46357
 21
326.80562
 31
0.0
  0
LINE
  5
54F
330
54A
100
AcDbEntity
  8
LC-001-100-D00-0
 62
     7
370
    25
100
AcDbLine
 10
187.61357
 20
328.445748
 30
0.0
 11
190.46357
 21
331.295748
 31
0.0
  0
LINE
  5
550
330
54A
100
AcDbEntity
  8
LC-001-100-D00-0
 62
     7
370
    25
100
AcDbLine
 10
187.108047
 20
332.430354
 30
0.0
 11
190.46357
 21
335.785877
 31
0.0
  0
LINE
  5
551
330
54A
100
AcDbEntity
  8
LC-001-100-D00-0
 62
     7
370
    25
100
AcDbLine
 10
184.96357
 20
334.776005
 30
0.0
 11
190.46357
 21
340.276005
 31
0.0
  0
LINE
  5
552
330
54A
100
AcDbEntity
  8
LC-001-100-D00-0
 62
     7
370
    25
100
AcDbLine
 10
184.96357
 20
339.266133
 30
0.0
 11
190.46357
 21
344.766133
 31
0.0
  0
LINE
  5
553
330
54A
100
AcDbEntity
  8
LC-001-100-D00-0
 62
     7
370
    25
100
AcDbLine
 10
184.96357
 20
343.756261
 30
0.0
 11
190.46357
 21
349.256261
 31
0.0
  0
LINE
  5
554
330
54A
100
AcDbEntity
  8
LC-001-100-D00-0
 62
     7
370
    25
100
AcDbLine
 10
201.137657
 20
359.930348
 30
0.0
 11
202.158162
 21
360.950853
 31
0.0
  0
LINE
  5
555
330
54A
100
AcDbEntity
  8
LC-001-100-D00-0
 62
     7
370
    25
100
AcDbLine
 10
185.21357
 20
348.496389
 30
0.0
 11
190.46357
 21
353.746389
 31
0.0
  0
LINE
  5
556
330
54A
100
AcDbEntity
  8
LC-001-100-D00-0
 62
     7
370
    25
100
AcDbLine
 10
196.647529
 20
359.930348
 30
0.0
 11
198.443876
 21
361.726695
 31
0.0
  0
LINE
  5
557
330
54A
100
AcDbEntity
  8
LC-001-100-D00-0
 62
     7
370
    25
100
AcDbLine
 10
185.21357
 20
352.986517
 30
0.0
 11
186.457407
 21
354.230354
 31
0.0
  0
LINE
  5
558
330
54A
100
AcDbEntity
  8
LC-001-100-D00-0
 62
     7
370
    25
100
AcDbLine
 10
187.61357
 20
355.386517
 30
0.0
 11
190.46357
 21
358.236517
 31
0.0
  0
LINE
  5
559
330
54A
100
AcDbEntity
  8
LC-001-100-D00-0
 62
     7
370
    25
100
AcDbLine
 10
192.157401
 20
359.930348
 30
0.0
 11
194.465178
 21
362.238125
 31
0.0
  0
LINE
  5
55A
330
54A
100
AcDbEntity
  8
LC-001-100-D00-0
 62
     7
370
    25
100
AcDbLine
 10
187.61357
 20
359.876645
 30
0.0
 11
190.167211
 21
362.430286
 31
0.0
  0
ENDBLK
  5
54C
330
54A
100
AcDbEntity
  8
0
100
AcDbBlockEnd
  0
BLOCK
  5
55D
330
55C
100
AcDbEntity
  8
0
100
AcDbBlockBegin
  2
KLON17
 70
     0
 71
     0
 10
0.0
 20
0.0
 30
0.0
  3
KLON17
  1

  4
KLON17
  0
LINE
  5
55F
330
55C
100
AcDbEntity
  8
LC-001-100-D00-0
 62
     7
370
    25
100
AcDbLine
 10
105.359848
 20
318.034076
 30
0.0
 11
107.31357
 21
319.987797
 31
0.0
  0
LINE
  5
560
330
55C
100
AcDbEntity
  8
LC-001-100-D00-0
 62
     7
370
    25
100
AcDbLine
 10
104.46357
 20
321.627926
 30
0.0
 11
107.31357
 21
324.477926
 31
0.0
  0
LINE
  5
561
330
55C
100
AcDbEntity
  8
LC-001-100-D00-0
 62
     7
370
    25
100
AcDbLine
 10
104.46357
 20
326.118054
 30
0.0
 11
107.31357
 21
328.968054
 31
0.0
  0
LINE
  5
562
330
55C
100
AcDbEntity
  8
LC-001-100-D00-0
 62
     7
370
    25
100
AcDbLine
 10
104.46357
 20
330.608182
 30
0.0
 11
109.96357
 21
336.108182
 31
0.0
  0
LINE
  5
563
330
55C
100
AcDbEntity
  8
LC-001-100-D00-0
 62
     7
370
    25
100
AcDbLine
 10
104.46357
 20
335.09831
 30
0.0
 11
109.96357
 21
340.59831
 31
0.0
  0
LINE
  5
564
330
55C
100
AcDbEntity
  8
LC-001-100-D00-0
 62
     7
370
    25
100
AcDbLine
 10
104.46357
 20
339.588438
 30
0.0
 11
109.96357
 21
345.088438
 31
0.0
  0
LINE
  5
565
330
55C
100
AcDbEntity
  8
LC-001-100-D00-0
 62
     7
370
    25
100
AcDbLine
 10
104.46357
 20
344.078566
 30
0.0
 11
109.71357
 21
349.328566
 31
0.0
  0
LINE
  5
566
330
55C
100
AcDbEntity
  8
LC-001-100-D00-0
 62
     7
370
    25
100
AcDbLine
 10
104.46357
 20
348.568694
 30
0.0
 11
109.71357
 21
353.818694
 31
0.0
  0
LINE
  5
567
330
55C
100
AcDbEntity
  8
LC-001-100-D00-0
 62
     7
370
    25
100
AcDbLine
 10
104.46357
 20
353.058822
 30
0.0
 11
107.31357
 21
355.908822
 31
0.0
  0
LINE
  5
568
330
55C
100
AcDbEntity
  8
LC-001-100-D00-0
 62
     7
370
    25
100
AcDbLine
 10
104.46357
 20
357.54895
 30
0.0
 11
107.31357
 21
360.39895
 31
0.0
  0
LINE
  5
569
330
55C
100
AcDbEntity
  8
LC-001-100-D00-0
 62
     7
370
    25
100
AcDbLine
 10
102.354839
 20
359.930348
 30
0.0
 11
104.854845
 21
362.430354
 31
0.0
  0
LINE
  5
56A
330
55C
100
AcDbEntity
  8
LC-001-100-D00-0
 62
     7
370
    25
100
AcDbLine
 10
97.864711
 20
359.930348
 30
0.0
 11
100.143452
 21
362.209088
 31
0.0
  0
LINE
  5
56B
330
55C
100
AcDbEntity
  8
LC-001-100-D00-0
 62
     7
370
    25
100
AcDbLine
 10
93.374583
 20
359.930348
 30
0.0
 11
94.87008
 21
361.425845
 31
0.0
  0
ENDBLK
  5
55E
330
55C
100
AcDbEntity
  8
0
100
AcDbBlockEnd
  0
BLOCK
  5
56E
330
56D
100
AcDbEntity
  8
0
100
AcDbBlockBegin
  2
KLON18
 70
     0
 71
     0
 10
0.0
 20
0.0
 30
0.0
  3
KLON18
  1

  4
KLON18
  0
LINE
  5
570
330
56D
100
AcDbEntity
  8
LC-001-100-D00-0
 62
     7
370
    25
100
AcDbLine
 10
199.323799
 20
358.116489
 30
0.0
 11
201.137657
 21
359.930348
 31
0.0
  0
LINE
  5
571
330
56D
100
AcDbEntity
  8
LC-001-100-D00-0
 62
     7
370
    25
100
AcDbLine
 10
192.96357
 20
356.246389
 30
0.0
 11
196.647529
 21
359.930348
 31
0.0
  0
ENDBLK
  5
56F
330
56D
100
AcDbEntity
  8
0
100
AcDbBlockEnd
  0
BLOCK
  5
574
330
573
100
AcDbEntity
  8
0
100
AcDbBlockBegin
  2
KLON19
 70
     0
 71
     0
 10
0.0
 20
0.0
 30
0.0
  3
KLON19
  1

  4
KLON19
  0
LINE
  5
576
330
573
100
AcDbEntity
  8
LC-001-100-D00-0
 62
     7
370
    25
100
AcDbLine
 10
101.580307
 20
354.665687
 30
0.0
 11
101.96357
 21
355.04895
 31
0.0
  0
LINE
  5
577
330
573
100
AcDbEntity
  8
LC-001-100-D00-0
 62
     7
370
    25
100
AcDbLine
 10
98.73368
 20
356.309188
 30
0.0
 11
101.96357
 21
359.539078
 31
0.0
  0
LINE
  5
578
330
573
100
AcDbEntity
  8
LC-001-100-D00-0
 62
     7
370
    25
100
AcDbLine
 10
95.887052
 20
357.952689
 30
0.0
 11
97.864711
 21
359.930348
 31
0.0
  0
LINE
  5
579
330
573
100
AcDbEntity
  8
LC-001-100-D00-0
 62
     7
370
    25
100
AcDbLine
 10
93.040425
 20
359.59619
 30
0.0
 11
93.374583
 21
359.930348
 31
0.0
  0
ENDBLK
  5
575
330
573
100
AcDbEntity
  8
0
100
AcDbBlockEnd
  0
BLOCK
  5
57C
330
57B
100
AcDbEntity
  8
0
100
AcDbBlockBegin
  2
KLON20
 70
     0
 71
     0
 10
0.0
 20
0.0
 30
0.0
  3
KLON20
  1

  4
KLON20
  0
LINE
  5
57E
330
57B
100
AcDbEntity
  8
LC-001-100-D00-0
 62
     7
370
    25
100
AcDbLine
 10
252.16357
 20
283.799879
 30
0.0
 11
251.72443
 21
284.239019
 31
0.0
  0
LINE
  5
57F
330
57B
100
AcDbEntity
  8
LC-001-100-D00-0
 62
     7
370
    25
100
AcDbLine
 10
251.759979
 20
279.713342
 30
0.0
 11
249.636812
 21
281.836509
 31
0.0
  0
LINE
  5
580
330
57B
100
AcDbEntity
  8
LC-001-100-D00-0
 62
     7
370
    25
100
AcDbLine
 10
249.675724
 20
277.307469
 30
0.0
 11
247.549193
 21
279.434
 31
0.0
  0
LINE
  5
581
330
57B
100
AcDbEntity
  8
LC-001-100-D00-0
 62
     7
370
    25
100
AcDbLine
 10
246.062711
 20
276.430354
 30
0.0
 11
243.062711
 21
279.430354
 31
0.0
  0
LINE
  5
582
330
57B
100
AcDbEntity
  8
LC-001-100-D00-0
 62
     7
370
    25
100
AcDbLine
 10
241.572583
 20
276.430354
 30
0.0
 11
238.572583
 21
279.430354
 31
0.0
  0
LINE
  5
583
330
57B
100
AcDbEntity
  8
LC-001-100-D00-0
 62
     7
370
    25
100
AcDbLine
 10
237.082455
 20
276.430354
 30
0.0
 11
234.082455
 21
279.430354
 31
0.0
  0
LINE
  5
584
330
57B
100
AcDbEntity
  8
LC-001-100-D00-0
 62
     7
370
    25
100
AcDbLine
 10
232.592327
 20
276.430354
 30
0.0
 11
229.592327
 21
279.430354
 31
0.0
  0
LINE
  5
585
330
57B
100
AcDbEntity
  8
LC-001-100-D00-0
 62
     7
370
    25
100
AcDbLine
 10
228.102199
 20
276.430354
 30
0.0
 11
219.852199
 21
284.680354
 31
0.0
  0
LINE
  5
586
330
57B
100
AcDbEntity
  8
LC-001-100-D00-0
 62
     7
370
    25
100
AcDbLine
 10
216.96357
 20
287.568983
 30
0.0
 11
216.602199
 21
287.930354
 31
0.0
  0
LINE
  5
587
330
57B
100
AcDbEntity
  8
LC-001-100-D00-0
 62
     7
370
    25
100
AcDbLine
 10
217.612071
 20
282.430354
 30
0.0
 11
215.16357
 21
284.878855
 31
0.0
  0
LINE
  5
588
330
57B
100
AcDbEntity
  8
LC-001-100-D00-0
 62
     7
370
    25
100
AcDbLine
 10
213.712071
 20
286.330354
 30
0.0
 11
212.112071
 21
287.930354
 31
0.0
  0
ENDBLK
  5
57D
330
57B
100
AcDbEntity
  8
0
100
AcDbBlockEnd
  0
BLOCK
  5
58B
330
58A
100
AcDbEntity
  8
0
100
AcDbBlockBegin
  2
KLON21
 70
     0
 71
     0
 10
0.0
 20
0.0
 30
0.0
  3
KLON21
  1

  4
KLON21
  0
LINE
  5
58D
330
58A
100
AcDbEntity
  8
LC-001-100-D00-0
 62
     7
370
    25
100
AcDbLine
 10
252.16357
 20
346.661672
 30
0.0
 11
247.394888
 21
351.430354
 31
0.0
  0
LINE
  5
58E
330
58A
100
AcDbEntity
  8
LC-001-100-D00-0
 62
     7
370
    25
100
AcDbLine
 10
245.904761
 20
348.430353
 30
0.0
 11
242.90476
 21
351.430354
 31
0.0
  0
LINE
  5
58F
330
58A
100
AcDbEntity
  8
LC-001-100-D00-0
 62
     7
370
    25
100
AcDbLine
 10
241.414633
 20
348.430353
 30
0.0
 11
238.414632
 21
351.430354
 31
0.0
  0
LINE
  5
590
330
58A
100
AcDbEntity
  8
LC-001-100-D00-0
 62
     7
370
    25
100
AcDbLine
 10
236.924505
 20
348.430353
 30
0.0
 11
233.924504
 21
351.430354
 31
0.0
  0
LINE
  5
591
330
58A
100
AcDbEntity
  8
LC-001-100-D00-0
 62
     7
370
    25
100
AcDbLine
 10
232.434377
 20
348.430353
 30
0.0
 11
229.434376
 21
351.430354
 31
0.0
  0
LINE
  5
592
330
58A
100
AcDbEntity
  8
LC-001-100-D00-0
 62
     7
370
    25
100
AcDbLine
 10
227.944249
 20
348.430353
 30
0.0
 11
224.944248
 21
351.430354
 31
0.0
  0
LINE
  5
593
330
58A
100
AcDbEntity
  8
LC-001-100-D00-0
 62
     7
370
    25
100
AcDbLine
 10
224.684226
 20
347.200247
 30
0.0
 11
222.562906
 21
349.321568
 31
0.0
  0
LINE
  5
594
330
58A
100
AcDbEntity
  8
LC-001-100-D00-0
 62
     7
370
    25
100
AcDbLine
 10
222.439162
 20
344.955183
 30
0.0
 11
220.317842
 21
347.076504
 31
0.0
  0
LINE
  5
595
330
58A
100
AcDbEntity
  8
LC-001-100-D00-0
 62
     7
370
    25
100
AcDbLine
 10
219.723864
 20
343.180354
 30
0.0
 11
217.473864
 21
345.430354
 31
0.0
  0
LINE
  5
596
330
58A
100
AcDbEntity
  8
LC-001-100-D00-0
 62
     7
370
    25
100
AcDbLine
 10
216.96357
 20
341.45052
 30
0.0
 11
215.16357
 21
343.25052
 31
0.0
  0
LINE
  5
597
330
58A
100
AcDbEntity
  8
LC-001-100-D00-0
 62
     7
370
    25
100
AcDbLine
 10
213.993608
 20
339.930354
 30
0.0
 11
212.393608
 21
341.530354
 31
0.0
  0
ENDBLK
  5
58C
330
58A
100
AcDbEntity
  8
0
100
AcDbBlockEnd
  0
BLOCK
  5
59A
330
599
100
AcDbEntity
  8
0
100
AcDbBlockBegin
  2
KLON22
 70
     0
 71
     0
 10
0.0
 20
0.0
 30
0.0
  3
KLON22
  1

  4
KLON22
  0
LINE
  5
59C
330
599
100
AcDbEntity
  8
LC-001-100-D00-0
 62
     7
370
    25
100
AcDbLine
 10
331.789425
 20
342.407889
 30
0.0
 11
333.891718
 21
344.510183
 31
0.0
  0
LINE
  5
59D
330
599
100
AcDbEntity
  8
LC-001-100-D00-0
 62
     7
370
    25
100
AcDbLine
 10
327.259767
 20
342.36836
 30
0.0
 11
330.321761
 21
345.430354
 31
0.0
  0
LINE
  5
59E
330
599
100
AcDbEntity
  8
LC-001-100-D00-0
 62
     7
370
    25
100
AcDbLine
 10
322.730109
 20
342.32883
 30
0.0
 11
325.831633
 21
345.430354
 31
0.0
  0
LINE
  5
59F
330
599
100
AcDbEntity
  8
LC-001-100-D00-0
 62
     7
370
    25
100
AcDbLine
 10
318.200451
 20
342.2893
 30
0.0
 11
321.341505
 21
345.430354
 31
0.0
  0
LINE
  5
5A0
330
599
100
AcDbEntity
  8
LC-001-100-D00-0
 62
     7
370
    25
100
AcDbLine
 10
313.670793
 20
342.249771
 30
0.0
 11
316.851377
 21
345.430354
 31
0.0
  0
LINE
  5
5A1
330
599
100
AcDbEntity
  8
LC-001-100-D00-0
 62
     7
370
    25
100
AcDbLine
 10
309.141136
 20
342.210241
 30
0.0
 11
312.361248
 21
345.430354
 31
0.0
  0
LINE
  5
5A2
330
599
100
AcDbEntity
  8
LC-001-100-D00-0
 62
     7
370
    25
100
AcDbLine
 10
304.611478
 20
342.170711
 30
0.0
 11
307.87112
 21
345.430354
 31
0.0
  0
LINE
  5
5A3
330
599
100
AcDbEntity
  8
LC-001-100-D00-0
 62
     7
370
    25
100
AcDbLine
 10
300.08182
 20
342.131181
 30
0.0
 11
303.380992
 21
345.430354
 31
0.0
  0
LINE
  5
5A4
330
599
100
AcDbEntity
  8
LC-001-100-D00-0
 62
     7
370
    25
100
AcDbLine
 10
292.366454
 20
338.905944
 30
0.0
 11
295.16357
 21
341.703059
 31
0.0
  0
LINE
  5
5A5
330
599
100
AcDbEntity
  8
LC-001-100-D00-0
 62
     7
370
    25
100
AcDbLine
 10
295.552162
 20
342.091652
 30
0.0
 11
298.890864
 21
345.430354
 31
0.0
  0
LINE
  5
5A6
330
599
100
AcDbEntity
  8
LC-001-100-D00-0
 62
     7
370
    25
100
AcDbLine
 10
287.836796
 20
338.866414
 30
0.0
 11
290.900736
 21
341.930354
 31
0.0
  0
LINE
  5
5A7
330
599
100
AcDbEntity
  8
LC-001-100-D00-0
 62
     7
370
    25
100
AcDbLine
 10
292.16357
 20
343.193187
 30
0.0
 11
295.16357
 21
346.193187
 31
0.0
  0
LINE
  5
5A8
330
599
100
AcDbEntity
  8
LC-001-100-D00-0
 62
     7
370
    25
100
AcDbLine
 10
283.307139
 20
338.826884
 30
0.0
 11
286.410608
 21
341.930354
 31
0.0
  0
LINE
  5
5A9
330
599
100
AcDbEntity
  8
LC-001-100-D00-0
 62
     7
370
    25
100
AcDbLine
 10
292.16357
 20
347.683315
 30
0.0
 11
294.017768
 21
349.537514
 31
0.0
  0
LINE
  5
5AA
330
599
100
AcDbEntity
  8
LC-001-100-D00-0
 62
     7
370
    25
100
AcDbLine
 10
278.777481
 20
338.787354
 30
0.0
 11
281.92048
 21
341.930354
 31
0.0
  0
LINE
  5
5AB
330
599
100
AcDbEntity
  8
LC-001-100-D00-0
 62
     7
370
    25
100
AcDbLine
 10
274.247823
 20
338.747825
 30
0.0
 11
277.430352
 21
341.930354
 31
0.0
  0
LINE
  5
5AC
330
599
100
AcDbEntity
  8
LC-001-100-D00-0
 62
     7
370
    25
100
AcDbLine
 10
269.718165
 20
338.708295
 30
0.0
 11
272.940224
 21
341.930354
 31
0.0
  0
LINE
  5
5AD
330
599
100
AcDbEntity
  8
LC-001-100-D00-0
 62
     7
370
    25
100
AcDbLine
 10
265.188508
 20
338.668765
 30
0.0
 11
268.450096
 21
341.930354
 31
0.0
  0
LINE
  5
5AE
330
599
100
AcDbEntity
  8
LC-001-100-D00-0
 62
     7
370
    25
100
AcDbLine
 10
257.959968
 20
335.930354
 30
0.0
 11
259.663581
 21
337.633967
 31
0.0
  0
LINE
  5
5AF
330
599
100
AcDbEntity
  8
LC-001-100-D00-0
 62
     7
370
    25
100
AcDbLine
 10
260.65885
 20
338.629236
 30
0.0
 11
263.959968
 21
341.930354
 31
0.0
  0
LINE
  5
5B0
330
599
100
AcDbEntity
  8
LC-001-100-D00-0
 62
     7
370
    25
100
AcDbLine
 10
254.552556
 20
337.01307
 30
0.0
 11
259.46984
 21
341.930354
 31
0.0
  0
LINE
  5
5B1
330
599
100
AcDbEntity
  8
LC-001-100-D00-0
 62
     7
370
    25
100
AcDbLine
 10
251.947582
 20
338.898224
 30
0.0
 11
254.979712
 21
341.930354
 31
0.0
  0
LINE
  5
5B2
330
599
100
AcDbEntity
  8
LC-001-100-D00-0
 62
     7
370
    25
100
AcDbLine
 10
249.084593
 20
340.525363
 30
0.0
 11
251.273983
 21
342.714753
 31
0.0
  0
LINE
  5
5B3
330
599
100
AcDbEntity
  8
LC-001-100-D00-0
 62
     7
370
    25
100
AcDbLine
 10
245.938442
 20
341.86934
 30
0.0
 11
248.220703
 21
344.151601
 31
0.0
  0
LINE
  5
5B4
330
599
100
AcDbEntity
  8
LC-001-100-D00-0
 62
     7
370
    25
100
AcDbLine
 10
242.466127
 20
342.887153
 30
0.0
 11
244.887518
 21
345.308544
 31
0.0
  0
LINE
  5
5B5
330
599
100
AcDbEntity
  8
LC-001-100-D00-0
 62
     7
370
    25
100
AcDbLine
 10
238.593473
 20
343.504627
 30
0.0
 11
241.225852
 21
346.137006
 31
0.0
  0
LINE
  5
5B6
330
599
100
AcDbEntity
  8
LC-001-100-D00-0
 62
     7
370
    25
100
AcDbLine
 10
234.181395
 20
343.582677
 30
0.0
 11
237.153577
 21
346.554859
 31
0.0
  0
LINE
  5
5B7
330
599
100
AcDbEntity
  8
LC-001-100-D00-0
 62
     7
370
    25
100
AcDbLine
 10
228.914561
 20
342.805971
 30
0.0
 11
232.688943
 21
346.580354
 31
0.0
  0
LINE
  5
5B8
330
599
100
AcDbEntity
  8
LC-001-100-D00-0
 62
     7
370
    25
100
AcDbLine
 10
225.36357
 20
343.745108
 30
0.0
 11
228.198815
 21
346.580354
 31
0.0
  0
ENDBLK
  5
59B
330
599
100
AcDbEntity
  8
0
100
AcDbBlockEnd
  0
BLOCK
  5
5BB
330
5BA
100
AcDbEntity
  8
0
100
AcDbBlockBegin
  2
KLON23
 70
     0
 71
     0
 10
0.0
 20
0.0
 30
0.0
  3
KLON23
  1

  4
KLON23
  0
LINE
  5
5BD
330
5BA
100
AcDbEntity
  8
LC-001-100-D00-0
 62
     7
370
    25
100
AcDbLine
 10
330.183554
 20
282.430354
 30
0.0
 11
333.193762
 21
285.440562
 31
0.0
  0
LINE
  5
5BE
330
5BA
100
AcDbEntity
  8
LC-001-100-D00-0
 62
     7
370
    25
100
AcDbLine
 10
325.693426
 20
282.430354
 30
0.0
 11
328.74248
 21
285.479408
 31
0.0
  0
LINE
  5
5BF
330
5BA
100
AcDbEntity
  8
LC-001-100-D00-0
 62
     7
370
    25
100
AcDbLine
 10
321.203297
 20
282.430354
 30
0.0
 11
324.291198
 21
285.518254
 31
0.0
  0
LINE
  5
5C0
330
5BA
100
AcDbEntity
  8
LC-001-100-D00-0
 62
     7
370
    25
100
AcDbLine
 10
316.713169
 20
282.430354
 30
0.0
 11
319.839915
 21
285.5571
 31
0.0
  0
LINE
  5
5C1
330
5BA
100
AcDbEntity
  8
LC-001-100-D00-0
 62
     7
370
    25
100
AcDbLine
 10
312.223041
 20
282.430354
 30
0.0
 11
315.388633
 21
285.595945
 31
0.0
  0
LINE
  5
5C2
330
5BA
100
AcDbEntity
  8
LC-001-100-D00-0
 62
     7
370
    25
100
AcDbLine
 10
307.732913
 20
282.430354
 30
0.0
 11
310.937351
 21
285.634791
 31
0.0
  0
LINE
  5
5C3
330
5BA
100
AcDbEntity
  8
LC-001-100-D00-0
 62
     7
370
    25
100
AcDbLine
 10
303.242785
 20
282.430354
 30
0.0
 11
306.486068
 21
285.673637
 31
0.0
  0
LINE
  5
5C4
330
5BA
100
AcDbEntity
  8
LC-001-100-D00-0
 62
     7
370
    25
100
AcDbLine
 10
298.752657
 20
282.430354
 30
0.0
 11
302.034786
 21
285.712483
 31
0.0
  0
LINE
  5
5C5
330
5BA
100
AcDbEntity
  8
LC-001-100-D00-0
 62
     7
370
    25
100
AcDbLine
 10
294.262529
 20
282.430354
 30
0.0
 11
297.583504
 21
285.751328
 31
0.0
  0
LINE
  5
5C6
330
5BA
100
AcDbEntity
  8
LC-001-100-D00-0
 62
     7
370
    25
100
AcDbLine
 10
292.16357
 20
284.821522
 30
0.0
 11
295.16357
 21
287.821522
 31
0.0
  0
LINE
  5
5C7
330
5BA
100
AcDbEntity
  8
LC-001-100-D00-0
 62
     7
370
    25
100
AcDbLine
 10
288.782273
 20
285.930354
 30
0.0
 11
291.811526
 21
288.959607
 31
0.0
  0
LINE
  5
5C8
330
5BA
100
AcDbEntity
  8
LC-001-100-D00-0
 62
     7
370
    25
100
AcDbLine
 10
284.292145
 20
285.930354
 30
0.0
 11
287.360244
 21
288.998452
 31
0.0
  0
LINE
  5
5C9
330
5BA
100
AcDbEntity
  8
LC-001-100-D00-0
 62
     7
370
    25
100
AcDbLine
 10
279.802017
 20
285.930354
 30
0.0
 11
282.908961
 21
289.037298
 31
0.0
  0
LINE
  5
5CA
330
5BA
100
AcDbEntity
  8
LC-001-100-D00-0
 62
     7
370
    25
100
AcDbLine
 10
275.311889
 20
285.930354
 30
0.0
 11
278.457679
 21
289.076144
 31
0.0
  0
LINE
  5
5CB
330
5BA
100
AcDbEntity
  8
LC-001-100-D00-0
 62
     7
370
    25
100
AcDbLine
 10
270.821761
 20
285.930354
 30
0.0
 11
274.006397
 21
289.11499
 31
0.0
  0
LINE
  5
5CC
330
5BA
100
AcDbEntity
  8
LC-001-100-D00-0
 62
     7
370
    25
100
AcDbLine
 10
266.331633
 20
285.930354
 30
0.0
 11
269.555114
 21
289.153835
 31
0.0
  0
LINE
  5
5CD
330
5BA
100
AcDbEntity
  8
LC-001-100-D00-0
 62
     7
370
    25
100
AcDbLine
 10
261.841505
 20
285.930354
 30
0.0
 11
265.103832
 21
289.192681
 31
0.0
  0
LINE
  5
5CE
330
5BA
100
AcDbEntity
  8
LC-001-100-D00-0
 62
     7
370
    25
100
AcDbLine
 10
257.351377
 20
285.930354
 30
0.0
 11
260.652552
 21
289.231529
 31
0.0
  0
LINE
  5
5CF
330
5BA
100
AcDbEntity
  8
LC-001-100-D00-0
 62
     7
370
    25
100
AcDbLine
 10
252.861248
 20
285.930354
 30
0.0
 11
258.861248
 21
291.930354
 31
0.0
  0
LINE
  5
5D0
330
5BA
100
AcDbEntity
  8
LC-001-100-D00-0
 62
     7
370
    25
100
AcDbLine
 10
245.036017
 20
282.59525
 30
0.0
 11
250.564905
 21
288.124139
 31
0.0
  0
LINE
  5
5D1
330
5BA
100
AcDbEntity
  8
LC-001-100-D00-0
 62
     7
370
    25
100
AcDbLine
 10
239.425912
 20
281.475274
 30
0.0
 11
243.068054
 21
285.117416
 31
0.0
  0
LINE
  5
5D2
330
5BA
100
AcDbEntity
  8
LC-001-100-D00-0
 62
     7
370
    25
100
AcDbLine
 10
234.740864
 20
281.280354
 30
0.0
 11
237.750891
 21
284.29038
 31
0.0
  0
LINE
  5
5D3
330
5BA
100
AcDbEntity
  8
LC-001-100-D00-0
 62
     7
370
    25
100
AcDbLine
 10
230.250736
 20
281.280354
 30
0.0
 11
233.310659
 21
284.340277
 31
0.0
  0
LINE
  5
5D4
330
5BA
100
AcDbEntity
  8
LC-001-100-D00-0
 62
     7
370
    25
100
AcDbLine
 10
226.161878
 20
281.681624
 30
0.0
 11
229.418377
 21
284.938122
 31
0.0
  0
ENDBLK
  5
5BC
330
5BA
100
AcDbEntity
  8
0
100
AcDbBlockEnd
  0
BLOCK
  5
5E5
330
5DB
100
AcDbEntity
  8
0
100
AcDbBlockBegin
  2
*D58
 70
     1
 71
     0
 10
0.0
 20
0.0
 30
0.0
  3
*D58
  1

  0
LINE
  5
5DC
330
5DB
100
AcDbEntity
  8
LC-002-103-D00-0
 62
     2
370
    -2
100
AcDbLine
 10
95.96357
 20
356.430354
 30
0.0
 11
-9.067809
 21
356.430354
 31
0.0
  0
LINE
  5
5DD
330
5DB
100
AcDbEntity
  8
LC-002-103-D00-0
 62
     2
370
    -2
100
AcDbLine
 10
127.21357
 20
273.430354
 30
0.0
 11
-9.067809
 21
273.430354
 31
0.0
  0
LINE
  5
5DE
330
5DB
100
AcDbEntity
  8
LC-002-103-D00-0
 62
     2
370
    -2
100
AcDbLine
 10
-5.467809
 20
328.430354
 30
0.0
 11
-5.467809
 21
301.430354
 31
0.0
  0
SOLID
  5
5DF
330
5DB
100
AcDbEntity
  8
LC-002-103-D00-0
 62
     2
100
AcDbTrace
 10
-0.801142
 20
328.430354
 30
0.0
 11
-10.134476
 21
328.430354
 31
0.0
 12
-5.467809
 22
356.430354
 32
0.0
 13
-5.467809
 23
356.430354
 33
0.0
  0
SOLID
  5
5E0
330
5DB
100
AcDbEntity
  8
LC-002-103-D00-0
 62
     2
100
AcDbTrace
 10
-10.134476
 20
301.430354
 30
0.0
 11
-0.801142
 21
301.430354
 31
0.0
 12
-5.467809
 22
273.430354
 32
0.0
 13
-5.467809
 23
273.430354
 33
0.0
  0
MTEXT
  5
5E1
330
5DB
100
AcDbEntity
  8
LC-002-103-D00-0
 62
     2
100
AcDbMText
 10
-36.267809
 20
314.154391
 30
0.0
 40
28.0
 41
0.0
 71
     5
 72
     1
  1
\A1;83
  7
LCTX15-400-0-0pDIN-Schrift
 11
6.123031769111886E-17
 21
1.0
 31
0.0
 73
     1
 44
1.0
  0
POINT
  5
5E2
330
5DB
100
AcDbEntity
  8
Defpoints
 62
     0
100
AcDbPoint
 10
95.96357
 20
356.430354
 30
0.0
  0
POINT
  5
5E3
330
5DB
100
AcDbEntity
  8
Defpoints
 62
     0
100
AcDbPoint
 10
127.21357
 20
273.430354
 30
0.0
  0
POINT
  5
5E4
330
5DB
100
AcDbEntity
  8
Defpoints
 62
     0
100
AcDbPoint
 10
-5.467809
 20
273.430354
 30
0.0
  0
ENDBLK
  5
5E6
330
5DB
100
AcDbEntity
  8
0
100
AcDbBlockEnd
  0
BLOCK
  5
5F3
330
5E8
100
AcDbEntity
  8
0
100
AcDbBlockBegin
  2
*D59
 70
     1
 71
     0
 10
0.0
 20
0.0
 30
0.0
  3
*D59
  1

  0
LINE
  5
5E9
330
5E8
100
AcDbEntity
  8
LC-002-103-D00-0
 62
     2
370
    -2
100
AcDbLine
 10
295.16357
 20
345.430354
 30
0.0
 11
416.62966
 21
345.430354
 31
0.0
  0
LINE
  5
5EA
330
5E8
100
AcDbEntity
  8
LC-002-103-D00-0
 62
     2
370
    -2
100
AcDbLine
 10
292.66357
 20
282.430354
 30
0.0
 11
416.62966
 21
282.430354
 31
0.0
  0
LINE
  5
5EB
330
5E8
100
AcDbEntity
  8
LC-002-103-D00-0
 62
     2
370
    -2
100
AcDbLine
 10
413.02966
 20
317.430354
 30
0.0
 11
413.02966
 21
310.430354
 31
0.0
  0
LINE
  5
5EC
330
5E8
100
AcDbEntity
  8
LC-002-103-D00-0
 62
     2
370
    -2
100
AcDbLine
 10
413.02966
 20
345.430354
 30
0.0
 11
413.02966
 21
371.109116
 31
0.0
  0
SOLID
  5
5ED
330
5E8
100
AcDbEntity
  8
LC-002-103-D00-0
 62
     2
100
AcDbTrace
 10
417.696326
 20
317.430354
 30
0.0
 11
408.362993
 21
317.430354
 31
0.0
 12
413.02966
 22
345.430354
 32
0.0
 13
413.02966
 23
345.430354
 33
0.0
  0
SOLID
  5
5EE
330
5E8
100
AcDbEntity
  8
LC-002-103-D00-0
 62
     2
100
AcDbTrace
 10
408.362993
 20
310.430354
 30
0.0
 11
417.696326
 21
310.430354
 31
0.0
 12
413.02966
 22
282.430354
 32
0.0
 13
413.02966
 23
282.430354
 33
0.0
  0
MTEXT
  5
5EF
330
5E8
100
AcDbEntity
  8
LC-002-103-D00-0
 62
     2
100
AcDbMText
 10
382.22966
 20
348.360393
 30
0.0
 40
28.0
 41
0.0
 71
     5
 72
     1
  1
%%c\A1;63
  7
LCTX15-400-0-0pDIN-Schrift
 11
6.123031769111886E-17
 21
1.0
 31
0.0
 73
     1
 44
1.0
  0
POINT
  5
5F0
330
5E8
100
AcDbEntity
  8
Defpoints
 62
     0
100
AcDbPoint
 10
295.16357
 20
345.430354
 30
0.0
  0
POINT
  5
5F1
330
5E8
100
AcDbEntity
  8
Defpoints
 62
     0
100
AcDbPoint
 10
292.66357
 20
282.430354
 30
0.0
  0
POINT
  5
5F2
330
5E8
100
AcDbEntity
  8
Defpoints
 62
     0
100
AcDbPoint
 10
413.02966
 20
282.430354
 30
0.0
  0
ENDBLK
  5
5F4
330
5E8
100
AcDbEntity
  8
0
100
AcDbBlockEnd
  0
BLOCK
  5
601
330
5F6
100
AcDbEntity
  8
0
100
AcDbBlockBegin
  2
*D60
 70
     1
 71
     0
 10
0.0
 20
0.0
 30
0.0
  3
*D60
  1

  0
LINE
  5
5F7
330
5F6
100
AcDbEntity
  8
LC-002-103-D00-0
 62
     2
370
    -2
100
AcDbLine
 10
291.66357
 20
341.930354
 30
0.0
 11
368.710102
 21
341.930354
 31
0.0
  0
LINE
  5
5F8
330
5F6
100
AcDbEntity
  8
LC-002-103-D00-0
 62
     2
370
    -2
100
AcDbLine
 10
291.66357
 20
285.930354
 30
0.0
 11
368.710102
 21
285.930354
 31
0.0
  0
LINE
  5
5F9
330
5F6
100
AcDbEntity
  8
LC-002-103-D00-0
 62
     2
370
    -2
100
AcDbLine
 10
365.110102
 20
257.930354
 30
0.0
 11
365.110102
 21
229.930354
 31
0.0
  0
LINE
  5
5FA
330
5F6
100
AcDbEntity
  8
LC-002-103-D00-0
 62
     2
370
    -2
100
AcDbLine
 10
365.110102
 20
369.930354
 30
0.0
 11
365.110102
 21
388.687252
 31
0.0
  0
SOLID
  5
5FB
330
5F6
100
AcDbEntity
  8
LC-002-103-D00-0
 62
     2
100
AcDbTrace
 10
360.443436
 20
369.930354
 30
0.0
 11
369.776769
 21
369.930354
 31
0.0
 12
365.110102
 22
341.930354
 32
0.0
 13
365.110102
 23
341.930354
 33
0.0
  0
SOLID
  5
5FC
330
5F6
100
AcDbEntity
  8
LC-002-103-D00-0
 62
     2
100
AcDbTrace
 10
369.776769
 20
257.930354
 30
0.0
 11
360.443436
 21
257.930354
 31
0.0
 12
365.110102
 22
285.930354
 32
0.0
 13
365.110102
 23
285.930354
 33
0.0
  0
MTEXT
  5
5FD
330
5F6
100
AcDbEntity
  8
LC-002-103-D00-0
 62
     2
100
AcDbMText
 10
334.310102
 20
365.586393
 30
0.0
 40
28.0
 41
0.0
 71
     5
 72
     1
  1
%%c\A1;56
  7
LCTX15-400-0-0pDIN-Schrift
 11
6.123031769111886E-17
 21
1.0
 31
0.0
 73
     1
 44
1.0
  0
POINT
  5
5FE
330
5F6
100
AcDbEntity
  8
Defpoints
 62
     0
100
AcDbPoint
 10
291.66357
 20
341.930354
 30
0.0
  0
POINT
  5
5FF
330
5F6
100
AcDbEntity
  8
Defpoints
 62
     0
100
AcDbPoint
 10
291.66357
 20
285.930354
 30
0.0
  0
POINT
  5
600
330
5F6
100
AcDbEntity
  8
Defpoints
 62
     0
100
AcDbPoint
 10
365.110102
 20
285.930354
 30
0.0
  0
ENDBLK
  5
602
330
5F6
100
AcDbEntity
  8
0
100
AcDbBlockEnd
  0
BLOCK
  5
60F
330
605
100
AcDbEntity
  8
0
100
AcDbBlockBegin
  2
*D61
 70
     1
 71
     0
 10
0.0
 20
0.0
 30
0.0
  3
*D61
  1

  0
LINE
  5
606
330
605
100
AcDbEntity
  8
LC-002-103-D00-0
 62
     2
370
    -2
100
AcDbLine
 10
147.495425
 20
270.73024
 30
0.0
 11
147.495425
 21
119.880391
 31
0.0
  0
LINE
  5
607
330
605
100
AcDbEntity
  8
LC-002-103-D00-0
 62
     2
370
    -2
100
AcDbLine
 10
334.36357
 20
283.522264
 30
0.0
 11
334.36357
 21
119.880391
 31
0.0
  0
LINE
  5
608
330
605
100
AcDbEntity
  8
LC-002-103-D00-0
 62
     2
370
    -2
100
AcDbLine
 10
175.495425
 20
123.480391
 30
0.0
 11
306.36357
 21
123.480391
 31
0.0
  0
SOLID
  5
609
330
605
100
AcDbEntity
  8
LC-002-103-D00-0
 62
     2
100
AcDbTrace
 10
175.495425
 20
128.147057
 30
0.0
 11
175.495425
 21
118.813724
 31
0.0
 12
147.495425
 22
123.480391
 32
0.0
 13
147.495425
 23
123.480391
 33
0.0
  0
SOLID
  5
60A
330
605
100
AcDbEntity
  8
LC-002-103-D00-0
 62
     2
100
AcDbTrace
 10
306.36357
 20
118.813724
 30
0.0
 11
306.36357
 21
128.147057
 31
0.0
 12
334.36357
 22
123.480391
 32
0.0
 13
334.36357
 23
123.480391
 33
0.0
  0
MTEXT
  5
60B
330
605
100
AcDbEntity
  8
LC-002-103-D00-0
 62
     2
100
AcDbMText
 10
243.71389
 20
154.280391
 30
0.0
 40
28.0
 41
0.0
 71
     5
 72
     1
  1
\A1;187
  7
LCTX15-400-0-0pDIN-Schrift
 73
     1
 44
1.0
  0
POINT
  5
60C
330
605
100
AcDbEntity
  8
Defpoints
 62
     0
100
AcDbPoint
 10
147.495425
 20
270.73024
 30
0.0
  0
POINT
  5
60D
330
605
100
AcDbEntity
  8
Defpoints
 62
     0
100
AcDbPoint
 10
334.36357
 20
283.522264
 30
0.0
  0
POINT
  5
60E
330
605
100
AcDbEntity
  8
Defpoints
 62
     0
100
AcDbPoint
 10
334.36357
 20
123.480391
 30
0.0
  0
ENDBLK
  5
610
330
605
100
AcDbEntity
  8
0
100
AcDbBlockEnd
  0
BLOCK
  5
61E
330
612
100
AcDbEntity
  8
0
100
AcDbBlockBegin
  2
*D62
 70
     1
 71
     0
 10
0.0
 20
0.0
 30
0.0
  3
*D62
  1

  0
LINE
  5
613
330
612
100
AcDbEntity
  8
LC-002-103-D00-0
 62
     2
370
    -2
100
AcDbLine
 10
117.143325
 20
339.730354
 30
0.0
 11
67.603483
 21
339.730354
 31
0.0
  0
LINE
  5
614
330
612
100
AcDbEntity
  8
LC-002-103-D00-0
 62
     2
370
    -2
100
AcDbLine
 10
128.522526
 20
288.730354
 30
0.0
 11
67.603483
 21
288.730354
 31
0.0
  0
LINE
  5
615
330
612
100
AcDbEntity
  8
LC-002-103-D00-0
 62
     2
370
    -2
100
AcDbLine
 10
71.203483
 20
367.730354
 30
0.0
 11
71.203483
 21
395.730354
 31
0.0
  0
LINE
  5
616
330
612
100
AcDbEntity
  8
LC-002-103-D00-0
 62
     2
370
    -2
100
AcDbLine
 10
71.203483
 20
260.730354
 30
0.0
 11
71.203483
 21
232.730354
 31
0.0
  0
LINE
  5
617
330
612
100
AcDbEntity
  8
LC-002-103-D00-0
 62
     2
370
    -2
100
AcDbLine
 10
71.203483
 20
339.730354
 30
0.0
 11
71.203483
 21
288.730354
 31
0.0
  0
SOLID
  5
618
330
612
100
AcDbEntity
  8
LC-002-103-D00-0
 62
     2
100
AcDbTrace
 10
66.536816
 20
367.730354
 30
0.0
 11
75.87015
 21
367.730354
 31
0.0
 12
71.203483
 22
339.730354
 32
0.0
 13
71.203483
 23
339.730354
 33
0.0
  0
SOLID
  5
619
330
612
100
AcDbEntity
  8
LC-002-103-D00-0
 62
     2
100
AcDbTrace
 10
75.87015
 20
260.730354
 30
0.0
 11
66.536816
 21
260.730354
 31
0.0
 12
71.203483
 22
288.730354
 32
0.0
 13
71.203483
 23
288.730354
 33
0.0
  0
MTEXT
  5
61A
330
612
100
AcDbEntity
  8
LC-002-103-D00-0
 62
     2
100
AcDbMText
 10
40.403483
 20
313.560391
 30
0.0
 40
28.0
 41
0.0
 71
     5
 72
     1
  1
\A1;50
  7
LCTX15-400-0-0pDIN-Schrift
 11
6.123031769111886E-17
 21
1.0
 31
0.0
 73
     1
 44
1.0
  0
POINT
  5
61B
330
612
100
AcDbEntity
  8
Defpoints
 62
     0
100
AcDbPoint
 10
117.143325
 20
339.730354
 30
0.0
  0
POINT
  5
61C
330
612
100
AcDbEntity
  8
Defpoints
 62
     0
100
AcDbPoint
 10
128.522526
 20
288.730354
 30
0.0
  0
POINT
  5
61D
330
612
100
AcDbEntity
  8
Defpoints
 62
     0
100
AcDbPoint
 10
71.203483
 20
288.730354
 30
0.0
  0
ENDBLK
  5
61F
330
612
100
AcDbEntity
  8
0
100
AcDbBlockEnd
  0
BLOCK
  5
630
330
625
100
AcDbEntity
  8
0
100
AcDbBlockBegin
  2
*D63
 70
     1
 71
     0
 10
0.0
 20
0.0
 30
0.0
  3
*D63
  1

  0
LINE
  5
626
330
625
100
AcDbEntity
  8
LC-003-003-----0
 62
     2
370
    -2
100
AcDbLine
 10
113.745103
 20
286.008178
 30
0.0
 11
113.745103
 21
214.920391
 31
0.0
  0
LINE
  5
627
330
625
100
AcDbEntity
  8
LC-003-003-----0
 62
     2
370
    -2
100
AcDbLine
 10
181.187954
 20
286.099108
 30
0.0
 11
181.187954
 21
214.920391
 31
0.0
  0
LINE
  5
628
330
625
100
AcDbEntity
  8
LC-003-003-----0
 62
     2
370
    -2
100
AcDbLine
 10
141.745103
 20
218.520391
 30
0.0
 11
153.187954
 21
218.520391
 31
0.0
  0
LINE
  5
629
330
625
100
AcDbEntity
  8
LC-003-003-----0
 62
     2
370
    -2
100
AcDbLine
 10
181.187954
 20
218.520391
 30
0.0
 11
260.631699
 21
218.520391
 31
0.0
  0
SOLID
  5
62A
330
625
100
AcDbEntity
  8
LC-003-003-----0
 62
     2
100
AcDbTrace
 10
141.745103
 20
223.187057
 30
0.0
 11
141.745103
 21
213.853724
 31
0.0
 12
113.745103
 22
218.520391
 32
0.0
 13
113.745103
 23
218.520391
 33
0.0
  0
SOLID
  5
62B
330
625
100
AcDbEntity
  8
LC-003-003-----0
 62
     2
100
AcDbTrace
 10
153.187954
 20
213.853724
 30
0.0
 11
153.187954
 21
223.187057
 31
0.0
 12
181.187954
 22
218.520391
 32
0.0
 13
181.187954
 23
218.520391
 33
0.0
  0
MTEXT
  5
62C
330
625
100
AcDbEntity
  8
LC-003-003-----0
 62
     2
100
AcDbMText
 10
222.416308
 20
249.320391
 30
0.0
 40
28.0
 41
0.0
 71
     5
 72
     1
  1
\A1;%%c67,5
  7
LCTX15-400-0-0pDIN-Schrift
 73
     1
 44
1.0
  0
POINT
  5
62D
330
625
100
AcDbEntity
  8
Defpoints
 62
     0
100
AcDbPoint
 10
113.745103
 20
286.008178
 30
0.0
  0
POINT
  5
62E
330
625
100
AcDbEntity
  8
Defpoints
 62
     0
100
AcDbPoint
 10
181.187954
 20
286.099108
 30
0.0
  0
POINT
  5
62F
330
625
100
AcDbEntity
  8
Defpoints
 62
     0
100
AcDbPoint
 10
181.187954
 20
218.520391
 30
0.0
  0
ENDBLK
  5
631
330
625
100
AcDbEntity
  8
0
100
AcDbBlockEnd
  0
BLOCK
  5
63D
330
633
100
AcDbEntity
  8
0
100
AcDbBlockBegin
  2
*D64
 70
     1
 71
     0
 10
0.0
 20
0.0
 30
0.0
  3
*D64
  1

  0
LINE
  5
634
330
633
100
AcDbEntity
  8
LC-003-003-----0
 62
     2
370
    -2
100
AcDbLine
 10
93.46357
 20
308.743791
 30
0.0
 11
93.46357
 21
159.678391
 31
0.0
  0
LINE
  5
635
330
633
100
AcDbEntity
  8
LC-003-003-----0
 62
     2
370
    -2
100
AcDbLine
 10
201.46357
 20
339.930354
 30
0.0
 11
201.46357
 21
159.678391
 31
0.0
  0
LINE
  5
636
330
633
100
AcDbEntity
  8
LC-003-003-----0
 62
     2
370
    -2
100
AcDbLine
 10
121.46357
 20
163.278391
 30
0.0
 11
173.46357
 21
163.278391
 31
0.0
  0
SOLID
  5
637
330
633
100
AcDbEntity
  8
LC-003-003-----0
 62
     2
100
AcDbTrace
 10
121.46357
 20
167.945057
 30
0.0
 11
121.46357
 21
158.611724
 31
0.0
 12
93.46357
 22
163.278391
 32
0.0
 13
93.46357
 23
163.278391
 33
0.0
  0
SOLID
  5
638
330
633
100
AcDbEntity
  8
LC-003-003-----0
 62
     2
100
AcDbTrace
 10
173.46357
 20
158.611724
 30
0.0
 11
173.46357
 21
167.945057
 31
0.0
 12
201.46357
 22
163.278391
 32
0.0
 13
201.46357
 23
163.278391
 33
0.0
  0
MTEXT
  5
639
330
633
100
AcDbEntity
  8
LC-003-003-----0
 62
     2
100
AcDbMText
 10
143.615259
 20
194.078391
 30
0.0
 40
28.0
 41
0.0
 71
     5
 72
     1
  1
%%c\A1;108
  7
LCTX15-400-0-0pDIN-Schrift
 73
     1
 44
1.0
  0
POINT
  5
63A
330
633
100
AcDbEntity
  8
Defpoints
 62
     0
100
AcDbPoint
 10
93.46357
 20
308.743791
 30
0.0
  0
POINT
  5
63B
330
633
100
AcDbEntity
  8
Defpoints
 62
     0
100
AcDbPoint
 10
201.46357
 20
339.930354
 30
0.0
  0
POINT
  5
63C
330
633
100
AcDbEntity
  8
Defpoints
 62
     0
100
AcDbPoint
 10
201.46357
 20
163.278391
 30
0.0
  0
ENDBLK
  5
63E
330
633
100
AcDbEntity
  8
0
100
AcDbBlockEnd
  0
BLOCK
  5
64A
330
640
100
AcDbEntity
  8
0
100
AcDbBlockBegin
  2
*D65
 70
     1
 71
     0
 10
0.0
 20
0.0
 30
0.0
  3
*D65
  1

  0
LINE
  5
641
330
640
100
AcDbEntity
  8
LC-003-003-----0
 62
     2
370
    -2
100
AcDbLine
 10
88.963571
 20
349.930351
 30
0.0
 11
88.963571
 21
391.390999
 31
0.0
  0
LINE
  5
642
330
640
100
AcDbEntity
  8
LC-003-003-----0
 62
     2
370
    -2
100
AcDbLine
 10
205.96357
 20
349.930351
 30
0.0
 11
205.96357
 21
391.390999
 31
0.0
  0
LINE
  5
643
330
640
100
AcDbEntity
  8
LC-003-003-----0
 62
     2
370
    -2
100
AcDbLine
 10
116.963571
 20
387.790999
 30
0.0
 11
177.96357
 21
387.790999
 31
0.0
  0
SOLID
  5
644
330
640
100
AcDbEntity
  8
LC-003-003-----0
 62
     2
100
AcDbTrace
 10
116.963571
 20
392.457666
 30
0.0
 11
116.963571
 21
383.124333
 31
0.0
 12
88.963571
 22
387.790999
 32
0.0
 13
88.963571
 23
387.790999
 33
0.0
  0
SOLID
  5
645
330
640
100
AcDbEntity
  8
LC-003-003-----0
 62
     2
100
AcDbTrace
 10
177.96357
 20
383.124333
 30
0.0
 11
177.96357
 21
392.457666
 31
0.0
 12
205.96357
 22
387.790999
 32
0.0
 13
205.96357
 23
387.790999
 33
0.0
  0
MTEXT
  5
646
330
640
100
AcDbEntity
  8
LC-003-003-----0
 62
     2
100
AcDbMText
 10
144.108277
 20
418.590999
 30
0.0
 40
28.0
 41
0.0
 71
     5
 72
     1
  1
%%c\A1;117
  7
LCTX15-400-0-0pDIN-Schrift
 73
     1
 44
1.0
  0
POINT
  5
647
330
640
100
AcDbEntity
  8
Defpoints
 62
     0
100
AcDbPoint
 10
88.963571
 20
349.930351
 30
0.0
  0
POINT
  5
648
330
640
100
AcDbEntity
  8
Defpoints
 62
     0
100
AcDbPoint
 10
205.96357
 20
349.930351
 30
0.0
  0
POINT
  5
649
330
640
100
AcDbEntity
  8
Defpoints
 62
     0
100
AcDbPoint
 10
205.96357
 20
387.790999
 30
0.0
  0
ENDBLK
  5
64B
330
640
100
AcDbEntity
  8
0
100
AcDbBlockEnd
  0
BLOCK
  5
658
330
64D
100
AcDbEntity
  8
0
100
AcDbBlockBegin
  2
*D66
 70
     1
 71
     0
 10
0.0
 20
0.0
 30
0.0
  3
*D66
  1

  0
LINE
  5
64E
330
64D
100
AcDbEntity
  8
LC-003-003-----0
 62
     2
370
    -2
100
AcDbLine
 10
95.96357
 20
356.430354
 30
0.0
 11
20.748805
 21
356.430354
 31
0.0
  0
LINE
  5
64F
330
64D
100
AcDbEntity
  8
LC-003-003-----0
 62
     2
370
    -2
100
AcDbLine
 10
106.313567
 20
362.430354
 30
0.0
 11
20.748805
 21
362.430354
 31
0.0
  0
LINE
  5
650
330
64D
100
AcDbEntity
  8
LC-003-003-----0
 62
     2
370
    -2
100
AcDbLine
 10
24.348805
 20
328.430354
 30
0.0
 11
24.348805
 21
300.430354
 31
0.0
  0
LINE
  5
651
330
64D
100
AcDbEntity
  8
LC-003-003-----0
 62
     2
370
    -2
100
AcDbLine
 10
24.348805
 20
390.430354
 30
0.0
 11
24.348805
 21
431.589114
 31
0.0
  0
SOLID
  5
652
330
64D
100
AcDbEntity
  8
LC-003-003-----0
 62
     2
100
AcDbTrace
 10
29.015471
 20
328.430354
 30
0.0
 11
19.682138
 21
328.430354
 31
0.0
 12
24.348805
 22
356.430354
 32
0.0
 13
24.348805
 23
356.430354
 33
0.0
  0
SOLID
  5
653
330
64D
100
AcDbEntity
  8
LC-003-003-----0
 62
     2
100
AcDbTrace
 10
19.682138
 20
390.430354
 30
0.0
 11
29.015471
 21
390.430354
 31
0.0
 12
24.348805
 22
362.430354
 32
0.0
 13
24.348805
 23
362.430354
 33
0.0
  0
MTEXT
  5
654
330
64D
100
AcDbEntity
  8
LC-003-003-----0
 62
     2
100
AcDbMText
 10
-6.451195
 20
384.840391
 30
0.0
 40
28.0
 41
0.0
 71
     5
 72
     1
  1
\A1;6-25
  7
LCTX15-400-0-0pDIN-Schrift
 11
6.123031769111886E-17
 21
1.0
 31
0.0
 73
     1
 44
1.0
  0
POINT
  5
655
330
64D
100
AcDbEntity
  8
Defpoints
 62
     0
100
AcDbPoint
 10
95.96357
 20
356.430354
 30
0.0
  0
POINT
  5
656
330
64D
100
AcDbEntity
  8
Defpoints
 62
     0
100
AcDbPoint
 10
106.313567
 20
362.430354
 30
0.0
  0
POINT
  5
657
330
64D
100
AcDbEntity
  8
Defpoints
 62
     0
100
AcDbPoint
 10
24.348805
 20
362.430354
 30
0.0
  0
ENDBLK
  5
659
330
64D
100
AcDbEntity
  8
0
100
AcDbBlockEnd
  0
ENDSEC
  0
SECTION
  2
ENTITIES
  0
ARC
  5
32
330
1F
100
AcDbEntity
  8
LC-001-100-D00-0
 62
     7
370
    50
100
AcDbCircle
 10
292.663569
 20
48.679294
 30
0.0
 40
0.5
100
AcDbArc
 50
90.0
 51
180.0
  0
ARC
  5
33
330
1F
100
AcDbEntity
  8
LC-001-100-D00-0
 62
     7
370
    50
100
AcDbCircle
 10
292.663569
 20
40.679294
 30
0.0
 40
0.5
100
AcDbArc
 50
180.0
 51
270.0
  0
ARC
  5
34
330
1F
100
AcDbEntity
  8
LC-001-100-D00-0
 62
     7
370
    50
100
AcDbCircle
 10
294.663569
 20
48.679294
 30
0.0
 40
0.5
100
AcDbArc
 50
0.0
 51
90.0
  0
LINE
  5
35
330
1F
100
AcDbEntity
  8
LC-001-100-D00-0
 62
     7
370
    50
100
AcDbLine
 10
294.663566
 20
49.179294
 30
0.0
 11
292.663569
 21
49.179294
 31
0.0
  0
LINE
  5
36
330
1F
100
AcDbEntity
  8
LC-001-100-D00-0
 62
     7
370
    50
100
AcDbLine
 10
252.657096
 20
70.950431
 30
0.0
 11
252.163569
 21
71.240579
 31
0.0
  0
LINE
  5
37
330
1F
100
AcDbEntity
  8
LC-001-100-D00-0
 62
     7
370
    50
100
AcDbLine
 10
252.163569
 20
14.660281
 30
0.0
 11
252.657096
 21
14.950429
 31
0.0
  0
LINE
  5
38
330
1F
100
AcDbEntity
  8
LC-001-100-D00-0
 62
     7
370
    50
100
AcDbLine
 10
331.363569
 20
11.45043
 30
0.0
 11
334.363575
 21
12.54234
 31
0.0
  0
LINE
  5
39
330
1F
100
AcDbEntity
  8
LC-001-100-D00-0
 62
     7
370
    50
100
AcDbLine
 10
334.363575
 20
73.35852
 30
0.0
 11
331.363569
 21
74.450431
 31
0.0
  0
LINE
  5
3A
330
1F
100
AcDbEntity
  8
LC-001-100-D00-0
 62
     7
370
    50
100
AcDbLine
 10
292.663569
 20
11.45043
 30
0.0
 11
331.363569
 21
11.45043
 31
0.0
  0
LINE
  5
3B
330
1F
100
AcDbEntity
  8
LC-001-100-D00-0
 62
     7
370
    50
100
AcDbLine
 10
331.363569
 20
74.450431
 30
0.0
 11
292.663569
 21
74.450431
 31
0.0
  0
ARC
  5
3C
330
1F
100
AcDbEntity
  8
LC-001-100-D00-0
 62
     7
370
    50
100
AcDbCircle
 10
292.663569
 20
73.95043
 30
0.0
 40
0.5000000000000568
100
AcDbArc
 50
90.0
 51
180.0
  0
ARC
  5
3D
330
1F
100
AcDbEntity
  8
LC-001-100-D00-0
 62
     7
370
    50
100
AcDbCircle
 10
292.663569
 20
11.95043
 30
0.0
 40
0.5
100
AcDbArc
 50
180.0
 51
270.0
  0
ARC
  5
3E
330
1F
100
AcDbEntity
  8
LC-001-100-D00-0
 62
     7
370
    50
100
AcDbCircle
 10
291.663569
 20
71.45043
 30
0.0
 40
0.5
100
AcDbArc
 50
270.0
 51
0.0
  0
ARC
  5
3F
330
1F
100
AcDbEntity
  8
LC-001-100-D00-0
 62
     7
370
    50
100
AcDbCircle
 10
291.663569
 20
14.45043
 30
0.0
 40
0.5
100
AcDbArc
 50
0.0
 51
90.0
  0
LINE
  5
40
330
1F
100
AcDbEntity
  8
LC-001-100-D00-0
 62
     7
370
    50
100
AcDbLine
 10
252.657096
 20
14.950429
 30
0.0
 11
291.663567
 21
14.950429
 31
0.0
  0
LINE
  5
41
330
1F
100
AcDbEntity
  8
LC-001-100-D00-0
 62
     7
370
    50
100
AcDbLine
 10
291.663567
 20
70.950431
 30
0.0
 11
252.657096
 21
70.950431
 31
0.0
  0
LINE
  5
42
330
1F
100
AcDbEntity
  8
LC-001-100-D00-0
 62
     7
370
    50
100
AcDbLine
 10
211.163568
 20
68.950431
 30
0.0
 11
197.625805
 21
68.950431
 31
0.0
  0
LINE
  5
43
330
1F
100
AcDbEntity
  8
LC-001-100-D00-0
 62
     7
370
    50
100
AcDbLine
 10
197.625805
 20
16.95043
 30
0.0
 11
211.163568
 21
16.95043
 31
0.0
  0
CIRCLE
  5
44
330
1F
100
AcDbEntity
  8
LC-001-100-D00-0
 62
     7
370
    50
100
AcDbCircle
 10
147.463569
 20
42.95043
 30
0.0
 40
40.15000000000001
  0
CIRCLE
  5
45
330
1F
100
AcDbEntity
  8
LC-001-100-D00-0
 62
     7
370
    50
100
AcDbCircle
 10
147.463569
 20
42.95043
 30
0.0
 40
55.0
  0
LINE
  5
46
330
1F
100
AcDbEntity
  8
LC-001-100-D00-0
 62
     7
370
    50
100
AcDbLine
 10
109.713572
 20
44.45043
 30
0.0
 11
107.341597
 21
44.45043
 31
0.0
  0
LINE
  5
47
330
1F
100
AcDbEntity
  8
LC-001-100-D00-0
 62
     7
370
    50
100
AcDbLine
 10
109.713572
 20
41.45043
 30
0.0
 11
107.341597
 21
41.45043
 31
0.0
  0
LINE
  5
48
330
1F
100
AcDbEntity
  8
LC-001-100-D00-0
 62
     7
370
    50
100
AcDbLine
 10
109.713572
 20
44.45043
 30
0.0
 11
109.713572
 21
41.45043
 31
0.0
  0
LINE
  5
49
330
1F
100
AcDbEntity
  8
LC-001-100-D00-0
 62
     7
370
    50
100
AcDbLine
 10
145.963569
 20
5.200432
 30
0.0
 11
145.963569
 21
2.828461
 31
0.0
  0
LINE
  5
4A
330
1F
100
AcDbEntity
  8
LC-001-100-D00-0
 62
     7
370
    50
100
AcDbLine
 10
148.963569
 20
5.200432
 30
0.0
 11
148.963569
 21
2.828461
 31
0.0
  0
LINE
  5
4B
330
1F
100
AcDbEntity
  8
LC-001-100-D00-0
 62
     7
370
    50
100
AcDbLine
 10
145.963569
 20
5.200432
 30
0.0
 11
148.963569
 21
5.200432
 31
0.0
  0
LINE
  5
4C
330
1F
100
AcDbEntity
  8
LC-001-100-D00-0
 62
     7
370
    50
100
AcDbLine
 10
148.963569
 20
80.700428
 30
0.0
 11
148.963569
 21
83.072399
 31
0.0
  0
LINE
  5
4D
330
1F
100
AcDbEntity
  8
LC-001-100-D00-0
 62
     7
370
    50
100
AcDbLine
 10
148.963569
 20
80.700428
 30
0.0
 11
145.963569
 21
80.700428
 31
0.0
  0
LINE
  5
4E
330
1F
100
AcDbEntity
  8
LC-001-100-D00-0
 62
     7
370
    50
100
AcDbLine
 10
145.963569
 20
80.700428
 30
0.0
 11
145.963569
 21
83.072399
 31
0.0
  0
LINE
  5
4F
330
1F
100
AcDbEntity
  8
LC-001-100-D00-0
 62
     7
370
    50
100
AcDbLine
 10
185.213569
 20
44.45043
 30
0.0
 11
187.58554
 21
44.45043
 31
0.0
  0
LINE
  5
50
330
1F
100
AcDbEntity
  8
LC-001-100-D00-0
 62
     7
370
    50
100
AcDbLine
 10
185.213569
 20
41.45043
 30
0.0
 11
187.58554
 21
41.45043
 31
0.0
  0
LINE
  5
51
330
1F
100
AcDbEntity
  8
LC-001-100-D00-0
 62
     7
370
    50
100
AcDbLine
 10
185.213569
 20
41.45043
 30
0.0
 11
185.213569
 21
44.45043
 31
0.0
  0
LINE
  5
52
330
1F
100
AcDbEntity
  8
LC-001-100-D00-0
 62
     7
370
    50
100
AcDbLine
 10
109.963568
 20
44.45043
 30
0.0
 11
109.963568
 21
41.45043
 31
0.0
  0
LINE
  5
53
330
1F
100
AcDbEntity
  8
LC-001-100-D00-0
 62
     7
370
    50
100
AcDbLine
 10
109.713572
 20
44.45043
 30
0.0
 11
109.963568
 21
44.45043
 31
0.0
  0
LINE
  5
54
330
1F
100
AcDbEntity
  8
LC-001-100-D00-0
 62
     7
370
    50
100
AcDbLine
 10
109.963568
 20
41.45043
 30
0.0
 11
109.713572
 21
41.45043
 31
0.0
  0
LINE
  5
55
330
1F
100
AcDbEntity
  8
LC-001-100-D00-0
 62
     7
370
    50
100
AcDbLine
 10
184.96357
 20
41.45043
 30
0.0
 11
184.96357
 21
44.45043
 31
0.0
  0
LINE
  5
56
330
1F
100
AcDbEntity
  8
LC-001-100-D00-0
 62
     7
370
    50
100
AcDbLine
 10
184.96357
 20
44.45043
 30
0.0
 11
185.213569
 21
44.45043
 31
0.0
  0
LINE
  5
57
330
1F
100
AcDbEntity
  8
LC-001-100-D00-0
 62
     7
370
    50
100
AcDbLine
 10
185.213569
 20
41.45043
 30
0.0
 11
184.96357
 21
41.45043
 31
0.0
  0
LINE
  5
58
330
1F
100
AcDbEntity
  8
LC-001-100-D00-0
 62
     7
370
    50
100
AcDbLine
 10
145.963569
 20
5.450429
 30
0.0
 11
148.963569
 21
5.450429
 31
0.0
  0
LINE
  5
59
330
1F
100
AcDbEntity
  8
LC-001-100-D00-0
 62
     7
370
    50
100
AcDbLine
 10
145.963569
 20
5.200432
 30
0.0
 11
145.963569
 21
5.450429
 31
0.0
  0
LINE
  5
5A
330
1F
100
AcDbEntity
  8
LC-001-100-D00-0
 62
     7
370
    50
100
AcDbLine
 10
148.963569
 20
5.450429
 30
0.0
 11
148.963569
 21
5.200432
 31
0.0
  0
LINE
  5
5B
330
1F
100
AcDbEntity
  8
LC-001-100-D00-0
 62
     7
370
    50
100
AcDbLine
 10
148.963569
 20
80.450432
 30
0.0
 11
145.963569
 21
80.450432
 31
0.0
  0
LINE
  5
5C
330
1F
100
AcDbEntity
  8
LC-001-100-D00-0
 62
     7
370
    50
100
AcDbLine
 10
148.963569
 20
80.700428
 30
0.0
 11
148.963569
 21
80.450432
 31
0.0
  0
LINE
  5
5D
330
1F
100
AcDbEntity
  8
LC-001-100-D00-0
 62
     7
370
    50
100
AcDbLine
 10
145.963569
 20
80.450432
 30
0.0
 11
145.963569
 21
80.700428
 31
0.0
  0
LINE
  5
5E
330
1F
100
AcDbEntity
  8
LC-001-100-D00-0
 62
     7
370
    50
100
AcDbLine
 10
292.163568
 20
40.679294
 30
0.0
 11
292.163568
 21
48.679294
 31
0.0
  0
LINE
  5
5F
330
1F
100
AcDbEntity
  8
LC-001-100-D00-0
 62
     7
370
    50
100
AcDbLine
 10
295.163567
 20
48.679294
 30
0.0
 11
295.163567
 21
40.679442
 31
0.0
  0
LINE
  5
60
330
1F
100
AcDbEntity
  8
LC-001-100-D00-0
 62
     7
370
    50
100
AcDbLine
 10
294.663566
 20
40.179912
 30
0.0
 11
292.663569
 21
40.179912
 31
0.0
  0
LINE
  5
61
330
1F
100
AcDbEntity
  8
LC-001-100-D00-0
 62
     7
370
    50
100
AcDbLine
 10
252.657096
 20
14.950429
 30
0.0
 11
252.657096
 21
70.950431
 31
0.0
  0
LINE
  5
62
330
1F
100
AcDbEntity
  8
LC-001-100-D00-0
 62
     7
370
    50
100
AcDbLine
 10
331.363569
 20
11.45043
 30
0.0
 11
331.363569
 21
74.450431
 31
0.0
  0
LINE
  5
63
330
1F
100
AcDbEntity
  8
LC-001-100-D00-0
 62
     7
370
    50
100
AcDbLine
 10
334.363575
 20
73.35852
 30
0.0
 11
334.363575
 21
12.54234
 31
0.0
  0
LINE
  5
64
330
1F
100
AcDbEntity
  8
LC-001-100-D00-0
 62
     7
370
    50
100
AcDbLine
 10
292.163568
 20
48.561266
 30
0.0
 11
292.163568
 21
73.95043
 31
0.0
  0
LINE
  5
65
330
1F
100
AcDbEntity
  8
LC-001-100-D00-0
 62
     7
370
    50
100
AcDbLine
 10
292.163568
 20
11.950431
 30
0.0
 11
292.163568
 21
40.714994
 31
0.0
  0
LINE
  5
66
330
1F
100
AcDbEntity
  8
LC-001-100-D00-0
 62
     7
370
    50
100
AcDbLine
 10
243.626761
 20
-0.258039
 30
0.0
 11
243.447694
 21
-1.666705
 31
0.0
  0
LINE
  5
67
330
1F
100
AcDbEntity
  8
LC-001-100-D00-0
 62
     7
370
    50
100
AcDbLine
 10
241.688321
 20
-0.011633
 30
0.0
 11
243.626761
 21
-0.258039
 31
0.0
  0
ARC
  5
68
330
1F
100
AcDbEntity
  8
LC-001-100-D00-0
 62
     7
370
    50
100
AcDbCircle
 10
240.263569
 20
-0.546236
 30
0.0
 40
1.521747501205062
100
AcDbArc
 50
20.567441
 51
54.943834
  0
LINE
  5
69
330
1F
100
AcDbEntity
  8
LC-001-100-D00-0
 62
     7
370
    50
100
AcDbLine
 10
241.384039
 20
2.63789
 30
0.0
 11
241.137626
 21
0.69945
 31
0.0
  0
LINE
  5
6A
330
1F
100
AcDbEntity
  8
LC-001-100-D00-0
 62
     7
370
    50
100
AcDbLine
 10
239.975373
 20
2.816954
 30
0.0
 11
241.384039
 21
2.63789
 31
0.0
  0
LINE
  5
6B
330
1F
100
AcDbEntity
  8
LC-001-100-D00-0
 62
     7
370
    50
100
AcDbLine
 10
239.728967
 20
0.878514
 30
0.0
 11
239.975373
 21
2.816954
 31
0.0
  0
ARC
  5
6C
330
1F
100
AcDbEntity
  8
LC-001-100-D00-0
 62
     7
370
    50
100
AcDbCircle
 10
240.263569
 20
-0.546236
 30
0.0
 40
1.521747501205098
100
AcDbArc
 50
110.567441
 51
144.943834
  0
LINE
  5
6D
330
1F
100
AcDbEntity
  8
LC-001-100-D00-0
 62
     7
370
    50
100
AcDbLine
 10
237.079444
 20
0.574232
 30
0.0
 11
239.017884
 21
0.327823
 31
0.0
  0
LINE
  5
6E
330
1F
100
AcDbEntity
  8
LC-001-100-D00-0
 62
     7
370
    50
100
AcDbLine
 10
236.900377
 20
-0.834434
 30
0.0
 11
237.079444
 21
0.574232
 31
0.0
  0
LINE
  5
6F
330
1F
100
AcDbEntity
  8
LC-001-100-D00-0
 62
     7
370
    50
100
AcDbLine
 10
238.838817
 20
-1.08084
 30
0.0
 11
236.900377
 21
-0.834434
 31
0.0
  0
ARC
  5
70
330
1F
100
AcDbEntity
  8
LC-001-100-D00-0
 62
     7
370
    50
100
AcDbCircle
 10
240.263569
 20
-0.546236
 30
0.0
 40
1.521747501205098
100
AcDbArc
 50
200.567441
 51
234.943834
  0
LINE
  5
71
330
1F
100
AcDbEntity
  8
LC-001-100-D00-0
 62
     7
370
    50
100
AcDbLine
 10
239.143106
 20
-3.730363
 30
0.0
 11
239.389511
 21
-1.791923
 31
0.0
  0
LINE
  5
72
330
1F
100
AcDbEntity
  8
LC-001-100-D00-0
 62
     7
370
    50
100
AcDbLine
 10
240.551765
 20
-3.909427
 30
0.0
 11
239.143106
 21
-3.730363
 31
0.0
  0
LINE
  5
73
330
1F
100
AcDbEntity
  8
LC-001-100-D00-0
 62
     7
370
    50
100
AcDbLine
 10
240.79817
 20
-1.970987
 30
0.0
 11
240.551765
 21
-3.909427
 31
0.0
  0
ARC
  5
74
330
1F
100
AcDbEntity
  8
LC-001-100-D00-0
 62
     7
370
    50
100
AcDbCircle
 10
240.263569
 20
-0.546236
 30
0.0
 40
1.521747501205022
100
AcDbArc
 50
290.567441
 51
324.943834
  0
LINE
  5
75
330
1F
100
AcDbEntity
  8
LC-001-100-D00-0
 62
     7
370
    50
100
AcDbLine
 10
243.447694
 20
-1.666705
 30
0.0
 11
241.509254
 21
-1.420296
 31
0.0
  0
CIRCLE
  5
76
330
1F
100
AcDbEntity
  8
LC-001-100-D00-0
 62
     7
370
    50
100
AcDbCircle
 10
240.263569
 20
-0.546236
 30
0.0
 40
4.650000000000006
  0
LINE
  5
77
330
1F
100
AcDbEntity
  8
LC-001-100-D00-0
 62
     7
370
    50
100
AcDbLine
 10
240.768673
 20
-2.20305
 30
0.0
 11
239.360007
 21
-2.023986
 31
0.0
  0
ARC
  5
78
330
1F
100
AcDbEntity
  8
LC-001-100-D00-0
 62
     7
370
    50
100
AcDbCircle
 10
240.263569
 20
-0.546236
 30
0.0
 40
1.280499999999986
100
AcDbArc
 50
296.429918
 51
319.081358
  0
INSERT
  5
86
330
1F
100
AcDbEntity
  8
LC-001-100-D00-0
 62
     7
370
    50
100
AcDbBlockReference
  2
POLY1
 10
0.0
 20
0.0
 30
0.0
  0
INSERT
  5
94
330
1F
100
AcDbEntity
  8
LC-001-100-D00-0
 62
     7
370
    50
100
AcDbBlockReference
  2
POLY2
 10
0.0
 20
0.0
 30
0.0
  0
LINE
  5
95
330
1F
100
AcDbEntity
  8
LC-001-100-D00-0
 62
     7
370
    50
100
AcDbLine
 10
241.920384
 20
-0.04113
 30
0.0
 11
241.741317
 21
-1.449796
 31
0.0
  0
INSERT
  5
A3
330
1F
100
AcDbEntity
  8
LC-001-100-D00-0
 62
     7
370
    50
100
AcDbBlockReference
  2
POLY3
 10
0.0
 20
0.0
 30
0.0
  0
ARC
  5
A4
330
1F
100
AcDbEntity
  8
LC-001-100-D00-0
 62
     7
370
    50
100
AcDbCircle
 10
240.263569
 20
-0.546236
 30
0.0
 40
1.280500000000037
100
AcDbArc
 50
206.429918
 51
229.081358
  0
INSERT
  5
B2
330
1F
100
AcDbEntity
  8
LC-001-100-D00-0
 62
     7
370
    50
100
AcDbBlockReference
  2
POLY4
 10
0.0
 20
0.0
 30
0.0
  0
INSERT
  5
C0
330
1F
100
AcDbEntity
  8
LC-001-100-D00-0
 62
     7
370
    50
100
AcDbBlockReference
  2
POLY5
 10
0.0
 20
0.0
 30
0.0
  0
ARC
  5
C1
330
1F
100
AcDbEntity
  8
LC-001-100-D00-0
 62
     7
370
    50
100
AcDbCircle
 10
240.263569
 20
-0.546236
 30
0.0
 40
1.280500000000088
100
AcDbArc
 50
116.429918
 51
139.081358
  0
INSERT
  5
CF
330
1F
100
AcDbEntity
  8
LC-001-100-D00-0
 62
     7
370
    50
100
AcDbBlockReference
  2
POLY6
 10
0.0
 20
0.0
 30
0.0
  0
INSERT
  5
DD
330
1F
100
AcDbEntity
  8
LC-001-100-D00-0
 62
     7
370
    50
100
AcDbBlockReference
  2
POLY7
 10
0.0
 20
0.0
 30
0.0
  0
ARC
  5
DE
330
1F
100
AcDbEntity
  8
LC-001-100-D00-0
 62
     7
370
    50
100
AcDbCircle
 10
240.263569
 20
-0.546236
 30
0.0
 40
1.280500000000005
100
AcDbArc
 50
26.429918
 51
49.081358
  0
INSERT
  5
EC
330
1F
100
AcDbEntity
  8
LC-001-100-D00-0
 62
     7
370
    50
100
AcDbBlockReference
  2
POLY8
 10
0.0
 20
0.0
 30
0.0
  0
LINE
  5
ED
330
1F
100
AcDbEntity
  8
LC-001-100-D00-0
 62
     7
370
    50
100
AcDbLine
 10
238.606753
 20
-1.051343
 30
0.0
 11
238.785821
 21
0.357324
 31
0.0
  0
LINE
  5
EE
330
1F
100
AcDbEntity
  8
LC-001-100-D00-0
 62
     7
370
    50
100
AcDbLine
 10
239.758464
 20
1.110577
 30
0.0
 11
241.16713
 21
0.931514
 31
0.0
  0
ARC
  5
EF
330
1F
100
AcDbEntity
  8
LC-001-100-D00-0
 62
     7
370
    50
100
AcDbCircle
 10
240.263569
 20
-0.546236
 30
0.0
 40
1.280500000000014
100
AcDbArc
 50
319.081358
 51
26.429918
  0
ARC
  5
F0
330
1F
100
AcDbEntity
  8
LC-001-100-D00-0
 62
     7
370
    50
100
AcDbCircle
 10
240.263569
 20
-0.546236
 30
0.0
 40
1.280500000000034
100
AcDbArc
 50
229.081358
 51
296.429918
  0
ARC
  5
F1
330
1F
100
AcDbEntity
  8
LC-001-100-D00-0
 62
     7
370
    50
100
AcDbCircle
 10
240.263569
 20
-0.546236
 30
0.0
 40
1.280500000000085
100
AcDbArc
 50
139.081358
 51
206.429918
  0
ARC
  5
F2
330
1F
100
AcDbEntity
  8
LC-001-100-D00-0
 62
     7
370
    50
100
AcDbCircle
 10
240.263569
 20
-0.546236
 30
0.0
 40
1.280500000000063
100
AcDbArc
 50
49.081358
 51
116.429918
  0
LINE
  5
F3
330
1F
100
AcDbEntity
  8
LC-001-100-D00-0
 62
     7
370
    50
100
AcDbLine
 10
218.671693
 20
74.446463
 30
0.0
 11
218.671693
 21
11.454397
 31
0.0
  0
LINE
  5
F4
330
1F
100
AcDbEntity
  8
LC-001-100-D00-0
 62
     7
370
    50
100
AcDbLine
 10
218.671693
 20
74.446463
 30
0.0
 11
224.67169
 21
80.447098
 31
0.0
  0
LINE
  5
F5
330
1F
100
AcDbEntity
  8
LC-001-100-D00-0
 62
     7
370
    50
100
AcDbLine
 10
224.67169
 20
80.447098
 30
0.0
 11
224.67169
 21
5.614122
 31
0.0
  0
LINE
  5
F6
330
1F
100
AcDbEntity
  8
LC-001-100-D00-0
 62
     7
370
    50
100
AcDbLine
 10
224.67169
 20
5.453763
 30
0.0
 11
218.671693
 21
11.454397
 31
0.0
  0
INSERT
  5
104
330
1F
100
AcDbEntity
  8
LC-001-100-D00-0
 62
     7
370
    50
100
AcDbBlockReference
  2
POLY9
 10
0.0
 20
0.0
 30
0.0
  0
INSERT
  5
110
330
1F
100
AcDbEntity
  8
LC-001-100-D00-0
 62
     7
370
    50
100
AcDbBlockReference
  2
POLY10
 10
0.0
 20
0.0
 30
0.0
  0
LINE
  5
111
330
1F
100
AcDbEntity
  8
LC-001-100-D00-0
 62
     7
370
    50
100
AcDbLine
 10
248.763571
 20
5.76551
 30
0.0
 11
248.001876
 21
5.614122
 31
0.0
  0
LINE
  5
112
330
1F
100
AcDbEntity
  8
LC-001-100-D00-0
 62
     7
370
    50
100
AcDbLine
 10
248.001876
 20
80.437095
 30
0.0
 11
248.163568
 21
80.430423
 31
0.0
  0
LINE
  5
113
330
1F
100
AcDbEntity
  8
LC-001-100-D00-0
 62
     7
370
    50
100
AcDbLine
 10
224.67169
 20
80.447098
 30
0.0
 11
227.163571
 21
80.447098
 31
0.0
  0
LINE
  5
114
330
1F
100
AcDbEntity
  8
LC-001-100-D00-0
 62
     7
370
    50
100
AcDbLine
 10
248.001876
 20
80.437095
 30
0.0
 11
227.163571
 21
80.437095
 31
0.0
  0
LINE
  5
115
330
1F
100
AcDbEntity
  8
LC-001-100-D00-0
 62
     7
370
    50
100
AcDbLine
 10
224.67169
 20
5.614122
 30
0.0
 11
248.001876
 21
5.614122
 31
0.0
  0
LINE
  5
116
330
1F
100
AcDbEntity
  8
LC-001-100-D00-0
 62
     7
370
    50
100
AcDbLine
 10
251.673254
 20
8.63002
 30
0.0
 11
249.511557
 21
6.142014
 31
0.0
  0
LINE
  5
117
330
1F
100
AcDbEntity
  8
LC-001-100-D00-0
 62
     7
370
    50
100
AcDbLine
 10
249.511557
 20
79.758846
 30
0.0
 11
251.673254
 21
77.270841
 31
0.0
  0
LINE
  5
118
330
1F
100
AcDbEntity
  8
LC-001-100-D00-0
 62
     7
370
    50
100
AcDbLine
 10
252.163569
 20
75.958883
 30
0.0
 11
252.163569
 21
9.941978
 31
0.0
  0
INSERT
  5
126
330
1F
100
AcDbEntity
  8
LC-001-100-D00-0
 62
     7
370
    50
100
AcDbBlockReference
  2
POLY11
 10
0.0
 20
0.0
 30
0.0
  0
INSERT
  5
134
330
1F
100
AcDbEntity
  8
LC-001-100-D00-0
 62
     7
370
    50
100
AcDbBlockReference
  2
POLY12
 10
0.0
 20
0.0
 30
0.0
  0
INSERT
  5
146
330
1F
100
AcDbEntity
  8
LC-001-100-D00-0
 62
     7
370
    50
100
AcDbBlockReference
  2
POLY13
 10
0.0
 20
0.0
 30
0.0
  0
LINE
  5
147
330
1F
100
AcDbEntity
  8
LC-001-100-D00-0
 62
     7
370
    50
100
AcDbLine
 10
215.163569
 20
13.454668
 30
0.0
 11
215.163569
 21
72.382556
 31
0.0
  0
INSERT
  5
159
330
1F
100
AcDbEntity
  8
LC-001-100-D00-0
 62
     7
370
    50
100
AcDbBlockReference
  2
POLY14
 10
0.0
 20
0.0
 30
0.0
  0
LINE
  5
15A
330
1F
100
AcDbEntity
  8
LC-001-100-D00-0
 62
     7
370
    50
100
AcDbLine
 10
218.663568
 20
74.446463
 30
0.0
 11
218.663568
 21
74.386874
 31
0.0
  0
LINE
  5
15B
330
1F
100
AcDbEntity
  8
LC-001-100-D00-0
 62
     7
370
    50
100
AcDbLine
 10
218.663568
 20
74.446463
 30
0.0
 11
218.671693
 21
74.446463
 31
0.0
  0
LINE
  5
15C
330
1F
100
AcDbEntity
  8
LC-001-100-D00-0
 62
     7
370
    50
100
AcDbLine
 10
218.671693
 20
11.454397
 30
0.0
 11
217.163569
 21
11.454397
 31
0.0
  0
LINE
  5
15D
330
1F
100
AcDbEntity
  8
LC-001-100-D00-0
 62
     7
370
    50
100
AcDbLine
 10
217.163569
 20
74.386874
 30
0.0
 11
218.663568
 21
74.386874
 31
0.0
  0
LINE
  5
15E
330
1F
100
AcDbEntity
  8
LC-001-100-D00-0
 62
     7
370
    50
100
AcDbLine
 10
215.163569
 20
15.35496
 30
0.0
 11
211.163568
 21
15.35496
 31
0.0
  0
LINE
  5
15F
330
1F
100
AcDbEntity
  8
LC-001-100-D00-0
 62
     7
370
    50
100
AcDbLine
 10
211.163568
 20
70.477871
 30
0.0
 11
215.163569
 21
70.477871
 31
0.0
  0
LINE
  5
160
330
1F
100
AcDbEntity
  8
LC-001-100-D00-0
 62
     7
370
    50
100
AcDbLine
 10
211.163568
 20
70.477871
 30
0.0
 11
211.163568
 21
15.35496
 31
0.0
  0
CIRCLE
  5
161
330
1F
100
AcDbEntity
  8
LC-001-100-D00-0
 62
     7
370
    50
100
AcDbCircle
 10
240.263569
 20
-0.546236
 30
0.0
 40
5.0
  0
LINE
  5
162
330
1F
100
AcDbEntity
  8
LC-001-100-D00-0
 62
     7
370
    50
100
AcDbLine
 10
248.763571
 20
-7.046236
 30
0.0
 11
248.763571
 21
5.76551
 31
0.0
  0
LINE
  5
163
330
1F
100
AcDbEntity
  8
LC-001-100-D00-0
 62
     7
370
    50
100
AcDbLine
 10
231.888569
 20
-7.046236
 30
0.0
 11
248.763571
 21
-7.046236
 31
0.0
  0
LINE
  5
164
330
1F
100
AcDbEntity
  8
LC-001-100-D00-0
 62
     7
370
    50
100
AcDbLine
 10
224.67169
 20
5.453763
 30
0.0
 11
231.888569
 21
-7.046236
 31
0.0
  0
LINE
  5
165
330
1F
100
AcDbEntity
  8
LC-001-100-D00-0
 62
     7
370
    50
100
AcDbLine
 10
224.67169
 20
5.614122
 30
0.0
 11
224.67169
 21
5.453763
 31
0.0
  0
LINE
  5
166
330
1F
100
AcDbEntity
  8
LC-001-100-D00-0
 62
     7
370
    50
100
AcDbLine
 10
227.163571
 20
80.650431
 30
0.0
 11
248.163568
 21
80.650431
 31
0.0
  0
LINE
  5
167
330
1F
100
AcDbEntity
  8
LC-001-100-D00-0
 62
     7
370
    50
100
AcDbLine
 10
248.163568
 20
80.650431
 30
0.0
 11
248.163568
 21
80.430423
 31
0.0
  0
LINE
  5
168
330
1F
100
AcDbEntity
  8
LC-001-100-D00-0
 62
     7
370
    50
100
AcDbLine
 10
227.163571
 20
80.437095
 30
0.0
 11
227.163571
 21
80.650431
 31
0.0
  0
CIRCLE
  5
169
330
1F
100
AcDbEntity
  8
LC-001-100-D00-0
 62
     7
370
    50
100
AcDbCircle
 10
147.463569
 20
42.95043
 30
0.0
 40
56.0
  0
ARC
  5
16A
330
1F
100
AcDbEntity
  8
LC-001-100-D00-0
 62
     7
370
    50
100
AcDbCircle
 10
147.495425
 20
43.964882
 30
0.0
 40
39.75000000000001
100
AcDbArc
 50
7.675121
 51
20.741121
  0
ARC
  5
16B
330
1F
100
AcDbEntity
  8
LC-001-100-D00-0
 62
     7
370
    50
100
AcDbCircle
 10
147.495425
 20
43.964882
 30
0.0
 40
39.75
100
AcDbArc
 50
155.661714
 51
179.300112
  0
ARC
  5
16C
330
1F
100
AcDbEntity
  8
LC-001-100-D00-0
 62
     7
370
    50
100
AcDbCircle
 10
147.495425
 20
43.964882
 30
0.0
 40
39.74999999999999
100
AcDbArc
 50
183.626761
 51
267.791432
  0
ARC
  5
16D
330
1F
100
AcDbEntity
  8
LC-001-100-D00-0
 62
     7
370
    50
100
AcDbCircle
 10
147.495425
 20
43.964882
 30
0.0
 40
39.75
100
AcDbArc
 50
272.11667
 51
356.373239
  0
INSERT
  5
173
330
1F
100
AcDbEntity
  8
LC-001-100-D00-0
 62
     7
370
    50
100
AcDbBlockReference
  2
KLON1
 10
0.0
 20
0.0
 30
0.0
  0
CIRCLE
  5
174
330
1F
100
AcDbEntity
  8
LC-001-100-D00-0
 62
     7
370
    50
100
AcDbCircle
 10
147.495425
 20
43.964882
 30
0.0
 40
33.5
  0
CIRCLE
  5
175
330
1F
100
AcDbEntity
  8
LC-001-100-D00-0
 62
     7
370
    50
100
AcDbCircle
 10
147.495425
 20
43.964882
 30
0.0
 40
17.99999999999997
  0
LINE
  5
176
330
1F
100
AcDbEntity
  8
LC-001-100-D00-0
 62
     7
370
    50
100
AcDbLine
 10
88.982801
 20
41.45043
 30
0.0
 11
90.983483
 21
41.45043
 31
0.0
  0
LINE
  5
177
330
1F
100
AcDbEntity
  8
LC-001-100-D00-0
 62
     7
370
    50
100
AcDbLine
 10
90.983483
 20
44.45043
 30
0.0
 11
88.982801
 21
44.45043
 31
0.0
  0
LINE
  5
178
330
1F
100
AcDbEntity
  8
LC-001-100-D00-0
 62
     7
370
    50
100
AcDbLine
 10
105.05076
 20
83.241915
 30
0.0
 11
106.465461
 21
81.827221
 31
0.0
  0
ARC
  5
179
330
1F
100
AcDbEntity
  8
LC-001-100-D00-0
 62
     7
370
    50
100
AcDbCircle
 10
147.463569
 20
42.95043
 30
0.0
 40
56.49999999999999
100
AcDbArc
 50
91.521306
 51
133.478694
  0
ARC
  5
17A
330
1F
100
AcDbEntity
  8
LC-001-100-D00-0
 62
     7
370
    50
100
AcDbCircle
 10
147.463569
 20
42.95043
 30
0.0
 40
58.5
100
AcDbArc
 50
88.530716
 51
91.469284
  0
LINE
  5
17B
330
1F
100
AcDbEntity
  8
LC-001-100-D00-0
 62
     7
370
    50
100
AcDbLine
 10
148.963569
 20
99.430514
 30
0.0
 11
148.963569
 21
101.431196
 31
0.0
  0
ARC
  5
17C
330
1F
100
AcDbEntity
  8
LC-001-100-D00-0
 62
     7
370
    50
100
AcDbCircle
 10
147.463569
 20
42.95043
 30
0.0
 40
56.49999999999999
100
AcDbArc
 50
46.521306
 51
88.478694
  0
LINE
  5
17D
330
1F
100
AcDbEntity
  8
LC-001-100-D00-0
 62
     7
370
    50
100
AcDbLine
 10
187.755055
 20
85.363236
 30
0.0
 11
186.340361
 21
83.948543
 31
0.0
  0
ARC
  5
17E
330
1F
100
AcDbEntity
  8
LC-001-100-D00-0
 62
     7
370
    50
100
AcDbCircle
 10
147.463569
 20
42.95043
 30
0.0
 40
56.49999999999999
100
AcDbArc
 50
1.521306
 51
43.478694
  0
ARC
  5
17F
330
1F
100
AcDbEntity
  8
LC-001-100-D00-0
 62
     7
370
    50
100
AcDbCircle
 10
147.463569
 20
42.95043
 30
0.0
 40
58.5
100
AcDbArc
 50
358.530716
 51
1.469284
  0
LINE
  5
180
330
1F
100
AcDbEntity
  8
LC-001-100-D00-0
 62
     7
370
    50
100
AcDbLine
 10
203.943654
 20
41.45043
 30
0.0
 11
205.944336
 21
41.45043
 31
0.0
  0
ARC
  5
181
330
1F
100
AcDbEntity
  8
LC-001-100-D00-0
 62
     7
370
    50
100
AcDbCircle
 10
147.463569
 20
42.95043
 30
0.0
 40
56.50000000000001
100
AcDbArc
 50
316.521306
 51
358.478694
  0
LINE
  5
182
330
1F
100
AcDbEntity
  8
LC-001-100-D00-0
 62
     7
370
    50
100
AcDbLine
 10
148.963569
 20
-15.530335
 30
0.0
 11
148.963569
 21
-13.529653
 31
0.0
  0
LINE
  5
183
330
1F
100
AcDbEntity
  8
LC-001-100-D00-0
 62
     7
370
    50
100
AcDbLine
 10
145.963569
 20
-13.529653
 30
0.0
 11
145.963569
 21
-15.530335
 31
0.0
  0
LINE
  5
184
330
1F
100
AcDbEntity
  8
LC-001-100-D00-0
 62
     7
370
    50
100
AcDbLine
 10
107.172082
 20
0.537624
 30
0.0
 11
108.586776
 21
1.952318
 31
0.0
  0
ARC
  5
185
330
1F
100
AcDbEntity
  8
LC-001-100-D00-0
 62
     7
370
    50
100
AcDbCircle
 10
147.463569
 20
42.95043
 30
0.0
 40
58.49999999999999
100
AcDbArc
 50
223.530716
 51
226.469284
  0
LINE
  5
186
330
1F
100
AcDbEntity
  8
LC-001-100-D00-0
 62
     7
370
    50
100
AcDbLine
 10
106.465461
 20
4.07364
 30
0.0
 11
105.05076
 21
2.658946
 31
0.0
  0
LINE
  5
187
330
1F
100
AcDbEntity
  8
LC-001-100-D00-0
 62
     7
370
    50
100
AcDbLine
 10
145.963569
 20
101.431196
 30
0.0
 11
145.963569
 21
99.430514
 31
0.0
  0
LINE
  5
188
330
1F
100
AcDbEntity
  8
LC-001-100-D00-0
 62
     7
370
    50
100
AcDbLine
 10
205.944336
 20
44.45043
 30
0.0
 11
203.943654
 21
44.45043
 31
0.0
  0
ARC
  5
189
330
1F
100
AcDbEntity
  8
LC-001-100-D00-0
 62
     7
370
    50
100
AcDbCircle
 10
147.463569
 20
42.95043
 30
0.0
 40
58.50000000000001
100
AcDbArc
 50
133.530716
 51
136.469284
  0
ARC
  5
18A
330
1F
100
AcDbEntity
  8
LC-001-100-D00-0
 62
     7
370
    50
100
AcDbCircle
 10
147.463569
 20
42.95043
 30
0.0
 40
56.49999999999999
100
AcDbArc
 50
181.521306
 51
223.478694
  0
ARC
  5
18B
330
1F
100
AcDbEntity
  8
LC-001-100-D00-0
 62
     7
370
    50
100
AcDbCircle
 10
147.463569
 20
42.95043
 30
0.0
 40
56.50000000000001
100
AcDbArc
 50
271.521306
 51
313.478694
  0
ARC
  5
18C
330
1F
100
AcDbEntity
  8
LC-001-100-D00-0
 62
     7
370
    50
100
AcDbCircle
 10
147.463569
 20
42.95043
 30
0.0
 40
56.50000000000001
100
AcDbArc
 50
136.521306
 51
178.478694
  0
ARC
  5
18D
330
1F
100
AcDbEntity
  8
LC-001-100-D00-0
 62
     7
370
    50
100
AcDbCircle
 10
147.463569
 20
42.95043
 30
0.0
 40
56.49999999999999
100
AcDbArc
 50
226.521306
 51
268.478694
  0
LINE
  5
18E
330
1F
100
AcDbEntity
  8
LC-001-100-D00-0
 62
     7
370
    50
100
AcDbLine
 10
188.461681
 20
81.827221
 30
0.0
 11
189.876376
 21
83.241915
 31
0.0
  0
LINE
  5
18F
330
1F
100
AcDbEntity
  8
LC-001-100-D00-0
 62
     7
370
    50
100
AcDbLine
 10
189.876376
 20
2.658946
 30
0.0
 11
188.461681
 21
4.07364
 31
0.0
  0
ARC
  5
190
330
1F
100
AcDbEntity
  8
LC-001-100-D00-0
 62
     7
370
    50
100
AcDbCircle
 10
147.463569
 20
42.95043
 30
0.0
 40
58.49999999999999
100
AcDbArc
 50
43.530716
 51
46.469284
  0
ARC
  5
191
330
1F
100
AcDbEntity
  8
LC-001-100-D00-0
 62
     7
370
    50
100
AcDbCircle
 10
147.463569
 20
42.95043
 30
0.0
 40
58.5
100
AcDbArc
 50
178.530716
 51
181.469284
  0
ARC
  5
192
330
1F
100
AcDbEntity
  8
LC-001-100-D00-0
 62
     7
370
    50
100
AcDbCircle
 10
147.463569
 20
42.95043
 30
0.0
 40
58.49999999999999
100
AcDbArc
 50
268.530716
 51
271.469284
  0
ARC
  5
193
330
1F
100
AcDbEntity
  8
LC-001-100-D00-0
 62
     7
370
    50
100
AcDbCircle
 10
147.463569
 20
42.95043
 30
0.0
 40
58.50000000000001
100
AcDbArc
 50
313.530716
 51
316.469284
  0
LINE
  5
194
330
1F
100
AcDbEntity
  8
LC-001-100-D00-0
 62
     7
370
    50
100
AcDbLine
 10
108.586776
 20
83.948543
 30
0.0
 11
107.172082
 21
85.363236
 31
0.0
  0
LINE
  5
195
330
1F
100
AcDbEntity
  8
LC-001-100-D00-0
 62
     7
370
    50
100
AcDbLine
 10
186.340361
 20
1.952318
 30
0.0
 11
187.755055
 21
0.537624
 31
0.0
  0
ARC
  5
196
330
1F
100
AcDbEntity
  8
LC-001-100-D00-0
 62
     7
370
    50
100
AcDbCircle
 10
292.66357
 20
349.382874
 30
0.0
 40
0.5000000000000568
100
AcDbArc
 50
90.0
 51
180.0
  0
ARC
  5
197
330
1F
100
AcDbEntity
  8
LC-001-100-D00-0
 62
     7
370
    50
100
AcDbCircle
 10
294.66357
 20
349.382874
 30
0.0
 40
0.5
100
AcDbArc
 50
0.0
 51
90.0
  0
LINE
  5
198
330
1F
100
AcDbEntity
  8
LC-001-100-D00-0
 62
     7
370
    50
100
AcDbLine
 10
294.663566
 20
349.882876
 30
0.0
 11
292.66357
 21
349.882876
 31
0.0
  0
LINE
  5
199
330
1F
100
AcDbEntity
  8
LC-001-100-D00-0
 62
     7
370
    50
100
AcDbLine
 10
186.71357
 20
359.98035
 30
0.0
 11
185.495425
 21
359.98035
 31
0.0
  0
LINE
  5
19A
330
1F
100
AcDbEntity
  8
LC-001-100-D00-0
 62
     7
370
    50
100
AcDbLine
 10
109.495427
 20
359.98035
 30
0.0
 11
108.213569
 21
359.98035
 31
0.0
  0
LINE
  5
19B
330
1F
100
AcDbEntity
  8
LC-001-100-D00-0
 62
     7
370
    50
100
AcDbLine
 10
108.213569
 20
357.480353
 30
0.0
 11
109.495427
 21
357.480353
 31
0.0
  0
LINE
  5
19C
330
1F
100
AcDbEntity
  8
LC-001-100-D00-0
 62
     7
370
    50
100
AcDbLine
 10
185.495425
 20
357.480353
 30
0.0
 11
186.71357
 21
357.480353
 31
0.0
  0
LINE
  5
19D
330
1F
100
AcDbEntity
  8
LC-001-100-D00-0
 62
     7
370
    50
100
AcDbLine
 10
245.963569
 20
286.930353
 30
0.0
 11
245.963569
 21
288.780354
 31
0.0
  0
LINE
  5
19E
330
1F
100
AcDbEntity
  8
LC-001-100-D00-0
 62
     7
370
    50
100
AcDbLine
 10
245.963569
 20
339.080354
 30
0.0
 11
245.963569
 21
340.930356
 31
0.0
  0
LINE
  5
19F
330
1F
100
AcDbEntity
  8
LC-001-100-D00-0
 62
     7
370
    50
100
AcDbLine
 10
107.745427
 20
362.230351
 30
0.0
 11
107.745427
 21
360.230354
 31
0.0
  0
LINE
  5
1A0
330
1F
100
AcDbEntity
  8
LC-001-100-D00-0
 62
     7
370
    50
100
AcDbLine
 10
187.245425
 20
360.230354
 30
0.0
 11
187.245425
 21
362.230351
 31
0.0
  0
LINE
  5
1A1
330
1F
100
AcDbEntity
  8
LC-001-100-D00-0
 62
     7
370
    50
100
AcDbLine
 10
107.995424
 20
357.430352
 30
0.0
 11
107.995424
 21
355.730353
 31
0.0
  0
LINE
  5
1A2
330
1F
100
AcDbEntity
  8
LC-001-100-D00-0
 62
     7
370
    50
100
AcDbLine
 10
186.995425
 20
355.730353
 30
0.0
 11
186.995425
 21
357.430352
 31
0.0
  0
LINE
  5
1A3
330
1F
100
AcDbEntity
  8
LC-001-100-D00-0
 62
     7
370
    50
100
AcDbLine
 10
109.495427
 20
360.230354
 30
0.0
 11
109.495427
 21
357.430352
 31
0.0
  0
LINE
  5
1A4
330
1F
100
AcDbEntity
  8
LC-001-100-D00-0
 62
     7
370
    50
100
AcDbLine
 10
185.495425
 20
357.430352
 30
0.0
 11
185.495425
 21
358.396595
 31
0.0
  0
LINE
  5
1A5
330
1F
100
AcDbEntity
  8
LC-001-100-D00-0
 62
     7
370
    50
100
AcDbLine
 10
185.495425
 20
359.064115
 30
0.0
 11
185.495425
 21
360.230354
 31
0.0
  0
LINE
  5
1A6
330
1F
100
AcDbEntity
  8
LC-001-100-D00-0
 62
     7
370
    50
100
AcDbLine
 10
111.995424
 20
355.730353
 30
0.0
 11
111.995424
 21
352.230353
 31
0.0
  0
LINE
  5
1A7
330
1F
100
AcDbEntity
  8
LC-001-100-D00-0
 62
     7
370
    50
100
AcDbLine
 10
182.995425
 20
352.230353
 30
0.0
 11
182.995425
 21
355.730353
 31
0.0
  0
LINE
  5
1A8
330
1F
100
AcDbEntity
  8
LC-001-100-D00-0
 62
     7
370
    50
100
AcDbLine
 10
128.495424
 20
341.230353
 30
0.0
 11
128.495424
 21
288.730353
 31
0.0
  0
LINE
  5
1A9
330
1F
100
AcDbEntity
  8
LC-001-100-D00-0
 62
     7
370
    50
100
AcDbLine
 10
166.495425
 20
288.730353
 30
0.0
 11
166.495425
 21
341.230353
 31
0.0
  0
ARC
  5
1AA
330
1F
100
AcDbEntity
  8
LC-001-100-D00-0
 62
     7
370
    50
100
AcDbCircle
 10
111.495425
 20
352.230354
 30
0.0
 40
1.499999999999986
100
AcDbArc
 50
180.0
 51
205.523603
  0
LINE
  5
1AB
330
1F
100
AcDbEntity
  8
LC-001-100-D00-0
 62
     7
370
    50
100
AcDbLine
 10
184.995425
 20
352.230353
 30
0.0
 11
184.995425
 21
354.230357
 31
0.0
  0
LINE
  5
1AC
330
1F
100
AcDbEntity
  8
LC-001-100-D00-0
 62
     7
370
    50
100
AcDbLine
 10
109.995428
 20
354.230357
 30
0.0
 11
109.995428
 21
352.230353
 31
0.0
  0
LINE
  5
1AD
330
1F
100
AcDbEntity
  8
LC-001-100-D00-0
 62
     7
370
    50
100
AcDbLine
 10
187.345425
 20
354.230357
 30
0.0
 11
187.345425
 21
355.730353
 31
0.0
  0
LINE
  5
1AE
330
1F
100
AcDbEntity
  8
LC-001-100-D00-0
 62
     7
370
    50
100
AcDbLine
 10
107.645425
 20
355.730353
 30
0.0
 11
107.645425
 21
354.230357
 31
0.0
  0
LINE
  5
1AF
330
1F
100
AcDbEntity
  8
LC-001-100-D00-0
 62
     7
370
    50
100
AcDbLine
 10
177.995425
 20
337.230353
 30
0.0
 11
184.849037
 21
351.58403
 31
0.0
  0
LINE
  5
1B0
330
1F
100
AcDbEntity
  8
LC-001-100-D00-0
 62
     7
370
    50
100
AcDbLine
 10
110.141817
 20
351.58403
 30
0.0
 11
116.995423
 21
337.230353
 31
0.0
  0
ARC
  5
1B1
330
1F
100
AcDbEntity
  8
LC-001-100-D00-0
 62
     7
370
    50
100
AcDbCircle
 10
183.495425
 20
352.230354
 30
0.0
 40
1.500000000000031
100
AcDbArc
 50
334.476397
 51
0.0
  0
LINE
  5
1B2
330
1F
100
AcDbEntity
  8
LC-001-100-D00-0
 62
     7
370
    50
100
AcDbLine
 10
177.995425
 20
286.730354
 30
0.0
 11
177.995425
 21
337.230353
 31
0.0
  0
LINE
  5
1B3
330
1F
100
AcDbEntity
  8
LC-001-100-D00-0
 62
     7
370
    50
100
AcDbLine
 10
116.995423
 20
337.230353
 30
0.0
 11
116.995423
 21
286.730354
 31
0.0
  0
ARC
  5
1B4
330
1F
100
AcDbEntity
  8
LC-001-100-D00-0
 62
     7
370
    50
100
AcDbCircle
 10
167.995425
 20
286.730354
 30
0.0
 40
10.0
100
AcDbArc
 50
270.0
 51
0.0
  0
ARC
  5
1B5
330
1F
100
AcDbEntity
  8
LC-001-100-D00-0
 62
     7
370
    50
100
AcDbCircle
 10
126.995425
 20
286.730354
 30
0.0
 40
10.00000000000001
100
AcDbArc
 50
180.0
 51
270.0
  0
ARC
  5
1B6
330
1F
100
AcDbEntity
  8
LC-001-100-D00-0
 62
     7
370
    50
100
AcDbCircle
 10
235.86357
 20
313.930354
 30
0.0
 40
32.64999999999999
100
AcDbArc
 50
59.045986
 51
90.0
  0
ARC
  5
1B7
330
1F
100
AcDbEntity
  8
LC-001-100-D00-0
 62
     7
370
    50
100
AcDbCircle
 10
235.86357
 20
313.930354
 30
0.0
 40
32.65000000000003
100
AcDbArc
 50
270.0
 51
300.954014
  0
LINE
  5
1B8
330
1F
100
AcDbEntity
  8
LC-001-100-D00-0
 62
     7
370
    50
100
AcDbLine
 10
227.363571
 20
281.280353
 30
0.0
 11
235.863569
 21
281.280353
 31
0.0
  0
LINE
  5
1B9
330
1F
100
AcDbEntity
  8
LC-001-100-D00-0
 62
     7
370
    50
100
AcDbLine
 10
235.863569
 20
346.580354
 30
0.0
 11
227.363571
 21
346.580354
 31
0.0
  0
ARC
  5
1BA
330
1F
100
AcDbEntity
  8
LC-001-100-D00-0
 62
     7
370
    50
100
AcDbCircle
 10
227.36357
 20
283.280354
 30
0.0
 40
2.0
100
AcDbArc
 50
180.0
 51
270.0
  0
ARC
  5
1BB
330
1F
100
AcDbEntity
  8
LC-001-100-D00-0
 62
     7
370
    50
100
AcDbCircle
 10
227.36357
 20
344.580354
 30
0.0
 40
2.0
100
AcDbArc
 50
90.0
 51
180.0
  0
LINE
  5
1BC
330
1F
100
AcDbEntity
  8
LC-001-100-D00-0
 62
     7
370
    50
100
AcDbLine
 10
331.363569
 20
282.430353
 30
0.0
 11
292.66357
 21
282.430353
 31
0.0
  0
LINE
  5
1BD
330
1F
100
AcDbEntity
  8
LC-001-100-D00-0
 62
     7
370
    50
100
AcDbLine
 10
295.163567
 20
345.430357
 30
0.0
 11
331.363569
 21
345.430357
 31
0.0
  0
LINE
  5
1BE
330
1F
100
AcDbEntity
  8
LC-001-100-D00-0
 62
     7
370
    50
100
AcDbLine
 10
334.363575
 20
283.522264
 30
0.0
 11
331.363569
 21
282.430353
 31
0.0
  0
LINE
  5
1BF
330
1F
100
AcDbEntity
  8
LC-001-100-D00-0
 62
     7
370
    50
100
AcDbLine
 10
331.363569
 20
345.430357
 30
0.0
 11
334.363575
 21
344.338445
 31
0.0
  0
ARC
  5
1C0
330
1F
100
AcDbEntity
  8
LC-001-100-D00-0
 62
     7
370
    50
100
AcDbCircle
 10
235.86357
 20
313.930354
 30
0.0
 40
29.69999999999999
100
AcDbArc
 50
251.974138
 51
312.205446
  0
ARC
  5
1C1
330
1F
100
AcDbEntity
  8
LC-001-100-D00-0
 62
     7
370
    50
100
AcDbCircle
 10
235.86357
 20
313.930354
 30
0.0
 40
29.70000000000003
100
AcDbArc
 50
47.794554
 51
108.025862
  0
LINE
  5
1C2
330
1F
100
AcDbEntity
  8
LC-001-100-D00-0
 62
     7
370
    50
100
AcDbLine
 10
255.815762
 20
335.930353
 30
0.0
 11
255.815762
 21
291.930353
 31
0.0
  0
ARC
  5
1C3
330
1F
100
AcDbEntity
  8
LC-001-100-D00-0
 62
     7
370
    50
100
AcDbCircle
 10
226.36357
 20
284.737204
 30
0.0
 40
0.9999999999999639
100
AcDbArc
 50
71.974138
 51
180.0
  0
ARC
  5
1C4
330
1F
100
AcDbEntity
  8
LC-001-100-D00-0
 62
     7
370
    50
100
AcDbCircle
 10
226.36357
 20
343.123504
 30
0.0
 40
1.000000000000028
100
AcDbArc
 50
180.0
 51
288.025862
  0
LINE
  5
1C5
330
1F
100
AcDbEntity
  8
LC-001-100-D00-0
 62
     7
370
    50
100
AcDbLine
 10
225.36357
 20
286.255275
 30
0.0
 11
225.36357
 21
284.737204
 31
0.0
  0
ARC
  5
1C6
330
1F
100
AcDbEntity
  8
LC-001-100-D00-0
 62
     7
370
    50
100
AcDbCircle
 10
291.66357
 20
342.430354
 30
0.0
 40
0.5
100
AcDbArc
 50
270.0
 51
0.0
  0
ARC
  5
1C7
330
1F
100
AcDbEntity
  8
LC-001-100-D00-0
 62
     7
370
    50
100
AcDbCircle
 10
291.66357
 20
285.430354
 30
0.0
 40
0.5
100
AcDbArc
 50
0.0
 51
90.0
  0
LINE
  5
1C8
330
1F
100
AcDbEntity
  8
LC-001-100-D00-0
 62
     7
370
    50
100
AcDbLine
 10
295.163567
 20
342.088258
 30
0.0
 11
334.363575
 21
342.430351
 31
0.0
  0
LINE
  5
1C9
330
1F
100
AcDbEntity
  8
LC-001-100-D00-0
 62
     7
370
    50
100
AcDbLine
 10
334.363575
 20
285.430354
 30
0.0
 11
295.163567
 21
285.772447
 31
0.0
  0
LINE
  5
1CA
330
1F
100
AcDbEntity
  8
LC-001-100-D00-0
 62
     7
370
    50
100
AcDbLine
 10
334.363575
 20
342.430351
 30
0.0
 11
334.363575
 21
285.430354
 31
0.0
  0
LINE
  5
1CB
330
1F
100
AcDbEntity
  8
LC-001-100-D00-0
 62
     7
370
    50
100
AcDbLine
 10
291.663568
 20
285.930354
 30
0.0
 11
252.657096
 21
285.930354
 31
0.0
  0
LINE
  5
1CC
330
1F
100
AcDbEntity
  8
LC-001-100-D00-0
 62
     7
370
    50
100
AcDbLine
 10
252.657096
 20
341.93035
 30
0.0
 11
291.663568
 21
341.93035
 31
0.0
  0
LINE
  5
1CD
330
1F
100
AcDbEntity
  8
LC-001-100-D00-0
 62
     7
370
    50
100
AcDbLine
 10
260.65484
 20
338.629199
 30
0.0
 11
295.163567
 21
338.930351
 31
0.0
  0
LINE
  5
1CE
330
1F
100
AcDbEntity
  8
LC-001-100-D00-0
 62
     7
370
    50
100
AcDbLine
 10
295.163567
 20
288.930354
 30
0.0
 11
260.65484
 21
289.231507
 31
0.0
  0
LINE
  5
1CF
330
1F
100
AcDbEntity
  8
LC-001-100-D00-0
 62
     7
370
    50
100
AcDbLine
 10
295.163567
 20
338.930351
 30
0.0
 11
295.163567
 21
288.930354
 31
0.0
  0
ARC
  5
1D0
330
1F
100
AcDbEntity
  8
LC-001-100-D00-0
 62
     7
370
    50
100
AcDbCircle
 10
260.66357
 20
290.231469
 30
0.0
 40
1.0
100
AcDbArc
 50
180.0
 51
269.5
  0
ARC
  5
1D1
330
1F
100
AcDbEntity
  8
LC-001-100-D00-0
 62
     7
370
    50
100
AcDbCircle
 10
260.66357
 20
337.629239
 30
0.0
 40
1.000000000000006
100
AcDbArc
 50
90.5
 51
180.0
  0
LINE
  5
1D2
330
1F
100
AcDbEntity
  8
LC-001-100-D00-0
 62
     7
370
    50
100
AcDbLine
 10
255.815762
 20
291.930353
 30
0.0
 11
259.66357
 21
291.930353
 31
0.0
  0
LINE
  5
1D3
330
1F
100
AcDbEntity
  8
LC-001-100-D00-0
 62
     7
370
    50
100
AcDbLine
 10
259.66357
 20
335.930353
 30
0.0
 11
255.815762
 21
335.930353
 31
0.0
  0
LINE
  5
1D4
330
1F
100
AcDbEntity
  8
LC-001-100-D00-0
 62
     7
370
    50
100
AcDbLine
 10
259.66357
 20
335.930353
 30
0.0
 11
259.66357
 21
291.930353
 31
0.0
  0
INSERT
  5
1E6
330
1F
100
AcDbEntity
  8
LC-001-100-D00-0
 62
     7
370
    50
100
AcDbBlockReference
  2
POLY15
 10
0.0
 20
0.0
 30
0.0
  0
LINE
  5
1E7
330
1F
100
AcDbEntity
  8
LC-001-100-D00-0
 62
     7
370
    50
100
AcDbLine
 10
292.66357
 20
349.537512
 30
0.0
 11
294.663566
 21
349.537512
 31
0.0
  0
INSERT
  5
1FB
330
1F
100
AcDbEntity
  8
LC-001-100-D00-0
 62
     7
370
    50
100
AcDbBlockReference
  2
POLY16
 10
0.0
 20
0.0
 30
0.0
  0
LINE
  5
1FC
330
1F
100
AcDbEntity
  8
LC-001-100-D00-0
 62
     7
370
    50
100
AcDbLine
 10
295.163567
 20
345.430357
 30
0.0
 11
295.163567
 21
348.989954
 31
0.0
  0
LINE
  5
1FD
330
1F
100
AcDbEntity
  8
LC-001-100-D00-0
 62
     7
370
    50
100
AcDbLine
 10
259.66357
 20
335.930353
 30
0.0
 11
259.66357
 21
337.629242
 31
0.0
  0
LINE
  5
1FE
330
1F
100
AcDbEntity
  8
LC-001-100-D00-0
 62
     7
370
    50
100
AcDbLine
 10
295.163567
 20
342.088258
 30
0.0
 11
295.163567
 21
338.930351
 31
0.0
  0
LINE
  5
1FF
330
1F
100
AcDbEntity
  8
LC-001-100-D00-0
 62
     7
370
    50
100
AcDbLine
 10
334.363575
 20
342.430351
 30
0.0
 11
334.363575
 21
344.338445
 31
0.0
  0
LINE
  5
200
330
1F
100
AcDbEntity
  8
LC-001-100-D00-0
 62
     7
370
    50
100
AcDbLine
 10
225.36357
 20
343.123501
 30
0.0
 11
225.36357
 21
344.58035
 31
0.0
  0
LINE
  5
201
330
1F
100
AcDbEntity
  8
LC-001-100-D00-0
 62
     7
370
    50
100
AcDbLine
 10
292.163569
 20
348.989954
 30
0.0
 11
292.163569
 21
342.430351
 31
0.0
  0
ARC
  5
202
330
1F
100
AcDbEntity
  8
LC-001-100-D00-0
 62
     7
370
    50
100
AcDbCircle
 10
292.66357
 20
282.930354
 30
0.0
 40
0.5000000000001137
100
AcDbArc
 50
180.0
 51
270.0
  0
LINE
  5
203
330
1F
100
AcDbEntity
  8
LC-001-100-D00-0
 62
     7
370
    50
100
AcDbLine
 10
259.66357
 20
290.231468
 30
0.0
 11
259.66357
 21
291.930353
 31
0.0
  0
LINE
  5
204
330
1F
100
AcDbEntity
  8
LC-001-100-D00-0
 62
     7
370
    50
100
AcDbLine
 10
295.163567
 20
288.930354
 30
0.0
 11
295.163567
 21
285.772447
 31
0.0
  0
LINE
  5
205
330
1F
100
AcDbEntity
  8
LC-001-100-D00-0
 62
     7
370
    50
100
AcDbLine
 10
334.363575
 20
283.522264
 30
0.0
 11
334.363575
 21
285.430354
 31
0.0
  0
LINE
  5
206
330
1F
100
AcDbEntity
  8
LC-001-100-D00-0
 62
     7
370
    50
100
AcDbLine
 10
225.36357
 20
283.280354
 30
0.0
 11
225.36357
 21
284.737204
 31
0.0
  0
LINE
  5
207
330
1F
100
AcDbEntity
  8
LC-001-100-D00-0
 62
     7
370
    50
100
AcDbLine
 10
292.163569
 20
285.430354
 30
0.0
 11
292.163569
 21
282.930353
 31
0.0
  0
LINE
  5
208
330
1F
100
AcDbEntity
  8
LC-001-100-D00-0
 62
     7
370
    50
100
AcDbLine
 10
292.163569
 20
348.989954
 30
0.0
 11
292.163569
 21
349.382875
 31
0.0
  0
LINE
  5
209
330
1F
100
AcDbEntity
  8
LC-001-100-D00-0
 62
     7
370
    50
100
AcDbLine
 10
295.163567
 20
349.382875
 30
0.0
 11
295.163567
 21
348.989954
 31
0.0
  0
LINE
  5
20A
330
1F
100
AcDbEntity
  8
LC-001-100-D00-0
 62
     7
370
    50
100
AcDbLine
 10
224.671691
 20
351.430354
 30
0.0
 11
248.001876
 21
351.430354
 31
0.0
  0
ARC
  5
20B
330
1F
100
AcDbEntity
  8
LC-001-100-D00-0
 62
     7
370
    50
100
AcDbCircle
 10
248.001874
 20
349.430354
 30
0.0
 40
2.000000000000008
100
AcDbArc
 50
40.988433
 51
90.0
  0
LINE
  5
20C
330
1F
100
AcDbEntity
  8
LC-001-100-D00-0
 62
     7
370
    50
100
AcDbLine
 10
218.671694
 20
345.430357
 30
0.0
 11
224.671691
 21
351.430354
 31
0.0
  0
LINE
  5
20D
330
1F
100
AcDbEntity
  8
LC-001-100-D00-0
 62
     7
370
    50
100
AcDbLine
 10
249.511558
 20
350.742167
 30
0.0
 11
251.673254
 21
348.254403
 31
0.0
  0
LINE
  5
20E
330
1F
100
AcDbEntity
  8
LC-001-100-D00-0
 62
     7
370
    50
100
AcDbLine
 10
225.914332
 20
348.430356
 30
0.0
 11
220.664333
 21
343.180356
 31
0.0
  0
LINE
  5
20F
330
1F
100
AcDbEntity
  8
LC-001-100-D00-0
 62
     7
370
    50
100
AcDbLine
 10
225.914332
 20
345.958656
 30
0.0
 11
225.914332
 21
348.430356
 31
0.0
  0
LINE
  5
210
330
1F
100
AcDbEntity
  8
LC-001-100-D00-0
 62
     7
370
    50
100
AcDbLine
 10
247.546028
 20
344.418755
 30
0.0
 11
247.546028
 21
348.430356
 31
0.0
  0
LINE
  5
211
330
1F
100
AcDbEntity
  8
LC-001-100-D00-0
 62
     7
370
    50
100
AcDbLine
 10
252.16357
 20
343.116311
 30
0.0
 11
247.546028
 21
348.430356
 31
0.0
  0
LINE
  5
212
330
1F
100
AcDbEntity
  8
LC-001-100-D00-0
 62
     7
370
    50
100
AcDbLine
 10
252.16357
 20
342.220506
 30
0.0
 11
252.16357
 21
343.116311
 31
0.0
  0
LINE
  5
213
330
1F
100
AcDbEntity
  8
LC-001-100-D00-0
 62
     7
370
    50
100
AcDbLine
 10
247.546028
 20
348.430356
 30
0.0
 11
225.914332
 21
348.430356
 31
0.0
  0
ARC
  5
214
330
1F
100
AcDbEntity
  8
LC-001-100-D00-0
 62
     7
370
    50
100
AcDbCircle
 10
250.16357
 20
346.942592
 30
0.0
 40
2.000000000000028
100
AcDbArc
 50
0.0
 51
40.988433
  0
LINE
  5
215
330
1F
100
AcDbEntity
  8
LC-001-100-D00-0
 62
     7
370
    50
100
AcDbLine
 10
217.16357
 20
345.430357
 30
0.0
 11
218.671694
 21
345.430357
 31
0.0
  0
LINE
  5
216
330
1F
100
AcDbEntity
  8
LC-001-100-D00-0
 62
     7
370
    50
100
AcDbLine
 10
220.664333
 20
343.180356
 30
0.0
 11
216.96357
 21
343.180356
 31
0.0
  0
ARC
  5
217
330
1F
100
AcDbEntity
  8
LC-001-100-D00-0
 62
     7
370
    50
100
AcDbCircle
 10
217.16357
 20
343.430354
 30
0.0
 40
2.0
100
AcDbArc
 50
90.0
 51
180.0
  0
LINE
  5
218
330
1F
100
AcDbEntity
  8
LC-001-100-D00-0
 62
     7
370
    50
100
AcDbLine
 10
211.163569
 20
341.530351
 30
0.0
 11
215.163569
 21
341.530351
 31
0.0
  0
LINE
  5
219
330
1F
100
AcDbEntity
  8
LC-001-100-D00-0
 62
     7
370
    50
100
AcDbLine
 10
216.96357
 20
339.930354
 30
0.0
 11
211.163569
 21
339.930354
 31
0.0
  0
LINE
  5
21A
330
1F
100
AcDbEntity
  8
LC-001-100-D00-0
 62
     7
370
    50
100
AcDbLine
 10
211.163569
 20
287.930353
 30
0.0
 11
216.96357
 21
287.930353
 31
0.0
  0
LINE
  5
21B
330
1F
100
AcDbEntity
  8
LC-001-100-D00-0
 62
     7
370
    50
100
AcDbLine
 10
216.96357
 20
287.930353
 30
0.0
 11
216.96357
 21
284.680353
 31
0.0
  0
LINE
  5
21C
330
1F
100
AcDbEntity
  8
LC-001-100-D00-0
 62
     7
370
    50
100
AcDbLine
 10
216.96357
 20
284.680353
 30
0.0
 11
220.664333
 21
284.680353
 31
0.0
  0
LINE
  5
21D
330
1F
100
AcDbEntity
  8
LC-001-100-D00-0
 62
     7
370
    50
100
AcDbLine
 10
220.664333
 20
284.680353
 30
0.0
 11
225.914332
 21
279.430354
 31
0.0
  0
LINE
  5
21E
330
1F
100
AcDbEntity
  8
LC-001-100-D00-0
 62
     7
370
    50
100
AcDbLine
 10
225.914332
 20
279.430354
 30
0.0
 11
247.546028
 21
279.430354
 31
0.0
  0
LINE
  5
21F
330
1F
100
AcDbEntity
  8
LC-001-100-D00-0
 62
     7
370
    50
100
AcDbLine
 10
247.546028
 20
279.430354
 30
0.0
 11
252.16357
 21
284.744398
 31
0.0
  0
LINE
  5
220
330
1F
100
AcDbEntity
  8
LC-001-100-D00-0
 62
     7
370
    50
100
AcDbLine
 10
252.16357
 20
284.744398
 30
0.0
 11
252.16357
 21
280.918115
 31
0.0
  0
ARC
  5
221
330
1F
100
AcDbEntity
  8
LC-001-100-D00-0
 62
     7
370
    50
100
AcDbCircle
 10
250.16357
 20
280.918115
 30
0.0
 40
2.000000000000045
100
AcDbArc
 50
319.011567
 51
0.0
  0
LINE
  5
222
330
1F
100
AcDbEntity
  8
LC-001-100-D00-0
 62
     7
370
    50
100
AcDbLine
 10
251.673254
 20
279.606302
 30
0.0
 11
249.511558
 21
277.11854
 31
0.0
  0
ARC
  5
223
330
1F
100
AcDbEntity
  8
LC-001-100-D00-0
 62
     7
370
    50
100
AcDbCircle
 10
248.001874
 20
278.430354
 30
0.0
 40
2.0
100
AcDbArc
 50
270.0
 51
319.011567
  0
LINE
  5
224
330
1F
100
AcDbEntity
  8
LC-001-100-D00-0
 62
     7
370
    50
100
AcDbLine
 10
248.001876
 20
276.430354
 30
0.0
 11
224.671691
 21
276.430354
 31
0.0
  0
LINE
  5
225
330
1F
100
AcDbEntity
  8
LC-001-100-D00-0
 62
     7
370
    50
100
AcDbLine
 10
224.671691
 20
276.430354
 30
0.0
 11
218.671694
 21
282.430353
 31
0.0
  0
LINE
  5
226
330
1F
100
AcDbEntity
  8
LC-001-100-D00-0
 62
     7
370
    50
100
AcDbLine
 10
218.671694
 20
282.430353
 30
0.0
 11
217.16357
 21
282.430353
 31
0.0
  0
ARC
  5
227
330
1F
100
AcDbEntity
  8
LC-001-100-D00-0
 62
     7
370
    50
100
AcDbCircle
 10
217.16357
 20
284.430354
 30
0.0
 40
2.0
100
AcDbArc
 50
180.0
 51
270.0
  0
LINE
  5
228
330
1F
100
AcDbEntity
  8
LC-001-100-D00-0
 62
     7
370
    50
100
AcDbLine
 10
215.163569
 20
284.430354
 30
0.0
 11
215.163569
 21
286.330353
 31
0.0
  0
LINE
  5
229
330
1F
100
AcDbEntity
  8
LC-001-100-D00-0
 62
     7
370
    50
100
AcDbLine
 10
215.163569
 20
286.330353
 30
0.0
 11
211.163569
 21
286.330353
 31
0.0
  0
LINE
  5
22A
330
1F
100
AcDbEntity
  8
LC-001-100-D00-0
 62
     7
370
    50
100
AcDbLine
 10
211.163569
 20
286.330353
 30
0.0
 11
211.163569
 21
287.930353
 31
0.0
  0
LINE
  5
22B
330
1F
100
AcDbEntity
  8
LC-001-100-D00-0
 62
     7
370
    50
100
AcDbLine
 10
211.163569
 20
339.930354
 30
0.0
 11
211.163569
 21
341.530351
 31
0.0
  0
LINE
  5
22C
330
1F
100
AcDbEntity
  8
LC-001-100-D00-0
 62
     7
370
    50
100
AcDbLine
 10
215.163569
 20
341.530351
 30
0.0
 11
215.163569
 21
343.430353
 31
0.0
  0
LINE
  5
22D
330
1F
100
AcDbEntity
  8
LC-001-100-D00-0
 62
     7
370
    50
100
AcDbLine
 10
216.96357
 20
343.180356
 30
0.0
 11
216.96357
 21
339.930354
 31
0.0
  0
LINE
  5
22E
330
1F
100
AcDbEntity
  8
LC-001-100-D00-0
 62
     7
370
    50
100
AcDbLine
 10
252.16357
 20
346.942594
 30
0.0
 11
252.16357
 21
343.116311
 31
0.0
  0
LINE
  5
22F
330
1F
100
AcDbEntity
  8
LC-001-100-D00-0
 62
     7
370
    50
100
AcDbLine
 10
252.16357
 20
285.640205
 30
0.0
 11
252.16357
 21
284.744398
 31
0.0
  0
LINE
  5
230
330
1F
100
AcDbEntity
  8
LC-001-100-D00-0
 62
     7
370
    50
100
AcDbLine
 10
247.546028
 20
283.44195
 30
0.0
 11
247.546028
 21
279.430354
 31
0.0
  0
LINE
  5
231
330
1F
100
AcDbEntity
  8
LC-001-100-D00-0
 62
     7
370
    50
100
AcDbLine
 10
225.914332
 20
281.902054
 30
0.0
 11
225.914332
 21
279.430354
 31
0.0
  0
LINE
  5
232
330
1F
100
AcDbEntity
  8
LC-001-100-D00-0
 62
     7
370
    50
100
AcDbLine
 10
220.664333
 20
287.930353
 30
0.0
 11
220.664333
 21
284.680353
 31
0.0
  0
LINE
  5
233
330
1F
100
AcDbEntity
  8
LC-001-100-D00-0
 62
     7
370
    50
100
AcDbLine
 10
92.713568
 20
359.784899
 30
0.0
 11
101.963568
 21
354.444412
 31
0.0
  0
LINE
  5
234
330
1F
100
AcDbEntity
  8
LC-001-100-D00-0
 62
     7
370
    50
100
AcDbLine
 10
92.713568
 20
359.930349
 30
0.0
 11
92.713568
 21
359.784899
 31
0.0
  0
LINE
  5
235
330
1F
100
AcDbEntity
  8
LC-001-100-D00-0
 62
     7
370
    50
100
AcDbLine
 10
101.963568
 20
354.444412
 30
0.0
 11
101.963568
 21
359.930349
 31
0.0
  0
LINE
  5
236
330
1F
100
AcDbEntity
  8
LC-001-100-D00-0
 62
     7
370
    50
100
AcDbLine
 10
101.963568
 20
359.930349
 30
0.0
 11
92.713568
 21
359.930349
 31
0.0
  0
LINE
  5
237
330
1F
100
AcDbEntity
  8
LC-001-100-D00-0
 62
     7
370
    50
100
AcDbLine
 10
192.96357
 20
359.930349
 30
0.0
 11
192.96357
 21
354.444412
 31
0.0
  0
LINE
  5
238
330
1F
100
AcDbEntity
  8
LC-001-100-D00-0
 62
     7
370
    50
100
AcDbLine
 10
101.963568
 20
354.444412
 30
0.0
 11
104.463573
 21
354.444412
 31
0.0
  0
LINE
  5
239
330
1F
100
AcDbEntity
  8
LC-001-100-D00-0
 62
     7
370
    50
100
AcDbLine
 10
190.46357
 20
354.444412
 30
0.0
 11
192.96357
 21
354.444412
 31
0.0
  0
LINE
  5
23A
330
1F
100
AcDbEntity
  8
LC-001-100-D00-0
 62
     7
370
    50
100
AcDbLine
 10
202.21357
 20
359.784899
 30
0.0
 11
202.21357
 21
359.930349
 31
0.0
  0
LINE
  5
23B
330
1F
100
AcDbEntity
  8
LC-001-100-D00-0
 62
     7
370
    50
100
AcDbLine
 10
192.96357
 20
354.444412
 30
0.0
 11
202.21357
 21
359.784899
 31
0.0
  0
LINE
  5
23C
330
1F
100
AcDbEntity
  8
LC-001-100-D00-0
 62
     7
370
    50
100
AcDbLine
 10
202.21357
 20
359.930349
 30
0.0
 11
192.96357
 21
359.930349
 31
0.0
  0
LINE
  5
23D
330
1F
100
AcDbEntity
  8
LC-001-100-D00-0
 62
     7
370
    50
100
AcDbLine
 10
187.613569
 20
332.430353
 30
0.0
 11
184.96357
 21
332.430353
 31
0.0
  0
LINE
  5
23E
330
1F
100
AcDbEntity
  8
LC-001-100-D00-0
 62
     7
370
    50
100
AcDbLine
 10
107.313569
 20
354.230357
 30
0.0
 11
107.313569
 21
361.430352
 31
0.0
  0
LINE
  5
23F
330
1F
100
AcDbEntity
  8
LC-001-100-D00-0
 62
     7
370
    50
100
AcDbLine
 10
187.613569
 20
361.430352
 30
0.0
 11
187.613569
 21
354.230357
 31
0.0
  0
LINE
  5
240
330
1F
100
AcDbEntity
  8
LC-001-100-D00-0
 62
     7
370
    50
100
AcDbLine
 10
187.613569
 20
332.430353
 30
0.0
 11
187.613569
 21
317.430353
 31
0.0
  0
LINE
  5
241
330
1F
100
AcDbEntity
  8
LC-001-100-D00-0
 62
     7
370
    50
100
AcDbLine
 10
107.313569
 20
317.430353
 30
0.0
 11
116.995423
 21
317.430353
 31
0.0
  0
LINE
  5
242
330
1F
100
AcDbEntity
  8
LC-001-100-D00-0
 62
     7
370
    50
100
AcDbLine
 10
177.995425
 20
317.430353
 30
0.0
 11
187.613569
 21
317.430353
 31
0.0
  0
LINE
  5
243
330
1F
100
AcDbEntity
  8
LC-001-100-D00-0
 62
     7
370
    50
100
AcDbLine
 10
107.313569
 20
317.430353
 30
0.0
 11
107.313569
 21
332.430353
 31
0.0
  0
LINE
  5
244
330
1F
100
AcDbEntity
  8
LC-001-100-D00-0
 62
     7
370
    50
100
AcDbLine
 10
109.963569
 20
332.430353
 30
0.0
 11
107.313569
 21
332.430353
 31
0.0
  0
LINE
  5
245
330
1F
100
AcDbEntity
  8
LC-001-100-D00-0
 62
     7
370
    50
100
AcDbLine
 10
105.963568
 20
317.430353
 30
0.0
 11
104.463573
 21
318.930352
 31
0.0
  0
LINE
  5
246
330
1F
100
AcDbEntity
  8
LC-001-100-D00-0
 62
     7
370
    50
100
AcDbLine
 10
190.46357
 20
318.930352
 30
0.0
 11
188.96357
 21
317.430353
 31
0.0
  0
LINE
  5
247
330
1F
100
AcDbEntity
  8
LC-001-100-D00-0
 62
     7
370
    50
100
AcDbLine
 10
190.46357
 20
318.930352
 30
0.0
 11
190.46357
 21
359.930349
 31
0.0
  0
LINE
  5
248
330
1F
100
AcDbEntity
  8
LC-001-100-D00-0
 62
     7
370
    50
100
AcDbLine
 10
104.463573
 20
359.930349
 30
0.0
 11
104.463573
 21
318.930352
 31
0.0
  0
ARC
  5
249
330
1F
100
AcDbEntity
  8
LC-001-100-D00-0
 62
     7
370
    50
100
AcDbCircle
 10
104.842134
 20
312.430354
 30
0.0
 40
49.99999999999994
100
AcDbArc
 50
90.0
 51
104.33384
  0
LINE
  5
24A
330
1F
100
AcDbEntity
  8
LC-001-100-D00-0
 62
     7
370
    50
100
AcDbLine
 10
106.313567
 20
362.430354
 30
0.0
 11
104.842137
 21
362.430354
 31
0.0
  0
ARC
  5
24B
330
1F
100
AcDbEntity
  8
LC-001-100-D00-0
 62
     7
370
    50
100
AcDbCircle
 10
106.31357
 20
361.430354
 30
0.0
 40
1.0
100
AcDbArc
 50
0.0
 51
90.0
  0
LINE
  5
24C
330
1F
100
AcDbEntity
  8
LC-001-100-D00-0
 62
     7
370
    50
100
AcDbLine
 10
109.963569
 20
347.297339
 30
0.0
 11
109.963569
 21
332.430353
 31
0.0
  0
LINE
  5
24D
330
1F
100
AcDbEntity
  8
LC-001-100-D00-0
 62
     7
370
    50
100
AcDbLine
 10
92.463571
 20
360.873839
 30
0.0
 11
92.463571
 21
359.930349
 31
0.0
  0
LINE
  5
24E
330
1F
100
AcDbEntity
  8
LC-001-100-D00-0
 62
     7
370
    50
100
AcDbLine
 10
109.713572
 20
354.230357
 30
0.0
 11
107.313569
 21
354.230357
 31
0.0
  0
LINE
  5
24F
330
1F
100
AcDbEntity
  8
LC-001-100-D00-0
 62
     7
370
    50
100
AcDbLine
 10
109.713572
 20
348.230352
 30
0.0
 11
109.713572
 21
354.230357
 31
0.0
  0
LINE
  5
250
330
1F
100
AcDbEntity
  8
LC-001-100-D00-0
 62
     7
370
    50
100
AcDbLine
 10
92.463571
 20
359.930349
 30
0.0
 11
104.463573
 21
359.930349
 31
0.0
  0
LINE
  5
251
330
1F
100
AcDbEntity
  8
LC-001-100-D00-0
 62
     7
370
    50
100
AcDbLine
 10
105.963568
 20
317.430353
 30
0.0
 11
107.313569
 21
317.430353
 31
0.0
  0
LINE
  5
252
330
1F
100
AcDbEntity
  8
LC-001-100-D00-0
 62
     7
370
    50
100
AcDbLine
 10
109.963569
 20
347.297339
 30
0.0
 11
109.713572
 21
348.230352
 31
0.0
  0
LINE
  5
253
330
1F
100
AcDbEntity
  8
LC-001-100-D00-0
 62
     7
370
    50
100
AcDbLine
 10
202.46357
 20
359.930349
 30
0.0
 11
202.46357
 21
360.873839
 31
0.0
  0
ARC
  5
254
330
1F
100
AcDbEntity
  8
LC-001-100-D00-0
 62
     7
370
    50
100
AcDbCircle
 10
190.085005
 20
312.430354
 30
0.0
 40
49.99999999999992
100
AcDbArc
 50
75.66616
 51
90.0
  0
ARC
  5
255
330
1F
100
AcDbEntity
  8
LC-001-100-D00-0
 62
     7
370
    50
100
AcDbCircle
 10
188.61357
 20
361.430354
 30
0.0
 40
1.0
100
AcDbArc
 50
90.0
 51
180.0
  0
LINE
  5
256
330
1F
100
AcDbEntity
  8
LC-001-100-D00-0
 62
     7
370
    50
100
AcDbLine
 10
190.085006
 20
362.430354
 30
0.0
 11
188.61357
 21
362.430354
 31
0.0
  0
LINE
  5
257
330
1F
100
AcDbEntity
  8
LC-001-100-D00-0
 62
     7
370
    50
100
AcDbLine
 10
184.96357
 20
332.430353
 30
0.0
 11
184.96357
 21
347.297339
 31
0.0
  0
LINE
  5
258
330
1F
100
AcDbEntity
  8
LC-001-100-D00-0
 62
     7
370
    50
100
AcDbLine
 10
187.613569
 20
354.230357
 30
0.0
 11
185.21357
 21
354.230357
 31
0.0
  0
LINE
  5
259
330
1F
100
AcDbEntity
  8
LC-001-100-D00-0
 62
     7
370
    50
100
AcDbLine
 10
190.46357
 20
359.930349
 30
0.0
 11
202.46357
 21
359.930349
 31
0.0
  0
LINE
  5
25A
330
1F
100
AcDbEntity
  8
LC-001-100-D00-0
 62
     7
370
    50
100
AcDbLine
 10
187.613569
 20
317.430353
 30
0.0
 11
188.96357
 21
317.430353
 31
0.0
  0
LINE
  5
25B
330
1F
100
AcDbEntity
  8
LC-001-100-D00-0
 62
     7
370
    50
100
AcDbLine
 10
185.21357
 20
354.230357
 30
0.0
 11
185.21357
 21
348.230352
 31
0.0
  0
LINE
  5
25C
330
1F
100
AcDbEntity
  8
LC-001-100-D00-0
 62
     7
370
    50
100
AcDbLine
 10
185.21357
 20
348.230352
 30
0.0
 11
184.96357
 21
347.297339
 31
0.0
  0
LINE
  5
25D
330
1F
100
AcDbEntity
  8
LC-001-100-D00-0
 62
     7
370
    50
100
AcDbLine
 10
106.313567
 20
362.430354
 30
0.0
 11
188.61357
 21
362.430354
 31
0.0
  0
CIRCLE
  5
25E
330
1F
100
AcDbEntity
  8
LC-001-100-D00-0
 62
     7
370
    50
100
AcDbCircle
 10
108.21357
 20
358.730354
 30
0.0
 40
1.250000000000014
  0
CIRCLE
  5
25F
330
1F
100
AcDbEntity
  8
LC-001-100-D00-0
 62
     7
370
    50
100
AcDbCircle
 10
186.71357
 20
358.730354
 30
0.0
 40
1.25
  0
LINE
  5
260
330
1F
100
AcDbEntity
  8
LC-001-100-D00-0
 62
     7
370
    50
100
AcDbLine
 10
91.463569
 20
349.930351
 30
0.0
 11
91.463569
 21
360.930351
 31
0.0
  0
LINE
  5
261
330
1F
100
AcDbEntity
  8
LC-001-100-D00-0
 62
     7
370
    50
100
AcDbLine
 10
203.46357
 20
360.930351
 30
0.0
 11
203.46357
 21
349.930351
 31
0.0
  0
LINE
  5
262
330
1F
100
AcDbEntity
  8
LC-001-100-D00-0
 62
     7
370
    50
100
AcDbLine
 10
203.46357
 20
360.930351
 30
0.0
 11
202.24025
 21
360.930351
 31
0.0
  0
LINE
  5
263
330
1F
100
AcDbEntity
  8
LC-001-100-D00-0
 62
     7
370
    50
100
AcDbLine
 10
92.686887
 20
360.930351
 30
0.0
 11
91.463569
 21
360.930351
 31
0.0
  0
LINE
  5
264
330
1F
100
AcDbEntity
  8
LC-001-100-D00-0
 62
     7
370
    50
100
AcDbLine
 10
91.463569
 20
360.930351
 30
0.0
 11
95.96357
 21
356.430357
 31
0.0
  0
LINE
  5
265
330
1F
100
AcDbEntity
  8
LC-001-100-D00-0
 62
     7
370
    50
100
AcDbLine
 10
198.963571
 20
356.430357
 30
0.0
 11
203.46357
 21
360.930351
 31
0.0
  0
LINE
  5
266
330
1F
100
AcDbEntity
  8
LC-001-100-D00-0
 62
     7
370
    50
100
AcDbLine
 10
93.463573
 20
353.930352
 30
0.0
 11
93.463573
 21
349.930351
 31
0.0
  0
LINE
  5
267
330
1F
100
AcDbEntity
  8
LC-001-100-D00-0
 62
     7
370
    50
100
AcDbLine
 10
201.46357
 20
349.930351
 30
0.0
 11
201.46357
 21
353.930352
 31
0.0
  0
LINE
  5
268
330
1F
100
AcDbEntity
  8
LC-001-100-D00-0
 62
     7
370
    50
100
AcDbLine
 10
197.350322
 20
357.430352
 30
0.0
 11
197.927672
 21
356.430357
 31
0.0
  0
LINE
  5
269
330
1F
100
AcDbEntity
  8
LC-001-100-D00-0
 62
     7
370
    50
100
AcDbLine
 10
96.999469
 20
356.430357
 30
0.0
 11
97.576815
 21
357.430352
 31
0.0
  0
LINE
  5
26A
330
1F
100
AcDbEntity
  8
LC-001-100-D00-0
 62
     7
370
    50
100
AcDbLine
 10
97.576815
 20
357.430352
 30
0.0
 11
98.154168
 21
356.430357
 31
0.0
  0
LINE
  5
26B
330
1F
100
AcDbEntity
  8
LC-001-100-D00-0
 62
     7
370
    50
100
AcDbLine
 10
196.772971
 20
356.430357
 30
0.0
 11
197.350322
 21
357.430352
 31
0.0
  0
LINE
  5
26C
330
1F
100
AcDbEntity
  8
LC-001-100-D00-0
 62
     7
370
    50
100
AcDbLine
 10
97.963567
 20
352.430356
 30
0.0
 11
97.963567
 21
353.930352
 31
0.0
  0
LINE
  5
26D
330
1F
100
AcDbEntity
  8
LC-001-100-D00-0
 62
     7
370
    50
100
AcDbLine
 10
196.96357
 20
353.930352
 30
0.0
 11
196.96357
 21
352.430356
 31
0.0
  0
LINE
  5
26E
330
1F
100
AcDbEntity
  8
LC-001-100-D00-0
 62
     7
370
    50
100
AcDbLine
 10
196.19562
 20
357.430352
 30
0.0
 11
196.772971
 21
356.430357
 31
0.0
  0
LINE
  5
26F
330
1F
100
AcDbEntity
  8
LC-001-100-D00-0
 62
     7
370
    50
100
AcDbLine
 10
98.154168
 20
356.430357
 30
0.0
 11
98.731521
 21
357.430352
 31
0.0
  0
LINE
  5
270
330
1F
100
AcDbEntity
  8
LC-001-100-D00-0
 62
     7
370
    50
100
AcDbLine
 10
98.731521
 20
357.430352
 30
0.0
 11
99.308866
 21
356.430357
 31
0.0
  0
LINE
  5
271
330
1F
100
AcDbEntity
  8
LC-001-100-D00-0
 62
     7
370
    50
100
AcDbLine
 10
195.618271
 20
356.430357
 30
0.0
 11
196.19562
 21
357.430352
 31
0.0
  0
LINE
  5
272
330
1F
100
AcDbEntity
  8
LC-001-100-D00-0
 62
     7
370
    50
100
AcDbLine
 10
195.04092
 20
357.430352
 30
0.0
 11
195.618271
 21
356.430357
 31
0.0
  0
LINE
  5
273
330
1F
100
AcDbEntity
  8
LC-001-100-D00-0
 62
     7
370
    50
100
AcDbLine
 10
99.308866
 20
356.430357
 30
0.0
 11
99.886219
 21
357.430352
 31
0.0
  0
LINE
  5
274
330
1F
100
AcDbEntity
  8
LC-001-100-D00-0
 62
     7
370
    50
100
AcDbLine
 10
99.886219
 20
357.430352
 30
0.0
 11
100.463572
 21
356.430357
 31
0.0
  0
LINE
  5
275
330
1F
100
AcDbEntity
  8
LC-001-100-D00-0
 62
     7
370
    50
100
AcDbLine
 10
194.463569
 20
356.430357
 30
0.0
 11
195.04092
 21
357.430352
 31
0.0
  0
LINE
  5
276
330
1F
100
AcDbEntity
  8
LC-001-100-D00-0
 62
     7
370
    50
100
AcDbLine
 10
100.463572
 20
356.430357
 30
0.0
 11
100.463572
 21
352.430356
 31
0.0
  0
LINE
  5
277
330
1F
100
AcDbEntity
  8
LC-001-100-D00-0
 62
     7
370
    50
100
AcDbLine
 10
194.463569
 20
352.430356
 30
0.0
 11
194.463569
 21
356.430357
 31
0.0
  0
LINE
  5
278
330
1F
100
AcDbEntity
  8
LC-001-100-D00-0
 62
     7
370
    50
100
AcDbLine
 10
194.463569
 20
352.430356
 30
0.0
 11
190.46357
 21
352.430356
 31
0.0
  0
LINE
  5
279
330
1F
100
AcDbEntity
  8
LC-001-100-D00-0
 62
     7
370
    50
100
AcDbLine
 10
104.463573
 20
352.430356
 30
0.0
 11
100.463572
 21
352.430356
 31
0.0
  0
LINE
  5
27A
330
1F
100
AcDbEntity
  8
LC-001-100-D00-0
 62
     7
370
    50
100
AcDbLine
 10
100.463572
 20
352.430356
 30
0.0
 11
97.963567
 21
352.430356
 31
0.0
  0
LINE
  5
27B
330
1F
100
AcDbEntity
  8
LC-001-100-D00-0
 62
     7
370
    50
100
AcDbLine
 10
95.96357
 20
356.430357
 30
0.0
 11
96.999469
 21
356.430357
 31
0.0
  0
LINE
  5
27C
330
1F
100
AcDbEntity
  8
LC-001-100-D00-0
 62
     7
370
    50
100
AcDbLine
 10
97.963567
 20
353.930352
 30
0.0
 11
93.463573
 21
353.930352
 31
0.0
  0
LINE
  5
27D
330
1F
100
AcDbEntity
  8
LC-001-100-D00-0
 62
     7
370
    50
100
AcDbLine
 10
93.463573
 20
349.930351
 30
0.0
 11
91.463569
 21
349.930351
 31
0.0
  0
LINE
  5
27E
330
1F
100
AcDbEntity
  8
LC-001-100-D00-0
 62
     7
370
    50
100
AcDbLine
 10
196.96357
 20
352.430356
 30
0.0
 11
194.463569
 21
352.430356
 31
0.0
  0
LINE
  5
27F
330
1F
100
AcDbEntity
  8
LC-001-100-D00-0
 62
     7
370
    50
100
AcDbLine
 10
197.927672
 20
356.430357
 30
0.0
 11
198.963571
 21
356.430357
 31
0.0
  0
LINE
  5
280
330
1F
100
AcDbEntity
  8
LC-001-100-D00-0
 62
     7
370
    50
100
AcDbLine
 10
201.46357
 20
353.930352
 30
0.0
 11
196.96357
 21
353.930352
 31
0.0
  0
LINE
  5
281
330
1F
100
AcDbEntity
  8
LC-001-100-D00-0
 62
     7
370
    50
100
AcDbLine
 10
203.46357
 20
349.930351
 30
0.0
 11
201.46357
 21
349.930351
 31
0.0
  0
CIRCLE
  5
282
330
1F
100
AcDbEntity
  8
LC-001-100-D00-0
 62
     7
370
    50
100
AcDbCircle
 10
243.96357
 20
340.930354
 30
0.0
 40
2.0
  0
CIRCLE
  5
283
330
1F
100
AcDbEntity
  8
LC-001-100-D00-0
 62
     7
370
    50
100
AcDbCircle
 10
243.96357
 20
286.930354
 30
0.0
 40
2.0
  0
LINE
  5
284
330
1F
100
AcDbEntity
  8
LC-001-100-D00-0
 62
     7
370
    50
100
AcDbLine
 10
107.758369
 20
360.230354
 30
0.0
 11
107.758369
 21
362.230351
 31
0.0
  0
LINE
  5
285
330
1F
100
AcDbEntity
  8
LC-001-100-D00-0
 62
     7
370
    50
100
AcDbLine
 10
187.232478
 20
360.230354
 30
0.0
 11
187.245425
 21
360.230354
 31
0.0
  0
LINE
  5
286
330
1F
100
AcDbEntity
  8
LC-001-100-D00-0
 62
     7
370
    50
100
AcDbLine
 10
107.745427
 20
360.230354
 30
0.0
 11
107.758369
 21
360.230354
 31
0.0
  0
LINE
  5
287
330
1F
100
AcDbEntity
  8
LC-001-100-D00-0
 62
     7
370
    50
100
AcDbLine
 10
187.232478
 20
362.230351
 30
0.0
 11
187.232478
 21
360.230354
 31
0.0
  0
LINE
  5
288
330
1F
100
AcDbEntity
  8
LC-001-100-D00-0
 62
     7
370
    50
100
AcDbLine
 10
187.232478
 20
362.230351
 30
0.0
 11
187.245425
 21
362.230351
 31
0.0
  0
LINE
  5
289
330
1F
100
AcDbEntity
  8
LC-001-100-D00-0
 62
     7
370
    50
100
AcDbLine
 10
107.745427
 20
362.230351
 30
0.0
 11
107.758369
 21
362.230351
 31
0.0
  0
LINE
  5
28A
330
1F
100
AcDbEntity
  8
LC-001-100-D00-0
 62
     7
370
    50
100
AcDbLine
 10
108.008455
 20
355.730353
 30
0.0
 11
108.008455
 21
357.430352
 31
0.0
  0
LINE
  5
28B
330
1F
100
AcDbEntity
  8
LC-001-100-D00-0
 62
     7
370
    50
100
AcDbLine
 10
186.982396
 20
357.430352
 30
0.0
 11
186.982396
 21
355.730353
 31
0.0
  0
LINE
  5
28C
330
1F
100
AcDbEntity
  8
LC-001-100-D00-0
 62
     7
370
    50
100
AcDbLine
 10
186.982396
 20
357.430352
 30
0.0
 11
186.995425
 21
357.430352
 31
0.0
  0
LINE
  5
28D
330
1F
100
AcDbEntity
  8
LC-001-100-D00-0
 62
     7
370
    50
100
AcDbLine
 10
107.995424
 20
357.430352
 30
0.0
 11
108.008455
 21
357.430352
 31
0.0
  0
LINE
  5
28E
330
1F
100
AcDbEntity
  8
LC-001-100-D00-0
 62
     7
370
    50
100
AcDbLine
 10
109.508972
 20
357.430352
 30
0.0
 11
109.508972
 21
360.230354
 31
0.0
  0
LINE
  5
28F
330
1F
100
AcDbEntity
  8
LC-001-100-D00-0
 62
     7
370
    50
100
AcDbLine
 10
185.481882
 20
360.230354
 30
0.0
 11
185.481882
 21
357.430352
 31
0.0
  0
INSERT
  5
2A1
330
1F
100
AcDbEntity
  8
LC-001-100-D00-0
 62
     7
370
    50
100
AcDbBlockReference
  2
POLY17
 10
0.0
 20
0.0
 30
0.0
  0
INSERT
  5
2B3
330
1F
100
AcDbEntity
  8
LC-001-100-D00-0
 62
     7
370
    50
100
AcDbBlockReference
  2
POLY18
 10
0.0
 20
0.0
 30
0.0
  0
LINE
  5
2B4
330
1F
100
AcDbEntity
  8
LC-001-100-D00-0
 62
     7
370
    50
100
AcDbLine
 10
182.980928
 20
362.230351
 30
0.0
 11
112.009923
 21
362.230351
 31
0.0
  0
LINE
  5
2B5
330
1F
100
AcDbEntity
  8
LC-001-100-D00-0
 62
     7
370
    50
100
AcDbLine
 10
112.009923
 20
352.230353
 30
0.0
 11
112.009923
 21
355.730353
 31
0.0
  0
LINE
  5
2B6
330
1F
100
AcDbEntity
  8
LC-001-100-D00-0
 62
     7
370
    50
100
AcDbLine
 10
182.980928
 20
352.230353
 30
0.0
 11
182.995425
 21
352.230353
 31
0.0
  0
LINE
  5
2B7
330
1F
100
AcDbEntity
  8
LC-001-100-D00-0
 62
     7
370
    50
100
AcDbLine
 10
111.995424
 20
352.230353
 30
0.0
 11
112.009923
 21
352.230353
 31
0.0
  0
LINE
  5
2B8
330
1F
100
AcDbEntity
  8
LC-001-100-D00-0
 62
     7
370
    50
100
AcDbLine
 10
182.980928
 20
355.730353
 30
0.0
 11
182.980928
 21
352.230353
 31
0.0
  0
INSERT
  5
2CA
330
1F
100
AcDbEntity
  8
LC-001-100-D00-0
 62
     7
370
    50
100
AcDbBlockReference
  2
POLY19
 10
0.0
 20
0.0
 30
0.0
  0
INSERT
  5
2DE
330
1F
100
AcDbEntity
  8
LC-001-100-D00-0
 62
     7
370
    50
100
AcDbBlockReference
  2
POLY20
 10
0.0
 20
0.0
 30
0.0
  0
LINE
  5
2DF
330
1F
100
AcDbEntity
  8
LC-001-100-D00-0
 62
     7
370
    50
100
AcDbLine
 10
114.010788
 20
360.230354
 30
0.0
 11
114.010788
 21
354.230357
 31
0.0
  0
LINE
  5
2E0
330
1F
100
AcDbEntity
  8
LC-001-100-D00-0
 62
     7
370
    50
100
AcDbLine
 10
180.980062
 20
354.230357
 30
0.0
 11
180.980062
 21
360.230354
 31
0.0
  0
INSERT
  5
2FA
330
1F
100
AcDbEntity
  8
LC-001-100-D00-0
 62
     7
370
    50
100
AcDbBlockReference
  2
POLY21
 10
0.0
 20
0.0
 30
0.0
  0
INSERT
  5
314
330
1F
100
AcDbEntity
  8
LC-001-100-D00-0
 62
     7
370
    50
100
AcDbBlockReference
  2
POLY22
 10
0.0
 20
0.0
 30
0.0
  0
LINE
  5
315
330
1F
100
AcDbEntity
  8
LC-001-100-D00-0
 62
     7
370
    50
100
AcDbLine
 10
177.478268
 20
353.230355
 30
0.0
 11
117.512583
 21
353.230355
 31
0.0
  0
INSERT
  5
329
330
1F
100
AcDbEntity
  8
LC-001-100-D00-0
 62
     7
370
    50
100
AcDbBlockReference
  2
POLY23
 10
0.0
 20
0.0
 30
0.0
  0
INSERT
  5
341
330
1F
100
AcDbEntity
  8
LC-001-100-D00-0
 62
     7
370
    50
100
AcDbBlockReference
  2
POLY24
 10
0.0
 20
0.0
 30
0.0
  0
LINE
  5
342
330
1F
100
AcDbEntity
  8
LC-001-100-D00-0
 62
     7
370
    50
100
AcDbLine
 10
128.522526
 20
288.730353
 30
0.0
 11
128.522526
 21
341.230353
 31
0.0
  0
LINE
  5
343
330
1F
100
AcDbEntity
  8
LC-001-100-D00-0
 62
     7
370
    50
100
AcDbLine
 10
166.468324
 20
288.730353
 30
0.0
 11
166.495425
 21
288.730353
 31
0.0
  0
LINE
  5
344
330
1F
100
AcDbEntity
  8
LC-001-100-D00-0
 62
     7
370
    50
100
AcDbLine
 10
128.495424
 20
288.730353
 30
0.0
 11
128.522526
 21
288.730353
 31
0.0
  0
LINE
  5
345
330
1F
100
AcDbEntity
  8
LC-001-100-D00-0
 62
     7
370
    50
100
AcDbLine
 10
166.468324
 20
341.230353
 30
0.0
 11
166.468324
 21
288.730353
 31
0.0
  0
LINE
  5
346
330
1F
100
AcDbEntity
  8
LC-001-100-D00-0
 62
     7
370
    50
100
AcDbLine
 10
129.524033
 20
341.230353
 30
0.0
 11
129.524033
 21
288.730353
 31
0.0
  0
LINE
  5
347
330
1F
100
AcDbEntity
  8
LC-001-100-D00-0
 62
     7
370
    50
100
AcDbLine
 10
165.466816
 20
288.730353
 30
0.0
 11
165.466816
 21
341.230353
 31
0.0
  0
LINE
  5
348
330
1F
100
AcDbEntity
  8
LC-001-100-D00-0
 62
     7
370
    50
100
AcDbLine
 10
165.466816
 20
288.730353
 30
0.0
 11
129.524033
 21
288.730353
 31
0.0
  0
LINE
  5
349
330
1F
100
AcDbEntity
  8
LC-001-100-D00-0
 62
     7
370
    50
100
AcDbLine
 10
129.524033
 20
288.730353
 30
0.0
 11
128.522526
 21
288.730353
 31
0.0
  0
LINE
  5
34A
330
1F
100
AcDbEntity
  8
LC-001-100-D00-0
 62
     7
370
    50
100
AcDbLine
 10
115.011263
 20
353.230355
 30
0.0
 11
117.512583
 21
353.230355
 31
0.0
  0
LINE
  5
34B
330
1F
100
AcDbEntity
  8
LC-001-100-D00-0
 62
     7
370
    50
100
AcDbLine
 10
117.512583
 20
352.230353
 30
0.0
 11
112.009923
 21
352.230353
 31
0.0
  0
LINE
  5
34C
330
1F
100
AcDbEntity
  8
LC-001-100-D00-0
 62
     7
370
    50
100
AcDbLine
 10
112.009923
 20
355.730353
 30
0.0
 11
108.008455
 21
355.730353
 31
0.0
  0
LINE
  5
34D
330
1F
100
AcDbEntity
  8
LC-001-100-D00-0
 62
     7
370
    50
100
AcDbLine
 10
108.008455
 20
357.430352
 30
0.0
 11
109.508972
 21
357.430352
 31
0.0
  0
LINE
  5
34E
330
1F
100
AcDbEntity
  8
LC-001-100-D00-0
 62
     7
370
    50
100
AcDbLine
 10
107.758369
 20
362.230351
 30
0.0
 11
112.009923
 21
362.230351
 31
0.0
  0
LINE
  5
34F
330
1F
100
AcDbEntity
  8
LC-001-100-D00-0
 62
     7
370
    50
100
AcDbLine
 10
109.508972
 20
360.230354
 30
0.0
 11
107.758369
 21
360.230354
 31
0.0
  0
LINE
  5
350
330
1F
100
AcDbEntity
  8
LC-001-100-D00-0
 62
     7
370
    50
100
AcDbLine
 10
166.468324
 20
288.730353
 30
0.0
 11
165.466816
 21
288.730353
 31
0.0
  0
LINE
  5
351
330
1F
100
AcDbEntity
  8
LC-001-100-D00-0
 62
     7
370
    50
100
AcDbLine
 10
177.478268
 20
353.230355
 30
0.0
 11
179.979589
 21
353.230355
 31
0.0
  0
LINE
  5
352
330
1F
100
AcDbEntity
  8
LC-001-100-D00-0
 62
     7
370
    50
100
AcDbLine
 10
182.980928
 20
352.230353
 30
0.0
 11
177.478268
 21
352.230353
 31
0.0
  0
LINE
  5
353
330
1F
100
AcDbEntity
  8
LC-001-100-D00-0
 62
     7
370
    50
100
AcDbLine
 10
186.982396
 20
355.730353
 30
0.0
 11
182.980928
 21
355.730353
 31
0.0
  0
LINE
  5
354
330
1F
100
AcDbEntity
  8
LC-001-100-D00-0
 62
     7
370
    50
100
AcDbLine
 10
185.481882
 20
357.430352
 30
0.0
 11
186.982396
 21
357.430352
 31
0.0
  0
LINE
  5
355
330
1F
100
AcDbEntity
  8
LC-001-100-D00-0
 62
     7
370
    50
100
AcDbLine
 10
182.980928
 20
362.230351
 30
0.0
 11
187.232478
 21
362.230351
 31
0.0
  0
LINE
  5
356
330
1F
100
AcDbEntity
  8
LC-001-100-D00-0
 62
     7
370
    50
100
AcDbLine
 10
187.232478
 20
360.230354
 30
0.0
 11
185.481882
 21
360.230354
 31
0.0
  0
INSERT
  5
364
330
1F
100
AcDbEntity
  8
LC-001-100-D00-0
 62
     7
370
    50
100
AcDbBlockReference
  2
POLY25
 10
0.0
 20
0.0
 30
0.0
  0
LINE
  5
365
330
1F
100
AcDbEntity
  8
LC-001-100-D00-0
 62
     7
370
    50
100
AcDbLine
 10
184.981701
 20
352.230353
 30
0.0
 11
184.981701
 21
354.230357
 31
0.0
  0
LINE
  5
366
330
1F
100
AcDbEntity
  8
LC-001-100-D00-0
 62
     7
370
    50
100
AcDbLine
 10
110.009152
 20
354.230357
 30
0.0
 11
110.009152
 21
352.230353
 31
0.0
  0
LINE
  5
367
330
1F
100
AcDbEntity
  8
LC-001-100-D00-0
 62
     7
370
    50
100
AcDbLine
 10
107.658337
 20
354.230357
 30
0.0
 11
110.009152
 21
354.230357
 31
0.0
  0
LINE
  5
368
330
1F
100
AcDbEntity
  8
LC-001-100-D00-0
 62
     7
370
    50
100
AcDbLine
 10
107.658337
 20
355.730353
 30
0.0
 11
107.658337
 21
354.230357
 31
0.0
  0
LINE
  5
369
330
1F
100
AcDbEntity
  8
LC-001-100-D00-0
 62
     7
370
    50
100
AcDbLine
 10
111.509721
 20
355.730353
 30
0.0
 11
107.658337
 21
355.730353
 31
0.0
  0
LINE
  5
36A
330
1F
100
AcDbEntity
  8
LC-001-100-D00-0
 62
     7
370
    50
100
AcDbLine
 10
111.509721
 20
352.230353
 30
0.0
 11
111.509721
 21
355.730353
 31
0.0
  0
INSERT
  5
370
330
1F
100
AcDbEntity
  8
LC-001-100-D00-0
 62
     7
370
    50
100
AcDbBlockReference
  2
KLON2
 10
0.0
 20
0.0
 30
0.0
  0
LINE
  5
371
330
1F
100
AcDbEntity
  8
LC-001-100-D00-0
 62
     7
370
    50
100
AcDbLine
 10
118.070531
 20
338.496571
 30
0.0
 11
118.513174
 21
337.730354
 31
0.0
  0
LINE
  5
372
330
1F
100
AcDbEntity
  8
LC-001-100-D00-0
 62
     7
370
    50
100
AcDbLine
 10
118.513174
 20
286.730354
 30
0.0
 11
118.513174
 21
337.730354
 31
0.0
  0
INSERT
  5
386
330
1F
100
AcDbEntity
  8
LC-001-100-D00-0
 62
     7
370
    50
100
AcDbBlockReference
  2
POLY26
 10
0.0
 20
0.0
 30
0.0
  0
LINE
  5
387
330
1F
100
AcDbEntity
  8
LC-001-100-D00-0
 62
     7
370
    50
100
AcDbLine
 10
167.970309
 20
278.230354
 30
0.0
 11
127.020541
 21
278.230354
 31
0.0
  0
INSERT
  5
399
330
1F
100
AcDbEntity
  8
LC-001-100-D00-0
 62
     7
370
    50
100
AcDbBlockReference
  2
POLY27
 10
0.0
 20
0.0
 30
0.0
  0
LINE
  5
39A
330
1F
100
AcDbEntity
  8
LC-001-100-D00-0
 62
     7
370
    50
100
AcDbLine
 10
176.477676
 20
337.730354
 30
0.0
 11
176.477676
 21
286.730354
 31
0.0
  0
LINE
  5
39B
330
1F
100
AcDbEntity
  8
LC-001-100-D00-0
 62
     7
370
    50
100
AcDbLine
 10
176.477676
 20
337.730354
 30
0.0
 11
176.920318
 21
338.496571
 31
0.0
  0
INSERT
  5
3A1
330
1F
100
AcDbEntity
  8
LC-001-100-D00-0
 62
     7
370
    50
100
AcDbBlockReference
  2
KLON3
 10
0.0
 20
0.0
 30
0.0
  0
LINE
  5
3A2
330
1F
100
AcDbEntity
  8
LC-001-100-D00-0
 62
     7
370
    50
100
AcDbLine
 10
183.481129
 20
355.730353
 30
0.0
 11
183.481129
 21
352.230353
 31
0.0
  0
LINE
  5
3A3
330
1F
100
AcDbEntity
  8
LC-001-100-D00-0
 62
     7
370
    50
100
AcDbLine
 10
187.332511
 20
355.730353
 30
0.0
 11
183.481129
 21
355.730353
 31
0.0
  0
LINE
  5
3A4
330
1F
100
AcDbEntity
  8
LC-001-100-D00-0
 62
     7
370
    50
100
AcDbLine
 10
187.332511
 20
354.230357
 30
0.0
 11
187.332511
 21
355.730353
 31
0.0
  0
LINE
  5
3A5
330
1F
100
AcDbEntity
  8
LC-001-100-D00-0
 62
     7
370
    50
100
AcDbLine
 10
184.981701
 20
354.230357
 30
0.0
 11
187.332511
 21
354.230357
 31
0.0
  0
INSERT
  5
3B3
330
1F
100
AcDbEntity
  8
LC-001-100-D00-0
 62
     7
370
    50
100
AcDbBlockReference
  2
POLY28
 10
0.0
 20
0.0
 30
0.0
  0
INSERT
  5
3B9
330
1F
100
AcDbEntity
  8
LC-001-100-D00-0
 62
     7
370
    50
100
AcDbBlockReference
  2
KLON4
 10
0.0
 20
0.0
 30
0.0
  0
LINE
  5
3BA
330
1F
100
AcDbEntity
  8
LC-001-100-D00-0
 62
     7
370
    50
100
AcDbLine
 10
177.97855
 20
286.730354
 30
0.0
 11
177.97855
 21
337.230353
 31
0.0
  0
INSERT
  5
3CE
330
1F
100
AcDbEntity
  8
LC-001-100-D00-0
 62
     7
370
    50
100
AcDbBlockReference
  2
POLY29
 10
0.0
 20
0.0
 30
0.0
  0
LINE
  5
3CF
330
1F
100
AcDbEntity
  8
LC-001-100-D00-0
 62
     7
370
    50
100
AcDbLine
 10
127.020541
 20
276.730354
 30
0.0
 11
167.970309
 21
276.730354
 31
0.0
  0
INSERT
  5
3E3
330
1F
100
AcDbEntity
  8
LC-001-100-D00-0
 62
     7
370
    50
100
AcDbBlockReference
  2
POLY30
 10
0.0
 20
0.0
 30
0.0
  0
LINE
  5
3E4
330
1F
100
AcDbEntity
  8
LC-001-100-D00-0
 62
     7
370
    50
100
AcDbLine
 10
117.012299
 20
337.230353
 30
0.0
 11
117.012299
 21
286.730354
 31
0.0
  0
INSERT
  5
3EA
330
1F
100
AcDbEntity
  8
LC-001-100-D00-0
 62
     7
370
    50
100
AcDbBlockReference
  2
KLON5
 10
0.0
 20
0.0
 30
0.0
  0
LINE
  5
3EB
330
1F
100
AcDbEntity
  8
LC-001-100-D00-0
 62
     7
370
    50
100
AcDbLine
 10
107.658337
 20
355.730353
 30
0.0
 11
107.645425
 21
355.730353
 31
0.0
  0
LINE
  5
3EC
330
1F
100
AcDbEntity
  8
LC-001-100-D00-0
 62
     7
370
    50
100
AcDbLine
 10
187.345425
 20
355.730353
 30
0.0
 11
187.332511
 21
355.730353
 31
0.0
  0
LINE
  5
3ED
330
1F
100
AcDbEntity
  8
LC-001-100-D00-0
 62
     7
370
    50
100
AcDbLine
 10
177.995425
 20
337.230353
 30
0.0
 11
177.97855
 21
337.230353
 31
0.0
  0
LINE
  5
3EE
330
1F
100
AcDbEntity
  8
LC-001-100-D00-0
 62
     7
370
    50
100
AcDbLine
 10
117.012299
 20
337.230353
 30
0.0
 11
116.995423
 21
337.230353
 31
0.0
  0
LINE
  5
3EF
330
1F
100
AcDbEntity
  8
LC-001-100-D00-0
 62
     7
370
    50
100
AcDbLine
 10
183.370208
 20
352.230353
 30
0.0
 11
183.481129
 21
352.230353
 31
0.0
  0
LINE
  5
3F0
330
1F
100
AcDbEntity
  8
LC-001-100-D00-0
 62
     7
370
    50
100
AcDbLine
 10
183.370208
 20
352.230353
 30
0.0
 11
182.980928
 21
352.230353
 31
0.0
  0
LINE
  5
3F1
330
1F
100
AcDbEntity
  8
LC-001-100-D00-0
 62
     7
370
    50
100
AcDbLine
 10
112.009923
 20
352.230353
 30
0.0
 11
111.620642
 21
352.230353
 31
0.0
  0
LINE
  5
3F2
330
1F
100
AcDbEntity
  8
LC-001-100-D00-0
 62
     7
370
    50
100
AcDbLine
 10
111.509721
 20
352.230353
 30
0.0
 11
111.620642
 21
352.230353
 31
0.0
  0
LINE
  5
3F3
330
1F
100
AcDbEntity
  8
LC-001-100-D00-0
 62
     7
370
    50
100
AcDbLine
 10
176.78456
 20
338.496571
 30
0.0
 11
176.937799
 21
338.496571
 31
0.0
  0
INSERT
  5
3FF
330
1F
100
AcDbEntity
  8
LC-001-100-D00-0
 62
     7
370
    50
100
AcDbBlockReference
  2
POLY31
 10
0.0
 20
0.0
 30
0.0
  0
LINE
  5
400
330
1F
100
AcDbEntity
  8
LC-001-100-D00-0
 62
     7
370
    50
100
AcDbLine
 10
117.490324
 20
339.73035
 30
0.0
 11
128.495424
 21
339.73035
 31
0.0
  0
LINE
  5
401
330
1F
100
AcDbEntity
  8
LC-001-100-D00-0
 62
     7
370
    50
100
AcDbLine
 10
166.495425
 20
339.73035
 30
0.0
 11
177.500524
 21
339.73035
 31
0.0
  0
LINE
  5
402
330
1F
100
AcDbEntity
  8
LC-001-100-D00-0
 62
     7
370
    50
100
AcDbLine
 10
176.477676
 20
337.730354
 30
0.0
 11
166.495425
 21
337.730354
 31
0.0
  0
LINE
  5
403
330
1F
100
AcDbEntity
  8
LC-001-100-D00-0
 62
     7
370
    50
100
AcDbLine
 10
128.495424
 20
337.730354
 30
0.0
 11
118.513174
 21
337.730354
 31
0.0
  0
INSERT
  5
40F
330
1F
100
AcDbEntity
  8
LC-001-100-D00-0
 62
     7
370
    50
100
AcDbBlockReference
  2
POLY32
 10
0.0
 20
0.0
 30
0.0
  0
LINE
  5
410
330
1F
100
AcDbEntity
  8
LC-001-100-D00-0
 62
     7
370
    50
100
AcDbLine
 10
127.020541
 20
276.730354
 30
0.0
 11
126.995425
 21
276.730354
 31
0.0
  0
LINE
  5
411
330
1F
100
AcDbEntity
  8
LC-001-100-D00-0
 62
     7
370
    50
100
AcDbLine
 10
167.995425
 20
276.730354
 30
0.0
 11
167.970309
 21
276.730354
 31
0.0
  0
LINE
  5
412
330
1F
100
AcDbEntity
  8
LC-001-100-D00-0
 62
     7
370
    50
100
AcDbLine
 10
93.463573
 20
308.743791
 30
0.0
 11
93.463573
 21
346.564328
 31
0.0
  0
LINE
  5
413
330
1F
100
AcDbEntity
  8
LC-001-100-D00-0
 62
     7
370
    50
100
AcDbLine
 10
201.46357
 20
346.564328
 30
0.0
 11
201.46357
 21
339.930354
 31
0.0
  0
LINE
  5
414
330
1F
100
AcDbEntity
  8
LC-001-100-D00-0
 62
     7
370
    50
100
AcDbLine
 10
201.46357
 20
339.930354
 30
0.0
 11
217.963568
 21
339.930354
 31
0.0
  0
LINE
  5
415
330
1F
100
AcDbEntity
  8
LC-001-100-D00-0
 62
     7
370
    50
100
AcDbLine
 10
217.963568
 20
287.930353
 30
0.0
 11
198.266939
 21
287.930353
 31
0.0
  0
LINE
  5
416
330
1F
100
AcDbEntity
  8
LC-001-100-D00-0
 62
     7
370
    50
100
AcDbLine
 10
96.463572
 20
342.030352
 30
0.0
 11
96.463572
 21
308.743791
 31
0.0
  0
LINE
  5
417
330
1F
100
AcDbEntity
  8
LC-001-100-D00-0
 62
     7
370
    50
100
AcDbLine
 10
198.46357
 20
342.030352
 30
0.0
 11
198.440365
 21
342.030352
 31
0.0
  0
LINE
  5
418
330
1F
100
AcDbEntity
  8
LC-001-100-D00-0
 62
     7
370
    50
100
AcDbLine
 10
96.486773
 20
342.030352
 30
0.0
 11
96.463572
 21
342.030352
 31
0.0
  0
LINE
  5
419
330
1F
100
AcDbEntity
  8
LC-001-100-D00-0
 62
     7
370
    50
100
AcDbLine
 10
198.46357
 20
336.930355
 30
0.0
 11
198.46357
 21
342.030352
 31
0.0
  0
INSERT
  5
43F
330
1F
100
AcDbEntity
  8
LC-001-100-D00-0
 62
     7
370
    50
100
AcDbBlockReference
  2
POLY33
 10
0.0
 20
0.0
 30
0.0
  0
INSERT
  5
451
330
1F
100
AcDbEntity
  8
LC-001-100-D00-0
 62
     7
370
    50
100
AcDbBlockReference
  2
POLY34
 10
0.0
 20
0.0
 30
0.0
  0
LINE
  5
452
330
1F
100
AcDbEntity
  8
LC-001-100-D00-0
 62
     7
370
    50
100
AcDbLine
 10
198.46357
 20
336.930355
 30
0.0
 11
245.863567
 21
336.930355
 31
0.0
  0
LINE
  5
453
330
1F
100
AcDbEntity
  8
LC-001-100-D00-0
 62
     7
370
    50
100
AcDbLine
 10
245.863567
 20
336.930355
 30
0.0
 11
245.863567
 21
290.930353
 31
0.0
  0
LINE
  5
454
330
1F
100
AcDbEntity
  8
LC-001-100-D00-0
 62
     7
370
    50
100
AcDbLine
 10
245.863567
 20
290.930353
 30
0.0
 11
198.46357
 21
290.930353
 31
0.0
  0
ARC
  5
455
330
1F
100
AcDbEntity
  8
LC-001-100-D00-0
 62
     7
370
    50
100
AcDbCircle
 10
245.96357
 20
288.280354
 30
0.0
 40
0.5
100
AcDbArc
 50
0.0
 51
90.0
  0
ARC
  5
456
330
1F
100
AcDbEntity
  8
LC-001-100-D00-0
 62
     7
370
    50
100
AcDbCircle
 10
245.96357
 20
339.580354
 30
0.0
 40
0.5
100
AcDbArc
 50
270.0
 51
0.0
  0
LINE
  5
457
330
1F
100
AcDbEntity
  8
LC-001-100-D00-0
 62
     7
370
    50
100
AcDbLine
 10
220.463569
 20
287.930353
 30
0.0
 11
221.715777
 21
287.930353
 31
0.0
  0
LINE
  5
458
330
1F
100
AcDbEntity
  8
LC-001-100-D00-0
 62
     7
370
    50
100
AcDbLine
 10
242.463569
 20
288.780354
 30
0.0
 11
245.963569
 21
288.780354
 31
0.0
  0
LINE
  5
459
330
1F
100
AcDbEntity
  8
LC-001-100-D00-0
 62
     7
370
    50
100
AcDbLine
 10
245.963569
 20
339.080354
 30
0.0
 11
242.463569
 21
339.080354
 31
0.0
  0
ARC
  5
45A
330
1F
100
AcDbEntity
  8
LC-001-100-D00-0
 62
     7
370
    50
100
AcDbCircle
 10
235.86357
 20
313.930354
 30
0.0
 40
29.60000000000001
100
AcDbArc
 50
241.447363
 51
281.095206
  0
ARC
  5
45B
330
1F
100
AcDbEntity
  8
LC-001-100-D00-0
 62
     7
370
    50
100
AcDbCircle
 10
235.86357
 20
313.930354
 30
0.0
 40
29.60000000000003
100
AcDbArc
 50
78.904794
 51
106.486163
  0
ARC
  5
45C
330
1F
100
AcDbEntity
  8
LC-001-100-D00-0
 62
     7
370
    50
100
AcDbCircle
 10
246.96357
 20
287.03054
 30
0.0
 40
0.5
100
AcDbArc
 50
180.0
 51
292.423113
  0
ARC
  5
45D
330
1F
100
AcDbEntity
  8
LC-001-100-D00-0
 62
     7
370
    50
100
AcDbCircle
 10
246.96357
 20
340.830168
 30
0.0
 40
0.5000000000000267
100
AcDbArc
 50
67.576887
 51
180.0
  0
ARC
  5
45E
330
1F
100
AcDbEntity
  8
LC-001-100-D00-0
 62
     7
370
    50
100
AcDbCircle
 10
241.46357
 20
285.374268
 30
0.0
 40
0.5000000000000481
100
AcDbArc
 50
281.095206
 51
0.0
  0
ARC
  5
45F
330
1F
100
AcDbEntity
  8
LC-001-100-D00-0
 62
     7
370
    50
100
AcDbCircle
 10
241.46357
 20
342.486439
 30
0.0
 40
0.5
100
AcDbArc
 50
0.0
 51
78.904794
  0
ARC
  5
460
330
1F
100
AcDbEntity
  8
LC-001-100-D00-0
 62
     7
370
    50
100
AcDbCircle
 10
242.46357
 20
288.280354
 30
0.0
 40
0.5
100
AcDbArc
 50
90.0
 51
180.0
  0
ARC
  5
461
330
1F
100
AcDbEntity
  8
LC-001-100-D00-0
 62
     7
370
    50
100
AcDbCircle
 10
242.46357
 20
339.580354
 30
0.0
 40
0.5
100
AcDbArc
 50
180.0
 51
270.0
  0
LINE
  5
462
330
1F
100
AcDbEntity
  8
LC-001-100-D00-0
 62
     7
370
    50
100
AcDbLine
 10
217.963568
 20
285.930354
 30
0.0
 11
220.463569
 21
285.930354
 31
0.0
  0
ARC
  5
463
330
1F
100
AcDbEntity
  8
LC-001-100-D00-0
 62
     7
370
    50
100
AcDbCircle
 10
127.21357
 20
286.930354
 30
0.0
 40
10.5
100
AcDbArc
 50
180.0
 51
270.0
  0
ARC
  5
464
330
1F
100
AcDbEntity
  8
LC-001-100-D00-0
 62
     7
370
    50
100
AcDbCircle
 10
167.71357
 20
286.930354
 30
0.0
 40
10.5
100
AcDbArc
 50
270.0
 51
0.0
  0
ARC
  5
465
330
1F
100
AcDbEntity
  8
LC-001-100-D00-0
 62
     7
370
    50
100
AcDbCircle
 10
235.86357
 20
313.930354
 30
0.0
 40
29.60000000000004
100
AcDbArc
 50
292.423113
 51
301.258518
  0
ARC
  5
466
330
1F
100
AcDbEntity
  8
LC-001-100-D00-0
 62
     7
370
    50
100
AcDbCircle
 10
235.86357
 20
313.930354
 30
0.0
 40
29.60000000000003
100
AcDbArc
 50
58.741482
 51
67.576887
  0
ARC
  5
467
330
1F
100
AcDbEntity
  8
LC-001-100-D00-0
 62
     7
370
    50
100
AcDbCircle
 10
101.46357
 20
308.743791
 30
0.0
 40
8.000000000000028
100
AcDbArc
 50
180.0
 51
262.5
  0
ARC
  5
468
330
1F
100
AcDbEntity
  8
LC-001-100-D00-0
 62
     7
370
    50
100
AcDbCircle
 10
250.96357
 20
289.054663
 30
0.0
 40
0.5000000000000315
100
AcDbArc
 50
301.258518
 51
0.0
  0
ARC
  5
469
330
1F
100
AcDbEntity
  8
LC-001-100-D00-0
 62
     7
370
    50
100
AcDbCircle
 10
250.96357
 20
338.806045
 30
0.0
 40
0.5
100
AcDbArc
 50
0.0
 51
58.741482
  0
LINE
  5
46A
330
1F
100
AcDbEntity
  8
LC-001-100-D00-0
 62
     7
370
    50
100
AcDbLine
 10
116.713572
 20
286.930353
 30
0.0
 11
116.713572
 21
301.692946
 31
0.0
  0
LINE
  5
46B
330
1F
100
AcDbEntity
  8
LC-001-100-D00-0
 62
     7
370
    50
100
AcDbLine
 10
178.21357
 20
293.596316
 30
0.0
 11
178.21357
 21
286.930353
 31
0.0
  0
INSERT
  5
471
330
1F
100
AcDbEntity
  8
LC-001-100-D00-0
 62
     7
370
    50
100
AcDbBlockReference
  2
KLON6
 10
0.0
 20
0.0
 30
0.0
  0
INSERT
  5
477
330
1F
100
AcDbEntity
  8
LC-001-100-D00-0
 62
     7
370
    50
100
AcDbBlockReference
  2
KLON7
 10
0.0
 20
0.0
 30
0.0
  0
LINE
  5
478
330
1F
100
AcDbEntity
  8
LC-001-100-D00-0
 62
     7
370
    50
100
AcDbLine
 10
113.713569
 20
286.930353
 30
0.0
 11
113.713569
 21
299.062015
 31
0.0
  0
LINE
  5
479
330
1F
100
AcDbEntity
  8
LC-001-100-D00-0
 62
     7
370
    50
100
AcDbLine
 10
181.21357
 20
290.175473
 30
0.0
 11
181.21357
 21
286.930353
 31
0.0
  0
ARC
  5
47A
330
1F
100
AcDbEntity
  8
LC-001-100-D00-0
 62
     7
370
    50
100
AcDbCircle
 10
167.71357
 20
286.930354
 30
0.0
 40
13.5
100
AcDbArc
 50
270.0
 51
0.0
  0
ARC
  5
47B
330
1F
100
AcDbEntity
  8
LC-001-100-D00-0
 62
     7
370
    50
100
AcDbCircle
 10
127.21357
 20
286.930354
 30
0.0
 40
13.50000000000001
100
AcDbArc
 50
180.0
 51
270.0
  0
ARC
  5
47C
330
1F
100
AcDbEntity
  8
LC-001-100-D00-0
 62
     7
370
    50
100
AcDbCircle
 10
101.46357
 20
308.743791
 30
0.0
 40
5.0
100
AcDbArc
 50
180.0
 51
262.5
  0
LINE
  5
47D
330
1F
100
AcDbEntity
  8
LC-001-100-D00-0
 62
     7
370
    50
100
AcDbLine
 10
95.016646
 20
347.430354
 30
0.0
 11
96.463572
 21
342.030352
 31
0.0
  0
LINE
  5
47E
330
1F
100
AcDbEntity
  8
LC-001-100-D00-0
 62
     7
370
    50
100
AcDbLine
 10
95.016646
 20
347.430354
 30
0.0
 11
95.039848
 21
347.430354
 31
0.0
  0
LINE
  5
47F
330
1F
100
AcDbEntity
  8
LC-001-100-D00-0
 62
     7
370
    50
100
AcDbLine
 10
199.88729
 20
347.430354
 30
0.0
 11
199.910495
 21
347.430354
 31
0.0
  0
LINE
  5
480
330
1F
100
AcDbEntity
  8
LC-001-100-D00-0
 62
     7
370
    50
100
AcDbLine
 10
198.46357
 20
342.030352
 30
0.0
 11
199.910495
 21
347.430354
 31
0.0
  0
LINE
  5
481
330
1F
100
AcDbEntity
  8
LC-001-100-D00-0
 62
     7
370
    50
100
AcDbLine
 10
199.963569
 20
347.430354
 30
0.0
 11
201.46357
 21
346.564328
 31
0.0
  0
LINE
  5
482
330
1F
100
AcDbEntity
  8
LC-001-100-D00-0
 62
     7
370
    50
100
AcDbLine
 10
93.463573
 20
346.564328
 30
0.0
 11
94.963568
 21
347.430354
 31
0.0
  0
LINE
  5
483
330
1F
100
AcDbEntity
  8
LC-001-100-D00-0
 62
     7
370
    50
100
AcDbLine
 10
245.863567
 20
336.930355
 30
0.0
 11
251.463573
 21
338.430872
 31
0.0
  0
LINE
  5
484
330
1F
100
AcDbEntity
  8
LC-001-100-D00-0
 62
     7
370
    50
100
AcDbLine
 10
251.463573
 20
338.430872
 30
0.0
 11
251.463573
 21
289.429838
 31
0.0
  0
LINE
  5
485
330
1F
100
AcDbEntity
  8
LC-001-100-D00-0
 62
     7
370
    50
100
AcDbLine
 10
251.463573
 20
289.429838
 30
0.0
 11
245.863567
 21
290.930353
 31
0.0
  0
LINE
  5
486
330
1F
100
AcDbEntity
  8
LC-001-100-D00-0
 62
     7
370
    50
100
AcDbLine
 10
251.463573
 20
289.054662
 30
0.0
 11
251.463573
 21
289.429838
 31
0.0
  0
LINE
  5
487
330
1F
100
AcDbEntity
  8
LC-001-100-D00-0
 62
     7
370
    50
100
AcDbLine
 10
94.963568
 20
347.430354
 30
0.0
 11
95.016646
 21
347.430354
 31
0.0
  0
LINE
  5
488
330
1F
100
AcDbEntity
  8
LC-001-100-D00-0
 62
     7
370
    50
100
AcDbLine
 10
181.21357
 20
290.175473
 30
0.0
 11
198.266939
 21
287.930353
 31
0.0
  0
LINE
  5
489
330
1F
100
AcDbEntity
  8
LC-001-100-D00-0
 62
     7
370
    50
100
AcDbLine
 10
100.41936
 20
300.812231
 30
0.0
 11
113.713569
 21
299.062015
 31
0.0
  0
LINE
  5
48A
330
1F
100
AcDbEntity
  8
LC-001-100-D00-0
 62
     7
370
    50
100
AcDbLine
 10
167.71357
 20
273.430354
 30
0.0
 11
127.21357
 21
273.430354
 31
0.0
  0
LINE
  5
48B
330
1F
100
AcDbEntity
  8
LC-001-100-D00-0
 62
     7
370
    50
100
AcDbLine
 10
127.21357
 20
276.430354
 30
0.0
 11
167.71357
 21
276.430354
 31
0.0
  0
LINE
  5
48C
330
1F
100
AcDbEntity
  8
LC-001-100-D00-0
 62
     7
370
    50
100
AcDbLine
 10
116.713572
 20
301.692946
 30
0.0
 11
100.810941
 21
303.786566
 31
0.0
  0
LINE
  5
48D
330
1F
100
AcDbEntity
  8
LC-001-100-D00-0
 62
     7
370
    50
100
AcDbLine
 10
198.46357
 20
290.930353
 30
0.0
 11
178.21357
 21
293.596316
 31
0.0
  0
LINE
  5
48E
330
1F
100
AcDbEntity
  8
LC-001-100-D00-0
 62
     7
370
    50
100
AcDbLine
 10
217.963568
 20
287.930353
 30
0.0
 11
217.963568
 21
285.930354
 31
0.0
  0
LINE
  5
48F
330
1F
100
AcDbEntity
  8
LC-001-100-D00-0
 62
     7
370
    50
100
AcDbLine
 10
241.963568
 20
285.374269
 30
0.0
 11
241.963568
 21
288.280354
 31
0.0
  0
LINE
  5
490
330
1F
100
AcDbEntity
  8
LC-001-100-D00-0
 62
     7
370
    50
100
AcDbLine
 10
220.463569
 20
285.930354
 30
0.0
 11
220.463569
 21
287.930353
 31
0.0
  0
LINE
  5
491
330
1F
100
AcDbEntity
  8
LC-001-100-D00-0
 62
     7
370
    50
100
AcDbLine
 10
246.46357
 20
288.280354
 30
0.0
 11
246.46357
 21
287.030539
 31
0.0
  0
LINE
  5
492
330
1F
100
AcDbEntity
  8
LC-001-100-D00-0
 62
     7
370
    50
100
AcDbLine
 10
251.463573
 20
338.430872
 30
0.0
 11
251.463573
 21
338.806046
 31
0.0
  0
LINE
  5
493
330
1F
100
AcDbEntity
  8
LC-001-100-D00-0
 62
     7
370
    50
100
AcDbLine
 10
199.910495
 20
347.430354
 30
0.0
 11
199.963569
 21
347.430354
 31
0.0
  0
LINE
  5
494
330
1F
100
AcDbEntity
  8
LC-001-100-D00-0
 62
     7
370
    50
100
AcDbLine
 10
227.463569
 20
342.313444
 30
0.0
 11
227.463569
 21
346.083892
 31
0.0
  0
ARC
  5
495
330
1F
100
AcDbEntity
  8
LC-001-100-D00-0
 62
     7
370
    50
100
AcDbCircle
 10
235.86357
 20
313.930354
 30
0.0
 40
33.23266465392135
100
AcDbArc
 50
104.641094
 51
122.5902
  0
LINE
  5
496
330
1F
100
AcDbEntity
  8
LC-001-100-D00-0
 62
     7
370
    50
100
AcDbLine
 10
217.963568
 20
341.93035
 30
0.0
 11
217.963568
 21
339.930354
 31
0.0
  0
LINE
  5
497
330
1F
100
AcDbEntity
  8
LC-001-100-D00-0
 62
     7
370
    50
100
AcDbLine
 10
241.963568
 20
339.580355
 30
0.0
 11
241.963568
 21
342.486439
 31
0.0
  0
LINE
  5
498
330
1F
100
AcDbEntity
  8
LC-001-100-D00-0
 62
     7
370
    50
100
AcDbLine
 10
246.46357
 20
340.830168
 30
0.0
 11
246.46357
 21
339.580355
 31
0.0
  0
LINE
  5
499
330
1F
100
AcDbEntity
  8
LC-001-100-D00-0
 62
     7
370
    50
100
AcDbLine
 10
205.96357
 20
349.930351
 30
0.0
 11
205.96357
 21
345.430357
 31
0.0
  0
LINE
  5
49A
330
1F
100
AcDbEntity
  8
LC-001-100-D00-0
 62
     7
370
    50
100
AcDbLine
 10
104.563567
 20
351.930355
 30
0.0
 11
105.563569
 21
350.930353
 31
0.0
  0
LINE
  5
49B
330
1F
100
AcDbEntity
  8
LC-001-100-D00-0
 62
     7
370
    50
100
AcDbLine
 10
189.36357
 20
350.930353
 30
0.0
 11
190.36357
 21
351.930355
 31
0.0
  0
ARC
  5
49C
330
1F
100
AcDbEntity
  8
LC-001-100-D00-0
 62
     7
370
    50
100
AcDbCircle
 10
196.043142
 20
348.230354
 30
0.0
 40
0.700000000000035
100
AcDbArc
 50
2.0
 51
90.0
  0
ARC
  5
49D
330
1F
100
AcDbEntity
  8
LC-001-100-D00-0
 62
     7
370
    50
100
AcDbCircle
 10
98.883997
 20
348.230354
 30
0.0
 40
0.7000000000000455
100
AcDbArc
 50
90.0
 51
178.0
  0
LINE
  5
49E
330
1F
100
AcDbEntity
  8
LC-001-100-D00-0
 62
     7
370
    50
100
AcDbLine
 10
196.96357
 20
341.93035
 30
0.0
 11
196.742716
 21
348.254783
 31
0.0
  0
LINE
  5
49F
330
1F
100
AcDbEntity
  8
LC-001-100-D00-0
 62
     7
370
    50
100
AcDbLine
 10
196.96357
 20
341.93035
 30
0.0
 11
192.96357
 21
341.93035
 31
0.0
  0
LINE
  5
4A0
330
1F
100
AcDbEntity
  8
LC-001-100-D00-0
 62
     7
370
    50
100
AcDbLine
 10
101.963568
 20
341.93035
 30
0.0
 11
97.963567
 21
341.93035
 31
0.0
  0
LINE
  5
4A1
330
1F
100
AcDbEntity
  8
LC-001-100-D00-0
 62
     7
370
    50
100
AcDbLine
 10
98.184425
 20
348.254783
 30
0.0
 11
97.963567
 21
341.93035
 31
0.0
  0
LINE
  5
4A2
330
1F
100
AcDbEntity
  8
LC-001-100-D00-0
 62
     7
370
    50
100
AcDbLine
 10
96.513572
 20
341.93035
 30
0.0
 11
95.027226
 21
347.477471
 31
0.0
  0
LINE
  5
4A3
330
1F
100
AcDbEntity
  8
LC-001-100-D00-0
 62
     7
370
    50
100
AcDbLine
 10
199.899915
 20
347.477471
 30
0.0
 11
198.413571
 21
341.93035
 31
0.0
  0
LINE
  5
4A4
330
1F
100
AcDbEntity
  8
LC-001-100-D00-0
 62
     7
370
    50
100
AcDbLine
 10
202.21357
 20
346.141679
 30
0.0
 11
199.899915
 21
347.477471
 31
0.0
  0
LINE
  5
4A5
330
1F
100
AcDbEntity
  8
LC-001-100-D00-0
 62
     7
370
    50
100
AcDbLine
 10
202.21357
 20
346.141679
 30
0.0
 11
201.46357
 21
346.141679
 31
0.0
  0
LINE
  5
4A6
330
1F
100
AcDbEntity
  8
LC-001-100-D00-0
 62
     7
370
    50
100
AcDbLine
 10
93.463573
 20
346.141679
 30
0.0
 11
92.713568
 21
346.141679
 31
0.0
  0
LINE
  5
4A7
330
1F
100
AcDbEntity
  8
LC-001-100-D00-0
 62
     7
370
    50
100
AcDbLine
 10
95.027226
 20
347.477471
 30
0.0
 11
92.713568
 21
346.141679
 31
0.0
  0
LINE
  5
4A8
330
1F
100
AcDbEntity
  8
LC-001-100-D00-0
 62
     7
370
    50
100
AcDbLine
 10
92.713568
 20
346.141679
 30
0.0
 11
92.713568
 21
345.430357
 31
0.0
  0
LINE
  5
4A9
330
1F
100
AcDbEntity
  8
LC-001-100-D00-0
 62
     7
370
    50
100
AcDbLine
 10
202.21357
 20
345.430357
 30
0.0
 11
202.21357
 21
346.141679
 31
0.0
  0
LINE
  5
4AA
330
1F
100
AcDbEntity
  8
LC-001-100-D00-0
 62
     7
370
    50
100
AcDbLine
 10
202.21357
 20
345.430357
 30
0.0
 11
201.46357
 21
345.430357
 31
0.0
  0
LINE
  5
4AB
330
1F
100
AcDbEntity
  8
LC-001-100-D00-0
 62
     7
370
    50
100
AcDbLine
 10
93.463573
 20
345.430357
 30
0.0
 11
92.713568
 21
345.430357
 31
0.0
  0
LINE
  5
4AC
330
1F
100
AcDbEntity
  8
LC-001-100-D00-0
 62
     7
370
    50
100
AcDbLine
 10
101.963568
 20
336.930355
 30
0.0
 11
101.963568
 21
348.230352
 31
0.0
  0
LINE
  5
4AD
330
1F
100
AcDbEntity
  8
LC-001-100-D00-0
 62
     7
370
    50
100
AcDbLine
 10
192.96357
 20
348.230352
 30
0.0
 11
192.96357
 21
336.930355
 31
0.0
  0
ARC
  5
4AE
330
1F
100
AcDbEntity
  8
LC-001-100-D00-0
 62
     7
370
    50
100
AcDbCircle
 10
193.66357
 20
348.230354
 30
0.0
 40
0.7000000000000455
100
AcDbArc
 50
90.0
 51
180.0
  0
ARC
  5
4AF
330
1F
100
AcDbEntity
  8
LC-001-100-D00-0
 62
     7
370
    50
100
AcDbCircle
 10
101.26357
 20
348.230354
 30
0.0
 40
0.7000000000000455
100
AcDbArc
 50
0.0
 51
90.0
  0
LINE
  5
4B0
330
1F
100
AcDbEntity
  8
LC-001-100-D00-0
 62
     7
370
    50
100
AcDbLine
 10
190.36357
 20
336.930355
 30
0.0
 11
189.36357
 21
337.930357
 31
0.0
  0
LINE
  5
4B1
330
1F
100
AcDbEntity
  8
LC-001-100-D00-0
 62
     7
370
    50
100
AcDbLine
 10
105.563569
 20
337.930357
 30
0.0
 11
104.563567
 21
336.930355
 31
0.0
  0
LINE
  5
4B2
330
1F
100
AcDbEntity
  8
LC-001-100-D00-0
 62
     7
370
    50
100
AcDbLine
 10
190.36357
 20
351.930355
 30
0.0
 11
196.96357
 21
351.930355
 31
0.0
  0
LINE
  5
4B3
330
1F
100
AcDbEntity
  8
LC-001-100-D00-0
 62
     7
370
    50
100
AcDbLine
 10
196.96357
 20
351.930355
 30
0.0
 11
196.96357
 21
353.930352
 31
0.0
  0
LINE
  5
4B4
330
1F
100
AcDbEntity
  8
LC-001-100-D00-0
 62
     7
370
    50
100
AcDbLine
 10
189.36357
 20
337.930357
 30
0.0
 11
189.36357
 21
350.930353
 31
0.0
  0
LINE
  5
4B5
330
1F
100
AcDbEntity
  8
LC-001-100-D00-0
 62
     7
370
    50
100
AcDbLine
 10
201.46357
 20
349.930351
 30
0.0
 11
205.96357
 21
349.930351
 31
0.0
  0
LINE
  5
4B6
330
1F
100
AcDbEntity
  8
LC-001-100-D00-0
 62
     7
370
    50
100
AcDbLine
 10
205.96357
 20
345.430357
 30
0.0
 11
202.21357
 21
345.430357
 31
0.0
  0
LINE
  5
4B7
330
1F
100
AcDbEntity
  8
LC-001-100-D00-0
 62
     7
370
    50
100
AcDbLine
 10
198.413571
 20
341.93035
 30
0.0
 11
196.96357
 21
341.93035
 31
0.0
  0
LINE
  5
4B8
330
1F
100
AcDbEntity
  8
LC-001-100-D00-0
 62
     7
370
    50
100
AcDbLine
 10
196.043142
 20
348.930357
 30
0.0
 11
193.66357
 21
348.930357
 31
0.0
  0
LINE
  5
4B9
330
1F
100
AcDbEntity
  8
LC-001-100-D00-0
 62
     7
370
    50
100
AcDbLine
 10
192.96357
 20
336.930355
 30
0.0
 11
190.36357
 21
336.930355
 31
0.0
  0
LINE
  5
4BA
330
1F
100
AcDbEntity
  8
LC-001-100-D00-0
 62
     7
370
    50
100
AcDbLine
 10
88.963571
 20
345.430357
 30
0.0
 11
88.963571
 21
349.930351
 31
0.0
  0
LINE
  5
4BB
330
1F
100
AcDbEntity
  8
LC-001-100-D00-0
 62
     7
370
    50
100
AcDbLine
 10
105.563569
 20
350.930353
 30
0.0
 11
105.563569
 21
337.930357
 31
0.0
  0
LINE
  5
4BC
330
1F
100
AcDbEntity
  8
LC-001-100-D00-0
 62
     7
370
    50
100
AcDbLine
 10
97.963567
 20
353.930352
 30
0.0
 11
97.963567
 21
351.930355
 31
0.0
  0
LINE
  5
4BD
330
1F
100
AcDbEntity
  8
LC-001-100-D00-0
 62
     7
370
    50
100
AcDbLine
 10
97.963567
 20
351.930355
 30
0.0
 11
104.563567
 21
351.930355
 31
0.0
  0
LINE
  5
4BE
330
1F
100
AcDbEntity
  8
LC-001-100-D00-0
 62
     7
370
    50
100
AcDbLine
 10
88.963571
 20
349.930351
 30
0.0
 11
93.463573
 21
349.930351
 31
0.0
  0
LINE
  5
4BF
330
1F
100
AcDbEntity
  8
LC-001-100-D00-0
 62
     7
370
    50
100
AcDbLine
 10
92.713568
 20
345.430357
 30
0.0
 11
88.963571
 21
345.430357
 31
0.0
  0
LINE
  5
4C0
330
1F
100
AcDbEntity
  8
LC-001-100-D00-0
 62
     7
370
    50
100
AcDbLine
 10
97.963567
 20
341.93035
 30
0.0
 11
96.513572
 21
341.93035
 31
0.0
  0
LINE
  5
4C1
330
1F
100
AcDbEntity
  8
LC-001-100-D00-0
 62
     7
370
    50
100
AcDbLine
 10
101.263571
 20
348.930357
 30
0.0
 11
98.883997
 21
348.930357
 31
0.0
  0
LINE
  5
4C2
330
1F
100
AcDbEntity
  8
LC-001-100-D00-0
 62
     7
370
    50
100
AcDbLine
 10
104.563567
 20
336.930355
 30
0.0
 11
101.963568
 21
336.930355
 31
0.0
  0
INSERT
  5
4CD
330
1F
100
AcDbEntity
  8
LC-001-100-D00-0
 62
     7
370
    25
100
AcDbBlockReference
  2
KLON8
 10
0.0
 20
0.0
 30
0.0
  0
INSERT
  5
4D6
330
1F
100
AcDbEntity
  8
LC-001-100-D00-0
 62
     7
370
    25
100
AcDbBlockReference
  2
KLON9
 10
0.0
 20
0.0
 30
0.0
  0
INSERT
  5
4E8
330
1F
100
AcDbEntity
  8
LC-001-100-D00-0
 62
     7
370
    25
100
AcDbBlockReference
  2
KLON10
 10
0.0
 20
0.0
 30
0.0
  0
INSERT
  5
522
330
1F
100
AcDbEntity
  8
LC-001-100-D00-0
 62
     7
370
    25
100
AcDbBlockReference
  2
KLON11
 10
0.0
 20
0.0
 30
0.0
  0
LINE
  5
523
330
1F
100
AcDbEntity
  8
LC-001-100-D00-0
 62
     7
370
    50
100
AcDbLine
 10
110.009149
 20
354.114273
 30
0.0
 11
111.509721
 21
355.614845
 31
0.0
  0
INSERT
  5
52B
330
1F
100
AcDbEntity
  8
LC-001-100-D00-0
 62
     7
370
    25
100
AcDbBlockReference
  2
KLON12
 10
0.0
 20
0.0
 30
0.0
  0
INSERT
  5
534
330
1F
100
AcDbEntity
  8
LC-001-100-D00-0
 62
     7
370
    25
100
AcDbBlockReference
  2
KLON13
 10
0.0
 20
0.0
 30
0.0
  0
LINE
  5
535
330
1F
100
AcDbEntity
  8
LC-001-100-D00-0
 62
     7
370
    50
100
AcDbLine
 10
245.637494
 20
285.835831
 30
0.0
 11
242.869048
 21
288.604277
 31
0.0
  0
LINE
  5
536
330
1F
100
AcDbEntity
  8
LC-001-100-D00-0
 62
     7
370
    25
100
AcDbLine
 10
245.589347
 20
339.765515
 30
0.0
 11
242.798731
 21
342.556131
 31
0.0
  0
INSERT
  5
53F
330
1F
100
AcDbEntity
  8
LC-001-100-D00-0
 62
     7
370
    25
100
AcDbBlockReference
  2
KLON14
 10
0.0
 20
0.0
 30
0.0
  0
INSERT
  5
548
330
1F
100
AcDbEntity
  8
LC-001-100-D00-0
 62
     7
370
    50
100
AcDbBlockReference
  2
KLON15
 10
0.0
 20
0.0
 30
0.0
  0
LINE
  5
549
330
1F
100
AcDbEntity
  8
LC-001-100-D00-0
 62
     7
370
    25
100
AcDbLine
 10
185.715161
 20
357.978236
 30
0.0
 11
187.465687
 21
359.728762
 31
0.0
  0
INSERT
  5
55B
330
1F
100
AcDbEntity
  8
LC-001-100-D00-0
 62
     7
370
    25
100
AcDbBlockReference
  2
KLON16
 10
0.0
 20
0.0
 30
0.0
  0
INSERT
  5
56C
330
1F
100
AcDbEntity
  8
LC-001-100-D00-0
 62
     7
370
    25
100
AcDbBlockReference
  2
KLON17
 10
0.0
 20
0.0
 30
0.0
  0
INSERT
  5
572
330
1F
100
AcDbEntity
  8
LC-001-100-D00-0
 62
     7
370
    25
100
AcDbBlockReference
  2
KLON18
 10
0.0
 20
0.0
 30
0.0
  0
INSERT
  5
57A
330
1F
100
AcDbEntity
  8
LC-001-100-D00-0
 62
     7
370
    25
100
AcDbBlockReference
  2
KLON19
 10
0.0
 20
0.0
 30
0.0
  0
INSERT
  5
589
330
1F
100
AcDbEntity
  8
LC-001-100-D00-0
 62
     7
370
    25
100
AcDbBlockReference
  2
KLON20
 10
0.0
 20
0.0
 30
0.0
  0
INSERT
  5
598
330
1F
100
AcDbEntity
  8
LC-001-100-D00-0
 62
     7
370
    25
100
AcDbBlockReference
  2
KLON21
 10
0.0
 20
0.0
 30
0.0
  0
INSERT
  5
5B9
330
1F
100
AcDbEntity
  8
LC-001-100-D00-0
 62
     7
370
    25
100
AcDbBlockReference
  2
KLON22
 10
0.0
 20
0.0
 30
0.0
  0
INSERT
  5
5D5
330
1F
100
AcDbEntity
  8
LC-001-100-D00-0
 62
     7
370
    25
100
AcDbBlockReference
  2
KLON23
 10
0.0
 20
0.0
 30
0.0
  0
DIMENSION
  5
5D9
330
1F
100
AcDbEntity
  8
LC-002-103-D00-0
 62
     7
370
    25
100
AcDbDimension
  2
*D58
 10
-5.467809
 20
273.430354
 30
0.0
 11
-36.267809
 21
314.154391
 31
0.0
 70
   160
 71
     5
 42
83.0
 53
90.0
  3
LC-DIM-L-0140-02-02
100
AcDbAlignedDimension
 13
95.96357
 23
356.430354
 33
0.0
 14
127.21357
 24
273.430354
 34
0.0
 50
90.0
100
AcDbRotatedDimension
  0
DIMENSION
  5
5E7
330
1F
100
AcDbEntity
  8
LC-002-103-D00-0
 62
     7
370
    25
100
AcDbDimension
  2
*D59
 10
413.02966
 20
282.430354
 30
0.0
 11
382.22966
 21
348.360393
 31
0.0
 70
   160
  1
%%c<>
 71
     5
 42
63.0
 53
90.0
  3
LC-DIM-L-0140-02-02
100
AcDbAlignedDimension
 13
295.16357
 23
345.430354
 33
0.0
 14
292.66357
 24
282.430354
 34
0.0
 50
90.0
100
AcDbRotatedDimension
  0
DIMENSION
  5
5F5
330
1F
100
AcDbEntity
  8
LC-002-103-D00-0
 62
     7
370
    25
100
AcDbDimension
  2
*D60
 10
365.110102
 20
285.930354
 30
0.0
 11
334.310102
 21
365.586393
 31
0.0
 70
   160
  1
%%c<>
 71
     5
 42
56.0
 53
90.0
  3
LC-DIM-L-0140-02-02
100
AcDbAlignedDimension
 13
291.66357
 23
341.930354
 33
0.0
 14
291.66357
 24
285.930354
 34
0.0
 50
90.0
100
AcDbRotatedDimension
  0
DIMENSION
  5
604
330
1F
100
AcDbEntity
  8
LC-002-103-D00-0
 62
     7
370
    25
100
AcDbDimension
  2
*D61
 10
334.36357
 20
123.480391
 30
0.0
 11
243.71389
 21
154.280391
 31
0.0
 70
   160
  1
187
 71
     5
 42
186.868145
  3
LC-DIM-L-0140-01-02
100
AcDbAlignedDimension
 13
147.495425
 23
270.73024
 33
0.0
 14
334.36357
 24
283.522264
 34
0.0
100
AcDbRotatedDimension
  0
DIMENSION
  5
611
330
1F
100
AcDbEntity
  8
LC-002-103-D00-0
 62
     7
370
    25
100
AcDbDimension
  2
*D62
 10
71.203483
 20
288.730354
 30
0.0
 11
40.403483
 21
313.560391
 31
0.0
 70
   160
  1
50
 71
     5
 42
51.0
 53
90.0
  3
LC-DIM-L-0140-02-02
100
AcDbAlignedDimension
 13
117.143325
 23
339.730354
 33
0.0
 14
128.522526
 24
288.730354
 34
0.0
 50
90.0
100
AcDbRotatedDimension
  0
LINE
  5
621
330
1F
100
AcDbEntity
  8
LC-001-100-D00-0
  6
DASHDOT
 62
     7
370
    25
100
AcDbLine
 10
147.495425
 20
270.73024
 30
0.0
 11
147.495425
 21
362.430354
 31
0.0
  0
LINE
  5
622
330
1F
100
AcDbEntity
  8
LC-001-100-D00-0
  6
DASHDOT
 62
     7
370
    25
100
AcDbLine
 10
336.36357
 20
313.930354
 30
0.0
 11
187.631282
 21
313.930354
 31
0.0
  0
DIMENSION
  5
624
330
1F
100
AcDbEntity
  8
LC-003-003-----0
 62
     7
370
    25
100
AcDbDimension
  2
*D63
 10
181.187954
 20
218.520391
 30
0.0
 11
222.416308
 21
249.320391
 31
0.0
 70
   160
  1
%%c67,5
 71
     5
 42
67.442851
  3
LC-DIM-L-0140-02-02
100
AcDbAlignedDimension
 13
113.745103
 23
286.008178
 33
0.0
 14
181.187954
 24
286.099108
 34
0.0
100
AcDbRotatedDimension
  0
DIMENSION
  5
632
330
1F
100
AcDbEntity
  8
LC-003-003-----0
 62
     7
370
    25
100
AcDbDimension
  2
*D64
 10
201.46357
 20
163.278391
 30
0.0
 11
143.615259
 21
194.078391
 31
0.0
 70
   160
  1
%%c<>
 71
     5
 42
108.0
  3
LC-DIM-L-0140-02-02
100
AcDbAlignedDimension
 13
93.46357
 23
308.743791
 33
0.0
 14
201.46357
 24
339.930354
 34
0.0
100
AcDbRotatedDimension
  0
DIMENSION
  5
63F
330
1F
100
AcDbEntity
  8
LC-003-003-----0
 62
     7
370
    25
100
AcDbDimension
  2
*D65
 10
205.96357
 20
387.790999
 30
0.0
 11
144.108277
 21
418.590999
 31
0.0
 70
   160
  1
%%c<>
 71
     5
 42
116.999999
  3
LC-DIM-L-0140-02-02
100
AcDbAlignedDimension
 13
88.963571
 23
349.930351
 33
0.0
 14
205.96357
 24
349.930351
 34
0.0
100
AcDbRotatedDimension
  0
DIMENSION
  5
64C
330
1F
100
AcDbEntity
  8
LC-003-003-----0
 62
     7
370
    25
100
AcDbDimension
  2
*D66
 10
24.348805
 20
362.430354
 30
0.0
 11
-6.451195
 21
384.840391
 31
0.0
 70
   160
  1
6-25
 71
     5
 42
6.000001
 53
90.0
  3
LC-DIM-L-0140-02-02
100
AcDbAlignedDimension
 13
95.96357
 23
356.430354
 33
0.0
 14
106.313567
 24
362.430354
 34
0.0
 50
90.0
100
AcDbRotatedDimension
  0
ENDSEC
  0
SECTION
  2
OBJECTS
  0
DICTIONARY
  5
C
330
0
100
AcDbDictionary
281
     1
  3
ACAD_GROUP
350
D
  3
ACAD_LAYOUT
350
1A
  3
ACAD_MLINESTYLE
350
17
  3
ACAD_PLOTSETTINGS
350
19
  3
ACAD_PLOTSTYLENAME
350
E
  0
DICTIONARY
  5
D
102
{ACAD_REACTORS
330
C
102
}
330
C
100
AcDbDictionary
281
     1
  0
DICTIONARY
  5
1A
102
{ACAD_REACTORS
330
C
102
}
330
C
100
AcDbDictionary
281
     1
  3
Layout1
350
1E
  3
Layout2
350
26
  3
Model
350
22
  0
DICTIONARY
  5
17
102
{ACAD_REACTORS
330
C
102
}
330
C
100
AcDbDictionary
281
     1
  3
Standard
350
18
  0
DICTIONARY
  5
19
102
{ACAD_REACTORS
330
C
102
}
330
C
100
AcDbDictionary
281
     1
  0
ACDBDICTIONARYWDFLT
  5
E
102
{ACAD_REACTORS
330
C
102
}
330
C
100
AcDbDictionary
281
     1
  3
Normal
350
F
100
AcDbDictionaryWithDefault
340
F
  0
LAYOUT
  5
1E
102
{ACAD_REACTORS
330
1A
102
}
330
1A
100
AcDbPlotSettings
  1

  2

  4

  6

 40
0.0
 41
0.0
 42
0.0
 43
0.0
 44
0.0
 45
0.0
 46
0.0
 47
0.0
 48
0.0
 49
0.0
140
0.0
141
0.0
142
1.0
143
1.0
 70
   688
 72
     0
 73
     0
 74
     5
  7

 75
    16
147
1.0
148
0.0
149
0.0
100
AcDbLayout
  1
Layout1
 70
     1
 71
     1
 10
-118.782642
 20
-86.201609
 11
721.217358
 21
507.798391
 12
0.0
 22
0.0
 32
0.0
 14
-118.782642
 24
-86.201609
 34
0.0
 15
721.217358
 25
507.798391
 35
0.0
146
0.0
 13
0.0
 23
0.0
 33
0.0
 16
1.0
 26
0.0
 36
0.0
 17
0.0
 27
1.0
 37
0.0
 76
     0
330
1B
  0
LAYOUT
  5
26
102
{ACAD_REACTORS
330
1A
102
}
330
1A
100
AcDbPlotSettings
  1

  2

  4

  6

 40
0.0
 41
0.0
 42
0.0
 43
0.0
 44
0.0
 45
0.0
 46
0.0
 47
0.0
 48
0.0
 49
0.0
140
0.0
141
0.0
142
1.0
143
1.0
 70
   688
 72
     0
 73
     0
 74
     5
  7

 75
    16
147
1.0
148
0.0
149
0.0
100
AcDbLayout
  1
Layout2
 70
     1
 71
     2
 10
0.0
 20
0.0
 11
0.0
 21
0.0
 12
0.0
 22
0.0
 32
0.0
 14
0.0
 24
0.0
 34
0.0
 15
0.0
 25
0.0
 35
0.0
146
0.0
 13
0.0
 23
0.0
 33
0.0
 16
1.0
 26
0.0
 36
0.0
 17
0.0
 27
1.0
 37
0.0
 76
     0
330
23
  0
LAYOUT
  5
22
102
{ACAD_REACTORS
330
1A
102
}
330
1A
100
AcDbPlotSettings
  1

  2

  4

  6

 40
0.0
 41
0.0
 42
0.0
 43
0.0
 44
0.0
 45
0.0
 46
0.0
 47
0.0
 48
0.0
 49
0.0
140
0.0
141
0.0
142
1.0
143
1.0
 70
  1776
 72
     0
 73
     0
 74
     0
  7

 75
     0
147
1.0
148
0.0
149
0.0
100
AcDbLayout
  1
Model
 70
     1
 71
     0
 10
-118.782642
 20
-86.201609
 11
721.217358
 21
507.798391
 12
0.0
 22
0.0
 32
0.0
 14
-118.782642
 24
-86.201609
 34
0.0
 15
721.217358
 25
507.798391
 35
0.0
146
0.0
 13
0.0
 23
0.0
 33
0.0
 16
1.0
 26
0.0
 36
0.0
 17
0.0
 27
1.0
 37
0.0
 76
     0
330
1F
  0
MLINESTYLE
  5
18
102
{ACAD_REACTORS
330
17
102
}
330
17
100
AcDbMlineStyle
  2
Standard
 70
     0
  3

 62
   256
 51
90.0
 52
90.0
 71
     2
 49
0.5
 62
   256
  6
BYLAYER
 49
-0.5
 62
   256
  6
BYLAYER
  0
ACDBPLACEHOLDER
  5
F
102
{ACAD_REACTORS
330
E
102
}
330
E
  0
ENDSEC
  0
EOF
