  0
SECTION
  2
HEADER
  9
$ACADVER
  1
AC1015
  9
$ACADMAINTVER
 70
     6
  9
$DWGCODEPAGE
  3
DOS850
  9
$INSBASE
 10
0.0
 20
0.0
 30
0.0
  9
$EXTMIN
 10
-210.0
 20
-148.5
 30
0.0
  9
$EXTMAX
 10
630.0
 20
445.5
 30
0.0
  9
$LIMMIN
 10
-210.0
 20
-148.5
  9
$LIMMAX
 10
630.0
 20
445.5
  9
$ORTHOMODE
 70
     0
  9
$REGENMODE
 70
     1
  9
$FILLMODE
 70
     1
  9
$QTEXTMODE
 70
     0
  9
$MIRRTEXT
 70
     1
  9
$LTSCALE
 40
2.0
  9
$ATTMODE
 70
     1
  9
$TEXTSIZE
 40
2.5
  9
$TRACEWID
 40
1.0
  9
$TEXTSTYLE
  7
Standard
  9
$CLAYER
  8
0
  9
$CELTYPE
  6
ByLayer
  9
$CECOLOR
 62
     7
  9
$CELTSCALE
 40
1.0
  9
$DISPSILH
 70
     0
  9
$DIMSCALE
 40
2.0
  9
$DIMASZ
 40
3.5
  9
$DIMEXO
 40
0.625
  9
$DIMDLI
 40
3.75
  9
$DIMRND
 40
0.0
  9
$DIMDLE
 40
0.0
  9
$DIMEXE
 40
1.25
  9
$DIMTP
 40
0.0
  9
$DIMTM
 40
0.0
  9
$DIMTXT
 40
3.5
  9
$DIMCEN
 40
2.5
  9
$DIMTSZ
 40
0.0
  9
$DIMTOL
 70
     0
  9
$DIMLIM
 70
     0
  9
$DIMTIH
 70
     0
  9
$DIMTOH
 70
     0
  9
$DIMSE1
 70
     0
  9
$DIMSE2
 70
     0
  9
$DIMTAD
 70
     1
  9
$DIMZIN
 70
     8
  9
$DIMBLK
  1

  9
$DIMASO
 70
     1
  9
$DIMSHO
 70
     1
  9
$DIMPOST
  1

  9
$DIMAPOST
  1

  9
$DIMALT
 70
     0
  9
$DIMALTD
 70
     3
  9
$DIMALTF
 40
0.03937
  9
$DIMLFAC
 40
1.0
  9
$DIMTOFL
 70
     1
  9
$DIMTVP
 40
0.0
  9
$DIMTIX
 70
     0
  9
$DIMSOXD
 70
     0
  9
$DIMSAH
 70
     0
  9
$DIMBLK1
  1

  9
$DIMBLK2
  1

  9
$DIMSTYLE
  2
ISO-25
  9
$DIMCLRD
 70
     0
  9
$DIMCLRE
 70
     0
  9
$DIMCLRT
 70
     0
  9
$DIMTFAC
 40
1.0
  9
$DIMGAP
 40
0.625
  9
$DIMJUST
 70
     0
  9
$DIMSD1
 70
     0
  9
$DIMSD2
 70
     0
  9
$DIMTOLJ
 70
     0
  9
$DIMTZIN
 70
     8
  9
$DIMALTZ
 70
     0
  9
$DIMALTTZ
 70
     0
  9
$DIMUPT
 70
     0
  9
$DIMDEC
 70
     2
  9
$DIMTDEC
 70
     2
  9
$DIMALTU
 70
     2
  9
$DIMALTTD
 70
     3
  9
$DIMTXSTY
  7
Standard
  9
$DIMAUNIT
 70
     0
  9
$DIMADEC
 70
     0
  9
$DIMALTRND
 40
0.0
  9
$DIMAZIN
 70
     0
  9
$DIMDSEP
 70
    44
  9
$DIMATFIT
 70
     3
  9
$DIMFRAC
 70
     0
  9
$DIMLDRBLK
  1

  9
$DIMLUNIT
 70
     2
  9
$DIMLWD
 70
    -2
  9
$DIMLWE
 70
    -2
  9
$DIMTMOVE
 70
     0
  9
$LUNITS
 70
     2
  9
$LUPREC
 70
     4
  9
$SKETCHINC
 40
1.0
  9
$FILLETRAD
 40
10.0
  9
$AUNITS
 70
     0
  9
$AUPREC
 70
     0
  9
$MENU
  1
.
  9
$ELEVATION
 40
0.0
  9
$PELEVATION
 40
0.0
  9
$THICKNESS
 40
0.0
  9
$LIMCHECK
 70
     0
  9
$CHAMFERA
 40
10.0
  9
$CHAMFERB
 40
10.0
  9
$CHAMFERC
 40
20.0
  9
$CHAMFERD
 40
0.0
  9
$SKPOLY
 70
     0
  9
$TDCREATE
 40
2453783.577664178
  9
$TDUCREATE
 40
2453783.535997511
  9
$TDUPDATE
 40
2453783.57766419
  9
$TDUUPDATE
 40
2453783.535997523
  9
$TDINDWG
 40
0.0000000116
  9
$TDUSRTIMER
 40
0.0000000116
  9
$USRTIMER
 70
     1
  9
$ANGBASE
 50
0.0
  9
$ANGDIR
 70
     0
  9
$PDMODE
 70
     0
  9
$PDSIZE
 40
0.0
  9
$PLINEWID
 40
0.0
  9
$SPLFRAME
 70
     0
  9
$SPLINETYPE
 70
     6
  9
$SPLINESEGS
 70
     8
  9
$HANDSEED
  5
5A8
  9
$SURFTAB1
 70
     6
  9
$SURFTAB2
 70
     6
  9
$SURFTYPE
 70
     6
  9
$SURFU
 70
     6
  9
$SURFV
 70
     6
  9
$UCSBASE
  2

  9
$UCSNAME
  2

  9
$UCSORG
 10
0.0
 20
0.0
 30
0.0
  9
$UCSXDIR
 10
1.0
 20
0.0
 30
0.0
  9
$UCSYDIR
 10
0.0
 20
1.0
 30
0.0
  9
$UCSORTHOREF
  2

  9
$UCSORTHOVIEW
 70
     0
  9
$UCSORGTOP
 10
0.0
 20
0.0
 30
0.0
  9
$UCSORGBOTTOM
 10
0.0
 20
0.0
 30
0.0
  9
$UCSORGLEFT
 10
0.0
 20
0.0
 30
0.0
  9
$UCSORGRIGHT
 10
0.0
 20
0.0
 30
0.0
  9
$UCSORGFRONT
 10
0.0
 20
0.0
 30
0.0
  9
$UCSORGBACK
 10
0.0
 20
0.0
 30
0.0
  9
$PUCSBASE
  2

  9
$PUCSNAME
  2

  9
$PUCSORG
 10
0.0
 20
0.0
 30
0.0
  9
$PUCSXDIR
 10
1.0
 20
0.0
 30
0.0
  9
$PUCSYDIR
 10
0.0
 20
1.0
 30
0.0
  9
$PUCSORTHOREF
  2

  9
$PUCSORTHOVIEW
 70
     0
  9
$PUCSORGTOP
 10
0.0
 20
0.0
 30
0.0
  9
$PUCSORGBOTTOM
 10
0.0
 20
0.0
 30
0.0
  9
$PUCSORGLEFT
 10
0.0
 20
0.0
 30
0.0
  9
$PUCSORGRIGHT
 10
0.0
 20
0.0
 30
0.0
  9
$PUCSORGFRONT
 10
0.0
 20
0.0
 30
0.0
  9
$PUCSORGBACK
 10
0.0
 20
0.0
 30
0.0
  9
$USERI1
 70
     0
  9
$USERI2
 70
     0
  9
$USERI3
 70
     0
  9
$USERI4
 70
     0
  9
$USERI5
 70
     0
  9
$USERR1
 40
0.0
  9
$USERR2
 40
0.0
  9
$USERR3
 40
0.0
  9
$USERR4
 40
0.0
  9
$USERR5
 40
0.0
  9
$WORLDVIEW
 70
     1
  9
$SHADEDGE
 70
     3
  9
$SHADEDIF
 70
    70
  9
$TILEMODE
 70
     1
  9
$MAXACTVP
 70
    64
  9
$PINSBASE
 10
0.0
 20
0.0
 30
0.0
  9
$PLIMCHECK
 70
     0
  9
$PEXTMIN
 10
-210.0
 20
-148.5
 30
0.0
  9
$PEXTMAX
 10
630.0
 20
445.5
 30
0.0
  9
$PLIMMIN
 10
-210.0
 20
-148.5
  9
$PLIMMAX
 10
630.0
 20
445.5
  9
$UNITMODE
 70
     0
  9
$VISRETAIN
 70
     1
  9
$PLINEGEN
 70
     0
  9
$PSLTSCALE
 70
     1
  9
$TREEDEPTH
 70
  3020
  9
$CMLSTYLE
  2
Standard
  9
$CMLJUST
 70
     0
  9
$CMLSCALE
 40
20.0
  9
$PROXYGRAPHICS
 70
     1
  9
$MEASUREMENT
 70
     1
  9
$CELWEIGHT
370
    -1
  9
$ENDCAPS
280
     0
  9
$JOINSTYLE
280
     0
  9
$LWDISPLAY
290
     0
  9
$INSUNITS
 70
     4
  9
$HYPERLINKBASE
  1

  9
$STYLESHEET
  1

  9
$XEDIT
290
     1
  9
$CEPSNTYPE
380
     0
  9
$PSTYLEMODE
290
     1
  9
$FINGERPRINTGUID
  2
{FAEB1C30-E019-11D5-929B-00C0DF256EC4}
  9
$VERSIONGUID
  2
{FAEB1C32-E019-11D5-929B-00C0DF256EC4}
  9
$EXTNAMES
290
     1
  9
$PSVPSCALE
 40
0.0
  9
$OLESTARTUP
290
     0
  0
ENDSEC
  0
SECTION
  2
CLASSES
  0
CLASS
  1
ACDBDICTIONARYWDFLT
  2
AcDbDictionaryWithDefault
  3
ObjectDBX Classes
 90
        0
280
     0
281
     0
  0
CLASS
  1
ACDBPLACEHOLDER
  2
AcDbPlaceHolder
  3
ObjectDBX Classes
 90
        0
280
     0
281
     0
  0
CLASS
  1
LAYOUT
  2
AcDbLayout
  3
ObjectDBX Classes
 90
        0
280
     0
281
     0
  0
ENDSEC
  0
SECTION
  2
TABLES
  0
TABLE
  2
VPORT
  5
8
330
0
100
AcDbSymbolTable
 70
     2
  0
VPORT
  5
29
330
8
100
AcDbSymbolTableRecord
100
AcDbViewportTableRecord
  2
*ACTIVE
 70
     0
 10
0.0
 20
0.0
 11
1.0
 21
1.0
 12
210.0
 22
148.5
 13
0.0
 23
0.0
 14
1.0
 24
1.0
 15
0.0
 25
0.0
 16
0.0
 26
0.0
 36
1.0
 17
0.0
 27
0.0
 37
0.0
 40
594.0
 41
1.414141
 42
50.0
 43
0.0
 44
0.0
 50
0.0
 51
0.0
 71
    16
 72
   100
 73
     1
 74
     0
 75
     0
 76
     0
 77
     0
 78
     0
281
     0
 65
     0
110
0.0
120
0.0
130
0.0
111
1.0
121
0.0
131
0.0
112
0.0
122
1.0
132
0.0
 79
     0
146
0.0
  0
ENDTAB
  0
TABLE
  2
LTYPE
  5
5
330
0
100
AcDbSymbolTable
 70
     4
  0
LTYPE
  5
14
330
5
100
AcDbSymbolTableRecord
100
AcDbLinetypeTableRecord
  2
ByBlock
 70
     0
  3

 72
    65
 73
     0
 40
0.0
  0
LTYPE
  5
15
330
5
100
AcDbSymbolTableRecord
100
AcDbLinetypeTableRecord
  2
ByLayer
 70
     0
  3

 72
    65
 73
     0
 40
0.0
  0
LTYPE
  5
16
330
5
100
AcDbSymbolTableRecord
100
AcDbLinetypeTableRecord
  2
Continuous
 70
     0
  3
Solid line
 72
    65
 73
     0
 40
0.0
  0
LTYPE
  5
2A
330
5
100
AcDbSymbolTableRecord
100
AcDbLinetypeTableRecord
  2
DASHED
 70
     0
  3
__ __ __ __ __
 72
    65
 73
     2
 40
6.25
 49
5.0
 74
     4
 75
     0
340
0
 46
1.0
 50
0.0
 44
0.0
 45
0.0
 49
-1.25
 74
     4
 75
     0
340
0
 46
1.0
 50
0.0
 44
0.0
 45
0.0
  0
LTYPE
  5
30
330
5
100
AcDbSymbolTableRecord
100
AcDbLinetypeTableRecord
  2
DASHDOT
 70
     0
  3
__ . __ . __ . __ . __
 72
    65
 73
     4
 40
7.5
 49
5.0
 74
     4
 75
     0
340
0
 46
1.0
 50
0.0
 44
0.0
 45
0.0
 49
-1.25
 74
     4
 75
     0
340
0
 46
1.0
 50
0.0
 44
0.0
 45
0.0
 49
0.0
 74
     4
 75
     0
340
0
 46
1.0
 50
0.0
 44
0.0
 45
0.0
 49
-1.25
 74
     4
 75
     0
340
0
 46
1.0
 50
0.0
 44
0.0
 45
0.0
  0
LTYPE
  5
155
330
5
100
AcDbSymbolTableRecord
100
AcDbLinetypeTableRecord
  2
CENTER
 70
     0
  3
__ . __ . __ . __ . __
 72
    65
 73
     4
 40
7.5
 49
5.0
 74
     4
 75
     0
340
0
 46
1.0
 50
0.0
 44
0.0
 45
0.0
 49
-1.25
 74
     4
 75
     0
340
0
 46
1.0
 50
0.0
 44
0.0
 45
0.0
 49
0.0
 74
     4
 75
     0
340
0
 46
1.0
 50
0.0
 44
0.0
 45
0.0
 49
-1.25
 74
     4
 75
     0
340
0
 46
1.0
 50
0.0
 44
0.0
 45
0.0
  0
ENDTAB
  0
TABLE
  2
LAYER
  5
2
330
0
100
AcDbSymbolTable
 70
    12
  0
LAYER
  5
10
330
2
100
AcDbSymbolTableRecord
100
AcDbLayerTableRecord
  2
0
 70
     0
 62
     7
  6
Continuous
370
    -3
390
F
  0
LAYER
  5
2B
330
2
100
AcDbSymbolTableRecord
100
AcDbLayerTableRecord
  2
LC-INFO-1-2-mm-A3-0
 70
     1
 62
     7
  6
ByBlock
370
    -3
390
F
  0
LAYER
  5
2C
330
2
100
AcDbSymbolTableRecord
100
AcDbLayerTableRecord
  2
LC-CUT-HIDDEN
 70
     0
 62
     7
  6
DASHED
370
    -3
390
F
  0
LAYER
  5
2D
330
2
100
AcDbSymbolTableRecord
100
AcDbLayerTableRecord
  2
LC-VIEWPORT
 70
     0
 62
     7
  6
ByBlock
370
    -3
390
F
  0
LAYER
  5
2E
330
2
100
AcDbSymbolTableRecord
100
AcDbLayerTableRecord
  2
LC-3D-HIDDEN
 70
     0
 62
     9
  6
DASHED
370
    -3
390
F
  0
LAYER
  5
31
330
2
100
AcDbSymbolTableRecord
100
AcDbLayerTableRecord
  2
LC-001-002-----0
 70
     0
 62
     2
  6
DASHDOT
370
    -3
390
F
  0
LAYER
  5
33
330
2
100
AcDbSymbolTableRecord
100
AcDbLayerTableRecord
  2
LC-002-002-RND-0
 70
     0
 62
     1
  6
ByBlock
370
    -3
390
F
  0
LAYER
  5
49
330
2
100
AcDbSymbolTableRecord
100
AcDbLayerTableRecord
  2
LC-003-005-----0
 70
     0
 62
     2
  6
ByBlock
370
    -3
390
F
  0
LAYER
  5
A8
330
2
100
AcDbSymbolTableRecord
100
AcDbLayerTableRecord
  2
LC-004-002-___-0
 70
     0
 62
     2
  6
DASHED
370
    -3
390
F
  0
LAYER
  5
126
330
2
100
AcDbSymbolTableRecord
100
AcDbLayerTableRecord
  2
LC-005-003-----0
 70
     0
 62
     2
  6
ByBlock
370
    -3
390
F
  0
LAYER
  5
128
330
2
100
AcDbSymbolTableRecord
100
AcDbLayerTableRecord
  2
Defpoints
 70
     0
 62
     7
  6
Continuous
290
     0
370
    -3
390
F
  0
LAYER
  5
156
330
2
100
AcDbSymbolTableRecord
100
AcDbLayerTableRecord
  2
LC-006-006-MLN-0
 70
     0
 62
     2
  6
CENTER
370
    -3
390
F
  0
ENDTAB
  0
TABLE
  2
STYLE
  5
3
330
0
100
AcDbSymbolTable
 70
     3
  0
STYLE
  5
11
330
3
100
AcDbSymbolTableRecord
100
AcDbTextStyleTableRecord
  2
Standard
 70
     0
 40
0.0
 41
1.0
 50
0.0
 71
     0
 42
2.5
  3
txt
  4

  0
STYLE
  5
2F
330
3
100
AcDbSymbolTableRecord
100
AcDbTextStyleTableRecord
  2
LCTX15-400-0-0-Arial
 70
     0
 40
0.0
 41
0.9
 50
0.0
 71
     0
 42
3.5
  3

  4

1001
ACAD
1000
Arial
1071
 16777218
  0
STYLE
  5
124
330
3
100
AcDbSymbolTableRecord
100
AcDbTextStyleTableRecord
  2
LCTX15-400-0-0pDIN-Schrift
 70
     0
 40
2.5
 41
0.8
 50
15.0
 71
     0
 42
3.5
  3
STANDARD
  4

  0
ENDTAB
  0
TABLE
  2
VIEW
  5
6
330
0
100
AcDbSymbolTable
 70
     0
  0
ENDTAB
  0
TABLE
  2
UCS
  5
7
330
0
100
AcDbSymbolTable
 70
     0
  0
ENDTAB
  0
TABLE
  2
APPID
  5
9
330
0
100
AcDbSymbolTable
 70
     1
  0
APPID
  5
12
330
9
100
AcDbSymbolTableRecord
100
AcDbRegAppTableRecord
  2
ACAD
 70
     0
  0
ENDTAB
  0
TABLE
  2
DIMSTYLE
  5
A
330
0
100
AcDbSymbolTable
 70
     2
100
AcDbDimStyleTable
  0
DIMSTYLE
105
27
330
A
100
AcDbSymbolTableRecord
100
AcDbDimStyleTableRecord
  2
ISO-25
 70
     0
 41
2.5
 42
0.625
 43
3.75
 44
1.25
 73
     0
 74
     0
 77
     1
 78
     8
140
2.5
141
2.5
143
0.03937
147
0.625
171
     3
172
     1
271
     2
272
     2
274
     3
278
    44
283
     0
284
     8
340
11
  0
DIMSTYLE
105
125
102
{ACAD_REACTORS
330
127
330
203
330
210
330
21D
330
22A
330
237
330
592
102
}
330
A
100
AcDbSymbolTableRecord
100
AcDbDimStyleTableRecord
  2
LC-DIM-L-0140-02-02
 70
     0
 40
2.0
 41
14.0
 42
0.0
 43
7.5
 44
1.8
 73
     0
 74
     0
 77
     1
 78
     8
 79
     2
140
14.0
141
0.0
146
0.71
147
1.5
176
     2
177
     2
178
     2
179
     2
271
     2
278
    44
289
     1
340
124
  0
ENDTAB
  0
TABLE
  2
BLOCK_RECORD
  5
1
330
0
100
AcDbSymbolTable
 70
    22
  0
BLOCK_RECORD
  5
1F
330
1
100
AcDbSymbolTableRecord
100
AcDbBlockTableRecord
  2
*Model_Space
340
22
  0
BLOCK_RECORD
  5
1B
330
1
100
AcDbSymbolTableRecord
100
AcDbBlockTableRecord
  2
*Paper_Space
340
1E
  0
BLOCK_RECORD
  5
23
330
1
100
AcDbSymbolTableRecord
100
AcDbBlockTableRecord
  2
*Paper_Space0
340
26
  0
BLOCK_RECORD
  5
46
330
1
100
AcDbSymbolTableRecord
100
AcDbBlockTableRecord
  2
*X11
340
0
102
{BLKREFS
331
56
102
}
  0
BLOCK_RECORD
  5
77
330
1
100
AcDbSymbolTableRecord
100
AcDbBlockTableRecord
  2
*X22
340
0
102
{BLKREFS
331
80
102
}
  0
BLOCK_RECORD
  5
97
330
1
100
AcDbSymbolTableRecord
100
AcDbBlockTableRecord
  2
*X33
340
0
102
{BLKREFS
331
A6
102
}
  0
BLOCK_RECORD
  5
C9
330
1
100
AcDbSymbolTableRecord
100
AcDbBlockTableRecord
  2
*X44
340
0
102
{BLKREFS
331
CE
102
}
  0
BLOCK_RECORD
  5
F4
330
1
100
AcDbSymbolTableRecord
100
AcDbBlockTableRecord
  2
*X55
340
0
102
{BLKREFS
331
FB
102
}
  0
BLOCK_RECORD
  5
11B
330
1
100
AcDbSymbolTableRecord
100
AcDbBlockTableRecord
  2
*X66
340
0
102
{BLKREFS
331
123
102
}
  0
BLOCK_RECORD
  5
129
330
1
100
AcDbSymbolTableRecord
100
AcDbBlockTableRecord
  2
*D7
340
0
  0
BLOCK_RECORD
  5
15F
330
1
100
AcDbSymbolTableRecord
100
AcDbBlockTableRecord
  2
*X78
340
0
102
{BLKREFS
331
17A
102
}
  0
BLOCK_RECORD
  5
17B
330
1
100
AcDbSymbolTableRecord
100
AcDbBlockTableRecord
  2
*X89
340
0
102
{BLKREFS
331
187
102
}
  0
BLOCK_RECORD
  5
1AD
330
1
100
AcDbSymbolTableRecord
100
AcDbBlockTableRecord
  2
*X910
340
0
102
{BLKREFS
331
1C9
102
}
  0
BLOCK_RECORD
  5
1CA
330
1
100
AcDbSymbolTableRecord
100
AcDbBlockTableRecord
  2
*X1011
340
0
102
{BLKREFS
331
1DA
102
}
  0
BLOCK_RECORD
  5
204
330
1
100
AcDbSymbolTableRecord
100
AcDbBlockTableRecord
  2
*D12
340
0
  0
BLOCK_RECORD
  5
211
330
1
100
AcDbSymbolTableRecord
100
AcDbBlockTableRecord
  2
*D13
340
0
  0
BLOCK_RECORD
  5
21E
330
1
100
AcDbSymbolTableRecord
100
AcDbBlockTableRecord
  2
*D14
340
0
  0
BLOCK_RECORD
  5
22B
330
1
100
AcDbSymbolTableRecord
100
AcDbBlockTableRecord
  2
*D15
340
0
  0
BLOCK_RECORD
  5
238
330
1
100
AcDbSymbolTableRecord
100
AcDbBlockTableRecord
  2
*D16
340
0
  0
BLOCK_RECORD
  5
2A3
330
1
100
AcDbSymbolTableRecord
100
AcDbBlockTableRecord
  2
*X1117
340
0
102
{BLKREFS
331
2F3
102
}
  0
BLOCK_RECORD
  5
2F7
330
1
100
AcDbSymbolTableRecord
100
AcDbBlockTableRecord
  2
*X1218
340
0
102
{BLKREFS
331
34E
102
}
  0
BLOCK_RECORD
  5
433
330
1
100
AcDbSymbolTableRecord
100
AcDbBlockTableRecord
  2
*X1319
340
0
102
{BLKREFS
331
4F2
102
}
  0
BLOCK_RECORD
  5
4F3
330
1
100
AcDbSymbolTableRecord
100
AcDbBlockTableRecord
  2
*X1420
340
0
102
{BLKREFS
331
591
102
}
  0
BLOCK_RECORD
  5
593
330
1
100
AcDbSymbolTableRecord
100
AcDbBlockTableRecord
  2
*D21
340
0
  0
ENDTAB
  0
ENDSEC
  0
SECTION
  2
BLOCKS
  0
BLOCK
  5
20
330
1F
100
AcDbEntity
  8
0
100
AcDbBlockBegin
  2
*Model_Space
 70
     0
 71
     0
 10
0.0
 20
0.0
 30
0.0
  3
*Model_Space
  1

  0
ENDBLK
  5
21
330
1F
100
AcDbEntity
  8
0
100
AcDbBlockEnd
  0
BLOCK
  5
1C
330
1B
100
AcDbEntity
 67
     1
  8
0
100
AcDbBlockBegin
  2
*Paper_Space
 70
     0
 71
     0
 10
0.0
 20
0.0
 30
0.0
  3
*Paper_Space
  1

  0
ENDBLK
  5
1D
330
1B
100
AcDbEntity
 67
     1
  8
0
100
AcDbBlockEnd
  0
BLOCK
  5
24
330
23
100
AcDbEntity
  8
0
100
AcDbBlockBegin
  2
*Paper_Space0
 70
     0
 71
     0
 10
0.0
 20
0.0
 30
0.0
  3
*Paper_Space0
  1

  0
ENDBLK
  5
25
330
23
100
AcDbEntity
  8
0
100
AcDbBlockEnd
  0
BLOCK
  5
47
330
46
100
AcDbEntity
  8
0
100
AcDbBlockBegin
  2
*X11
 70
     1
 71
     0
 10
0.0
 20
0.0
 30
0.0
  3
*X11
  1

  4
*X1
  0
LINE
  5
4A
330
46
100
AcDbEntity
  8
LC-003-005-----0
 62
     7
370
    25
100
AcDbLine
 10
205.915308
 20
268.140705
 30
0.0
 11
207.691576
 21
269.916973
 31
0.0
  0
LINE
  5
4B
330
46
100
AcDbEntity
  8
LC-003-005-----0
 62
     7
370
    25
100
AcDbLine
 10
203.661172
 20
268.714996
 30
0.0
 11
206.561176
 21
271.615
 31
0.0
  0
LINE
  5
4C
330
46
100
AcDbEntity
  8
LC-003-005-----0
 62
     7
370
    25
100
AcDbLine
 10
203.661176
 20
271.543427
 30
0.0
 11
206.56118
 21
274.443431
 31
0.0
  0
LINE
  5
4D
330
46
100
AcDbEntity
  8
LC-003-005-----0
 62
     7
370
    25
100
AcDbLine
 10
203.66118
 20
274.371858
 30
0.0
 11
206.561184
 21
277.271862
 31
0.0
  0
LINE
  5
4E
330
46
100
AcDbEntity
  8
LC-003-005-----0
 62
     7
370
    25
100
AcDbLine
 10
203.661184
 20
277.200289
 30
0.0
 11
206.561188
 21
280.100293
 31
0.0
  0
LINE
  5
4F
330
46
100
AcDbEntity
  8
LC-003-005-----0
 62
     7
370
    25
100
AcDbLine
 10
203.661188
 20
280.02872
 30
0.0
 11
206.561192
 21
282.928724
 31
0.0
  0
LINE
  5
50
330
46
100
AcDbEntity
  8
LC-003-005-----0
 62
     7
370
    25
100
AcDbLine
 10
203.661191
 20
282.857151
 30
0.0
 11
206.561195
 21
285.757155
 31
0.0
  0
LINE
  5
51
330
46
100
AcDbEntity
  8
LC-003-005-----0
 62
     7
370
    25
100
AcDbLine
 10
203.661195
 20
285.685582
 30
0.0
 11
206.561199
 21
288.585586
 31
0.0
  0
LINE
  5
52
330
46
100
AcDbEntity
  8
LC-003-005-----0
 62
     7
370
    25
100
AcDbLine
 10
203.661199
 20
288.514013
 30
0.0
 11
206.561203
 21
291.414017
 31
0.0
  0
LINE
  5
53
330
46
100
AcDbEntity
  8
LC-003-005-----0
 62
     7
370
    25
100
AcDbLine
 10
203.161202
 20
290.842443
 30
0.0
 11
206.561207
 21
294.242448
 31
0.0
  0
LINE
  5
54
330
46
100
AcDbEntity
  8
LC-003-005-----0
 62
     7
370
    25
100
AcDbLine
 10
203.161206
 20
293.670874
 30
0.0
 11
206.561211
 21
297.070879
 31
0.0
  0
LINE
  5
55
330
46
100
AcDbEntity
  8
LC-003-005-----0
 62
     7
370
    25
100
AcDbLine
 10
203.16121
 20
296.499305
 30
0.0
 11
203.80261
 21
297.140705
 31
0.0
  0
ENDBLK
  5
48
330
46
100
AcDbEntity
  8
0
100
AcDbBlockEnd
  0
BLOCK
  5
78
330
77
100
AcDbEntity
  8
0
100
AcDbBlockBegin
  2
*X22
 70
     1
 71
     0
 10
0.0
 20
0.0
 30
0.0
  3
*X22
  1

  4
*X2
  0
LINE
  5
7A
330
77
100
AcDbEntity
  8
LC-003-005-----0
 62
     7
370
    25
100
AcDbLine
 10
190.386575
 20
331.807931
 30
0.0
 11
190.501532
 21
331.922888
 31
0.0
  0
LINE
  5
7B
330
77
100
AcDbEntity
  8
LC-003-005-----0
 62
     7
370
    25
100
AcDbLine
 10
188.857181
 20
333.106964
 30
0.0
 11
189.746777
 21
333.99656
 31
0.0
  0
LINE
  5
7C
330
77
100
AcDbEntity
  8
LC-003-005-----0
 62
     7
370
    25
100
AcDbLine
 10
188.857181
 20
335.935391
 30
0.0
 11
188.992022
 21
336.070232
 31
0.0
  0
LINE
  5
7D
330
77
100
AcDbEntity
  8
LC-003-005-----0
 62
     7
370
    25
100
AcDbLine
 10
175.63648
 20
367.969525
 30
0.0
 11
176.915943
 21
369.248987
 31
0.0
  0
LINE
  5
7E
330
77
100
AcDbEntity
  8
LC-003-005-----0
 62
     7
370
    25
100
AcDbLine
 10
174.546883
 20
369.708355
 30
0.0
 11
176.161188
 21
371.322659
 31
0.0
  0
LINE
  5
7F
330
77
100
AcDbEntity
  8
LC-003-005-----0
 62
     7
370
    25
100
AcDbLine
 10
173.792128
 20
371.782027
 30
0.0
 11
174.150814
 21
372.140713
 31
0.0
  0
ENDBLK
  5
79
330
77
100
AcDbEntity
  8
0
100
AcDbBlockEnd
  0
BLOCK
  5
98
330
97
100
AcDbEntity
  8
0
100
AcDbBlockBegin
  2
*X33
 70
     1
 71
     0
 10
0.0
 20
0.0
 30
0.0
  3
*X33
  1

  4
*X3
  0
LINE
  5
9A
330
97
100
AcDbEntity
  8
LC-003-005-----0
 62
     7
370
    25
100
AcDbLine
 10
58.837098
 20
268.140705
 30
0.0
 11
61.661773
 21
270.96538
 31
0.0
  0
LINE
  5
9B
330
97
100
AcDbEntity
  8
LC-003-005-----0
 62
     7
370
    25
100
AcDbLine
 10
57.307455
 20
269.439489
 30
0.0
 11
57.962991
 21
270.095025
 31
0.0
  0
LINE
  5
9C
330
97
100
AcDbEntity
  8
LC-003-005-----0
 62
     7
370
    25
100
AcDbLine
 10
58.761773
 20
270.893808
 30
0.0
 11
61.661769
 21
273.793804
 31
0.0
  0
LINE
  5
9D
330
97
100
AcDbEntity
  8
LC-003-005-----0
 62
     7
370
    25
100
AcDbLine
 10
58.761769
 20
273.722231
 30
0.0
 11
61.661765
 21
276.622227
 31
0.0
  0
LINE
  5
9E
330
97
100
AcDbEntity
  8
LC-003-005-----0
 62
     7
370
    25
100
AcDbLine
 10
58.761765
 20
276.550654
 30
0.0
 11
61.661761
 21
279.45065
 31
0.0
  0
LINE
  5
9F
330
97
100
AcDbEntity
  8
LC-003-005-----0
 62
     7
370
    25
100
AcDbLine
 10
58.761762
 20
279.379077
 30
0.0
 11
61.661758
 21
282.279073
 31
0.0
  0
LINE
  5
A0
330
97
100
AcDbEntity
  8
LC-003-005-----0
 62
     7
370
    25
100
AcDbLine
 10
58.761758
 20
282.207501
 30
0.0
 11
61.661754
 21
285.107497
 31
0.0
  0
LINE
  5
A1
330
97
100
AcDbEntity
  8
LC-003-005-----0
 62
     7
370
    25
100
AcDbLine
 10
58.761754
 20
285.035924
 30
0.0
 11
61.66175
 21
287.93592
 31
0.0
  0
LINE
  5
A2
330
97
100
AcDbEntity
  8
LC-003-005-----0
 62
     7
370
    25
100
AcDbLine
 10
58.76175
 20
287.864347
 30
0.0
 11
62.161745
 21
291.264342
 31
0.0
  0
LINE
  5
A3
330
97
100
AcDbEntity
  8
LC-003-005-----0
 62
     7
370
    25
100
AcDbLine
 10
58.761746
 20
290.69277
 30
0.0
 11
62.161741
 21
294.092766
 31
0.0
  0
LINE
  5
A4
330
97
100
AcDbEntity
  8
LC-003-005-----0
 62
     7
370
    25
100
AcDbLine
 10
58.761742
 20
293.521194
 30
0.0
 11
62.161738
 21
296.921189
 31
0.0
  0
LINE
  5
A5
330
97
100
AcDbEntity
  8
LC-003-005-----0
 62
     7
370
    25
100
AcDbLine
 10
58.761738
 20
296.349617
 30
0.0
 11
59.552826
 21
297.140705
 31
0.0
  0
ENDBLK
  5
99
330
97
100
AcDbEntity
  8
0
100
AcDbBlockEnd
  0
BLOCK
  5
CA
330
C9
100
AcDbEntity
  8
0
100
AcDbBlockBegin
  2
*X44
 70
     1
 71
     0
 10
0.0
 20
0.0
 30
0.0
  3
*X44
  1

  4
*X4
  0
LINE
  5
CC
330
C9
100
AcDbEntity
  8
LC-003-005-----0
 62
     7
370
    25
100
AcDbLine
 10
74.984736
 20
332.371604
 30
0.0
 11
76.465767
 21
333.852636
 31
0.0
  0
LINE
  5
CD
330
C9
100
AcDbEntity
  8
LC-003-005-----0
 62
     7
370
    25
100
AcDbLine
 10
87.933354
 20
367.947639
 30
0.0
 11
91.395241
 21
371.409526
 31
0.0
  0
ENDBLK
  5
CB
330
C9
100
AcDbEntity
  8
0
100
AcDbBlockEnd
  0
BLOCK
  5
F5
330
F4
100
AcDbEntity
  8
0
100
AcDbBlockBegin
  2
*X55
 70
     1
 71
     0
 10
0.0
 20
0.0
 30
0.0
  3
*X55
  1

  4
*X5
  0
LINE
  5
F7
330
F4
100
AcDbEntity
  8
LC-003-005-----0
  6
DASHED
 62
     7
370
    25
100
AcDbLine
 10
31.411472
 20
291.02922
 30
0.0
 11
27.799987
 21
294.640705
 31
0.0
  0
LINE
  5
F8
330
F4
100
AcDbEntity
  8
LC-003-005-----0
  6
DASHED
 62
     7
370
    25
100
AcDbLine
 10
27.536968
 20
294.903724
 30
0.0
 11
27.363486
 21
295.077206
 31
0.0
  0
LINE
  5
F9
330
F4
100
AcDbEntity
  8
LC-003-005-----0
  6
DASHED
 62
     7
370
    25
100
AcDbLine
 10
30.971099
 20
288.641166
 30
0.0
 11
24.97156
 21
294.640705
 31
0.0
  0
LINE
  5
FA
330
F4
100
AcDbEntity
  8
LC-003-005-----0
 62
     7
370
    25
100
AcDbLine
 10
27.049491
 20
286.90592
 30
0.0
 11
23.411472
 21
290.543939
 31
0.0
  0
ENDBLK
  5
F6
330
F4
100
AcDbEntity
  8
0
100
AcDbBlockEnd
  0
BLOCK
  5
11C
330
11B
100
AcDbEntity
  8
0
100
AcDbBlockBegin
  2
*X66
 70
     1
 71
     0
 10
0.0
 20
0.0
 30
0.0
  3
*X66
  1

  4
*X6
  0
LINE
  5
11E
330
11B
100
AcDbEntity
  8
LC-003-005-----0
  6
DASHED
 62
     7
370
    25
100
AcDbLine
 10
241.911472
 20
289.832827
 30
0.0
 11
236.805961
 21
294.938339
 31
0.0
  0
LINE
  5
11F
330
11B
100
AcDbEntity
  8
LC-003-005-----0
  6
DASHED
 62
     7
370
    25
100
AcDbLine
 10
240.803285
 20
288.112588
 30
0.0
 11
234.290118
 21
294.625754
 31
0.0
  0
LINE
  5
120
330
11B
100
AcDbEntity
  8
LC-003-005-----0
 62
     7
370
    25
100
AcDbLine
 10
236.973259
 20
286.285759
 30
0.0
 11
235.773227
 21
287.485791
 31
0.0
  0
LINE
  5
121
330
11B
100
AcDbEntity
  8
LC-003-005-----0
 62
     7
370
    25
100
AcDbLine
 10
234.617852
 20
288.641166
 30
0.0
 11
233.911472
 21
289.347546
 31
0.0
  0
LINE
  5
122
330
11B
100
AcDbEntity
  8
LC-003-005-----0
 62
     7
370
    25
100
AcDbLine
 10
235.058246
 20
285.372345
 30
0.0
 11
234.389604
 21
286.040987
 31
0.0
  0
ENDBLK
  5
11D
330
11B
100
AcDbEntity
  8
0
100
AcDbBlockEnd
  0
BLOCK
  5
133
330
129
100
AcDbEntity
  8
0
100
AcDbBlockBegin
  2
*D7
 70
     1
 71
     0
 10
0.0
 20
0.0
 30
0.0
  3
*D7
  1

  0
LINE
  5
12A
330
129
100
AcDbEntity
  8
LC-005-003-----0
 62
     2
370
    -2
100
AcDbLine
 10
-44.338516
 20
290.966581
 30
0.0
 11
-44.341135
 21
388.56118
 31
0.0
  0
LINE
  5
12B
330
129
100
AcDbEntity
  8
LC-005-003-----0
 62
     2
370
    -2
100
AcDbLine
 10
309.661471
 20
290.976082
 30
0.0
 11
309.658852
 21
388.570681
 31
0.0
  0
LINE
  5
12C
330
129
100
AcDbEntity
  8
LC-005-003-----0
 62
     2
370
    -2
100
AcDbLine
 10
-16.341039
 20
384.961932
 30
0.0
 11
281.658948
 21
384.96993
 31
0.0
  0
SOLID
  5
12D
330
129
100
AcDbEntity
  8
LC-005-003-----0
 62
     2
100
AcDbTrace
 10
-16.341164
 20
389.628599
 30
0.0
 11
-16.340913
 21
380.295265
 31
0.0
 12
-44.341039
 22
384.96118
 32
0.0
 13
-44.341039
 23
384.96118
 33
0.0
  0
SOLID
  5
12E
330
129
100
AcDbEntity
  8
LC-005-003-----0
 62
     2
100
AcDbTrace
 10
281.659074
 20
380.303263
 30
0.0
 11
281.658823
 21
389.636597
 31
0.0
 12
309.658948
 22
384.970681
 32
0.0
 13
309.658948
 23
384.970681
 33
0.0
  0
MTEXT
  5
12F
330
129
100
AcDbEntity
  8
LC-005-003-----0
 62
     2
100
AcDbMText
 10
132.658128
 20
415.765931
 30
0.0
 40
28.0
 41
0.0
 71
     5
 72
     1
  1
%%c\A1;354
  7
LCTX15-400-0-0pDIN-Schrift
 11
0.9999999996398464
 21
2.683853862805206E-5
 31
0.0
 73
     1
 44
1.0
  0
POINT
  5
130
330
129
100
AcDbEntity
  8
Defpoints
 62
     0
100
AcDbPoint
 10
-44.338516
 20
290.966581
 30
0.0
  0
POINT
  5
131
330
129
100
AcDbEntity
  8
Defpoints
 62
     0
100
AcDbPoint
 10
309.661471
 20
290.976082
 30
0.0
  0
POINT
  5
132
330
129
100
AcDbEntity
  8
Defpoints
 62
     0
100
AcDbPoint
 10
309.658948
 20
384.970681
 30
0.0
  0
ENDBLK
  5
134
330
129
100
AcDbEntity
  8
0
100
AcDbBlockEnd
  0
BLOCK
  5
160
330
15F
100
AcDbEntity
  8
0
100
AcDbBlockBegin
  2
*X78
 70
     1
 71
     0
 10
0.0
 20
0.0
 30
0.0
  3
*X78
  1

  4
*X7
  0
LINE
  5
162
330
15F
100
AcDbEntity
  8
LC-003-005-----0
 62
     7
370
    25
100
AcDbLine
 10
32.411472
 20
298.514502
 30
0.0
 11
31.785269
 21
299.140705
 31
0.0
  0
LINE
  5
163
330
15F
100
AcDbEntity
  8
LC-003-005-----0
 62
     7
370
    25
100
AcDbLine
 10
34.661472
 20
292.021861
 30
0.0
 11
27.542628
 21
299.140705
 31
0.0
  0
LINE
  5
164
330
15F
100
AcDbEntity
  8
LC-003-005-----0
 62
     7
370
    25
100
AcDbLine
 10
34.661472
 20
287.77922
 30
0.0
 11
30.913324
 21
291.527368
 31
0.0
  0
LINE
  5
165
330
15F
100
AcDbEntity
  8
LC-003-005-----0
 62
     7
370
    25
100
AcDbLine
 10
27.299987
 20
295.140705
 30
0.0
 11
23.299987
 21
299.140705
 31
0.0
  0
LINE
  5
166
330
15F
100
AcDbEntity
  8
LC-003-005-----0
 62
     7
370
    25
100
AcDbLine
 10
32.057347
 20
286.140705
 30
0.0
 11
31.597621
 21
286.60043
 31
0.0
  0
LINE
  5
167
330
15F
100
AcDbEntity
  8
LC-003-005-----0
 62
     7
370
    25
100
AcDbLine
 10
23.161472
 20
295.036579
 30
0.0
 11
19.057347
 21
299.140705
 31
0.0
  0
LINE
  5
168
330
15F
100
AcDbEntity
  8
LC-003-005-----0
 62
     7
370
    25
100
AcDbLine
 10
23.161472
 20
290.793939
 30
0.0
 11
20.661472
 21
293.293939
 31
0.0
  0
LINE
  5
169
330
15F
100
AcDbEntity
  8
LC-003-005-----0
 62
     7
370
    25
100
AcDbLine
 10
18.814706
 20
295.140705
 30
0.0
 11
14.814706
 21
299.140705
 31
0.0
  0
LINE
  5
16A
330
15F
100
AcDbEntity
  8
LC-003-005-----0
 62
     7
370
    25
100
AcDbLine
 10
21.589824
 20
288.122947
 30
0.0
 11
20.661472
 21
289.051298
 31
0.0
  0
LINE
  5
16B
330
15F
100
AcDbEntity
  8
LC-003-005-----0
 62
     7
370
    25
100
AcDbLine
 10
14.572065
 20
295.140705
 30
0.0
 11
10.572065
 21
299.140705
 31
0.0
  0
LINE
  5
16C
330
15F
100
AcDbEntity
  8
LC-003-005-----0
 62
     7
370
    25
100
AcDbLine
 10
12.661472
 20
292.808657
 30
0.0
 11
10.661472
 21
294.808657
 31
0.0
  0
LINE
  5
16D
330
15F
100
AcDbEntity
  8
LC-003-005-----0
 62
     7
370
    25
100
AcDbLine
 10
10.329425
 20
295.140705
 30
0.0
 11
6.329425
 21
299.140705
 31
0.0
  0
LINE
  5
16E
330
15F
100
AcDbEntity
  8
LC-003-005-----0
 62
     7
370
    25
100
AcDbLine
 10
6.086784
 20
295.140705
 30
0.0
 11
2.086784
 21
299.140705
 31
0.0
  0
LINE
  5
16F
330
15F
100
AcDbEntity
  8
LC-003-005-----0
 62
     7
370
    25
100
AcDbLine
 10
0.344143
 20
296.640705
 30
0.0
 11
-2.155857
 21
299.140705
 31
0.0
  0
LINE
  5
170
330
15F
100
AcDbEntity
  8
LC-003-005-----0
 62
     7
370
    25
100
AcDbLine
 10
-3.898497
 20
296.640705
 30
0.0
 11
-6.398497
 21
299.140705
 31
0.0
  0
LINE
  5
171
330
15F
100
AcDbEntity
  8
LC-003-005-----0
 62
     7
370
    25
100
AcDbLine
 10
-8.141138
 20
296.640705
 30
0.0
 11
-10.641138
 21
299.140705
 31
0.0
  0
LINE
  5
172
330
15F
100
AcDbEntity
  8
LC-003-005-----0
 62
     7
370
    25
100
AcDbLine
 10
-12.383779
 20
296.640705
 30
0.0
 11
-14.883779
 21
299.140705
 31
0.0
  0
LINE
  5
173
330
15F
100
AcDbEntity
  8
LC-003-005-----0
 62
     7
370
    25
100
AcDbLine
 10
-16.626419
 20
296.640705
 30
0.0
 11
-19.126419
 21
299.140705
 31
0.0
  0
LINE
  5
174
330
15F
100
AcDbEntity
  8
LC-003-005-----0
 62
     7
370
    25
100
AcDbLine
 10
-20.86906
 20
296.640705
 30
0.0
 11
-23.36906
 21
299.140705
 31
0.0
  0
LINE
  5
175
330
15F
100
AcDbEntity
  8
LC-003-005-----0
 62
     7
370
    25
100
AcDbLine
 10
-25.111701
 20
296.640705
 30
0.0
 11
-27.611701
 21
299.140705
 31
0.0
  0
LINE
  5
176
330
15F
100
AcDbEntity
  8
LC-003-005-----0
 62
     7
370
    25
100
AcDbLine
 10
-29.354341
 20
296.640705
 30
0.0
 11
-31.854341
 21
299.140705
 31
0.0
  0
LINE
  5
177
330
15F
100
AcDbEntity
  8
LC-003-005-----0
 62
     7
370
    25
100
AcDbLine
 10
-33.596982
 20
296.640705
 30
0.0
 11
-36.096982
 21
299.140705
 31
0.0
  0
LINE
  5
178
330
15F
100
AcDbEntity
  8
LC-003-005-----0
 62
     7
370
    25
100
AcDbLine
 10
-37.839623
 20
296.640705
 30
0.0
 11
-40.339623
 21
299.140705
 31
0.0
  0
LINE
  5
179
330
15F
100
AcDbEntity
  8
LC-003-005-----0
 62
     7
370
    25
100
AcDbLine
 10
-42.082264
 20
296.640705
 30
0.0
 11
-43.869349
 21
298.42779
 31
0.0
  0
ENDBLK
  5
161
330
15F
100
AcDbEntity
  8
0
100
AcDbBlockEnd
  0
BLOCK
  5
17C
330
17B
100
AcDbEntity
  8
0
100
AcDbBlockBegin
  2
*X89
 70
     1
 71
     0
 10
0.0
 20
0.0
 30
0.0
  3
*X89
  1

  4
*X8
  0
LINE
  5
17E
330
17B
100
AcDbEntity
  8
LC-003-005-----0
 62
     7
370
    25
100
AcDbLine
 10
53.661472
 20
294.235064
 30
0.0
 11
50.755832
 21
297.140705
 31
0.0
  0
LINE
  5
17F
330
17B
100
AcDbEntity
  8
LC-003-005-----0
 62
     7
370
    25
100
AcDbLine
 10
53.661472
 20
289.992424
 30
0.0
 11
51.161472
 21
292.492424
 31
0.0
  0
LINE
  5
180
330
17B
100
AcDbEntity
  8
LC-003-005-----0
 62
     7
370
    25
100
AcDbLine
 10
49.774737
 20
293.879159
 30
0.0
 11
44.911472
 21
298.742424
 31
0.0
  0
LINE
  5
181
330
17B
100
AcDbEntity
  8
LC-003-005-----0
 62
     7
370
    25
100
AcDbLine
 10
53.661472
 20
285.749783
 30
0.0
 11
51.161472
 21
288.249783
 31
0.0
  0
LINE
  5
182
330
17B
100
AcDbEntity
  8
LC-003-005-----0
 62
     7
370
    25
100
AcDbLine
 10
46.589408
 20
292.821847
 30
0.0
 11
43.27055
 21
296.140705
 31
0.0
  0
LINE
  5
183
330
17B
100
AcDbEntity
  8
LC-003-005-----0
 62
     7
370
    25
100
AcDbLine
 10
53.661472
 20
281.507142
 30
0.0
 11
51.161472
 21
284.007142
 31
0.0
  0
LINE
  5
184
330
17B
100
AcDbEntity
  8
LC-003-005-----0
 62
     7
370
    25
100
AcDbLine
 10
46.072013
 20
289.096601
 30
0.0
 11
42.661472
 21
292.507142
 31
0.0
  0
LINE
  5
185
330
17B
100
AcDbEntity
  8
LC-003-005-----0
 62
     7
370
    25
100
AcDbLine
 10
53.661472
 20
277.264502
 30
0.0
 11
51.161472
 21
279.764502
 31
0.0
  0
LINE
  5
186
330
17B
100
AcDbEntity
  8
LC-003-005-----0
 62
     7
370
    25
100
AcDbLine
 10
44.785269
 20
286.140705
 30
0.0
 11
42.661472
 21
288.264502
 31
0.0
  0
ENDBLK
  5
17D
330
17B
100
AcDbEntity
  8
0
100
AcDbBlockEnd
  0
BLOCK
  5
1AE
330
1AD
100
AcDbEntity
  8
0
100
AcDbBlockBegin
  2
*X910
 70
     1
 71
     0
 10
0.0
 20
0.0
 30
0.0
  3
*X910
  1

  4
*X9
  0
LINE
  5
1B0
330
1AD
100
AcDbEntity
  8
LC-003-005-----0
 62
     7
370
    25
100
AcDbLine
 10
309.661472
 20
297.036146
 30
0.0
 11
307.556913
 21
299.140705
 31
0.0
  0
LINE
  5
1B1
330
1AD
100
AcDbEntity
  8
LC-003-005-----0
 62
     7
370
    25
100
AcDbLine
 10
305.814273
 20
296.640705
 30
0.0
 11
303.314273
 21
299.140705
 31
0.0
  0
LINE
  5
1B2
330
1AD
100
AcDbEntity
  8
LC-003-005-----0
 62
     7
370
    25
100
AcDbLine
 10
301.571632
 20
296.640705
 30
0.0
 11
299.071632
 21
299.140705
 31
0.0
  0
LINE
  5
1B3
330
1AD
100
AcDbEntity
  8
LC-003-005-----0
 62
     7
370
    25
100
AcDbLine
 10
297.328991
 20
296.640705
 30
0.0
 11
294.828991
 21
299.140705
 31
0.0
  0
LINE
  5
1B4
330
1AD
100
AcDbEntity
  8
LC-003-005-----0
 62
     7
370
    25
100
AcDbLine
 10
293.086351
 20
296.640705
 30
0.0
 11
290.586351
 21
299.140705
 31
0.0
  0
LINE
  5
1B5
330
1AD
100
AcDbEntity
  8
LC-003-005-----0
 62
     7
370
    25
100
AcDbLine
 10
288.84371
 20
296.640705
 30
0.0
 11
286.34371
 21
299.140705
 31
0.0
  0
LINE
  5
1B6
330
1AD
100
AcDbEntity
  8
LC-003-005-----0
 62
     7
370
    25
100
AcDbLine
 10
284.601069
 20
296.640705
 30
0.0
 11
282.101069
 21
299.140705
 31
0.0
  0
LINE
  5
1B7
330
1AD
100
AcDbEntity
  8
LC-003-005-----0
 62
     7
370
    25
100
AcDbLine
 10
280.358429
 20
296.640705
 30
0.0
 11
277.858429
 21
299.140705
 31
0.0
  0
LINE
  5
1B8
330
1AD
100
AcDbEntity
  8
LC-003-005-----0
 62
     7
370
    25
100
AcDbLine
 10
276.115788
 20
296.640705
 30
0.0
 11
273.615788
 21
299.140705
 31
0.0
  0
LINE
  5
1B9
330
1AD
100
AcDbEntity
  8
LC-003-005-----0
 62
     7
370
    25
100
AcDbLine
 10
271.873147
 20
296.640705
 30
0.0
 11
269.373147
 21
299.140705
 31
0.0
  0
LINE
  5
1BA
330
1AD
100
AcDbEntity
  8
LC-003-005-----0
 62
     7
370
    25
100
AcDbLine
 10
267.630507
 20
296.640705
 30
0.0
 11
265.130507
 21
299.140705
 31
0.0
  0
LINE
  5
1BB
330
1AD
100
AcDbEntity
  8
LC-003-005-----0
 62
     7
370
    25
100
AcDbLine
 10
263.387866
 20
296.640705
 30
0.0
 11
260.887866
 21
299.140705
 31
0.0
  0
LINE
  5
1BC
330
1AD
100
AcDbEntity
  8
LC-003-005-----0
 62
     7
370
    25
100
AcDbLine
 10
260.236474
 20
295.549456
 30
0.0
 11
256.645225
 21
299.140705
 31
0.0
  0
LINE
  5
1BD
330
1AD
100
AcDbEntity
  8
LC-003-005-----0
 62
     7
370
    25
100
AcDbLine
 10
256.402585
 20
295.140705
 30
0.0
 11
252.402585
 21
299.140705
 31
0.0
  0
LINE
  5
1BE
330
1AD
100
AcDbEntity
  8
LC-003-005-----0
 62
     7
370
    25
100
AcDbLine
 10
254.384556
 20
292.916093
 30
0.0
 11
252.661472
 21
294.639177
 31
0.0
  0
LINE
  5
1BF
330
1AD
100
AcDbEntity
  8
LC-003-005-----0
 62
     7
370
    25
100
AcDbLine
 10
252.159944
 20
295.140705
 30
0.0
 11
248.159944
 21
299.140705
 31
0.0
  0
LINE
  5
1C0
330
1AD
100
AcDbEntity
  8
LC-003-005-----0
 62
     7
370
    25
100
AcDbLine
 10
247.917303
 20
295.140705
 30
0.0
 11
243.917303
 21
299.140705
 31
0.0
  0
LINE
  5
1C1
330
1AD
100
AcDbEntity
  8
LC-003-005-----0
 62
     7
370
    25
100
AcDbLine
 10
244.661472
 20
294.153895
 30
0.0
 11
239.674663
 21
299.140705
 31
0.0
  0
LINE
  5
1C2
330
1AD
100
AcDbEntity
  8
LC-003-005-----0
 62
     7
370
    25
100
AcDbLine
 10
244.661472
 20
289.911255
 30
0.0
 11
242.161472
 21
292.411255
 31
0.0
  0
LINE
  5
1C3
330
1AD
100
AcDbEntity
  8
LC-003-005-----0
 62
     7
370
    25
100
AcDbLine
 10
239.432022
 20
295.140705
 30
0.0
 11
235.432022
 21
299.140705
 31
0.0
  0
LINE
  5
1C4
330
1AD
100
AcDbEntity
  8
LC-003-005-----0
 62
     7
370
    25
100
AcDbLine
 10
242.68072
 20
287.649366
 30
0.0
 11
242.161472
 21
288.168614
 31
0.0
  0
LINE
  5
1C5
330
1AD
100
AcDbEntity
  8
LC-003-005-----0
 62
     7
370
    25
100
AcDbLine
 10
235.189381
 20
295.140705
 30
0.0
 11
232.922422
 21
297.407663
 31
0.0
  0
LINE
  5
1C6
330
1AD
100
AcDbEntity
  8
LC-003-005-----0
 62
     7
370
    25
100
AcDbLine
 10
234.427968
 20
291.659477
 30
0.0
 11
230.661472
 21
295.425973
 31
0.0
  0
LINE
  5
1C7
330
1AD
100
AcDbEntity
  8
LC-003-005-----0
 62
     7
370
    25
100
AcDbLine
 10
233.910573
 20
287.934232
 30
0.0
 11
230.661472
 21
291.183332
 31
0.0
  0
LINE
  5
1C8
330
1AD
100
AcDbEntity
  8
LC-003-005-----0
 62
     7
370
    25
100
AcDbLine
 10
231.461459
 20
286.140705
 30
0.0
 11
230.661472
 21
286.940692
 31
0.0
  0
ENDBLK
  5
1AF
330
1AD
100
AcDbEntity
  8
0
100
AcDbBlockEnd
  0
BLOCK
  5
1CB
330
1CA
100
AcDbEntity
  8
0
100
AcDbBlockBegin
  2
*X1011
 70
     1
 71
     0
 10
0.0
 20
0.0
 30
0.0
  3
*X1011
  1

  4
*X10
  0
LINE
  5
1CD
330
1CA
100
AcDbEntity
  8
LC-003-005-----0
 62
     7
370
    25
100
AcDbLine
 10
222.661472
 20
294.940692
 30
0.0
 11
221.465249
 21
296.136915
 31
0.0
  0
LINE
  5
1CE
330
1CA
100
AcDbEntity
  8
LC-003-005-----0
 62
     7
370
    25
100
AcDbLine
 10
220.411472
 20
297.190692
 30
0.0
 11
218.534669
 21
299.067495
 31
0.0
  0
LINE
  5
1CF
330
1CA
100
AcDbEntity
  8
LC-003-005-----0
 62
     7
370
    25
100
AcDbLine
 10
222.661472
 20
290.698051
 30
0.0
 11
218.442545
 21
294.916978
 31
0.0
  0
LINE
  5
1D0
330
1CA
100
AcDbEntity
  8
LC-003-005-----0
 62
     7
370
    25
100
AcDbLine
 10
218.218818
 20
295.140705
 30
0.0
 11
215.844942
 21
297.514581
 31
0.0
  0
LINE
  5
1D1
330
1CA
100
AcDbEntity
  8
LC-003-005-----0
 62
     7
370
    25
100
AcDbLine
 10
222.661472
 20
286.45541
 30
0.0
 11
219.126842
 21
289.99004
 31
0.0
  0
LINE
  5
1D2
330
1CA
100
AcDbEntity
  8
LC-003-005-----0
 62
     7
370
    25
100
AcDbLine
 10
215.351368
 20
293.765514
 30
0.0
 11
211.976178
 21
297.140705
 31
0.0
  0
LINE
  5
1D3
330
1CA
100
AcDbEntity
  8
LC-003-005-----0
 62
     7
370
    25
100
AcDbLine
 10
214.161472
 20
290.71277
 30
0.0
 11
211.661472
 21
293.21277
 31
0.0
  0
LINE
  5
1D4
330
1CA
100
AcDbEntity
  8
LC-003-005-----0
 62
     7
370
    25
100
AcDbLine
 10
214.161472
 20
286.470129
 30
0.0
 11
211.661472
 21
288.970129
 31
0.0
  0
LINE
  5
1D5
330
1CA
100
AcDbEntity
  8
LC-003-005-----0
 62
     7
370
    25
100
AcDbLine
 10
214.161472
 20
282.227488
 30
0.0
 11
211.661472
 21
284.727488
 31
0.0
  0
LINE
  5
1D6
330
1CA
100
AcDbEntity
  8
LC-003-005-----0
 62
     7
370
    25
100
AcDbLine
 10
214.161472
 20
277.984848
 30
0.0
 11
211.661472
 21
280.484848
 31
0.0
  0
LINE
  5
1D7
330
1CA
100
AcDbEntity
  8
LC-003-005-----0
 62
     7
370
    25
100
AcDbLine
 10
212.962223
 20
274.941456
 30
0.0
 11
211.194456
 21
276.709223
 31
0.0
  0
LINE
  5
1D8
330
1CA
100
AcDbEntity
  8
LC-003-005-----0
 62
     7
370
    25
100
AcDbLine
 10
210.840903
 20
272.820136
 30
0.0
 11
209.073136
 21
274.587902
 31
0.0
  0
LINE
  5
1D9
330
1CA
100
AcDbEntity
  8
LC-003-005-----0
 62
     7
370
    25
100
AcDbLine
 10
208.277693
 20
271.140705
 30
0.0
 11
206.951816
 21
272.466582
 31
0.0
  0
ENDBLK
  5
1CC
330
1CA
100
AcDbEntity
  8
0
100
AcDbBlockEnd
  0
BLOCK
  5
20E
330
204
100
AcDbEntity
  8
0
100
AcDbBlockBegin
  2
*D12
 70
     1
 71
     0
 10
0.0
 20
0.0
 30
0.0
  3
*D12
  1

  0
LINE
  5
205
330
204
100
AcDbEntity
  8
LC-005-003-----0
 62
     2
370
    -2
100
AcDbLine
 10
70.161472
 20
250.10383
 30
0.0
 11
70.161472
 21
210.614032
 31
0.0
  0
LINE
  5
206
330
204
100
AcDbEntity
  8
LC-005-003-----0
 62
     2
370
    -2
100
AcDbLine
 10
195.161472
 20
250.10383
 30
0.0
 11
195.161472
 21
210.614032
 31
0.0
  0
LINE
  5
207
330
204
100
AcDbEntity
  8
LC-005-003-----0
 62
     2
370
    -2
100
AcDbLine
 10
98.161472
 20
214.214032
 30
0.0
 11
167.161472
 21
214.214032
 31
0.0
  0
SOLID
  5
208
330
204
100
AcDbEntity
  8
LC-005-003-----0
 62
     2
100
AcDbTrace
 10
98.161472
 20
218.880699
 30
0.0
 11
98.161472
 21
209.547366
 31
0.0
 12
70.161472
 22
214.214032
 32
0.0
 13
70.161472
 23
214.214032
 33
0.0
  0
SOLID
  5
209
330
204
100
AcDbEntity
  8
LC-005-003-----0
 62
     2
100
AcDbTrace
 10
167.161472
 20
209.547366
 30
0.0
 11
167.161472
 21
218.880699
 31
0.0
 12
195.161472
 22
214.214032
 32
0.0
 13
195.161472
 23
214.214032
 33
0.0
  0
MTEXT
  5
20A
330
204
100
AcDbEntity
  8
LC-005-003-----0
 62
     2
100
AcDbMText
 10
132.661472
 20
245.014032
 30
0.0
 40
28.0
 41
0.0
 71
     5
 72
     1
  1
%%c\A1;125
  7
LCTX15-400-0-0pDIN-Schrift
 73
     1
 44
1.0
  0
POINT
  5
20B
330
204
100
AcDbEntity
  8
Defpoints
 62
     0
100
AcDbPoint
 10
70.161472
 20
250.10383
 30
0.0
  0
POINT
  5
20C
330
204
100
AcDbEntity
  8
Defpoints
 62
     0
100
AcDbPoint
 10
195.161472
 20
250.10383
 30
0.0
  0
POINT
  5
20D
330
204
100
AcDbEntity
  8
Defpoints
 62
     0
100
AcDbPoint
 10
195.161472
 20
214.214032
 30
0.0
  0
ENDBLK
  5
20F
330
204
100
AcDbEntity
  8
0
100
AcDbBlockEnd
  0
BLOCK
  5
21B
330
211
100
AcDbEntity
  8
0
100
AcDbBlockBegin
  2
*D13
 70
     1
 71
     0
 10
0.0
 20
0.0
 30
0.0
  3
*D13
  1

  0
LINE
  5
212
330
211
100
AcDbEntity
  8
LC-005-003-----0
 62
     2
370
    -2
100
AcDbLine
 10
157.661472
 20
-50.944962
 30
0.0
 11
233.369244
 21
-50.944962
 31
0.0
  0
LINE
  5
213
330
211
100
AcDbEntity
  8
LC-005-003-----0
 62
     2
370
    -2
100
AcDbLine
 10
163.911824
 20
185.055185
 30
0.0
 11
233.369244
 21
185.055185
 31
0.0
  0
LINE
  5
214
330
211
100
AcDbEntity
  8
LC-005-003-----0
 62
     2
370
    -2
100
AcDbLine
 10
229.769244
 20
-22.944962
 30
0.0
 11
229.769244
 21
157.055185
 31
0.0
  0
SOLID
  5
215
330
211
100
AcDbEntity
  8
LC-005-003-----0
 62
     2
100
AcDbTrace
 10
225.102577
 20
-22.944962
 30
0.0
 11
234.43591
 21
-22.944962
 31
0.0
 12
229.769244
 22
-50.944962
 32
0.0
 13
229.769244
 23
-50.944962
 33
0.0
  0
SOLID
  5
216
330
211
100
AcDbEntity
  8
LC-005-003-----0
 62
     2
100
AcDbTrace
 10
234.43591
 20
157.055185
 30
0.0
 11
225.102577
 21
157.055185
 31
0.0
 12
229.769244
 22
185.055185
 32
0.0
 13
229.769244
 23
185.055185
 33
0.0
  0
MTEXT
  5
217
330
211
100
AcDbEntity
  8
LC-005-003-----0
 62
     2
100
AcDbMText
 10
198.969244
 20
67.055112
 30
0.0
 40
28.0
 41
0.0
 71
     5
 72
     1
  1
\A1;236
  7
LCTX15-400-0-0pDIN-Schrift
 11
6.123031769111886E-17
 21
1.0
 31
0.0
 73
     1
 44
1.0
  0
POINT
  5
218
330
211
100
AcDbEntity
  8
Defpoints
 62
     0
100
AcDbPoint
 10
157.661472
 20
-50.944962
 30
0.0
  0
POINT
  5
219
330
211
100
AcDbEntity
  8
Defpoints
 62
     0
100
AcDbPoint
 10
163.911824
 20
185.055185
 30
0.0
  0
POINT
  5
21A
330
211
100
AcDbEntity
  8
Defpoints
 62
     0
100
AcDbPoint
 10
229.769244
 20
185.055185
 30
0.0
  0
ENDBLK
  5
21C
330
211
100
AcDbEntity
  8
0
100
AcDbBlockEnd
  0
BLOCK
  5
228
330
21E
100
AcDbEntity
  8
0
100
AcDbBlockBegin
  2
*D14
 70
     1
 71
     0
 10
0.0
 20
0.0
 30
0.0
  3
*D14
  1

  0
LINE
  5
21F
330
21E
100
AcDbEntity
  8
LC-005-003-----0
 62
     2
370
    -2
100
AcDbLine
 10
157.661472
 20
-50.944962
 30
0.0
 11
272.569244
 21
-50.944962
 31
0.0
  0
LINE
  5
220
330
21E
100
AcDbEntity
  8
LC-005-003-----0
 62
     2
370
    -2
100
AcDbLine
 10
213.411472
 20
250.10383
 30
0.0
 11
272.569244
 21
250.10383
 31
0.0
  0
LINE
  5
221
330
21E
100
AcDbEntity
  8
LC-005-003-----0
 62
     2
370
    -2
100
AcDbLine
 10
268.969244
 20
-22.944962
 30
0.0
 11
268.969244
 21
222.10383
 31
0.0
  0
SOLID
  5
222
330
21E
100
AcDbEntity
  8
LC-005-003-----0
 62
     2
100
AcDbTrace
 10
264.302577
 20
-22.944962
 30
0.0
 11
273.63591
 21
-22.944962
 31
0.0
 12
268.969244
 22
-50.944962
 32
0.0
 13
268.969244
 23
-50.944962
 33
0.0
  0
SOLID
  5
223
330
21E
100
AcDbEntity
  8
LC-005-003-----0
 62
     2
100
AcDbTrace
 10
273.63591
 20
222.10383
 30
0.0
 11
264.302577
 21
222.10383
 31
0.0
 12
268.969244
 22
250.10383
 32
0.0
 13
268.969244
 23
250.10383
 33
0.0
  0
MTEXT
  5
224
330
21E
100
AcDbEntity
  8
LC-005-003-----0
 62
     2
100
AcDbMText
 10
238.169244
 20
99.579434
 30
0.0
 40
28.0
 41
0.0
 71
     5
 72
     1
  1
\A1;301
  7
LCTX15-400-0-0pDIN-Schrift
 11
6.123031769111886E-17
 21
1.0
 31
0.0
 73
     1
 44
1.0
  0
POINT
  5
225
330
21E
100
AcDbEntity
  8
Defpoints
 62
     0
100
AcDbPoint
 10
157.661472
 20
-50.944962
 30
0.0
  0
POINT
  5
226
330
21E
100
AcDbEntity
  8
Defpoints
 62
     0
100
AcDbPoint
 10
213.411472
 20
250.10383
 30
0.0
  0
POINT
  5
227
330
21E
100
AcDbEntity
  8
Defpoints
 62
     0
100
AcDbPoint
 10
268.969244
 20
250.10383
 30
0.0
  0
ENDBLK
  5
229
330
21E
100
AcDbEntity
  8
0
100
AcDbBlockEnd
  0
BLOCK
  5
235
330
22B
100
AcDbEntity
  8
0
100
AcDbBlockBegin
  2
*D15
 70
     1
 71
     0
 10
0.0
 20
0.0
 30
0.0
  3
*D15
  1

  0
LINE
  5
22C
330
22B
100
AcDbEntity
  8
LC-005-003-----0
 62
     2
370
    -2
100
AcDbLine
 10
176.455701
 20
-50.944962
 30
0.0
 11
311.769244
 21
-50.944962
 31
0.0
  0
LINE
  5
22D
330
22B
100
AcDbEntity
  8
LC-005-003-----0
 62
     2
370
    -2
100
AcDbLine
 10
305.160872
 20
299.140705
 30
0.0
 11
311.769244
 21
299.140705
 31
0.0
  0
LINE
  5
22E
330
22B
100
AcDbEntity
  8
LC-005-003-----0
 62
     2
370
    -2
100
AcDbLine
 10
308.169244
 20
-22.944962
 30
0.0
 11
308.169244
 21
271.140705
 31
0.0
  0
SOLID
  5
22F
330
22B
100
AcDbEntity
  8
LC-005-003-----0
 62
     2
100
AcDbTrace
 10
303.502577
 20
-22.944962
 30
0.0
 11
312.83591
 21
-22.944962
 31
0.0
 12
308.169244
 22
-50.944962
 32
0.0
 13
308.169244
 23
-50.944962
 33
0.0
  0
SOLID
  5
230
330
22B
100
AcDbEntity
  8
LC-005-003-----0
 62
     2
100
AcDbTrace
 10
312.83591
 20
271.140705
 30
0.0
 11
303.502577
 21
271.140705
 31
0.0
 12
308.169244
 22
299.140705
 32
0.0
 13
308.169244
 23
299.140705
 33
0.0
  0
MTEXT
  5
231
330
22B
100
AcDbEntity
  8
LC-005-003-----0
 62
     2
100
AcDbMText
 10
277.369244
 20
124.097871
 30
0.0
 40
28.0
 41
0.0
 71
     5
 72
     1
  1
\A1;350
  7
LCTX15-400-0-0pDIN-Schrift
 11
6.123031769111886E-17
 21
1.0
 31
0.0
 73
     1
 44
1.0
  0
POINT
  5
232
330
22B
100
AcDbEntity
  8
Defpoints
 62
     0
100
AcDbPoint
 10
176.455701
 20
-50.944962
 30
0.0
  0
POINT
  5
233
330
22B
100
AcDbEntity
  8
Defpoints
 62
     0
100
AcDbPoint
 10
305.160872
 20
299.140705
 30
0.0
  0
POINT
  5
234
330
22B
100
AcDbEntity
  8
Defpoints
 62
     0
100
AcDbPoint
 10
308.169244
 20
299.140705
 30
0.0
  0
ENDBLK
  5
236
330
22B
100
AcDbEntity
  8
0
100
AcDbBlockEnd
  0
BLOCK
  5
243
330
238
100
AcDbEntity
  8
0
100
AcDbBlockBegin
  2
*D16
 70
     1
 71
     0
 10
0.0
 20
0.0
 30
0.0
  3
*D16
  1

  0
LINE
  5
239
330
238
100
AcDbEntity
  8
LC-005-003-----0
 62
     2
370
    -2
100
AcDbLine
 10
104.661472
 20
-46.444962
 30
0.0
 11
104.661472
 21
-73.745612
 31
0.0
  0
LINE
  5
23A
330
238
100
AcDbEntity
  8
LC-005-003-----0
 62
     2
370
    -2
100
AcDbLine
 10
160.661472
 20
-46.444962
 30
0.0
 11
160.661472
 21
-73.745612
 31
0.0
  0
LINE
  5
23B
330
238
100
AcDbEntity
  8
LC-005-003-----0
 62
     2
370
    -2
100
AcDbLine
 10
188.661472
 20
-70.145612
 30
0.0
 11
216.661472
 21
-70.145612
 31
0.0
  0
LINE
  5
23C
330
238
100
AcDbEntity
  8
LC-005-003-----0
 62
     2
370
    -2
100
AcDbLine
 10
76.661472
 20
-70.145612
 30
0.0
 11
-1.844837
 21
-70.145612
 31
0.0
  0
SOLID
  5
23D
330
238
100
AcDbEntity
  8
LC-005-003-----0
 62
     2
100
AcDbTrace
 10
76.661472
 20
-74.812279
 30
0.0
 11
76.661472
 21
-65.478945
 31
0.0
 12
104.661472
 22
-70.145612
 32
0.0
 13
104.661472
 23
-70.145612
 33
0.0
  0
SOLID
  5
23E
330
238
100
AcDbEntity
  8
LC-005-003-----0
 62
     2
100
AcDbTrace
 10
188.661472
 20
-65.478945
 30
0.0
 11
188.661472
 21
-74.812279
 31
0.0
 12
160.661472
 22
-70.145612
 32
0.0
 13
160.661472
 23
-70.145612
 33
0.0
  0
MTEXT
  5
23F
330
238
100
AcDbEntity
  8
LC-005-003-----0
 62
     2
100
AcDbMText
 10
21.256022
 20
-39.345612
 30
0.0
 40
28.0
 41
0.0
 71
     5
 72
     1
  1
%%c\A1;56
  7
LCTX15-400-0-0pDIN-Schrift
 73
     1
 44
1.0
  0
POINT
  5
240
330
238
100
AcDbEntity
  8
Defpoints
 62
     0
100
AcDbPoint
 10
104.661472
 20
-46.444962
 30
0.0
  0
POINT
  5
241
330
238
100
AcDbEntity
  8
Defpoints
 62
     0
100
AcDbPoint
 10
160.661472
 20
-46.444962
 30
0.0
  0
POINT
  5
242
330
238
100
AcDbEntity
  8
Defpoints
 62
     0
100
AcDbPoint
 10
160.661472
 20
-70.145612
 30
0.0
  0
ENDBLK
  5
244
330
238
100
AcDbEntity
  8
0
100
AcDbBlockEnd
  0
BLOCK
  5
2A4
330
2A3
100
AcDbEntity
  8
0
100
AcDbBlockBegin
  2
*X1117
 70
     1
 71
     0
 10
0.0
 20
0.0
 30
0.0
  3
*X1117
  1

  4
*X11
  0
LINE
  5
2A6
330
2A3
100
AcDbEntity
  8
LC-003-005-----0
 62
     7
370
    25
100
AcDbLine
 10
104.661472
 20
183.838095
 30
0.0
 11
103.444381
 21
185.055185
 31
0.0
  0
LINE
  5
2A7
330
2A3
100
AcDbEntity
  8
LC-003-005-----0
  6
DASHED
 62
     7
370
    25
100
AcDbLine
 10
104.661472
 20
178.18124
 30
0.0
 11
103.661472
 21
179.18124
 31
0.0
  0
LINE
  5
2A8
330
2A3
100
AcDbEntity
  8
LC-003-005-----0
  6
DASHED
 62
     7
370
    25
100
AcDbLine
 10
99.296572
 20
183.546141
 30
0.0
 11
97.787527
 21
185.055185
 31
0.0
  0
LINE
  5
2A9
330
2A3
100
AcDbEntity
  8
LC-003-005-----0
  6
DASHED
 62
     7
370
    25
100
AcDbLine
 10
104.661472
 20
175.352813
 30
0.0
 11
103.661472
 21
176.352813
 31
0.0
  0
LINE
  5
2AA
330
2A3
100
AcDbEntity
  8
LC-003-005-----0
 62
     7
370
    25
100
AcDbLine
 10
104.661472
 20
169.695959
 30
0.0
 11
101.632411
 21
172.72502
 31
0.0
  0
LINE
  5
2AB
330
2A3
100
AcDbEntity
  8
LC-003-005-----0
 62
     7
370
    25
100
AcDbLine
 10
104.661472
 20
166.867532
 30
0.0
 11
103.661472
 21
167.867532
 31
0.0
  0
LINE
  5
2AC
330
2A3
100
AcDbEntity
  8
LC-003-005-----0
 62
     7
370
    25
100
AcDbLine
 10
100.552153
 20
170.976851
 30
0.0
 11
98.803984
 21
172.72502
 31
0.0
  0
LINE
  5
2AD
330
2A3
100
AcDbEntity
  8
LC-003-005-----0
  6
DASHED
 62
     7
370
    25
100
AcDbLine
 10
104.661472
 20
161.210678
 30
0.0
 11
103.661472
 21
162.210678
 31
0.0
  0
LINE
  5
2AE
330
2A3
100
AcDbEntity
  8
LC-003-005-----0
  6
DASHED
 62
     7
370
    25
100
AcDbLine
 10
104.661472
 20
158.382251
 30
0.0
 11
102.648869
 21
160.394854
 31
0.0
  0
LINE
  5
2AF
330
2A3
100
AcDbEntity
  8
LC-003-005-----0
 62
     7
370
    25
100
AcDbLine
 10
104.661472
 20
152.725396
 30
0.0
 11
103.661472
 21
153.725396
 31
0.0
  0
LINE
  5
2B0
330
2A3
100
AcDbEntity
  8
LC-003-005-----0
 62
     7
370
    25
100
AcDbLine
 10
98.313451
 20
159.073417
 30
0.0
 11
96.992014
 21
160.394854
 31
0.0
  0
LINE
  5
2B1
330
2A3
100
AcDbEntity
  8
LC-003-005-----0
 62
     7
370
    25
100
AcDbLine
 10
104.661472
 20
149.896969
 30
0.0
 11
103.661472
 21
150.896969
 31
0.0
  0
LINE
  5
2B2
330
2A3
100
AcDbEntity
  8
LC-003-005-----0
  6
DASHED
 62
     7
370
    25
100
AcDbLine
 10
104.661472
 20
144.240115
 30
0.0
 11
103.559685
 21
145.341902
 31
0.0
  0
LINE
  5
2B3
330
2A3
100
AcDbEntity
  8
LC-003-005-----0
  6
DASHED
 62
     7
370
    25
100
AcDbLine
 10
103.107441
 20
145.794146
 30
0.0
 11
100.836899
 21
148.064688
 31
0.0
  0
LINE
  5
2B4
330
2A3
100
AcDbEntity
  8
LC-003-005-----0
  6
DASHED
 62
     7
370
    25
100
AcDbLine
 10
104.661472
 20
141.411688
 30
0.0
 11
103.661472
 21
142.411688
 31
0.0
  0
LINE
  5
2B5
330
2A3
100
AcDbEntity
  8
LC-003-005-----0
  6
DASHED
 62
     7
370
    25
100
AcDbLine
 10
99.569032
 20
146.504128
 30
0.0
 11
98.008472
 21
148.064688
 31
0.0
  0
LINE
  5
2B6
330
2A3
100
AcDbEntity
  8
LC-003-005-----0
 62
     7
370
    25
100
AcDbLine
 10
104.661472
 20
135.754834
 30
0.0
 11
103.661472
 21
136.754834
 31
0.0
  0
LINE
  5
2B7
330
2A3
100
AcDbEntity
  8
LC-003-005-----0
 62
     7
370
    25
100
AcDbLine
 10
104.661472
 20
132.926406
 30
0.0
 11
101.853356
 21
135.734523
 31
0.0
  0
LINE
  5
2B8
330
2A3
100
AcDbEntity
  8
LC-003-005-----0
  6
DASHED
 62
     7
370
    25
100
AcDbLine
 10
104.661472
 20
127.269552
 30
0.0
 11
103.661472
 21
128.269552
 31
0.0
  0
LINE
  5
2B9
330
2A3
100
AcDbEntity
  8
LC-003-005-----0
  6
DASHED
 62
     7
370
    25
100
AcDbLine
 10
97.33033
 20
134.600694
 30
0.0
 11
96.327004
 21
135.60402
 31
0.0
  0
LINE
  5
2BA
330
2A3
100
AcDbEntity
  8
LC-003-005-----0
  6
DASHED
 62
     7
370
    25
100
AcDbLine
 10
104.661472
 20
124.441125
 30
0.0
 11
103.661472
 21
125.441125
 31
0.0
  0
LINE
  5
2BB
330
2A3
100
AcDbEntity
  8
LC-003-005-----0
 62
     7
370
    25
100
AcDbLine
 10
104.661472
 20
118.784271
 30
0.0
 11
103.661472
 21
119.784271
 31
0.0
  0
LINE
  5
2BC
330
2A3
100
AcDbEntity
  8
LC-003-005-----0
 62
     7
370
    25
100
AcDbLine
 10
102.080194
 20
121.365548
 30
0.0
 11
100.041386
 21
123.404357
 31
0.0
  0
LINE
  5
2BD
330
2A3
100
AcDbEntity
  8
LC-003-005-----0
 62
     7
370
    25
100
AcDbLine
 10
104.661472
 20
115.955844
 30
0.0
 11
103.661472
 21
116.955844
 31
0.0
  0
LINE
  5
2BE
330
2A3
100
AcDbEntity
  8
LC-003-005-----0
 62
     7
370
    25
100
AcDbLine
 10
98.585911
 20
122.031404
 30
0.0
 11
97.212959
 21
123.404357
 31
0.0
  0
LINE
  5
2BF
330
2A3
100
AcDbEntity
  8
LC-003-005-----0
  6
DASHED
 62
     7
370
    25
100
AcDbLine
 10
104.661472
 20
110.298989
 30
0.0
 11
103.609082
 21
111.351379
 31
0.0
  0
LINE
  5
2C0
330
2A3
100
AcDbEntity
  8
LC-003-005-----0
  6
DASHED
 62
     7
370
    25
100
AcDbLine
 10
104.661472
 20
107.470562
 30
0.0
 11
101.057843
 21
111.074191
 31
0.0
  0
LINE
  5
2C1
330
2A3
100
AcDbEntity
  8
LC-003-005-----0
 62
     7
370
    25
100
AcDbLine
 10
104.661472
 20
101.813708
 30
0.0
 11
103.661472
 21
102.813708
 31
0.0
  0
LINE
  5
2C2
330
2A3
100
AcDbEntity
  8
LC-003-005-----0
 62
     7
370
    25
100
AcDbLine
 10
104.661472
 20
98.985281
 30
0.0
 11
103.661472
 21
99.985281
 31
0.0
  0
LINE
  5
2C3
330
2A3
100
AcDbEntity
  8
LC-003-005-----0
  6
DASHED
 62
     7
370
    25
100
AcDbLine
 10
104.661472
 20
93.328427
 30
0.0
 11
103.661472
 21
94.328427
 31
0.0
  0
LINE
  5
2C4
330
2A3
100
AcDbEntity
  8
LC-003-005-----0
  6
DASHED
 62
     7
370
    25
100
AcDbLine
 10
101.097074
 20
96.892825
 30
0.0
 11
99.245873
 21
98.744026
 31
0.0
  0
LINE
  5
2C5
330
2A3
100
AcDbEntity
  8
LC-003-005-----0
  6
DASHED
 62
     7
370
    25
100
AcDbLine
 10
104.661472
 20
90.5
 30
0.0
 11
103.661472
 21
91.5
 31
0.0
  0
LINE
  5
2C6
330
2A3
100
AcDbEntity
  8
LC-003-005-----0
  6
DASHED
 62
     7
370
    25
100
AcDbLine
 10
97.602791
 20
97.558681
 30
0.0
 11
96.461232
 21
98.70024
 31
0.0
  0
LINE
  5
2C7
330
2A3
100
AcDbEntity
  8
LC-003-005-----0
 62
     7
370
    25
100
AcDbLine
 10
104.661472
 20
84.843145
 30
0.0
 11
103.090757
 21
86.41386
 31
0.0
  0
LINE
  5
2C8
330
2A3
100
AcDbEntity
  8
LC-003-005-----0
 62
     7
370
    25
100
AcDbLine
 10
104.661472
 20
82.014718
 30
0.0
 11
103.661472
 21
83.014718
 31
0.0
  0
LINE
  5
2C9
330
2A3
100
AcDbEntity
  8
LC-003-005-----0
 62
     7
370
    25
100
AcDbLine
 10
102.352655
 20
84.323535
 30
0.0
 11
100.26233
 21
86.41386
 31
0.0
  0
LINE
  5
2CA
330
2A3
100
AcDbEntity
  8
LC-003-005-----0
  6
DASHED
 62
     7
370
    25
100
AcDbLine
 10
104.661472
 20
76.357864
 30
0.0
 11
103.661472
 21
77.357864
 31
0.0
  0
LINE
  5
2CB
330
2A3
100
AcDbEntity
  8
LC-003-005-----0
  6
DASHED
 62
     7
370
    25
100
AcDbLine
 10
104.661472
 20
73.529437
 30
0.0
 11
103.658804
 21
74.532105
 31
0.0
  0
LINE
  5
2CC
330
2A3
100
AcDbEntity
  8
LC-003-005-----0
 62
     7
370
    25
100
AcDbLine
 10
104.661472
 20
67.872583
 30
0.0
 11
103.661472
 21
68.872583
 31
0.0
  0
LINE
  5
2CD
330
2A3
100
AcDbEntity
  8
LC-003-005-----0
 62
     7
370
    25
100
AcDbLine
 10
100.113953
 20
72.420102
 30
0.0
 11
98.45036
 21
74.083694
 31
0.0
  0
LINE
  5
2CE
330
2A3
100
AcDbEntity
  8
LC-003-005-----0
 62
     7
370
    25
100
AcDbLine
 10
104.661472
 20
65.044155
 30
0.0
 11
103.661472
 21
66.044155
 31
0.0
  0
LINE
  5
2CF
330
2A3
100
AcDbEntity
  8
LC-003-005-----0
 62
     7
370
    25
100
AcDbLine
 10
96.61967
 20
73.085958
 30
0.0
 11
96.170224
 21
73.535403
 31
0.0
  0
LINE
  5
2D0
330
2A3
100
AcDbEntity
  8
LC-003-005-----0
  6
DASHED
 62
     7
370
    25
100
AcDbLine
 10
104.661472
 20
59.387301
 30
0.0
 11
102.295245
 21
61.753529
 31
0.0
  0
LINE
  5
2D1
330
2A3
100
AcDbEntity
  8
LC-003-005-----0
  6
DASHED
 62
     7
370
    25
100
AcDbLine
 10
104.661472
 20
56.558874
 30
0.0
 11
103.661472
 21
57.558874
 31
0.0
  0
LINE
  5
2D2
330
2A3
100
AcDbEntity
  8
LC-003-005-----0
  6
DASHED
 62
     7
370
    25
100
AcDbLine
 10
101.369534
 20
59.850812
 30
0.0
 11
99.466817
 21
61.753529
 31
0.0
  0
LINE
  5
2D3
330
2A3
100
AcDbEntity
  8
LC-003-005-----0
 62
     7
370
    25
100
AcDbLine
 10
104.661472
 20
50.90202
 30
0.0
 11
103.661472
 21
51.90202
 31
0.0
  0
LINE
  5
2D4
330
2A3
100
AcDbEntity
  8
LC-003-005-----0
 62
     7
370
    25
100
AcDbLine
 10
104.661472
 20
48.073593
 30
0.0
 11
103.293857
 21
49.441207
 31
0.0
  0
LINE
  5
2D5
330
2A3
100
AcDbEntity
  8
LC-003-005-----0
  6
DASHED
 62
     7
370
    25
100
AcDbLine
 10
104.661472
 20
42.416738
 30
0.0
 11
103.661472
 21
43.416738
 31
0.0
  0
LINE
  5
2D6
330
2A3
100
AcDbEntity
  8
LC-003-005-----0
  6
DASHED
 62
     7
370
    25
100
AcDbLine
 10
99.130832
 20
47.947378
 30
0.0
 11
97.654847
 21
49.423363
 31
0.0
  0
LINE
  5
2D7
330
2A3
100
AcDbEntity
  8
LC-003-005-----0
  6
DASHED
 62
     7
370
    25
100
AcDbLine
 10
104.661472
 20
39.588311
 30
0.0
 11
103.661472
 21
40.588311
 31
0.0
  0
LINE
  5
2D8
330
2A3
100
AcDbEntity
  8
LC-003-005-----0
 62
     7
370
    25
100
AcDbLine
 10
104.661472
 20
33.931457
 30
0.0
 11
101.499732
 21
37.093197
 31
0.0
  0
LINE
  5
2D9
330
2A3
100
AcDbEntity
  8
LC-003-005-----0
 62
     7
370
    25
100
AcDbLine
 10
104.661472
 20
31.10303
 30
0.0
 11
103.661472
 21
32.10303
 31
0.0
  0
LINE
  5
2DA
330
2A3
100
AcDbEntity
  8
LC-003-005-----0
 62
     7
370
    25
100
AcDbLine
 10
100.386413
 20
35.378089
 30
0.0
 11
98.671305
 21
37.093197
 31
0.0
  0
LINE
  5
2DB
330
2A3
100
AcDbEntity
  8
LC-003-005-----0
  6
DASHED
 62
     7
370
    25
100
AcDbLine
 10
104.661472
 20
25.446176
 30
0.0
 11
103.661472
 21
26.446176
 31
0.0
  0
LINE
  5
2DC
330
2A3
100
AcDbEntity
  8
LC-003-005-----0
  6
DASHED
 62
     7
370
    25
100
AcDbLine
 10
104.661472
 20
22.617749
 30
0.0
 11
102.516189
 21
24.763032
 31
0.0
  0
LINE
  5
2DD
330
2A3
100
AcDbEntity
  8
LC-003-005-----0
 62
     7
370
    25
100
AcDbLine
 10
104.661472
 20
16.960894
 30
0.0
 11
103.661472
 21
17.960894
 31
0.0
  0
LINE
  5
2DE
330
2A3
100
AcDbEntity
  8
LC-003-005-----0
 62
     7
370
    25
100
AcDbLine
 10
98.147712
 20
23.474655
 30
0.0
 11
96.859335
 21
24.763032
 31
0.0
  0
LINE
  5
2DF
330
2A3
100
AcDbEntity
  8
LC-003-005-----0
 62
     7
370
    25
100
AcDbLine
 10
104.661472
 20
14.132467
 30
0.0
 11
103.661472
 21
15.132467
 31
0.0
  0
LINE
  5
2E0
330
2A3
100
AcDbEntity
  8
LC-003-005-----0
  6
DASHED
 62
     7
370
    25
100
AcDbLine
 10
104.661472
 20
8.475613
 30
0.0
 11
103.645647
 21
9.491438
 31
0.0
  0
LINE
  5
2E1
330
2A3
100
AcDbEntity
  8
LC-003-005-----0
  6
DASHED
 62
     7
370
    25
100
AcDbLine
 10
102.897576
 20
10.239509
 30
0.0
 11
100.704219
 21
12.432866
 31
0.0
  0
LINE
  5
2E2
330
2A3
100
AcDbEntity
  8
LC-003-005-----0
  6
DASHED
 62
     7
370
    25
100
AcDbLine
 10
104.661472
 20
5.647186
 30
0.0
 11
103.661472
 21
6.647186
 31
0.0
  0
LINE
  5
2E3
330
2A3
100
AcDbEntity
  8
LC-003-005-----0
  6
DASHED
 62
     7
370
    25
100
AcDbLine
 10
99.403293
 20
10.905365
 30
0.0
 11
97.875792
 21
12.432866
 31
0.0
  0
LINE
  5
2E4
330
2A3
100
AcDbEntity
  8
LC-003-005-----0
 62
     7
370
    25
100
AcDbLine
 10
104.661472
 20
-0.009668
 30
0.0
 11
103.661472
 21
0.990332
 31
0.0
  0
LINE
  5
2E5
330
2A3
100
AcDbEntity
  8
LC-003-005-----0
 62
     7
370
    25
100
AcDbLine
 10
104.661472
 20
-2.838096
 30
0.0
 11
101.720676
 21
0.1027
 31
0.0
  0
LINE
  5
2E6
330
2A3
100
AcDbEntity
  8
LC-003-005-----0
  6
DASHED
 62
     7
370
    25
100
AcDbLine
 10
104.661472
 20
-8.49495
 30
0.0
 11
103.661472
 21
-7.49495
 31
0.0
  0
LINE
  5
2E7
330
2A3
100
AcDbEntity
  8
LC-003-005-----0
  6
DASHED
 62
     7
370
    25
100
AcDbLine
 10
97.164591
 20
-0.998069
 30
0.0
 11
96.268344
 21
-0.101821
 31
0.0
  0
LINE
  5
2E8
330
2A3
100
AcDbEntity
  8
LC-003-005-----0
  6
DASHED
 62
     7
370
    25
100
AcDbLine
 10
104.661472
 20
-11.323377
 30
0.0
 11
103.661472
 21
-10.323377
 31
0.0
  0
LINE
  5
2E9
330
2A3
100
AcDbEntity
  8
LC-003-005-----0
 62
     7
370
    25
100
AcDbLine
 10
104.661472
 20
-16.980231
 30
0.0
 11
103.661472
 21
-15.980231
 31
0.0
  0
LINE
  5
2EA
330
2A3
100
AcDbEntity
  8
LC-003-005-----0
 62
     7
370
    25
100
AcDbLine
 10
101.914455
 20
-14.233214
 30
0.0
 11
99.908706
 21
-12.227465
 31
0.0
  0
LINE
  5
2EB
330
2A3
100
AcDbEntity
  8
LC-003-005-----0
 62
     7
370
    25
100
AcDbLine
 10
104.661472
 20
-19.808658
 30
0.0
 11
103.661472
 21
-18.808658
 31
0.0
  0
LINE
  5
2EC
330
2A3
100
AcDbEntity
  8
LC-003-005-----0
 62
     7
370
    25
100
AcDbLine
 10
98.420172
 20
-13.567358
 30
0.0
 11
97.080279
 21
-12.227465
 31
0.0
  0
LINE
  5
2ED
330
2A3
100
AcDbEntity
  8
LC-003-005-----0
  6
DASHED
 62
     7
370
    25
100
AcDbLine
 10
104.661472
 20
-25.465513
 30
0.0
 11
103.558072
 21
-24.362112
 31
0.0
  0
LINE
  5
2EE
330
2A3
100
AcDbEntity
  8
LC-003-005-----0
  6
DASHED
 62
     7
370
    25
100
AcDbLine
 10
104.661472
 20
-28.29394
 30
0.0
 11
100.925163
 21
-24.557631
 31
0.0
  0
LINE
  5
2EF
330
2A3
100
AcDbEntity
  8
LC-003-005-----0
 62
     7
370
    25
100
AcDbLine
 10
104.661472
 20
-33.950794
 30
0.0
 11
103.661472
 21
-32.950794
 31
0.0
  0
LINE
  5
2F0
330
2A3
100
AcDbEntity
  8
LC-003-005-----0
 62
     7
370
    25
100
AcDbLine
 10
104.661472
 20
-36.779221
 30
0.0
 11
103.661472
 21
-35.779221
 31
0.0
  0
LINE
  5
2F1
330
2A3
100
AcDbEntity
  8
LC-003-005-----0
  6
DASHED
 62
     7
370
    25
100
AcDbLine
 10
100.931334
 20
-38.705938
 30
0.0
 11
99.113193
 21
-36.887797
 31
0.0
  0
LINE
  5
2F2
330
2A3
100
AcDbEntity
  8
LC-003-005-----0
  6
DASHED
 62
     7
370
    25
100
AcDbLine
 10
97.437051
 20
-38.040082
 30
0.0
 11
96.38006
 21
-36.983091
 31
0.0
  0
ENDBLK
  5
2A5
330
2A3
100
AcDbEntity
  8
0
100
AcDbBlockEnd
  0
BLOCK
  5
2F8
330
2F7
100
AcDbEntity
  8
0
100
AcDbBlockBegin
  2
*X1218
 70
     1
 71
     0
 10
0.0
 20
0.0
 30
0.0
  3
*X1218
  1

  4
*X12
  0
LINE
  5
2FA
330
2F7
100
AcDbEntity
  8
LC-003-005-----0
 62
     7
370
    25
100
AcDbLine
 10
169.140543
 20
184.412847
 30
0.0
 11
168.498205
 21
185.055185
 31
0.0
  0
LINE
  5
2FB
330
2F7
100
AcDbEntity
  8
LC-003-005-----0
  6
DASHED
 62
     7
370
    25
100
AcDbLine
 10
164.618646
 20
183.27789
 30
0.0
 11
162.841351
 21
185.055185
 31
0.0
  0
LINE
  5
2FC
330
2F7
100
AcDbEntity
  8
LC-003-005-----0
  6
DASHED
 62
     7
370
    25
100
AcDbLine
 10
162.262571
 20
182.805538
 30
0.0
 11
160.661472
 21
184.406637
 31
0.0
  0
LINE
  5
2FD
330
2F7
100
AcDbEntity
  8
LC-003-005-----0
 62
     7
370
    25
100
AcDbLine
 10
167.84802
 20
171.563235
 30
0.0
 11
166.686235
 21
172.72502
 31
0.0
  0
LINE
  5
2FE
330
2F7
100
AcDbEntity
  8
LC-003-005-----0
 62
     7
370
    25
100
AcDbLine
 10
161.661472
 20
177.749783
 30
0.0
 11
160.661472
 21
178.749783
 31
0.0
  0
LINE
  5
2FF
330
2F7
100
AcDbEntity
  8
LC-003-005-----0
 62
     7
370
    25
100
AcDbLine
 10
165.4723
 20
171.110528
 30
0.0
 11
163.857808
 21
172.72502
 31
0.0
  0
LINE
  5
300
330
2F7
100
AcDbEntity
  8
LC-003-005-----0
 62
     7
370
    25
100
AcDbLine
 10
161.661472
 20
174.921356
 30
0.0
 11
160.661472
 21
175.921356
 31
0.0
  0
LINE
  5
301
330
2F7
100
AcDbEntity
  8
LC-003-005-----0
  6
DASHED
 62
     7
370
    25
100
AcDbLine
 10
161.661472
 20
169.264502
 30
0.0
 11
160.661472
 21
170.264502
 31
0.0
  0
LINE
  5
302
330
2F7
100
AcDbEntity
  8
LC-003-005-----0
  6
DASHED
 62
     7
370
    25
100
AcDbLine
 10
168.701674
 20
159.395872
 30
0.0
 11
167.702692
 21
160.394854
 31
0.0
  0
LINE
  5
303
330
2F7
100
AcDbEntity
  8
LC-003-005-----0
  6
DASHED
 62
     7
370
    25
100
AcDbLine
 10
161.661472
 20
166.436074
 30
0.0
 11
160.661472
 21
167.436074
 31
0.0
  0
LINE
  5
304
330
2F7
100
AcDbEntity
  8
LC-003-005-----0
 62
     7
370
    25
100
AcDbLine
 10
163.950234
 20
158.490458
 30
0.0
 11
162.027577
 21
160.413115
 31
0.0
  0
LINE
  5
305
330
2F7
100
AcDbEntity
  8
LC-003-005-----0
 62
     7
370
    25
100
AcDbLine
 10
161.679733
 20
160.760959
 30
0.0
 11
160.661472
 21
161.77922
 31
0.0
  0
LINE
  5
306
330
2F7
100
AcDbEntity
  8
LC-003-005-----0
 62
     7
370
    25
100
AcDbLine
 10
161.828549
 20
157.783716
 30
0.0
 11
160.661472
 21
158.950793
 31
0.0
  0
LINE
  5
307
330
2F7
100
AcDbEntity
  8
LC-003-005-----0
  6
DASHED
 62
     7
370
    25
100
AcDbLine
 10
167.179608
 20
146.775802
 30
0.0
 11
165.890723
 21
148.064688
 31
0.0
  0
LINE
  5
308
330
2F7
100
AcDbEntity
  8
LC-003-005-----0
  6
DASHED
 62
     7
370
    25
100
AcDbLine
 10
161.661472
 20
152.293939
 30
0.0
 11
160.661472
 21
153.293939
 31
0.0
  0
LINE
  5
309
330
2F7
100
AcDbEntity
  8
LC-003-005-----0
  6
DASHED
 62
     7
370
    25
100
AcDbLine
 10
164.803889
 20
146.323095
 30
0.0
 11
163.062295
 21
148.064688
 31
0.0
  0
LINE
  5
30A
330
2F7
100
AcDbEntity
  8
LC-003-005-----0
  6
DASHED
 62
     7
370
    25
100
AcDbLine
 10
161.661472
 20
149.465512
 30
0.0
 11
160.661472
 21
150.465512
 31
0.0
  0
LINE
  5
30B
330
2F7
100
AcDbEntity
  8
LC-003-005-----0
 62
     7
370
    25
100
AcDbLine
 10
161.661472
 20
143.808657
 30
0.0
 11
160.661472
 21
144.808657
 31
0.0
  0
LINE
  5
30C
330
2F7
100
AcDbEntity
  8
LC-003-005-----0
 62
     7
370
    25
100
AcDbLine
 10
168.033263
 20
134.60844
 30
0.0
 11
166.90718
 21
135.734523
 31
0.0
  0
LINE
  5
30D
330
2F7
100
AcDbEntity
  8
LC-003-005-----0
 62
     7
370
    25
100
AcDbLine
 10
161.661472
 20
140.98023
 30
0.0
 11
160.661472
 21
141.98023
 31
0.0
  0
LINE
  5
30E
330
2F7
100
AcDbEntity
  8
LC-003-005-----0
  6
DASHED
 62
     7
370
    25
100
AcDbLine
 10
163.281823
 20
133.703025
 30
0.0
 11
160.661472
 21
136.323376
 31
0.0
  0
LINE
  5
30F
330
2F7
100
AcDbEntity
  8
LC-003-005-----0
  6
DASHED
 62
     7
370
    25
100
AcDbLine
 10
161.661472
 20
132.494949
 30
0.0
 11
160.661472
 21
133.494949
 31
0.0
  0
LINE
  5
310
330
2F7
100
AcDbEntity
  8
LC-003-005-----0
 62
     7
370
    25
100
AcDbLine
 10
166.511197
 20
121.98837
 30
0.0
 11
165.09521
 21
123.404357
 31
0.0
  0
LINE
  5
311
330
2F7
100
AcDbEntity
  8
LC-003-005-----0
 62
     7
370
    25
100
AcDbLine
 10
161.661472
 20
126.838095
 30
0.0
 11
160.661472
 21
127.838095
 31
0.0
  0
LINE
  5
312
330
2F7
100
AcDbEntity
  8
LC-003-005-----0
 62
     7
370
    25
100
AcDbLine
 10
164.135477
 20
121.535663
 30
0.0
 11
162.266783
 21
123.404357
 31
0.0
  0
LINE
  5
313
330
2F7
100
AcDbEntity
  8
LC-003-005-----0
 62
     7
370
    25
100
AcDbLine
 10
161.661472
 20
124.009668
 30
0.0
 11
160.661472
 21
125.009668
 31
0.0
  0
LINE
  5
314
330
2F7
100
AcDbEntity
  8
LC-003-005-----0
  6
DASHED
 62
     7
370
    25
100
AcDbLine
 10
161.661472
 20
118.352813
 30
0.0
 11
160.661472
 21
119.352813
 31
0.0
  0
LINE
  5
315
330
2F7
100
AcDbEntity
  8
LC-003-005-----0
  6
DASHED
 62
     7
370
    25
100
AcDbLine
 10
167.364851
 20
109.821007
 30
0.0
 11
166.111667
 21
111.074191
 31
0.0
  0
LINE
  5
316
330
2F7
100
AcDbEntity
  8
LC-003-005-----0
  6
DASHED
 62
     7
370
    25
100
AcDbLine
 10
161.661472
 20
115.524386
 30
0.0
 11
160.661472
 21
116.524386
 31
0.0
  0
LINE
  5
317
330
2F7
100
AcDbEntity
  8
LC-003-005-----0
 62
     7
370
    25
100
AcDbLine
 10
162.613411
 20
108.915593
 30
0.0
 11
160.661472
 21
110.867532
 31
0.0
  0
LINE
  5
318
330
2F7
100
AcDbEntity
  8
LC-003-005-----0
 62
     7
370
    25
100
AcDbLine
 10
161.661472
 20
107.039105
 30
0.0
 11
160.661472
 21
108.039105
 31
0.0
  0
LINE
  5
319
330
2F7
100
AcDbEntity
  8
LC-003-005-----0
  6
DASHED
 62
     7
370
    25
100
AcDbLine
 10
165.842785
 20
97.200937
 30
0.0
 11
164.299697
 21
98.744026
 31
0.0
  0
LINE
  5
31A
330
2F7
100
AcDbEntity
  8
LC-003-005-----0
  6
DASHED
 62
     7
370
    25
100
AcDbLine
 10
161.661472
 20
101.382251
 30
0.0
 11
160.661472
 21
102.382251
 31
0.0
  0
LINE
  5
31B
330
2F7
100
AcDbEntity
  8
LC-003-005-----0
  6
DASHED
 62
     7
370
    25
100
AcDbLine
 10
163.467065
 20
96.74823
 30
0.0
 11
160.661472
 21
99.553823
 31
0.0
  0
LINE
  5
31C
330
2F7
100
AcDbEntity
  8
LC-003-005-----0
 62
     7
370
    25
100
AcDbLine
 10
169.003206
 20
85.555235
 30
0.0
 11
168.144581
 21
86.41386
 31
0.0
  0
LINE
  5
31D
330
2F7
100
AcDbEntity
  8
LC-003-005-----0
 62
     7
370
    25
100
AcDbLine
 10
161.661472
 20
92.896969
 30
0.0
 11
160.661472
 21
93.896969
 31
0.0
  0
LINE
  5
31E
330
2F7
100
AcDbEntity
  8
LC-003-005-----0
 62
     7
370
    25
100
AcDbLine
 10
166.696439
 20
85.033575
 30
0.0
 11
165.316154
 21
86.41386
 31
0.0
  0
LINE
  5
31F
330
2F7
100
AcDbEntity
  8
LC-003-005-----0
 62
     7
370
    25
100
AcDbLine
 10
161.661472
 20
90.068542
 30
0.0
 11
160.661472
 21
91.068542
 31
0.0
  0
LINE
  5
320
330
2F7
100
AcDbEntity
  8
LC-003-005-----0
  6
DASHED
 62
     7
370
    25
100
AcDbLine
 10
162.038915
 20
84.034245
 30
0.0
 11
160.661472
 21
85.411688
 31
0.0
  0
LINE
  5
321
330
2F7
100
AcDbEntity
  8
LC-003-005-----0
  6
DASHED
 62
     7
370
    25
100
AcDbLine
 10
161.661472
 20
81.583261
 30
0.0
 11
160.661472
 21
82.583261
 31
0.0
  0
LINE
  5
322
330
2F7
100
AcDbEntity
  8
LC-003-005-----0
 62
     7
370
    25
100
AcDbLine
 10
165.174373
 20
72.413505
 30
0.0
 11
163.504184
 21
74.083694
 31
0.0
  0
LINE
  5
323
330
2F7
100
AcDbEntity
  8
LC-003-005-----0
 62
     7
370
    25
100
AcDbLine
 10
161.661472
 20
75.926406
 30
0.0
 11
160.661472
 21
76.926406
 31
0.0
  0
LINE
  5
324
330
2F7
100
AcDbEntity
  8
LC-003-005-----0
 62
     7
370
    25
100
AcDbLine
 10
162.798654
 20
71.960798
 30
0.0
 11
160.661472
 21
74.097979
 31
0.0
  0
LINE
  5
325
330
2F7
100
AcDbEntity
  8
LC-003-005-----0
  6
DASHED
 62
     7
370
    25
100
AcDbLine
 10
168.403748
 20
60.69885
 30
0.0
 11
167.349068
 21
61.753529
 31
0.0
  0
LINE
  5
326
330
2F7
100
AcDbEntity
  8
LC-003-005-----0
  6
DASHED
 62
     7
370
    25
100
AcDbLine
 10
161.661472
 20
67.441125
 30
0.0
 11
160.661472
 21
68.441125
 31
0.0
  0
LINE
  5
327
330
2F7
100
AcDbEntity
  8
LC-003-005-----0
  6
DASHED
 62
     7
370
    25
100
AcDbLine
 10
166.028028
 20
60.246142
 30
0.0
 11
164.520641
 21
61.753529
 31
0.0
  0
LINE
  5
328
330
2F7
100
AcDbEntity
  8
LC-003-005-----0
  6
DASHED
 62
     7
370
    25
100
AcDbLine
 10
161.661472
 20
64.612698
 30
0.0
 11
160.661472
 21
65.612698
 31
0.0
  0
LINE
  5
329
330
2F7
100
AcDbEntity
  8
LC-003-005-----0
 62
     7
370
    25
100
AcDbLine
 10
161.707874
 20
58.909442
 30
0.0
 11
160.661472
 21
59.955844
 31
0.0
  0
LINE
  5
32A
330
2F7
100
AcDbEntity
  8
LC-003-005-----0
 62
     7
370
    25
100
AcDbLine
 10
169.096641
 20
48.692247
 30
0.0
 11
168.365526
 21
49.423363
 31
0.0
  0
LINE
  5
32B
330
2F7
100
AcDbEntity
  8
LC-003-005-----0
 62
     7
370
    25
100
AcDbLine
 10
161.661472
 20
56.127417
 30
0.0
 11
160.661472
 21
57.127417
 31
0.0
  0
LINE
  5
32C
330
2F7
100
AcDbEntity
  8
LC-003-005-----0
  6
DASHED
 62
     7
370
    25
100
AcDbLine
 10
164.505962
 20
47.626073
 30
0.0
 11
162.708671
 21
49.423363
 31
0.0
  0
LINE
  5
32D
330
2F7
100
AcDbEntity
  8
LC-003-005-----0
  6
DASHED
 62
     7
370
    25
100
AcDbLine
 10
161.661472
 20
50.470562
 30
0.0
 11
160.661472
 21
51.470562
 31
0.0
  0
LINE
  5
32E
330
2F7
100
AcDbEntity
  8
LC-003-005-----0
  6
DASHED
 62
     7
370
    25
100
AcDbLine
 10
162.171071
 20
47.132536
 30
0.0
 11
160.661472
 21
48.642135
 31
0.0
  0
LINE
  5
32F
330
2F7
100
AcDbEntity
  8
LC-003-005-----0
 62
     7
370
    25
100
AcDbLine
 10
167.735336
 20
35.911417
 30
0.0
 11
166.553556
 21
37.093197
 31
0.0
  0
LINE
  5
330
330
2F7
100
AcDbEntity
  8
LC-003-005-----0
 62
     7
370
    25
100
AcDbLine
 10
161.661472
 20
41.985281
 30
0.0
 11
160.661472
 21
42.985281
 31
0.0
  0
LINE
  5
331
330
2F7
100
AcDbEntity
  8
LC-003-005-----0
 62
     7
370
    25
100
AcDbLine
 10
165.359616
 20
35.45871
 30
0.0
 11
163.725128
 21
37.093197
 31
0.0
  0
LINE
  5
332
330
2F7
100
AcDbEntity
  8
LC-003-005-----0
 62
     7
370
    25
100
AcDbLine
 10
161.661472
 20
39.156854
 30
0.0
 11
160.661472
 21
40.156854
 31
0.0
  0
LINE
  5
333
330
2F7
100
AcDbEntity
  8
LC-003-005-----0
  6
DASHED
 62
     7
370
    25
100
AcDbLine
 10
161.661472
 20
33.5
 30
0.0
 11
160.661472
 21
34.5
 31
0.0
  0
LINE
  5
334
330
2F7
100
AcDbEntity
  8
LC-003-005-----0
  6
DASHED
 62
     7
370
    25
100
AcDbLine
 10
168.58899
 20
23.744054
 30
0.0
 11
167.570013
 21
24.763032
 31
0.0
  0
LINE
  5
335
330
2F7
100
AcDbEntity
  8
LC-003-005-----0
  6
DASHED
 62
     7
370
    25
100
AcDbLine
 10
161.661472
 20
30.671572
 30
0.0
 11
160.661472
 21
31.671572
 31
0.0
  0
LINE
  5
336
330
2F7
100
AcDbEntity
  8
LC-003-005-----0
 62
     7
370
    25
100
AcDbLine
 10
163.83755
 20
22.83864
 30
0.0
 11
160.661472
 21
26.014718
 31
0.0
  0
LINE
  5
337
330
2F7
100
AcDbEntity
  8
LC-003-005-----0
 62
     7
370
    25
100
AcDbLine
 10
161.773747
 20
22.074016
 30
0.0
 11
160.661472
 21
23.186291
 31
0.0
  0
LINE
  5
338
330
2F7
100
AcDbEntity
  8
LC-003-005-----0
  6
DASHED
 62
     7
370
    25
100
AcDbLine
 10
167.066924
 20
11.123985
 30
0.0
 11
165.758043
 21
12.432866
 31
0.0
  0
LINE
  5
339
330
2F7
100
AcDbEntity
  8
LC-003-005-----0
  6
DASHED
 62
     7
370
    25
100
AcDbLine
 10
161.661472
 20
16.529437
 30
0.0
 11
160.661472
 21
17.529437
 31
0.0
  0
LINE
  5
33A
330
2F7
100
AcDbEntity
  8
LC-003-005-----0
  6
DASHED
 62
     7
370
    25
100
AcDbLine
 10
164.691204
 20
10.671277
 30
0.0
 11
162.929616
 21
12.432866
 31
0.0
  0
LINE
  5
33B
330
2F7
100
AcDbEntity
  8
LC-003-005-----0
  6
DASHED
 62
     7
370
    25
100
AcDbLine
 10
161.661472
 20
13.70101
 30
0.0
 11
160.661472
 21
14.70101
 31
0.0
  0
LINE
  5
33C
330
2F7
100
AcDbEntity
  8
LC-003-005-----0
 62
     7
370
    25
100
AcDbLine
 10
161.661472
 20
8.044155
 30
0.0
 11
160.661472
 21
9.044155
 31
0.0
  0
LINE
  5
33D
330
2F7
100
AcDbEntity
  8
LC-003-005-----0
 62
     7
370
    25
100
AcDbLine
 10
167.920578
 20
-1.043378
 30
0.0
 11
166.7745
 21
0.1027
 31
0.0
  0
LINE
  5
33E
330
2F7
100
AcDbEntity
  8
LC-003-005-----0
 62
     7
370
    25
100
AcDbLine
 10
161.661472
 20
5.215728
 30
0.0
 11
160.661472
 21
6.215728
 31
0.0
  0
LINE
  5
33F
330
2F7
100
AcDbEntity
  8
LC-003-005-----0
  6
DASHED
 62
     7
370
    25
100
AcDbLine
 10
163.169139
 20
-1.948792
 30
0.0
 11
160.661472
 21
0.558874
 31
0.0
  0
LINE
  5
340
330
2F7
100
AcDbEntity
  8
LC-003-005-----0
  6
DASHED
 62
     7
370
    25
100
AcDbLine
 10
161.661472
 20
-3.269553
 30
0.0
 11
160.661472
 21
-2.269553
 31
0.0
  0
LINE
  5
341
330
2F7
100
AcDbEntity
  8
LC-003-005-----0
 62
     7
370
    25
100
AcDbLine
 10
166.398513
 20
-13.663448
 30
0.0
 11
164.96253
 21
-12.227465
 31
0.0
  0
LINE
  5
342
330
2F7
100
AcDbEntity
  8
LC-003-005-----0
 62
     7
370
    25
100
AcDbLine
 10
161.661472
 20
-8.926407
 30
0.0
 11
160.661472
 21
-7.926407
 31
0.0
  0
LINE
  5
343
330
2F7
100
AcDbEntity
  8
LC-003-005-----0
 62
     7
370
    25
100
AcDbLine
 10
164.022793
 20
-14.116155
 30
0.0
 11
162.133309
 21
-12.226672
 31
0.0
  0
LINE
  5
344
330
2F7
100
AcDbEntity
  8
LC-003-005-----0
 62
     7
370
    25
100
AcDbLine
 10
161.662266
 20
-11.755628
 30
0.0
 11
160.661472
 21
-10.754834
 31
0.0
  0
LINE
  5
345
330
2F7
100
AcDbEntity
  8
LC-003-005-----0
  6
DASHED
 62
     7
370
    25
100
AcDbLine
 10
169.108437
 20
-24.858653
 30
0.0
 11
168.84847
 21
-24.598687
 31
0.0
  0
LINE
  5
346
330
2F7
100
AcDbEntity
  8
LC-003-005-----0
  6
DASHED
 62
     7
370
    25
100
AcDbLine
 10
161.661472
 20
-17.411689
 30
0.0
 11
160.661472
 21
-16.411689
 31
0.0
  0
LINE
  5
347
330
2F7
100
AcDbEntity
  8
LC-003-005-----0
  6
DASHED
 62
     7
370
    25
100
AcDbLine
 10
167.252167
 20
-25.83081
 30
0.0
 11
165.978987
 21
-24.557631
 31
0.0
  0
LINE
  5
348
330
2F7
100
AcDbEntity
  8
LC-003-005-----0
  6
DASHED
 62
     7
370
    25
100
AcDbLine
 10
161.661472
 20
-20.240116
 30
0.0
 11
160.661472
 21
-19.240116
 31
0.0
  0
LINE
  5
349
330
2F7
100
AcDbEntity
  8
LC-003-005-----0
 62
     7
370
    25
100
AcDbLine
 10
162.500727
 20
-26.736225
 30
0.0
 11
160.661472
 21
-24.89697
 31
0.0
  0
LINE
  5
34A
330
2F7
100
AcDbEntity
  8
LC-003-005-----0
 62
     7
370
    25
100
AcDbLine
 10
161.661472
 20
-28.725397
 30
0.0
 11
160.661472
 21
-27.725397
 31
0.0
  0
LINE
  5
34B
330
2F7
100
AcDbEntity
  8
LC-003-005-----0
  6
DASHED
 62
     7
370
    25
100
AcDbLine
 10
165.730101
 20
-38.45088
 30
0.0
 11
164.167017
 21
-36.887797
 31
0.0
  0
LINE
  5
34C
330
2F7
100
AcDbEntity
  8
LC-003-005-----0
  6
DASHED
 62
     7
370
    25
100
AcDbLine
 10
161.661472
 20
-34.382251
 30
0.0
 11
160.661472
 21
-33.382251
 31
0.0
  0
LINE
  5
34D
330
2F7
100
AcDbEntity
  8
LC-003-005-----0
  6
DASHED
 62
     7
370
    25
100
AcDbLine
 10
163.354381
 20
-38.903588
 30
0.0
 11
160.661472
 21
-36.210679
 31
0.0
  0
ENDBLK
  5
2F9
330
2F7
100
AcDbEntity
  8
0
100
AcDbBlockEnd
  0
BLOCK
  5
434
330
433
100
AcDbEntity
  8
0
100
AcDbBlockBegin
  2
*X1319
 70
     1
 71
     0
 10
0.0
 20
0.0
 30
0.0
  3
*X1319
  1

  4
*X13
  0
LINE
  5
436
330
433
100
AcDbEntity
  8
LC-003-005-----0
 62
     7
370
    25
100
AcDbLine
 10
107.446957
 20
-50.944962
 30
0.0
 11
107.661472
 21
-50.730447
 31
0.0
  0
LINE
  5
437
330
433
100
AcDbEntity
  8
LC-003-005-----0
 62
     7
370
    25
100
AcDbLine
 10
105.603359
 20
-49.960133
 30
0.0
 11
107.661472
 21
-47.90202
 31
0.0
  0
LINE
  5
438
330
433
100
AcDbEntity
  8
LC-003-005-----0
 62
     7
370
    25
100
AcDbLine
 10
105.005642
 20
-47.729423
 30
0.0
 11
107.661472
 21
-45.073593
 31
0.0
  0
LINE
  5
439
330
433
100
AcDbEntity
  8
LC-003-005-----0
 62
     7
370
    25
100
AcDbLine
 10
104.661472
 20
-45.245166
 30
0.0
 11
107.661472
 21
-42.245166
 31
0.0
  0
LINE
  5
43A
330
433
100
AcDbEntity
  8
LC-003-005-----0
 62
     7
370
    25
100
AcDbLine
 10
104.661472
 20
-42.416738
 30
0.0
 11
107.661472
 21
-39.416738
 31
0.0
  0
LINE
  5
43B
330
433
100
AcDbEntity
  8
LC-003-005-----0
 62
     7
370
    25
100
AcDbLine
 10
104.661472
 20
-39.588311
 30
0.0
 11
107.661472
 21
-36.588311
 31
0.0
  0
LINE
  5
43C
330
433
100
AcDbEntity
  8
LC-003-005-----0
 62
     7
370
    25
100
AcDbLine
 10
104.661472
 20
-36.759884
 30
0.0
 11
107.661472
 21
-33.759884
 31
0.0
  0
LINE
  5
43D
330
433
100
AcDbEntity
  8
LC-003-005-----0
 62
     7
370
    25
100
AcDbLine
 10
104.661472
 20
-33.931457
 30
0.0
 11
107.661472
 21
-30.931457
 31
0.0
  0
LINE
  5
43E
330
433
100
AcDbEntity
  8
LC-003-005-----0
 62
     7
370
    25
100
AcDbLine
 10
104.661472
 20
-31.10303
 30
0.0
 11
107.661472
 21
-28.10303
 31
0.0
  0
LINE
  5
43F
330
433
100
AcDbEntity
  8
LC-003-005-----0
 62
     7
370
    25
100
AcDbLine
 10
104.661472
 20
-28.274603
 30
0.0
 11
107.661472
 21
-25.274603
 31
0.0
  0
LINE
  5
440
330
433
100
AcDbEntity
  8
LC-003-005-----0
 62
     7
370
    25
100
AcDbLine
 10
104.661472
 20
-25.446176
 30
0.0
 11
107.661472
 21
-22.446176
 31
0.0
  0
LINE
  5
441
330
433
100
AcDbEntity
  8
LC-003-005-----0
 62
     7
370
    25
100
AcDbLine
 10
104.661472
 20
-22.617749
 30
0.0
 11
107.661472
 21
-19.617749
 31
0.0
  0
LINE
  5
442
330
433
100
AcDbEntity
  8
LC-003-005-----0
 62
     7
370
    25
100
AcDbLine
 10
104.661472
 20
-19.789321
 30
0.0
 11
107.661472
 21
-16.789321
 31
0.0
  0
LINE
  5
443
330
433
100
AcDbEntity
  8
LC-003-005-----0
 62
     7
370
    25
100
AcDbLine
 10
104.661472
 20
-16.960894
 30
0.0
 11
107.661472
 21
-13.960894
 31
0.0
  0
LINE
  5
444
330
433
100
AcDbEntity
  8
LC-003-005-----0
 62
     7
370
    25
100
AcDbLine
 10
104.661472
 20
-14.132467
 30
0.0
 11
107.661472
 21
-11.132467
 31
0.0
  0
LINE
  5
445
330
433
100
AcDbEntity
  8
LC-003-005-----0
 62
     7
370
    25
100
AcDbLine
 10
104.661472
 20
-11.30404
 30
0.0
 11
107.661472
 21
-8.30404
 31
0.0
  0
LINE
  5
446
330
433
100
AcDbEntity
  8
LC-003-005-----0
 62
     7
370
    25
100
AcDbLine
 10
104.661472
 20
-8.475613
 30
0.0
 11
107.661472
 21
-5.475613
 31
0.0
  0
LINE
  5
447
330
433
100
AcDbEntity
  8
LC-003-005-----0
 62
     7
370
    25
100
AcDbLine
 10
104.661472
 20
-5.647186
 30
0.0
 11
107.661472
 21
-2.647186
 31
0.0
  0
LINE
  5
448
330
433
100
AcDbEntity
  8
LC-003-005-----0
 62
     7
370
    25
100
AcDbLine
 10
104.661472
 20
-2.818759
 30
0.0
 11
107.661472
 21
0.181241
 31
0.0
  0
LINE
  5
449
330
433
100
AcDbEntity
  8
LC-003-005-----0
 62
     7
370
    25
100
AcDbLine
 10
104.661472
 20
0.009668
 30
0.0
 11
107.661472
 21
3.009668
 31
0.0
  0
LINE
  5
44A
330
433
100
AcDbEntity
  8
LC-003-005-----0
 62
     7
370
    25
100
AcDbLine
 10
104.661472
 20
2.838096
 30
0.0
 11
107.661472
 21
5.838096
 31
0.0
  0
LINE
  5
44B
330
433
100
AcDbEntity
  8
LC-003-005-----0
 62
     7
370
    25
100
AcDbLine
 10
104.661472
 20
5.666523
 30
0.0
 11
107.661472
 21
8.666523
 31
0.0
  0
LINE
  5
44C
330
433
100
AcDbEntity
  8
LC-003-005-----0
 62
     7
370
    25
100
AcDbLine
 10
104.661472
 20
8.49495
 30
0.0
 11
107.661472
 21
11.49495
 31
0.0
  0
LINE
  5
44D
330
433
100
AcDbEntity
  8
LC-003-005-----0
 62
     7
370
    25
100
AcDbLine
 10
104.661472
 20
11.323377
 30
0.0
 11
107.661472
 21
14.323377
 31
0.0
  0
LINE
  5
44E
330
433
100
AcDbEntity
  8
LC-003-005-----0
 62
     7
370
    25
100
AcDbLine
 10
104.661472
 20
14.151804
 30
0.0
 11
107.661472
 21
17.151804
 31
0.0
  0
LINE
  5
44F
330
433
100
AcDbEntity
  8
LC-003-005-----0
 62
     7
370
    25
100
AcDbLine
 10
104.661472
 20
16.980231
 30
0.0
 11
107.661472
 21
19.980231
 31
0.0
  0
LINE
  5
450
330
433
100
AcDbEntity
  8
LC-003-005-----0
 62
     7
370
    25
100
AcDbLine
 10
104.661472
 20
19.808658
 30
0.0
 11
107.661472
 21
22.808658
 31
0.0
  0
LINE
  5
451
330
433
100
AcDbEntity
  8
LC-003-005-----0
 62
     7
370
    25
100
AcDbLine
 10
104.661472
 20
22.637085
 30
0.0
 11
107.661472
 21
25.637085
 31
0.0
  0
LINE
  5
452
330
433
100
AcDbEntity
  8
LC-003-005-----0
 62
     7
370
    25
100
AcDbLine
 10
104.661472
 20
25.465513
 30
0.0
 11
107.661472
 21
28.465513
 31
0.0
  0
LINE
  5
453
330
433
100
AcDbEntity
  8
LC-003-005-----0
 62
     7
370
    25
100
AcDbLine
 10
104.661472
 20
28.29394
 30
0.0
 11
107.661472
 21
31.29394
 31
0.0
  0
LINE
  5
454
330
433
100
AcDbEntity
  8
LC-003-005-----0
 62
     7
370
    25
100
AcDbLine
 10
104.661472
 20
31.122367
 30
0.0
 11
107.661472
 21
34.122367
 31
0.0
  0
LINE
  5
455
330
433
100
AcDbEntity
  8
LC-003-005-----0
 62
     7
370
    25
100
AcDbLine
 10
104.661472
 20
33.950794
 30
0.0
 11
107.661472
 21
36.950794
 31
0.0
  0
LINE
  5
456
330
433
100
AcDbEntity
  8
LC-003-005-----0
 62
     7
370
    25
100
AcDbLine
 10
104.661472
 20
36.779221
 30
0.0
 11
107.661472
 21
39.779221
 31
0.0
  0
LINE
  5
457
330
433
100
AcDbEntity
  8
LC-003-005-----0
 62
     7
370
    25
100
AcDbLine
 10
104.661472
 20
39.607648
 30
0.0
 11
107.661472
 21
42.607648
 31
0.0
  0
LINE
  5
458
330
433
100
AcDbEntity
  8
LC-003-005-----0
 62
     7
370
    25
100
AcDbLine
 10
104.661472
 20
42.436075
 30
0.0
 11
107.661472
 21
45.436075
 31
0.0
  0
LINE
  5
459
330
433
100
AcDbEntity
  8
LC-003-005-----0
 62
     7
370
    25
100
AcDbLine
 10
104.661472
 20
45.264502
 30
0.0
 11
107.661472
 21
48.264502
 31
0.0
  0
LINE
  5
45A
330
433
100
AcDbEntity
  8
LC-003-005-----0
 62
     7
370
    25
100
AcDbLine
 10
104.661472
 20
48.09293
 30
0.0
 11
107.661472
 21
51.09293
 31
0.0
  0
LINE
  5
45B
330
433
100
AcDbEntity
  8
LC-003-005-----0
 62
     7
370
    25
100
AcDbLine
 10
104.661472
 20
50.921357
 30
0.0
 11
107.661472
 21
53.921357
 31
0.0
  0
LINE
  5
45C
330
433
100
AcDbEntity
  8
LC-003-005-----0
 62
     7
370
    25
100
AcDbLine
 10
104.661472
 20
53.749784
 30
0.0
 11
107.661472
 21
56.749784
 31
0.0
  0
LINE
  5
45D
330
433
100
AcDbEntity
  8
LC-003-005-----0
 62
     7
370
    25
100
AcDbLine
 10
104.661472
 20
56.578211
 30
0.0
 11
107.661472
 21
59.578211
 31
0.0
  0
LINE
  5
45E
330
433
100
AcDbEntity
  8
LC-003-005-----0
 62
     7
370
    25
100
AcDbLine
 10
104.661472
 20
59.406638
 30
0.0
 11
107.661472
 21
62.406638
 31
0.0
  0
LINE
  5
45F
330
433
100
AcDbEntity
  8
LC-003-005-----0
 62
     7
370
    25
100
AcDbLine
 10
104.661472
 20
62.235065
 30
0.0
 11
107.661472
 21
65.235065
 31
0.0
  0
LINE
  5
460
330
433
100
AcDbEntity
  8
LC-003-005-----0
 62
     7
370
    25
100
AcDbLine
 10
104.661472
 20
65.063492
 30
0.0
 11
107.661472
 21
68.063492
 31
0.0
  0
LINE
  5
461
330
433
100
AcDbEntity
  8
LC-003-005-----0
 62
     7
370
    25
100
AcDbLine
 10
104.661472
 20
67.891919
 30
0.0
 11
107.661472
 21
70.891919
 31
0.0
  0
LINE
  5
462
330
433
100
AcDbEntity
  8
LC-003-005-----0
 62
     7
370
    25
100
AcDbLine
 10
104.661472
 20
70.720347
 30
0.0
 11
107.661472
 21
73.720347
 31
0.0
  0
LINE
  5
463
330
433
100
AcDbEntity
  8
LC-003-005-----0
 62
     7
370
    25
100
AcDbLine
 10
104.661472
 20
73.548774
 30
0.0
 11
107.661472
 21
76.548774
 31
0.0
  0
LINE
  5
464
330
433
100
AcDbEntity
  8
LC-003-005-----0
 62
     7
370
    25
100
AcDbLine
 10
104.661472
 20
76.377201
 30
0.0
 11
107.661472
 21
79.377201
 31
0.0
  0
LINE
  5
465
330
433
100
AcDbEntity
  8
LC-003-005-----0
 62
     7
370
    25
100
AcDbLine
 10
104.661472
 20
79.205628
 30
0.0
 11
107.661472
 21
82.205628
 31
0.0
  0
LINE
  5
466
330
433
100
AcDbEntity
  8
LC-003-005-----0
 62
     7
370
    25
100
AcDbLine
 10
104.661472
 20
82.034055
 30
0.0
 11
107.661472
 21
85.034055
 31
0.0
  0
LINE
  5
467
330
433
100
AcDbEntity
  8
LC-003-005-----0
 62
     7
370
    25
100
AcDbLine
 10
104.661472
 20
84.862482
 30
0.0
 11
107.661472
 21
87.862482
 31
0.0
  0
LINE
  5
468
330
433
100
AcDbEntity
  8
LC-003-005-----0
 62
     7
370
    25
100
AcDbLine
 10
104.661472
 20
87.690909
 30
0.0
 11
107.661472
 21
90.690909
 31
0.0
  0
LINE
  5
469
330
433
100
AcDbEntity
  8
LC-003-005-----0
 62
     7
370
    25
100
AcDbLine
 10
104.661472
 20
90.519336
 30
0.0
 11
107.661472
 21
93.519336
 31
0.0
  0
LINE
  5
46A
330
433
100
AcDbEntity
  8
LC-003-005-----0
 62
     7
370
    25
100
AcDbLine
 10
104.661472
 20
93.347764
 30
0.0
 11
107.661472
 21
96.347764
 31
0.0
  0
LINE
  5
46B
330
433
100
AcDbEntity
  8
LC-003-005-----0
 62
     7
370
    25
100
AcDbLine
 10
104.661472
 20
96.176191
 30
0.0
 11
107.661472
 21
99.176191
 31
0.0
  0
LINE
  5
46C
330
433
100
AcDbEntity
  8
LC-003-005-----0
 62
     7
370
    25
100
AcDbLine
 10
104.661472
 20
99.004618
 30
0.0
 11
107.661472
 21
102.004618
 31
0.0
  0
LINE
  5
46D
330
433
100
AcDbEntity
  8
LC-003-005-----0
 62
     7
370
    25
100
AcDbLine
 10
104.661472
 20
101.833045
 30
0.0
 11
107.661472
 21
104.833045
 31
0.0
  0
LINE
  5
46E
330
433
100
AcDbEntity
  8
LC-003-005-----0
 62
     7
370
    25
100
AcDbLine
 10
104.661472
 20
104.661472
 30
0.0
 11
107.661472
 21
107.661472
 31
0.0
  0
LINE
  5
46F
330
433
100
AcDbEntity
  8
LC-003-005-----0
 62
     7
370
    25
100
AcDbLine
 10
104.661472
 20
107.489899
 30
0.0
 11
107.661472
 21
110.489899
 31
0.0
  0
LINE
  5
470
330
433
100
AcDbEntity
  8
LC-003-005-----0
 62
     7
370
    25
100
AcDbLine
 10
104.661472
 20
110.318326
 30
0.0
 11
107.661472
 21
113.318326
 31
0.0
  0
LINE
  5
471
330
433
100
AcDbEntity
  8
LC-003-005-----0
 62
     7
370
    25
100
AcDbLine
 10
104.661472
 20
113.146753
 30
0.0
 11
107.661472
 21
116.146753
 31
0.0
  0
LINE
  5
472
330
433
100
AcDbEntity
  8
LC-003-005-----0
 62
     7
370
    25
100
AcDbLine
 10
104.661472
 20
115.975181
 30
0.0
 11
107.661472
 21
118.975181
 31
0.0
  0
LINE
  5
473
330
433
100
AcDbEntity
  8
LC-003-005-----0
 62
     7
370
    25
100
AcDbLine
 10
104.661472
 20
118.803608
 30
0.0
 11
107.661472
 21
121.803608
 31
0.0
  0
LINE
  5
474
330
433
100
AcDbEntity
  8
LC-003-005-----0
 62
     7
370
    25
100
AcDbLine
 10
104.661472
 20
121.632035
 30
0.0
 11
107.661472
 21
124.632035
 31
0.0
  0
LINE
  5
475
330
433
100
AcDbEntity
  8
LC-003-005-----0
 62
     7
370
    25
100
AcDbLine
 10
104.661472
 20
124.460462
 30
0.0
 11
107.661472
 21
127.460462
 31
0.0
  0
LINE
  5
476
330
433
100
AcDbEntity
  8
LC-003-005-----0
 62
     7
370
    25
100
AcDbLine
 10
104.661472
 20
127.288889
 30
0.0
 11
107.661472
 21
130.288889
 31
0.0
  0
LINE
  5
477
330
433
100
AcDbEntity
  8
LC-003-005-----0
 62
     7
370
    25
100
AcDbLine
 10
104.661472
 20
130.117316
 30
0.0
 11
107.661472
 21
133.117316
 31
0.0
  0
LINE
  5
478
330
433
100
AcDbEntity
  8
LC-003-005-----0
 62
     7
370
    25
100
AcDbLine
 10
104.661472
 20
132.945743
 30
0.0
 11
107.661472
 21
135.945743
 31
0.0
  0
LINE
  5
479
330
433
100
AcDbEntity
  8
LC-003-005-----0
 62
     7
370
    25
100
AcDbLine
 10
104.661472
 20
135.77417
 30
0.0
 11
107.661472
 21
138.77417
 31
0.0
  0
LINE
  5
47A
330
433
100
AcDbEntity
  8
LC-003-005-----0
 62
     7
370
    25
100
AcDbLine
 10
104.661472
 20
138.602598
 30
0.0
 11
107.661472
 21
141.602598
 31
0.0
  0
LINE
  5
47B
330
433
100
AcDbEntity
  8
LC-003-005-----0
 62
     7
370
    25
100
AcDbLine
 10
104.661472
 20
141.431025
 30
0.0
 11
107.661472
 21
144.431025
 31
0.0
  0
LINE
  5
47C
330
433
100
AcDbEntity
  8
LC-003-005-----0
 62
     7
370
    25
100
AcDbLine
 10
104.661472
 20
144.259452
 30
0.0
 11
107.661472
 21
147.259452
 31
0.0
  0
LINE
  5
47D
330
433
100
AcDbEntity
  8
LC-003-005-----0
 62
     7
370
    25
100
AcDbLine
 10
104.661472
 20
147.087879
 30
0.0
 11
107.661472
 21
150.087879
 31
0.0
  0
LINE
  5
47E
330
433
100
AcDbEntity
  8
LC-003-005-----0
 62
     7
370
    25
100
AcDbLine
 10
104.661472
 20
149.916306
 30
0.0
 11
107.661472
 21
152.916306
 31
0.0
  0
LINE
  5
47F
330
433
100
AcDbEntity
  8
LC-003-005-----0
 62
     7
370
    25
100
AcDbLine
 10
104.661472
 20
152.744733
 30
0.0
 11
107.661472
 21
155.744733
 31
0.0
  0
LINE
  5
480
330
433
100
AcDbEntity
  8
LC-003-005-----0
 62
     7
370
    25
100
AcDbLine
 10
104.661472
 20
155.57316
 30
0.0
 11
107.661472
 21
158.57316
 31
0.0
  0
LINE
  5
481
330
433
100
AcDbEntity
  8
LC-003-005-----0
 62
     7
370
    25
100
AcDbLine
 10
104.661472
 20
158.401587
 30
0.0
 11
107.661472
 21
161.401587
 31
0.0
  0
LINE
  5
482
330
433
100
AcDbEntity
  8
LC-003-005-----0
 62
     7
370
    25
100
AcDbLine
 10
104.661472
 20
161.230015
 30
0.0
 11
107.661472
 21
164.230015
 31
0.0
  0
LINE
  5
483
330
433
100
AcDbEntity
  8
LC-003-005-----0
 62
     7
370
    25
100
AcDbLine
 10
104.661472
 20
164.058442
 30
0.0
 11
107.661472
 21
167.058442
 31
0.0
  0
LINE
  5
484
330
433
100
AcDbEntity
  8
LC-003-005-----0
 62
     7
370
    25
100
AcDbLine
 10
104.661472
 20
166.886869
 30
0.0
 11
107.661472
 21
169.886869
 31
0.0
  0
LINE
  5
485
330
433
100
AcDbEntity
  8
LC-003-005-----0
 62
     7
370
    25
100
AcDbLine
 10
104.661472
 20
169.715296
 30
0.0
 11
107.661472
 21
172.715296
 31
0.0
  0
LINE
  5
486
330
433
100
AcDbEntity
  8
LC-003-005-----0
 62
     7
370
    25
100
AcDbLine
 10
104.661472
 20
172.543723
 30
0.0
 11
107.661472
 21
175.543723
 31
0.0
  0
LINE
  5
487
330
433
100
AcDbEntity
  8
LC-003-005-----0
 62
     7
370
    25
100
AcDbLine
 10
104.661472
 20
175.37215
 30
0.0
 11
107.661472
 21
178.37215
 31
0.0
  0
LINE
  5
488
330
433
100
AcDbEntity
  8
LC-003-005-----0
 62
     7
370
    25
100
AcDbLine
 10
104.661472
 20
178.200577
 30
0.0
 11
107.661472
 21
181.200577
 31
0.0
  0
LINE
  5
489
330
433
100
AcDbEntity
  8
LC-003-005-----0
 62
     7
370
    25
100
AcDbLine
 10
104.661472
 20
181.029004
 30
0.0
 11
107.661472
 21
184.029004
 31
0.0
  0
LINE
  5
48A
330
433
100
AcDbEntity
  8
LC-003-005-----0
 62
     7
370
    25
100
AcDbLine
 10
104.661472
 20
183.857432
 30
0.0
 11
107.661472
 21
186.857432
 31
0.0
  0
LINE
  5
48B
330
433
100
AcDbEntity
  8
LC-003-005-----0
 62
     7
370
    25
100
AcDbLine
 10
104.661472
 20
186.685859
 30
0.0
 11
107.661472
 21
189.685859
 31
0.0
  0
LINE
  5
48C
330
433
100
AcDbEntity
  8
LC-003-005-----0
 62
     7
370
    25
100
AcDbLine
 10
104.661472
 20
189.514286
 30
0.0
 11
107.661472
 21
192.514286
 31
0.0
  0
LINE
  5
48D
330
433
100
AcDbEntity
  8
LC-003-005-----0
 62
     7
370
    25
100
AcDbLine
 10
104.661472
 20
192.342713
 30
0.0
 11
107.661472
 21
195.342713
 31
0.0
  0
LINE
  5
48E
330
433
100
AcDbEntity
  8
LC-003-005-----0
 62
     7
370
    25
100
AcDbLine
 10
104.661472
 20
195.17114
 30
0.0
 11
107.661472
 21
198.17114
 31
0.0
  0
LINE
  5
48F
330
433
100
AcDbEntity
  8
LC-003-005-----0
 62
     7
370
    25
100
AcDbLine
 10
104.661472
 20
197.999567
 30
0.0
 11
107.247746
 21
200.585841
 31
0.0
  0
LINE
  5
490
330
433
100
AcDbEntity
  8
LC-003-005-----0
 62
     7
370
    25
100
AcDbLine
 10
103.946457
 20
200.112979
 30
0.0
 11
106.107103
 21
202.273625
 31
0.0
  0
LINE
  5
491
330
433
100
AcDbEntity
  8
LC-003-005-----0
 62
     7
370
    25
100
AcDbLine
 10
102.805813
 20
201.800763
 30
0.0
 11
104.966459
 21
203.961409
 31
0.0
  0
LINE
  5
492
330
433
100
AcDbEntity
  8
LC-003-005-----0
 62
     7
370
    25
100
AcDbLine
 10
101.66517
 20
203.488546
 30
0.0
 11
103.825816
 21
205.649192
 31
0.0
  0
LINE
  5
493
330
433
100
AcDbEntity
  8
LC-003-005-----0
 62
     7
370
    25
100
AcDbLine
 10
100.524526
 20
205.17633
 30
0.0
 11
102.685172
 21
207.336976
 31
0.0
  0
LINE
  5
494
330
433
100
AcDbEntity
  8
LC-003-005-----0
 62
     7
370
    25
100
AcDbLine
 10
99.383883
 20
206.864113
 30
0.0
 11
101.544529
 21
209.024759
 31
0.0
  0
LINE
  5
495
330
433
100
AcDbEntity
  8
LC-003-005-----0
 62
     7
370
    25
100
AcDbLine
 10
98.243239
 20
208.551897
 30
0.0
 11
100.403885
 21
210.712543
 31
0.0
  0
LINE
  5
496
330
433
100
AcDbEntity
  8
LC-003-005-----0
 62
     7
370
    25
100
AcDbLine
 10
97.102595
 20
210.23968
 30
0.0
 11
99.263241
 21
212.400326
 31
0.0
  0
LINE
  5
497
330
433
100
AcDbEntity
  8
LC-003-005-----0
 62
     7
370
    25
100
AcDbLine
 10
95.961952
 20
211.927464
 30
0.0
 11
98.122598
 21
214.08811
 31
0.0
  0
LINE
  5
498
330
433
100
AcDbEntity
  8
LC-003-005-----0
 62
     7
370
    25
100
AcDbLine
 10
94.821308
 20
213.615248
 30
0.0
 11
96.981954
 21
215.775894
 31
0.0
  0
LINE
  5
499
330
433
100
AcDbEntity
  8
LC-003-005-----0
 62
     7
370
    25
100
AcDbLine
 10
93.680665
 20
215.303031
 30
0.0
 11
95.841311
 21
217.463677
 31
0.0
  0
LINE
  5
49A
330
433
100
AcDbEntity
  8
LC-003-005-----0
 62
     7
370
    25
100
AcDbLine
 10
92.540021
 20
216.990815
 30
0.0
 11
94.700667
 21
219.151461
 31
0.0
  0
LINE
  5
49B
330
433
100
AcDbEntity
  8
LC-003-005-----0
 62
     7
370
    25
100
AcDbLine
 10
91.399378
 20
218.678598
 30
0.0
 11
93.560024
 21
220.839244
 31
0.0
  0
LINE
  5
49C
330
433
100
AcDbEntity
  8
LC-003-005-----0
 62
     7
370
    25
100
AcDbLine
 10
90.258734
 20
220.366382
 30
0.0
 11
92.41938
 21
222.527028
 31
0.0
  0
LINE
  5
49D
330
433
100
AcDbEntity
  8
LC-003-005-----0
 62
     7
370
    25
100
AcDbLine
 10
89.118091
 20
222.054165
 30
0.0
 11
91.278737
 21
224.214811
 31
0.0
  0
LINE
  5
49E
330
433
100
AcDbEntity
  8
LC-003-005-----0
 62
     7
370
    25
100
AcDbLine
 10
87.977447
 20
223.741949
 30
0.0
 11
90.138093
 21
225.902595
 31
0.0
  0
LINE
  5
49F
330
433
100
AcDbEntity
  8
LC-003-005-----0
 62
     7
370
    25
100
AcDbLine
 10
86.836803
 20
225.429733
 30
0.0
 11
88.997449
 21
227.590379
 31
0.0
  0
LINE
  5
4A0
330
433
100
AcDbEntity
  8
LC-003-005-----0
 62
     7
370
    25
100
AcDbLine
 10
85.69616
 20
227.117516
 30
0.0
 11
87.856806
 21
229.278162
 31
0.0
  0
LINE
  5
4A1
330
433
100
AcDbEntity
  8
LC-003-005-----0
 62
     7
370
    25
100
AcDbLine
 10
84.555516
 20
228.8053
 30
0.0
 11
86.716162
 21
230.965946
 31
0.0
  0
LINE
  5
4A2
330
433
100
AcDbEntity
  8
LC-003-005-----0
 62
     7
370
    25
100
AcDbLine
 10
83.414873
 20
230.493083
 30
0.0
 11
85.575519
 21
232.653729
 31
0.0
  0
LINE
  5
4A3
330
433
100
AcDbEntity
  8
LC-003-005-----0
 62
     7
370
    25
100
AcDbLine
 10
82.274229
 20
232.180867
 30
0.0
 11
84.434875
 21
234.341513
 31
0.0
  0
LINE
  5
4A4
330
433
100
AcDbEntity
  8
LC-003-005-----0
 62
     7
370
    25
100
AcDbLine
 10
81.133586
 20
233.86865
 30
0.0
 11
83.294232
 21
236.029296
 31
0.0
  0
LINE
  5
4A5
330
433
100
AcDbEntity
  8
LC-003-005-----0
 62
     7
370
    25
100
AcDbLine
 10
79.992942
 20
235.556434
 30
0.0
 11
82.153588
 21
237.71708
 31
0.0
  0
LINE
  5
4A6
330
433
100
AcDbEntity
  8
LC-003-005-----0
 62
     7
370
    25
100
AcDbLine
 10
78.852299
 20
237.244217
 30
0.0
 11
81.012945
 21
239.404864
 31
0.0
  0
LINE
  5
4A7
330
433
100
AcDbEntity
  8
LC-003-005-----0
 62
     7
370
    25
100
AcDbLine
 10
77.711655
 20
238.932001
 30
0.0
 11
79.872301
 21
241.092647
 31
0.0
  0
LINE
  5
4A8
330
433
100
AcDbEntity
  8
LC-003-005-----0
 62
     7
370
    25
100
AcDbLine
 10
76.571011
 20
240.619785
 30
0.0
 11
78.731657
 21
242.780431
 31
0.0
  0
LINE
  5
4A9
330
433
100
AcDbEntity
  8
LC-003-005-----0
 62
     7
370
    25
100
AcDbLine
 10
75.430368
 20
242.307568
 30
0.0
 11
77.591014
 21
244.468214
 31
0.0
  0
LINE
  5
4AA
330
433
100
AcDbEntity
  8
LC-003-005-----0
 62
     7
370
    25
100
AcDbLine
 10
74.289724
 20
243.995352
 30
0.0
 11
76.45037
 21
246.155998
 31
0.0
  0
LINE
  5
4AB
330
433
100
AcDbEntity
  8
LC-003-005-----0
 62
     7
370
    25
100
AcDbLine
 10
73.149081
 20
245.683135
 30
0.0
 11
75.309727
 21
247.843781
 31
0.0
  0
LINE
  5
4AC
330
433
100
AcDbEntity
  8
LC-003-005-----0
 62
     7
370
    25
100
AcDbLine
 10
72.008437
 20
247.370919
 30
0.0
 11
74.169083
 21
249.531565
 31
0.0
  0
LINE
  5
4AD
330
433
100
AcDbEntity
  8
LC-003-005-----0
 62
     7
370
    25
100
AcDbLine
 10
70.867794
 20
249.058702
 30
0.0
 11
73.02844
 21
251.219348
 31
0.0
  0
LINE
  5
4AE
330
433
100
AcDbEntity
  8
LC-003-005-----0
 62
     7
370
    25
100
AcDbLine
 10
69.084494
 20
250.10383
 30
0.0
 11
71.887796
 21
252.907132
 31
0.0
  0
LINE
  5
4AF
330
433
100
AcDbEntity
  8
LC-003-005-----0
 62
     7
370
    25
100
AcDbLine
 10
66.256067
 20
250.10383
 30
0.0
 11
69.256067
 21
253.10383
 31
0.0
  0
LINE
  5
4B0
330
433
100
AcDbEntity
  8
LC-003-005-----0
 62
     7
370
    25
100
AcDbLine
 10
63.42764
 20
250.10383
 30
0.0
 11
66.42764
 21
253.10383
 31
0.0
  0
LINE
  5
4B1
330
433
100
AcDbEntity
  8
LC-003-005-----0
 62
     7
370
    25
100
AcDbLine
 10
60.599213
 20
250.10383
 30
0.0
 11
63.599213
 21
253.10383
 31
0.0
  0
LINE
  5
4B2
330
433
100
AcDbEntity
  8
LC-003-005-----0
 62
     7
370
    25
100
AcDbLine
 10
57.770785
 20
250.10383
 30
0.0
 11
60.770785
 21
253.10383
 31
0.0
  0
LINE
  5
4B3
330
433
100
AcDbEntity
  8
LC-003-005-----0
 62
     7
370
    25
100
AcDbLine
 10
54.942358
 20
250.10383
 30
0.0
 11
57.942358
 21
253.10383
 31
0.0
  0
LINE
  5
4B4
330
433
100
AcDbEntity
  8
LC-003-005-----0
 62
     7
370
    25
100
AcDbLine
 10
52.893798
 20
250.883697
 30
0.0
 11
55.113931
 21
253.10383
 31
0.0
  0
LINE
  5
4B5
330
433
100
AcDbEntity
  8
LC-003-005-----0
 62
     7
370
    25
100
AcDbLine
 10
51.932333
 20
252.750659
 30
0.0
 11
54.911472
 21
255.729798
 31
0.0
  0
LINE
  5
4B6
330
433
100
AcDbEntity
  8
LC-003-005-----0
 62
     7
370
    25
100
AcDbLine
 10
51.911472
 20
255.558225
 30
0.0
 11
54.911472
 21
258.558225
 31
0.0
  0
LINE
  5
4B7
330
433
100
AcDbEntity
  8
LC-003-005-----0
 62
     7
370
    25
100
AcDbLine
 10
51.911472
 20
258.386652
 30
0.0
 11
54.911472
 21
261.386652
 31
0.0
  0
LINE
  5
4B8
330
433
100
AcDbEntity
  8
LC-003-005-----0
 62
     7
370
    25
100
AcDbLine
 10
51.911472
 20
261.215079
 30
0.0
 11
54.911472
 21
264.215079
 31
0.0
  0
LINE
  5
4B9
330
433
100
AcDbEntity
  8
LC-003-005-----0
 62
     7
370
    25
100
AcDbLine
 10
51.911472
 20
264.043506
 30
0.0
 11
54.911472
 21
267.043506
 31
0.0
  0
LINE
  5
4BA
330
433
100
AcDbEntity
  8
LC-003-005-----0
 62
     7
370
    25
100
AcDbLine
 10
50.594576
 20
265.555038
 30
0.0
 11
53.594576
 21
268.555038
 31
0.0
  0
LINE
  5
4BB
330
433
100
AcDbEntity
  8
LC-003-005-----0
 62
     7
370
    25
100
AcDbLine
 10
47.766149
 20
265.555038
 30
0.0
 11
50.766149
 21
268.555038
 31
0.0
  0
LINE
  5
4BC
330
433
100
AcDbEntity
  8
LC-003-005-----0
 62
     7
370
    25
100
AcDbLine
 10
38.678935
 20
259.296251
 30
0.0
 11
41.658015
 21
262.275331
 31
0.0
  0
LINE
  5
4BD
330
433
100
AcDbEntity
  8
LC-003-005-----0
 62
     7
370
    25
100
AcDbLine
 10
47.161471
 20
267.778787
 30
0.0
 11
50.161471
 21
270.778787
 31
0.0
  0
LINE
  5
4BE
330
433
100
AcDbEntity
  8
LC-003-005-----0
 62
     7
370
    25
100
AcDbLine
 10
36.004262
 20
259.450005
 30
0.0
 11
41.658003
 21
265.103746
 31
0.0
  0
LINE
  5
4BF
330
433
100
AcDbEntity
  8
LC-003-005-----0
 62
     7
370
    25
100
AcDbLine
 10
43.850639
 20
267.296381
 30
0.0
 11
44.659458
 21
268.105201
 31
0.0
  0
LINE
  5
4C0
330
433
100
AcDbEntity
  8
LC-003-005-----0
 62
     7
370
    25
100
AcDbLine
 10
47.161471
 20
270.607214
 30
0.0
 11
50.161471
 21
273.607214
 31
0.0
  0
LINE
  5
4C1
330
433
100
AcDbEntity
  8
LC-003-005-----0
 62
     7
370
    25
100
AcDbLine
 10
35.658016
 20
261.932186
 30
0.0
 11
44.658926
 21
270.933096
 31
0.0
  0
LINE
  5
4C2
330
433
100
AcDbEntity
  8
LC-003-005-----0
 62
     7
370
    25
100
AcDbLine
 10
47.161471
 20
273.435641
 30
0.0
 11
50.161471
 21
276.435641
 31
0.0
  0
LINE
  5
4C3
330
433
100
AcDbEntity
  8
LC-003-005-----0
 62
     7
370
    25
100
AcDbLine
 10
35.658004
 20
264.760601
 30
0.0
 11
44.658395
 21
273.760992
 31
0.0
  0
LINE
  5
4C4
330
433
100
AcDbEntity
  8
LC-003-005-----0
 62
     7
370
    25
100
AcDbLine
 10
47.161471
 20
276.264068
 30
0.0
 11
50.161471
 21
279.264068
 31
0.0
  0
LINE
  5
4C5
330
433
100
AcDbEntity
  8
LC-003-005-----0
 62
     7
370
    25
100
AcDbLine
 10
35.011602
 20
266.942627
 30
0.0
 11
40.866572
 21
272.797596
 31
0.0
  0
LINE
  5
4C6
330
433
100
AcDbEntity
  8
LC-003-005-----0
 62
     7
370
    25
100
AcDbLine
 10
41.407407
 20
273.338432
 30
0.0
 11
44.657864
 21
276.588888
 31
0.0
  0
LINE
  5
4C7
330
433
100
AcDbEntity
  8
LC-003-005-----0
 62
     7
370
    25
100
AcDbLine
 10
47.161471
 20
279.092495
 30
0.0
 11
50.161471
 21
282.092495
 31
0.0
  0
LINE
  5
4C8
330
433
100
AcDbEntity
  8
LC-003-005-----0
 62
     7
370
    25
100
AcDbLine
 10
32.748113
 20
267.507565
 30
0.0
 11
38.03787
 21
272.797321
 31
0.0
  0
LINE
  5
4C9
330
433
100
AcDbEntity
  8
LC-003-005-----0
 62
     7
370
    25
100
AcDbLine
 10
41.407133
 20
276.166585
 30
0.0
 11
44.657332
 21
279.416784
 31
0.0
  0
LINE
  5
4CA
330
433
100
AcDbEntity
  8
LC-003-005-----0
 62
     7
370
    25
100
AcDbLine
 10
47.161471
 20
281.920922
 30
0.0
 11
50.161471
 21
284.920922
 31
0.0
  0
LINE
  5
4CB
330
433
100
AcDbEntity
  8
LC-003-005-----0
 62
     7
370
    25
100
AcDbLine
 10
32.656359
 20
270.244238
 30
0.0
 11
35.907392
 21
273.495271
 31
0.0
  0
LINE
  5
4CC
330
433
100
AcDbEntity
  8
LC-003-005-----0
 62
     7
370
    25
100
AcDbLine
 10
41.406859
 20
278.994737
 30
0.0
 11
47.710382
 21
285.29826
 31
0.0
  0
LINE
  5
4CD
330
433
100
AcDbEntity
  8
LC-003-005-----0
 62
     7
370
    25
100
AcDbLine
 10
32.656342
 20
273.072648
 30
0.0
 11
35.907118
 21
276.323424
 31
0.0
  0
LINE
  5
4CE
330
433
100
AcDbEntity
  8
LC-003-005-----0
 62
     7
370
    25
100
AcDbLine
 10
41.811454
 20
282.22776
 30
0.0
 11
44.88168
 21
285.297986
 31
0.0
  0
LINE
  5
4CF
330
433
100
AcDbEntity
  8
LC-003-005-----0
 62
     7
370
    25
100
AcDbLine
 10
32.656325
 20
275.901058
 30
0.0
 11
35.906844
 21
279.151576
 31
0.0
  0
LINE
  5
4D0
330
433
100
AcDbEntity
  8
LC-003-005-----0
 62
     7
370
    25
100
AcDbLine
 10
41.811457
 20
285.05619
 30
0.0
 11
42.052978
 21
285.297711
 31
0.0
  0
LINE
  5
4D1
330
433
100
AcDbEntity
  8
LC-003-005-----0
 62
     7
370
    25
100
AcDbLine
 10
32.656308
 20
278.729468
 30
0.0
 11
35.515863
 21
281.589023
 31
0.0
  0
LINE
  5
4D2
330
433
100
AcDbEntity
  8
LC-003-005-----0
 62
     7
370
    25
100
AcDbLine
 10
32.525785
 20
281.427372
 30
0.0
 11
35.511456
 21
284.413043
 31
0.0
  0
LINE
  5
4D3
330
433
100
AcDbEntity
  8
LC-003-005-----0
 62
     7
370
    25
100
AcDbLine
 10
30.566582
 20
282.296596
 30
0.0
 11
33.567833
 21
285.297847
 31
0.0
  0
LINE
  5
4D4
330
433
100
AcDbEntity
  8
LC-003-005-----0
 62
     7
370
    25
100
AcDbLine
 10
27.997369
 20
282.55581
 30
0.0
 11
30.740292
 21
285.298734
 31
0.0
  0
LINE
  5
4D5
330
433
100
AcDbEntity
  8
LC-003-005-----0
 62
     7
370
    25
100
AcDbLine
 10
25.923689
 20
283.310557
 30
0.0
 11
28.196325
 21
285.583193
 31
0.0
  0
LINE
  5
4D6
330
433
100
AcDbEntity
  8
LC-003-005-----0
 62
     7
370
    25
100
AcDbLine
 10
23.850009
 20
284.065305
 30
0.0
 11
26.122645
 21
286.33794
 31
0.0
  0
LINE
  5
4D7
330
433
100
AcDbEntity
  8
LC-003-005-----0
 62
     7
370
    25
100
AcDbLine
 10
21.77633
 20
284.820052
 30
0.0
 11
24.048965
 21
287.092688
 31
0.0
  0
LINE
  5
4D8
330
433
100
AcDbEntity
  8
LC-003-005-----0
 62
     7
370
    25
100
AcDbLine
 10
19.70265
 20
285.5748
 30
0.0
 11
21.975286
 21
287.847435
 31
0.0
  0
LINE
  5
4D9
330
433
100
AcDbEntity
  8
LC-003-005-----0
 62
     7
370
    25
100
AcDbLine
 10
17.62897
 20
286.329547
 30
0.0
 11
19.901606
 21
288.602183
 31
0.0
  0
LINE
  5
4DA
330
433
100
AcDbEntity
  8
LC-003-005-----0
 62
     7
370
    25
100
AcDbLine
 10
15.555291
 20
287.084295
 30
0.0
 11
17.827926
 21
289.35693
 31
0.0
  0
LINE
  5
4DB
330
433
100
AcDbEntity
  8
LC-003-005-----0
 62
     7
370
    25
100
AcDbLine
 10
13.481611
 20
287.839042
 30
0.0
 11
15.754247
 21
290.111678
 31
0.0
  0
LINE
  5
4DC
330
433
100
AcDbEntity
  8
LC-003-005-----0
 62
     7
370
    25
100
AcDbLine
 10
11.407932
 20
288.59379
 30
0.0
 11
13.680567
 21
290.866425
 31
0.0
  0
LINE
  5
4DD
330
433
100
AcDbEntity
  8
LC-003-005-----0
 62
     7
370
    25
100
AcDbLine
 10
9.334252
 20
289.348537
 30
0.0
 11
11.606888
 21
291.621173
 31
0.0
  0
LINE
  5
4DE
330
433
100
AcDbEntity
  8
LC-003-005-----0
 62
     7
370
    25
100
AcDbLine
 10
7.260572
 20
290.103285
 30
0.0
 11
9.533208
 21
292.37592
 31
0.0
  0
LINE
  5
4DF
330
433
100
AcDbEntity
  8
LC-003-005-----0
 62
     7
370
    25
100
AcDbLine
 10
5.186893
 20
290.858032
 30
0.0
 11
7.459528
 21
293.130668
 31
0.0
  0
LINE
  5
4E0
330
433
100
AcDbEntity
  8
LC-003-005-----0
 62
     7
370
    25
100
AcDbLine
 10
2.555471
 20
291.055038
 30
0.0
 11
5.385849
 21
293.885415
 31
0.0
  0
LINE
  5
4E1
330
433
100
AcDbEntity
  8
LC-003-005-----0
 62
     7
370
    25
100
AcDbLine
 10
-0.272956
 20
291.055038
 30
0.0
 11
2.727044
 21
294.055038
 31
0.0
  0
LINE
  5
4E2
330
433
100
AcDbEntity
  8
LC-003-005-----0
 62
     7
370
    25
100
AcDbLine
 10
-3.101383
 20
291.055038
 30
0.0
 11
-0.101383
 21
294.055038
 31
0.0
  0
LINE
  5
4E3
330
433
100
AcDbEntity
  8
LC-003-005-----0
 62
     7
370
    25
100
AcDbLine
 10
-5.92981
 20
291.055038
 30
0.0
 11
-2.92981
 21
294.055038
 31
0.0
  0
LINE
  5
4E4
330
433
100
AcDbEntity
  8
LC-003-005-----0
 62
     7
370
    25
100
AcDbLine
 10
-8.758237
 20
291.055038
 30
0.0
 11
-5.758237
 21
294.055038
 31
0.0
  0
LINE
  5
4E5
330
433
100
AcDbEntity
  8
LC-003-005-----0
 62
     7
370
    25
100
AcDbLine
 10
-11.586665
 20
291.055038
 30
0.0
 11
-8.586665
 21
294.055038
 31
0.0
  0
LINE
  5
4E6
330
433
100
AcDbEntity
  8
LC-003-005-----0
 62
     7
370
    25
100
AcDbLine
 10
-14.415092
 20
291.055038
 30
0.0
 11
-11.415092
 21
294.055038
 31
0.0
  0
LINE
  5
4E7
330
433
100
AcDbEntity
  8
LC-003-005-----0
 62
     7
370
    25
100
AcDbLine
 10
-17.243519
 20
291.055038
 30
0.0
 11
-14.243519
 21
294.055038
 31
0.0
  0
LINE
  5
4E8
330
433
100
AcDbEntity
  8
LC-003-005-----0
 62
     7
370
    25
100
AcDbLine
 10
-20.071946
 20
291.055038
 30
0.0
 11
-17.071946
 21
294.055038
 31
0.0
  0
LINE
  5
4E9
330
433
100
AcDbEntity
  8
LC-003-005-----0
 62
     7
370
    25
100
AcDbLine
 10
-22.900373
 20
291.055038
 30
0.0
 11
-19.900373
 21
294.055038
 31
0.0
  0
LINE
  5
4EA
330
433
100
AcDbEntity
  8
LC-003-005-----0
 62
     7
370
    25
100
AcDbLine
 10
-25.7288
 20
291.055038
 30
0.0
 11
-22.7288
 21
294.055038
 31
0.0
  0
LINE
  5
4EB
330
433
100
AcDbEntity
  8
LC-003-005-----0
 62
     7
370
    25
100
AcDbLine
 10
-28.557227
 20
291.055038
 30
0.0
 11
-25.557227
 21
294.055038
 31
0.0
  0
LINE
  5
4EC
330
433
100
AcDbEntity
  8
LC-003-005-----0
 62
     7
370
    25
100
AcDbLine
 10
-31.385654
 20
291.055038
 30
0.0
 11
-28.385654
 21
294.055038
 31
0.0
  0
LINE
  5
4ED
330
433
100
AcDbEntity
  8
LC-003-005-----0
 62
     7
370
    25
100
AcDbLine
 10
-34.214082
 20
291.055038
 30
0.0
 11
-31.214082
 21
294.055038
 31
0.0
  0
LINE
  5
4EE
330
433
100
AcDbEntity
  8
LC-003-005-----0
 62
     7
370
    25
100
AcDbLine
 10
-37.042509
 20
291.055038
 30
0.0
 11
-34.042509
 21
294.055038
 31
0.0
  0
LINE
  5
4EF
330
433
100
AcDbEntity
  8
LC-003-005-----0
 62
     7
370
    25
100
AcDbLine
 10
-39.870936
 20
291.055038
 30
0.0
 11
-36.870936
 21
294.055038
 31
0.0
  0
LINE
  5
4F0
330
433
100
AcDbEntity
  8
LC-003-005-----0
 62
     7
370
    25
100
AcDbLine
 10
-42.699363
 20
291.055038
 30
0.0
 11
-39.699363
 21
294.055038
 31
0.0
  0
LINE
  5
4F1
330
433
100
AcDbEntity
  8
LC-003-005-----0
 62
     7
370
    25
100
AcDbLine
 10
-44.328582
 20
292.254246
 30
0.0
 11
-42.537736
 21
294.045092
 31
0.0
  0
ENDBLK
  5
435
330
433
100
AcDbEntity
  8
0
100
AcDbBlockEnd
  0
BLOCK
  5
4F4
330
4F3
100
AcDbEntity
  8
0
100
AcDbBlockBegin
  2
*X1420
 70
     1
 71
     0
 10
0.0
 20
0.0
 30
0.0
  3
*X1420
  1

  4
*X14
  0
LINE
  5
4F6
330
4F3
100
AcDbEntity
  8
LC-003-005-----0
 62
     7
370
    25
100
AcDbLine
 10
158.358645
 20
-50.944962
 30
0.0
 11
159.857251
 21
-49.446356
 31
0.0
  0
LINE
  5
4F7
330
4F3
100
AcDbEntity
  8
LC-003-005-----0
 62
     7
370
    25
100
AcDbLine
 10
157.661472
 20
-48.813708
 30
0.0
 11
160.661472
 21
-45.813708
 31
0.0
  0
LINE
  5
4F8
330
4F3
100
AcDbEntity
  8
LC-003-005-----0
 62
     7
370
    25
100
AcDbLine
 10
157.661472
 20
-45.985281
 30
0.0
 11
160.661472
 21
-42.985281
 31
0.0
  0
LINE
  5
4F9
330
4F3
100
AcDbEntity
  8
LC-003-005-----0
 62
     7
370
    25
100
AcDbLine
 10
157.661472
 20
-43.156854
 30
0.0
 11
160.661472
 21
-40.156854
 31
0.0
  0
LINE
  5
4FA
330
4F3
100
AcDbEntity
  8
LC-003-005-----0
 62
     7
370
    25
100
AcDbLine
 10
157.661472
 20
-40.328427
 30
0.0
 11
160.661472
 21
-37.328427
 31
0.0
  0
LINE
  5
4FB
330
4F3
100
AcDbEntity
  8
LC-003-005-----0
 62
     7
370
    25
100
AcDbLine
 10
157.661472
 20
-37.5
 30
0.0
 11
160.661472
 21
-34.5
 31
0.0
  0
LINE
  5
4FC
330
4F3
100
AcDbEntity
  8
LC-003-005-----0
 62
     7
370
    25
100
AcDbLine
 10
157.661472
 20
-34.671572
 30
0.0
 11
160.661472
 21
-31.671572
 31
0.0
  0
LINE
  5
4FD
330
4F3
100
AcDbEntity
  8
LC-003-005-----0
 62
     7
370
    25
100
AcDbLine
 10
157.661472
 20
-31.843145
 30
0.0
 11
160.661472
 21
-28.843145
 31
0.0
  0
LINE
  5
4FE
330
4F3
100
AcDbEntity
  8
LC-003-005-----0
 62
     7
370
    25
100
AcDbLine
 10
157.661472
 20
-29.014718
 30
0.0
 11
160.661472
 21
-26.014718
 31
0.0
  0
LINE
  5
4FF
330
4F3
100
AcDbEntity
  8
LC-003-005-----0
 62
     7
370
    25
100
AcDbLine
 10
157.661472
 20
-26.186291
 30
0.0
 11
160.661472
 21
-23.186291
 31
0.0
  0
LINE
  5
500
330
4F3
100
AcDbEntity
  8
LC-003-005-----0
 62
     7
370
    25
100
AcDbLine
 10
157.661472
 20
-23.357864
 30
0.0
 11
160.661472
 21
-20.357864
 31
0.0
  0
LINE
  5
501
330
4F3
100
AcDbEntity
  8
LC-003-005-----0
 62
     7
370
    25
100
AcDbLine
 10
157.661472
 20
-20.529437
 30
0.0
 11
160.661472
 21
-17.529437
 31
0.0
  0
LINE
  5
502
330
4F3
100
AcDbEntity
  8
LC-003-005-----0
 62
     7
370
    25
100
AcDbLine
 10
157.661472
 20
-17.70101
 30
0.0
 11
160.661472
 21
-14.70101
 31
0.0
  0
LINE
  5
503
330
4F3
100
AcDbEntity
  8
LC-003-005-----0
 62
     7
370
    25
100
AcDbLine
 10
157.661472
 20
-14.872583
 30
0.0
 11
160.661472
 21
-11.872583
 31
0.0
  0
LINE
  5
504
330
4F3
100
AcDbEntity
  8
LC-003-005-----0
 62
     7
370
    25
100
AcDbLine
 10
157.661472
 20
-12.044155
 30
0.0
 11
160.661472
 21
-9.044155
 31
0.0
  0
LINE
  5
505
330
4F3
100
AcDbEntity
  8
LC-003-005-----0
 62
     7
370
    25
100
AcDbLine
 10
157.661472
 20
-9.215728
 30
0.0
 11
160.661472
 21
-6.215728
 31
0.0
  0
LINE
  5
506
330
4F3
100
AcDbEntity
  8
LC-003-005-----0
 62
     7
370
    25
100
AcDbLine
 10
157.661472
 20
-6.387301
 30
0.0
 11
160.661472
 21
-3.387301
 31
0.0
  0
LINE
  5
507
330
4F3
100
AcDbEntity
  8
LC-003-005-----0
 62
     7
370
    25
100
AcDbLine
 10
157.661472
 20
-3.558874
 30
0.0
 11
160.661472
 21
-0.558874
 31
0.0
  0
LINE
  5
508
330
4F3
100
AcDbEntity
  8
LC-003-005-----0
 62
     7
370
    25
100
AcDbLine
 10
157.661472
 20
-0.730447
 30
0.0
 11
160.661472
 21
2.269553
 31
0.0
  0
LINE
  5
509
330
4F3
100
AcDbEntity
  8
LC-003-005-----0
 62
     7
370
    25
100
AcDbLine
 10
157.661472
 20
2.09798
 30
0.0
 11
160.661472
 21
5.09798
 31
0.0
  0
LINE
  5
50A
330
4F3
100
AcDbEntity
  8
LC-003-005-----0
 62
     7
370
    25
100
AcDbLine
 10
157.661472
 20
4.926407
 30
0.0
 11
160.661472
 21
7.926407
 31
0.0
  0
LINE
  5
50B
330
4F3
100
AcDbEntity
  8
LC-003-005-----0
 62
     7
370
    25
100
AcDbLine
 10
157.661472
 20
7.754834
 30
0.0
 11
160.661472
 21
10.754834
 31
0.0
  0
LINE
  5
50C
330
4F3
100
AcDbEntity
  8
LC-003-005-----0
 62
     7
370
    25
100
AcDbLine
 10
157.661472
 20
10.583262
 30
0.0
 11
160.661472
 21
13.583262
 31
0.0
  0
LINE
  5
50D
330
4F3
100
AcDbEntity
  8
LC-003-005-----0
 62
     7
370
    25
100
AcDbLine
 10
157.661472
 20
13.411689
 30
0.0
 11
160.661472
 21
16.411689
 31
0.0
  0
LINE
  5
50E
330
4F3
100
AcDbEntity
  8
LC-003-005-----0
 62
     7
370
    25
100
AcDbLine
 10
157.661472
 20
16.240116
 30
0.0
 11
160.661472
 21
19.240116
 31
0.0
  0
LINE
  5
50F
330
4F3
100
AcDbEntity
  8
LC-003-005-----0
 62
     7
370
    25
100
AcDbLine
 10
157.661472
 20
19.068543
 30
0.0
 11
160.661472
 21
22.068543
 31
0.0
  0
LINE
  5
510
330
4F3
100
AcDbEntity
  8
LC-003-005-----0
 62
     7
370
    25
100
AcDbLine
 10
157.661472
 20
21.89697
 30
0.0
 11
160.661472
 21
24.89697
 31
0.0
  0
LINE
  5
511
330
4F3
100
AcDbEntity
  8
LC-003-005-----0
 62
     7
370
    25
100
AcDbLine
 10
157.661472
 20
24.725397
 30
0.0
 11
160.661472
 21
27.725397
 31
0.0
  0
LINE
  5
512
330
4F3
100
AcDbEntity
  8
LC-003-005-----0
 62
     7
370
    25
100
AcDbLine
 10
157.661472
 20
27.553824
 30
0.0
 11
160.661472
 21
30.553824
 31
0.0
  0
LINE
  5
513
330
4F3
100
AcDbEntity
  8
LC-003-005-----0
 62
     7
370
    25
100
AcDbLine
 10
157.661472
 20
30.382251
 30
0.0
 11
160.661472
 21
33.382251
 31
0.0
  0
LINE
  5
514
330
4F3
100
AcDbEntity
  8
LC-003-005-----0
 62
     7
370
    25
100
AcDbLine
 10
157.661472
 20
33.210679
 30
0.0
 11
160.661472
 21
36.210679
 31
0.0
  0
LINE
  5
515
330
4F3
100
AcDbEntity
  8
LC-003-005-----0
 62
     7
370
    25
100
AcDbLine
 10
157.661472
 20
36.039106
 30
0.0
 11
160.661472
 21
39.039106
 31
0.0
  0
LINE
  5
516
330
4F3
100
AcDbEntity
  8
LC-003-005-----0
 62
     7
370
    25
100
AcDbLine
 10
157.661472
 20
38.867533
 30
0.0
 11
160.661472
 21
41.867533
 31
0.0
  0
LINE
  5
517
330
4F3
100
AcDbEntity
  8
LC-003-005-----0
 62
     7
370
    25
100
AcDbLine
 10
157.661472
 20
41.69596
 30
0.0
 11
160.661472
 21
44.69596
 31
0.0
  0
LINE
  5
518
330
4F3
100
AcDbEntity
  8
LC-003-005-----0
 62
     7
370
    25
100
AcDbLine
 10
157.661472
 20
44.524387
 30
0.0
 11
160.661472
 21
47.524387
 31
0.0
  0
LINE
  5
519
330
4F3
100
AcDbEntity
  8
LC-003-005-----0
 62
     7
370
    25
100
AcDbLine
 10
157.661472
 20
47.352814
 30
0.0
 11
160.661472
 21
50.352814
 31
0.0
  0
LINE
  5
51A
330
4F3
100
AcDbEntity
  8
LC-003-005-----0
 62
     7
370
    25
100
AcDbLine
 10
157.661472
 20
50.181241
 30
0.0
 11
160.661472
 21
53.181241
 31
0.0
  0
LINE
  5
51B
330
4F3
100
AcDbEntity
  8
LC-003-005-----0
 62
     7
370
    25
100
AcDbLine
 10
157.661472
 20
53.009668
 30
0.0
 11
160.661472
 21
56.009668
 31
0.0
  0
LINE
  5
51C
330
4F3
100
AcDbEntity
  8
LC-003-005-----0
 62
     7
370
    25
100
AcDbLine
 10
157.661472
 20
55.838096
 30
0.0
 11
160.661472
 21
58.838096
 31
0.0
  0
LINE
  5
51D
330
4F3
100
AcDbEntity
  8
LC-003-005-----0
 62
     7
370
    25
100
AcDbLine
 10
157.661472
 20
58.666523
 30
0.0
 11
160.661472
 21
61.666523
 31
0.0
  0
LINE
  5
51E
330
4F3
100
AcDbEntity
  8
LC-003-005-----0
 62
     7
370
    25
100
AcDbLine
 10
157.661472
 20
61.49495
 30
0.0
 11
160.661472
 21
64.49495
 31
0.0
  0
LINE
  5
51F
330
4F3
100
AcDbEntity
  8
LC-003-005-----0
 62
     7
370
    25
100
AcDbLine
 10
157.661472
 20
64.323377
 30
0.0
 11
160.661472
 21
67.323377
 31
0.0
  0
LINE
  5
520
330
4F3
100
AcDbEntity
  8
LC-003-005-----0
 62
     7
370
    25
100
AcDbLine
 10
157.661472
 20
67.151804
 30
0.0
 11
160.661472
 21
70.151804
 31
0.0
  0
LINE
  5
521
330
4F3
100
AcDbEntity
  8
LC-003-005-----0
 62
     7
370
    25
100
AcDbLine
 10
157.661472
 20
69.980231
 30
0.0
 11
160.661472
 21
72.980231
 31
0.0
  0
LINE
  5
522
330
4F3
100
AcDbEntity
  8
LC-003-005-----0
 62
     7
370
    25
100
AcDbLine
 10
157.661472
 20
72.808658
 30
0.0
 11
160.661472
 21
75.808658
 31
0.0
  0
LINE
  5
523
330
4F3
100
AcDbEntity
  8
LC-003-005-----0
 62
     7
370
    25
100
AcDbLine
 10
157.661472
 20
75.637085
 30
0.0
 11
160.661472
 21
78.637085
 31
0.0
  0
LINE
  5
524
330
4F3
100
AcDbEntity
  8
LC-003-005-----0
 62
     7
370
    25
100
AcDbLine
 10
157.661472
 20
78.465513
 30
0.0
 11
160.661472
 21
81.465513
 31
0.0
  0
LINE
  5
525
330
4F3
100
AcDbEntity
  8
LC-003-005-----0
 62
     7
370
    25
100
AcDbLine
 10
157.661472
 20
81.29394
 30
0.0
 11
160.661472
 21
84.29394
 31
0.0
  0
LINE
  5
526
330
4F3
100
AcDbEntity
  8
LC-003-005-----0
 62
     7
370
    25
100
AcDbLine
 10
157.661472
 20
84.122367
 30
0.0
 11
160.661472
 21
87.122367
 31
0.0
  0
LINE
  5
527
330
4F3
100
AcDbEntity
  8
LC-003-005-----0
 62
     7
370
    25
100
AcDbLine
 10
157.661472
 20
86.950794
 30
0.0
 11
160.661472
 21
89.950794
 31
0.0
  0
LINE
  5
528
330
4F3
100
AcDbEntity
  8
LC-003-005-----0
 62
     7
370
    25
100
AcDbLine
 10
157.661472
 20
89.779221
 30
0.0
 11
160.661472
 21
92.779221
 31
0.0
  0
LINE
  5
529
330
4F3
100
AcDbEntity
  8
LC-003-005-----0
 62
     7
370
    25
100
AcDbLine
 10
157.661472
 20
92.607648
 30
0.0
 11
160.661472
 21
95.607648
 31
0.0
  0
LINE
  5
52A
330
4F3
100
AcDbEntity
  8
LC-003-005-----0
 62
     7
370
    25
100
AcDbLine
 10
157.661472
 20
95.436075
 30
0.0
 11
160.661472
 21
98.436075
 31
0.0
  0
LINE
  5
52B
330
4F3
100
AcDbEntity
  8
LC-003-005-----0
 62
     7
370
    25
100
AcDbLine
 10
157.661472
 20
98.264502
 30
0.0
 11
160.661472
 21
101.264502
 31
0.0
  0
LINE
  5
52C
330
4F3
100
AcDbEntity
  8
LC-003-005-----0
 62
     7
370
    25
100
AcDbLine
 10
157.661472
 20
101.09293
 30
0.0
 11
160.661472
 21
104.09293
 31
0.0
  0
LINE
  5
52D
330
4F3
100
AcDbEntity
  8
LC-003-005-----0
 62
     7
370
    25
100
AcDbLine
 10
157.661472
 20
103.921357
 30
0.0
 11
160.661472
 21
106.921357
 31
0.0
  0
LINE
  5
52E
330
4F3
100
AcDbEntity
  8
LC-003-005-----0
 62
     7
370
    25
100
AcDbLine
 10
157.661472
 20
106.749784
 30
0.0
 11
160.661472
 21
109.749784
 31
0.0
  0
LINE
  5
52F
330
4F3
100
AcDbEntity
  8
LC-003-005-----0
 62
     7
370
    25
100
AcDbLine
 10
157.661472
 20
109.578211
 30
0.0
 11
160.661472
 21
112.578211
 31
0.0
  0
LINE
  5
530
330
4F3
100
AcDbEntity
  8
LC-003-005-----0
 62
     7
370
    25
100
AcDbLine
 10
157.661472
 20
112.406638
 30
0.0
 11
160.661472
 21
115.406638
 31
0.0
  0
LINE
  5
531
330
4F3
100
AcDbEntity
  8
LC-003-005-----0
 62
     7
370
    25
100
AcDbLine
 10
157.661472
 20
115.235065
 30
0.0
 11
160.661472
 21
118.235065
 31
0.0
  0
LINE
  5
532
330
4F3
100
AcDbEntity
  8
LC-003-005-----0
 62
     7
370
    25
100
AcDbLine
 10
157.661472
 20
118.063492
 30
0.0
 11
160.661472
 21
121.063492
 31
0.0
  0
LINE
  5
533
330
4F3
100
AcDbEntity
  8
LC-003-005-----0
 62
     7
370
    25
100
AcDbLine
 10
157.661472
 20
120.891919
 30
0.0
 11
160.661472
 21
123.891919
 31
0.0
  0
LINE
  5
534
330
4F3
100
AcDbEntity
  8
LC-003-005-----0
 62
     7
370
    25
100
AcDbLine
 10
157.661472
 20
123.720347
 30
0.0
 11
160.661472
 21
126.720347
 31
0.0
  0
LINE
  5
535
330
4F3
100
AcDbEntity
  8
LC-003-005-----0
 62
     7
370
    25
100
AcDbLine
 10
157.661472
 20
126.548774
 30
0.0
 11
160.661472
 21
129.548774
 31
0.0
  0
LINE
  5
536
330
4F3
100
AcDbEntity
  8
LC-003-005-----0
 62
     7
370
    25
100
AcDbLine
 10
157.661472
 20
129.377201
 30
0.0
 11
160.661472
 21
132.377201
 31
0.0
  0
LINE
  5
537
330
4F3
100
AcDbEntity
  8
LC-003-005-----0
 62
     7
370
    25
100
AcDbLine
 10
157.661472
 20
132.205628
 30
0.0
 11
160.661472
 21
135.205628
 31
0.0
  0
LINE
  5
538
330
4F3
100
AcDbEntity
  8
LC-003-005-----0
 62
     7
370
    25
100
AcDbLine
 10
157.661472
 20
135.034055
 30
0.0
 11
160.661472
 21
138.034055
 31
0.0
  0
LINE
  5
539
330
4F3
100
AcDbEntity
  8
LC-003-005-----0
 62
     7
370
    25
100
AcDbLine
 10
157.661472
 20
137.862482
 30
0.0
 11
160.661472
 21
140.862482
 31
0.0
  0
LINE
  5
53A
330
4F3
100
AcDbEntity
  8
LC-003-005-----0
 62
     7
370
    25
100
AcDbLine
 10
157.661472
 20
140.690909
 30
0.0
 11
160.661472
 21
143.690909
 31
0.0
  0
LINE
  5
53B
330
4F3
100
AcDbEntity
  8
LC-003-005-----0
 62
     7
370
    25
100
AcDbLine
 10
308.0256
 20
291.055038
 30
0.0
 11
309.582402
 21
292.611839
 31
0.0
  0
LINE
  5
53C
330
4F3
100
AcDbEntity
  8
LC-003-005-----0
 62
     7
370
    25
100
AcDbLine
 10
157.661472
 20
143.519336
 30
0.0
 11
160.661472
 21
146.519336
 31
0.0
  0
LINE
  5
53D
330
4F3
100
AcDbEntity
  8
LC-003-005-----0
 62
     7
370
    25
100
AcDbLine
 10
305.197173
 20
291.055038
 30
0.0
 11
308.139264
 21
293.997128
 31
0.0
  0
LINE
  5
53E
330
4F3
100
AcDbEntity
  8
LC-003-005-----0
 62
     7
370
    25
100
AcDbLine
 10
157.661472
 20
146.347764
 30
0.0
 11
160.661472
 21
149.347764
 31
0.0
  0
LINE
  5
53F
330
4F3
100
AcDbEntity
  8
LC-003-005-----0
 62
     7
370
    25
100
AcDbLine
 10
302.368746
 20
291.055038
 30
0.0
 11
305.368746
 21
294.055038
 31
0.0
  0
LINE
  5
540
330
4F3
100
AcDbEntity
  8
LC-003-005-----0
 62
     7
370
    25
100
AcDbLine
 10
157.661472
 20
149.176191
 30
0.0
 11
160.661472
 21
152.176191
 31
0.0
  0
LINE
  5
541
330
4F3
100
AcDbEntity
  8
LC-003-005-----0
 62
     7
370
    25
100
AcDbLine
 10
299.540319
 20
291.055038
 30
0.0
 11
302.540319
 21
294.055038
 31
0.0
  0
LINE
  5
542
330
4F3
100
AcDbEntity
  8
LC-003-005-----0
 62
     7
370
    25
100
AcDbLine
 10
157.661472
 20
152.004618
 30
0.0
 11
160.661472
 21
155.004618
 31
0.0
  0
LINE
  5
543
330
4F3
100
AcDbEntity
  8
LC-003-005-----0
 62
     7
370
    25
100
AcDbLine
 10
296.711892
 20
291.055038
 30
0.0
 11
299.711892
 21
294.055038
 31
0.0
  0
LINE
  5
544
330
4F3
100
AcDbEntity
  8
LC-003-005-----0
 62
     7
370
    25
100
AcDbLine
 10
157.661472
 20
154.833045
 30
0.0
 11
160.661472
 21
157.833045
 31
0.0
  0
LINE
  5
545
330
4F3
100
AcDbEntity
  8
LC-003-005-----0
 62
     7
370
    25
100
AcDbLine
 10
293.883465
 20
291.055038
 30
0.0
 11
296.883465
 21
294.055038
 31
0.0
  0
LINE
  5
546
330
4F3
100
AcDbEntity
  8
LC-003-005-----0
 62
     7
370
    25
100
AcDbLine
 10
157.661472
 20
157.661472
 30
0.0
 11
160.661472
 21
160.661472
 31
0.0
  0
LINE
  5
547
330
4F3
100
AcDbEntity
  8
LC-003-005-----0
 62
     7
370
    25
100
AcDbLine
 10
291.055038
 20
291.055038
 30
0.0
 11
294.055038
 21
294.055038
 31
0.0
  0
LINE
  5
548
330
4F3
100
AcDbEntity
  8
LC-003-005-----0
 62
     7
370
    25
100
AcDbLine
 10
157.661472
 20
160.489899
 30
0.0
 11
160.661472
 21
163.489899
 31
0.0
  0
LINE
  5
549
330
4F3
100
AcDbEntity
  8
LC-003-005-----0
 62
     7
370
    25
100
AcDbLine
 10
288.226611
 20
291.055038
 30
0.0
 11
291.226611
 21
294.055038
 31
0.0
  0
LINE
  5
54A
330
4F3
100
AcDbEntity
  8
LC-003-005-----0
 62
     7
370
    25
100
AcDbLine
 10
157.661472
 20
163.318326
 30
0.0
 11
160.661472
 21
166.318326
 31
0.0
  0
LINE
  5
54B
330
4F3
100
AcDbEntity
  8
LC-003-005-----0
 62
     7
370
    25
100
AcDbLine
 10
285.398183
 20
291.055038
 30
0.0
 11
288.398183
 21
294.055038
 31
0.0
  0
LINE
  5
54C
330
4F3
100
AcDbEntity
  8
LC-003-005-----0
 62
     7
370
    25
100
AcDbLine
 10
157.661472
 20
166.146753
 30
0.0
 11
160.661472
 21
169.146753
 31
0.0
  0
LINE
  5
54D
330
4F3
100
AcDbEntity
  8
LC-003-005-----0
 62
     7
370
    25
100
AcDbLine
 10
282.569756
 20
291.055038
 30
0.0
 11
285.569756
 21
294.055038
 31
0.0
  0
LINE
  5
54E
330
4F3
100
AcDbEntity
  8
LC-003-005-----0
 62
     7
370
    25
100
AcDbLine
 10
157.661472
 20
168.975181
 30
0.0
 11
160.661472
 21
171.975181
 31
0.0
  0
LINE
  5
54F
330
4F3
100
AcDbEntity
  8
LC-003-005-----0
 62
     7
370
    25
100
AcDbLine
 10
279.741329
 20
291.055038
 30
0.0
 11
282.741329
 21
294.055038
 31
0.0
  0
LINE
  5
550
330
4F3
100
AcDbEntity
  8
LC-003-005-----0
 62
     7
370
    25
100
AcDbLine
 10
157.661472
 20
171.803608
 30
0.0
 11
160.661472
 21
174.803608
 31
0.0
  0
LINE
  5
551
330
4F3
100
AcDbEntity
  8
LC-003-005-----0
 62
     7
370
    25
100
AcDbLine
 10
276.912902
 20
291.055038
 30
0.0
 11
279.912902
 21
294.055038
 31
0.0
  0
LINE
  5
552
330
4F3
100
AcDbEntity
  8
LC-003-005-----0
 62
     7
370
    25
100
AcDbLine
 10
157.661472
 20
174.632035
 30
0.0
 11
160.661472
 21
177.632035
 31
0.0
  0
LINE
  5
553
330
4F3
100
AcDbEntity
  8
LC-003-005-----0
 62
     7
370
    25
100
AcDbLine
 10
274.084475
 20
291.055038
 30
0.0
 11
277.084475
 21
294.055038
 31
0.0
  0
LINE
  5
554
330
4F3
100
AcDbEntity
  8
LC-003-005-----0
 62
     7
370
    25
100
AcDbLine
 10
157.661472
 20
177.460462
 30
0.0
 11
160.661472
 21
180.460462
 31
0.0
  0
LINE
  5
555
330
4F3
100
AcDbEntity
  8
LC-003-005-----0
 62
     7
370
    25
100
AcDbLine
 10
271.256048
 20
291.055038
 30
0.0
 11
274.256048
 21
294.055038
 31
0.0
  0
LINE
  5
556
330
4F3
100
AcDbEntity
  8
LC-003-005-----0
 62
     7
370
    25
100
AcDbLine
 10
157.661472
 20
180.288889
 30
0.0
 11
160.661472
 21
183.288889
 31
0.0
  0
LINE
  5
557
330
4F3
100
AcDbEntity
  8
LC-003-005-----0
 62
     7
370
    25
100
AcDbLine
 10
268.427621
 20
291.055038
 30
0.0
 11
271.427621
 21
294.055038
 31
0.0
  0
LINE
  5
558
330
4F3
100
AcDbEntity
  8
LC-003-005-----0
 62
     7
370
    25
100
AcDbLine
 10
157.661472
 20
183.117316
 30
0.0
 11
160.661472
 21
186.117316
 31
0.0
  0
LINE
  5
559
330
4F3
100
AcDbEntity
  8
LC-003-005-----0
 62
     7
370
    25
100
AcDbLine
 10
265.599194
 20
291.055038
 30
0.0
 11
268.599194
 21
294.055038
 31
0.0
  0
LINE
  5
55A
330
4F3
100
AcDbEntity
  8
LC-003-005-----0
 62
     7
370
    25
100
AcDbLine
 10
157.661472
 20
185.945743
 30
0.0
 11
160.661472
 21
188.945743
 31
0.0
  0
LINE
  5
55B
330
4F3
100
AcDbEntity
  8
LC-003-005-----0
 62
     7
370
    25
100
AcDbLine
 10
262.770766
 20
291.055038
 30
0.0
 11
265.770766
 21
294.055038
 31
0.0
  0
LINE
  5
55C
330
4F3
100
AcDbEntity
  8
LC-003-005-----0
 62
     7
370
    25
100
AcDbLine
 10
157.661472
 20
188.77417
 30
0.0
 11
160.661472
 21
191.77417
 31
0.0
  0
LINE
  5
55D
330
4F3
100
AcDbEntity
  8
LC-003-005-----0
 62
     7
370
    25
100
AcDbLine
 10
228.183546
 20
259.296245
 30
0.0
 11
229.664923
 21
260.777621
 31
0.0
  0
LINE
  5
55E
330
4F3
100
AcDbEntity
  8
LC-003-005-----0
 62
     7
370
    25
100
AcDbLine
 10
259.521749
 20
290.634448
 30
0.0
 11
262.942339
 21
294.055038
 31
0.0
  0
LINE
  5
55F
330
4F3
100
AcDbEntity
  8
LC-003-005-----0
 62
     7
370
    25
100
AcDbLine
 10
157.661472
 20
191.602598
 30
0.0
 11
160.661472
 21
194.602598
 31
0.0
  0
LINE
  5
560
330
4F3
100
AcDbEntity
  8
LC-003-005-----0
 62
     7
370
    25
100
AcDbLine
 10
225.355131
 20
259.296257
 30
0.0
 11
229.664935
 21
263.60606
 31
0.0
  0
LINE
  5
561
330
4F3
100
AcDbEntity
  8
LC-003-005-----0
 62
     7
370
    25
100
AcDbLine
 10
255.074779
 20
289.015905
 30
0.0
 11
259.948407
 21
293.889533
 31
0.0
  0
LINE
  5
562
330
4F3
100
AcDbEntity
  8
LC-003-005-----0
 62
     7
370
    25
100
AcDbLine
 10
157.661472
 20
194.431025
 30
0.0
 11
160.661472
 21
197.431025
 31
0.0
  0
LINE
  5
563
330
4F3
100
AcDbEntity
  8
LC-003-005-----0
 62
     7
370
    25
100
AcDbLine
 10
223.664921
 20
260.434474
 30
0.0
 11
232.66658
 21
269.436133
 31
0.0
  0
LINE
  5
564
330
4F3
100
AcDbEntity
  8
LC-003-005-----0
 62
     7
370
    25
100
AcDbLine
 10
250.627809
 20
287.397362
 30
0.0
 11
255.501437
 21
292.27099
 31
0.0
  0
LINE
  5
565
330
4F3
100
AcDbEntity
  8
LC-003-005-----0
 62
     7
370
    25
100
AcDbLine
 10
157.661472
 20
197.259452
 30
0.0
 11
163.172464
 21
202.770444
 31
0.0
  0
LINE
  5
566
330
4F3
100
AcDbEntity
  8
LC-003-005-----0
 62
     7
370
    25
100
AcDbLine
 10
210.507384
 20
250.105364
 30
0.0
 11
213.409939
 21
253.007918
 31
0.0
  0
LINE
  5
567
330
4F3
100
AcDbEntity
  8
LC-003-005-----0
 62
     7
370
    25
100
AcDbLine
 10
223.664933
 20
263.262913
 30
0.0
 11
232.666597
 21
272.264577
 31
0.0
  0
LINE
  5
568
330
4F3
100
AcDbEntity
  8
LC-003-005-----0
 62
     7
370
    25
100
AcDbLine
 10
246.180839
 20
285.778819
 30
0.0
 11
251.054467
 21
290.652447
 31
0.0
  0
LINE
  5
569
330
4F3
100
AcDbEntity
  8
LC-003-005-----0
 62
     7
370
    25
100
AcDbLine
 10
157.899586
 20
200.325993
 30
0.0
 11
169.068994
 21
211.495401
 31
0.0
  0
LINE
  5
56A
330
4F3
100
AcDbEntity
  8
LC-003-005-----0
 62
     7
370
    25
100
AcDbLine
 10
207.677423
 20
250.10383
 30
0.0
 11
213.411472
 21
255.837879
 31
0.0
  0
LINE
  5
56B
330
4F3
100
AcDbEntity
  8
LC-003-005-----0
 62
     7
370
    25
100
AcDbLine
 10
223.664946
 20
266.091353
 30
0.0
 11
232.666614
 21
275.093021
 31
0.0
  0
LINE
  5
56C
330
4F3
100
AcDbEntity
  8
LC-003-005-----0
 62
     7
370
    25
100
AcDbLine
 10
241.733869
 20
284.160276
 30
0.0
 11
246.607497
 21
289.033904
 31
0.0
  0
LINE
  5
56D
330
4F3
100
AcDbEntity
  8
LC-003-005-----0
 62
     7
370
    25
100
AcDbLine
 10
163.796116
 20
209.05095
 30
0.0
 11
174.965523
 21
220.220357
 31
0.0
  0
LINE
  5
56E
330
4F3
100
AcDbEntity
  8
LC-003-005-----0
 62
     7
370
    25
100
AcDbLine
 10
204.848996
 20
250.10383
 30
0.0
 11
207.848996
 21
253.10383
 31
0.0
  0
LINE
  5
56F
330
4F3
100
AcDbEntity
  8
LC-003-005-----0
 62
     7
370
    25
100
AcDbLine
 10
210.411472
 20
255.666306
 30
0.0
 11
213.411472
 21
258.666306
 31
0.0
  0
LINE
  5
570
330
4F3
100
AcDbEntity
  8
LC-003-005-----0
 62
     7
370
    25
100
AcDbLine
 10
222.04152
 20
267.296354
 30
0.0
 11
227.542462
 21
272.797296
 31
0.0
  0
LINE
  5
571
330
4F3
100
AcDbEntity
  8
LC-003-005-----0
 62
     7
370
    25
100
AcDbLine
 10
229.415666
 20
274.6705
 30
0.0
 11
232.666631
 21
277.921465
 31
0.0
  0
LINE
  5
572
330
4F3
100
AcDbEntity
  8
LC-003-005-----0
 62
     7
370
    25
100
AcDbLine
 10
237.286899
 20
282.541733
 30
0.0
 11
242.160527
 21
287.415361
 31
0.0
  0
LINE
  5
573
330
4F3
100
AcDbEntity
  8
LC-003-005-----0
 62
     7
370
    25
100
AcDbLine
 10
169.692645
 20
217.775906
 30
0.0
 11
180.862053
 21
228.945314
 31
0.0
  0
LINE
  5
574
330
4F3
100
AcDbEntity
  8
LC-003-005-----0
 62
     7
370
    25
100
AcDbLine
 10
202.020569
 20
250.10383
 30
0.0
 11
205.020569
 21
253.10383
 31
0.0
  0
LINE
  5
575
330
4F3
100
AcDbEntity
  8
LC-003-005-----0
 62
     7
370
    25
100
AcDbLine
 10
210.411472
 20
258.494733
 30
0.0
 11
213.411472
 21
261.494733
 31
0.0
  0
LINE
  5
576
330
4F3
100
AcDbEntity
  8
LC-003-005-----0
 62
     7
370
    25
100
AcDbLine
 10
217.471777
 20
265.555038
 30
0.0
 11
218.161473
 21
266.244734
 31
0.0
  0
LINE
  5
577
330
4F3
100
AcDbEntity
  8
LC-003-005-----0
 62
     7
370
    25
100
AcDbLine
 10
220.663607
 20
268.746868
 30
0.0
 11
224.71431
 21
272.797571
 31
0.0
  0
LINE
  5
578
330
4F3
100
AcDbEntity
  8
LC-003-005-----0
 62
     7
370
    25
100
AcDbLine
 10
229.41594
 20
277.499201
 30
0.0
 11
232.666648
 21
280.74991
 31
0.0
  0
LINE
  5
579
330
4F3
100
AcDbEntity
  8
LC-003-005-----0
 62
     7
370
    25
100
AcDbLine
 10
234.213388
 20
282.296649
 30
0.0
 11
237.713557
 21
285.796818
 31
0.0
  0
LINE
  5
57A
330
4F3
100
AcDbEntity
  8
LC-003-005-----0
 62
     7
370
    25
100
AcDbLine
 10
175.589174
 20
226.500863
 30
0.0
 11
186.758582
 21
237.67027
 31
0.0
  0
LINE
  5
57B
330
4F3
100
AcDbEntity
  8
LC-003-005-----0
 62
     7
370
    25
100
AcDbLine
 10
199.192142
 20
250.10383
 30
0.0
 11
202.192142
 21
253.10383
 31
0.0
  0
LINE
  5
57C
330
4F3
100
AcDbEntity
  8
LC-003-005-----0
 62
     7
370
    25
100
AcDbLine
 10
210.411472
 20
261.32316
 30
0.0
 11
213.411472
 21
264.32316
 31
0.0
  0
LINE
  5
57D
330
4F3
100
AcDbEntity
  8
LC-003-005-----0
 62
     7
370
    25
100
AcDbLine
 10
214.643349
 20
265.555038
 30
0.0
 11
218.161473
 21
269.073161
 31
0.0
  0
LINE
  5
57E
330
4F3
100
AcDbEntity
  8
LC-003-005-----0
 62
     7
370
    25
100
AcDbLine
 10
220.664138
 20
271.575827
 30
0.0
 11
223.915681
 21
274.827369
 31
0.0
  0
LINE
  5
57F
330
4F3
100
AcDbEntity
  8
LC-003-005-----0
 62
     7
370
    25
100
AcDbLine
 10
229.416214
 20
280.327903
 30
0.0
 11
234.386984
 21
285.298672
 31
0.0
  0
LINE
  5
580
330
4F3
100
AcDbEntity
  8
LC-003-005-----0
 62
     7
370
    25
100
AcDbLine
 10
181.485704
 20
235.225819
 30
0.0
 11
192.655111
 21
246.395227
 31
0.0
  0
LINE
  5
581
330
4F3
100
AcDbEntity
  8
LC-003-005-----0
 62
     7
370
    25
100
AcDbLine
 10
196.363715
 20
250.10383
 30
0.0
 11
199.363715
 21
253.10383
 31
0.0
  0
LINE
  5
582
330
4F3
100
AcDbEntity
  8
LC-003-005-----0
 62
     7
370
    25
100
AcDbLine
 10
210.411472
 20
264.151587
 30
0.0
 11
214.814922
 21
268.555038
 31
0.0
  0
LINE
  5
583
330
4F3
100
AcDbEntity
  8
LC-003-005-----0
 62
     7
370
    25
100
AcDbLine
 10
215.161473
 20
268.901588
 30
0.0
 11
218.161473
 21
271.901588
 31
0.0
  0
LINE
  5
584
330
4F3
100
AcDbEntity
  8
LC-003-005-----0
 62
     7
370
    25
100
AcDbLine
 10
220.66467
 20
274.404785
 30
0.0
 11
223.915955
 21
277.656071
 31
0.0
  0
LINE
  5
585
330
4F3
100
AcDbEntity
  8
LC-003-005-----0
 62
     7
370
    25
100
AcDbLine
 10
229.821824
 20
283.561939
 30
0.0
 11
231.55767
 21
285.297786
 31
0.0
  0
LINE
  5
586
330
4F3
100
AcDbEntity
  8
LC-003-005-----0
 62
     7
370
    25
100
AcDbLine
 10
187.382233
 20
243.950776
 30
0.0
 11
196.535287
 21
253.10383
 31
0.0
  0
LINE
  5
587
330
4F3
100
AcDbEntity
  8
LC-003-005-----0
 62
     7
370
    25
100
AcDbLine
 10
210.411472
 20
266.980015
 30
0.0
 11
211.986495
 21
268.555038
 31
0.0
  0
LINE
  5
588
330
4F3
100
AcDbEntity
  8
LC-003-005-----0
 62
     7
370
    25
100
AcDbLine
 10
215.161473
 20
271.730016
 30
0.0
 11
218.161473
 21
274.730016
 31
0.0
  0
LINE
  5
589
330
4F3
100
AcDbEntity
  8
LC-003-005-----0
 62
     7
370
    25
100
AcDbLine
 10
220.665202
 20
277.233744
 30
0.0
 11
223.91623
 21
280.484772
 31
0.0
  0
LINE
  5
58A
330
4F3
100
AcDbEntity
  8
LC-003-005-----0
 62
     7
370
    25
100
AcDbLine
 10
193.278763
 20
252.675732
 30
0.0
 11
193.70686
 21
253.10383
 31
0.0
  0
LINE
  5
58B
330
4F3
100
AcDbEntity
  8
LC-003-005-----0
 62
     7
370
    25
100
AcDbLine
 10
215.161473
 20
274.558443
 30
0.0
 11
218.161473
 21
277.558443
 31
0.0
  0
LINE
  5
58C
330
4F3
100
AcDbEntity
  8
LC-003-005-----0
 62
     7
370
    25
100
AcDbLine
 10
220.665733
 20
280.062703
 30
0.0
 11
223.521796
 21
282.918766
 31
0.0
  0
LINE
  5
58D
330
4F3
100
AcDbEntity
  8
LC-003-005-----0
 62
     7
370
    25
100
AcDbLine
 10
215.161473
 20
277.38687
 30
0.0
 11
218.161473
 21
280.38687
 31
0.0
  0
LINE
  5
58E
330
4F3
100
AcDbEntity
  8
LC-003-005-----0
 62
     7
370
    25
100
AcDbLine
 10
219.870082
 20
282.095479
 30
0.0
 11
223.072334
 21
285.29773
 31
0.0
  0
LINE
  5
58F
330
4F3
100
AcDbEntity
  8
LC-003-005-----0
 62
     7
370
    25
100
AcDbLine
 10
215.161473
 20
280.215297
 30
0.0
 11
220.244181
 21
285.298005
 31
0.0
  0
LINE
  5
590
330
4F3
100
AcDbEntity
  8
LC-003-005-----0
 62
     7
370
    25
100
AcDbLine
 10
215.161473
 20
283.043724
 30
0.0
 11
217.416028
 21
285.298279
 31
0.0
  0
ENDBLK
  5
4F5
330
4F3
100
AcDbEntity
  8
0
100
AcDbBlockEnd
  0
BLOCK
  5
59E
330
593
100
AcDbEntity
  8
0
100
AcDbBlockBegin
  2
*D21
 70
     1
 71
     0
 10
0.0
 20
0.0
 30
0.0
  3
*D21
  1

  0
LINE
  5
594
330
593
100
AcDbEntity
  8
LC-005-003-----0
 62
     2
370
    -2
100
AcDbLine
 10
96.174157
 20
-37.387092
 30
0.0
 11
96.174157
 21
-132.609635
 31
0.0
  0
LINE
  5
595
330
593
100
AcDbEntity
  8
LC-005-003-----0
 62
     2
370
    -2
100
AcDbLine
 10
169.145066
 20
-37.326243
 30
0.0
 11
169.145066
 21
-132.609635
 31
0.0
  0
LINE
  5
596
330
593
100
AcDbEntity
  8
LC-005-003-----0
 62
     2
370
    -2
100
AcDbLine
 10
124.174157
 20
-129.009635
 30
0.0
 11
141.145066
 21
-129.009635
 31
0.0
  0
LINE
  5
597
330
593
100
AcDbEntity
  8
LC-005-003-----0
 62
     2
370
    -2
100
AcDbLine
 10
96.174157
 20
-129.009635
 30
0.0
 11
12.952682
 21
-129.009635
 31
0.0
  0
SOLID
  5
598
330
593
100
AcDbEntity
  8
LC-005-003-----0
 62
     2
100
AcDbTrace
 10
124.174157
 20
-124.342969
 30
0.0
 11
124.174157
 21
-133.676302
 31
0.0
 12
96.174157
 22
-129.009635
 32
0.0
 13
96.174157
 23
-129.009635
 33
0.0
  0
SOLID
  5
599
330
593
100
AcDbEntity
  8
LC-005-003-----0
 62
     2
100
AcDbTrace
 10
141.145066
 20
-133.676302
 30
0.0
 11
141.145066
 21
-124.342969
 31
0.0
 12
169.145066
 22
-129.009635
 32
0.0
 13
169.145066
 23
-129.009635
 33
0.0
  0
MTEXT
  5
59A
330
593
100
AcDbEntity
  8
LC-005-003-----0
 62
     2
100
AcDbMText
 10
50.637304
 20
-98.209635
 30
0.0
 40
28.0
 41
0.0
 71
     5
 72
     1
  1
\A1;%%c73,5
  7
LCTX15-400-0-0pDIN-Schrift
 73
     1
 44
1.0
  0
POINT
  5
59B
330
593
100
AcDbEntity
  8
Defpoints
 62
     0
100
AcDbPoint
 10
96.174157
 20
-37.387092
 30
0.0
  0
POINT
  5
59C
330
593
100
AcDbEntity
  8
Defpoints
 62
     0
100
AcDbPoint
 10
169.145066
 20
-37.326243
 30
0.0
  0
POINT
  5
59D
330
593
100
AcDbEntity
  8
Defpoints
 62
     0
100
AcDbPoint
 10
169.145066
 20
-129.009635
 30
0.0
  0
ENDBLK
  5
59F
330
593
100
AcDbEntity
  8
0
100
AcDbBlockEnd
  0
ENDSEC
  0
SECTION
  2
ENTITIES
  0
LINE
  5
32
330
1F
100
AcDbEntity
  8
LC-001-002-----0
 62
     7
370
    25
100
AcDbLine
 10
132.661472
 20
-50.944962
 30
0.0
 11
132.661472
 21
204.93
 31
0.0
  0
ARC
  5
34
102
{ACAD_REACTORS
330
5A1
102
}
330
1F
100
AcDbEntity
  8
LC-002-002-RND-0
 62
     7
370
    50
100
AcDbCircle
 10
33.156374
 20
267.796223
 30
0.0
 40
0.5000000000000066
100
AcDbArc
 50
180.000346
 51
270.000347
  0
ARC
  5
35
102
{ACAD_REACTORS
330
5A1
102
}
330
1F
100
AcDbEntity
  8
LC-002-002-RND-0
 62
     7
370
    50
100
AcDbCircle
 10
44.159516
 20
267.796396
 30
0.0
 40
0.5000000000000278
100
AcDbArc
 50
270.002776
 51
0.010765
  0
LINE
  5
36
102
{ACAD_REACTORS
330
5A6
102
}
330
1F
100
AcDbEntity
  8
LC-001-002-----0
  6
ByBlock
 62
     7
370
    50
100
AcDbLine
 10
135.96689
 20
357.340765
 30
0.0
 11
135.96689
 21
372.140765
 31
0.0
  0
LINE
  5
37
102
{ACAD_REACTORS
330
5A6
102
}
330
1F
100
AcDbEntity
  8
LC-001-002-----0
  6
ByBlock
 62
     7
370
    50
100
AcDbLine
 10
168.902453
 20
297.140705
 30
0.0
 11
161.518828
 21
331.778387
 31
0.0
  0
LINE
  5
38
102
{ACAD_REACTORS
330
5A6
102
}
330
1F
100
AcDbEntity
  8
LC-001-002-----0
  6
ByBlock
 62
     7
370
    50
100
AcDbLine
 10
149.794714
 20
297.140705
 30
0.0
 11
145.972669
 21
331.778387
 31
0.0
  0
LINE
  5
39
102
{ACAD_REACTORS
330
5A6
102
}
330
1F
100
AcDbEntity
  8
LC-001-002-----0
  6
ByBlock
 62
     7
370
    50
100
AcDbLine
 10
201.047566
 20
297.140705
 30
0.0
 11
186.783491
 21
331.778387
 31
0.0
  0
ARC
  5
3A
102
{ACAD_REACTORS
330
5A6
102
}
330
1F
100
AcDbEntity
  8
LC-002-002-RND-0
 62
     7
370
    50
100
AcDbCircle
 10
181.110162
 20
357.140704
 30
0.0
 40
15.00000000000005
100
AcDbArc
 50
20.0
 51
89.999921
  0
LINE
  5
3B
102
{ACAD_REACTORS
330
5A6
102
}
330
1F
100
AcDbEntity
  8
LC-001-002-----0
  6
ByBlock
 62
     7
370
    50
100
AcDbLine
 10
158.533116
 20
336.440705
 30
0.0
 11
154.07791
 21
357.340741
 31
0.0
  0
LINE
  5
3C
102
{ACAD_REACTORS
330
5A6
102
}
330
1F
100
AcDbEntity
  8
LC-001-002-----0
  6
ByBlock
 62
     7
370
    50
100
AcDbLine
 10
190.554126
 20
331.778387
 30
0.0
 11
132.661474
 21
331.778387
 31
0.0
  0
LINE
  5
3D
102
{ACAD_REACTORS
330
5A6
102
}
330
1F
100
AcDbEntity
  8
LC-001-002-----0
  6
ByBlock
 62
     7
370
    50
100
AcDbLine
 10
212.012967
 20
316.093011
 30
0.0
 11
195.205551
 21
362.271006
 31
0.0
  0
LINE
  5
3E
102
{ACAD_REACTORS
330
5A6
102
}
330
1F
100
AcDbEntity
  8
LC-001-002-----0
  6
ByBlock
 62
     7
370
    50
100
AcDbLine
 10
181.110182
 20
372.140704
 30
0.0
 11
131.536513
 21
372.140772
 31
0.0
  0
LINE
  5
3F
102
{ACAD_REACTORS
330
5A6
102
}
330
1F
100
AcDbEntity
  8
LC-001-002-----0
  6
ByBlock
 62
     7
370
    50
100
AcDbLine
 10
200.452282
 20
297.140705
 30
0.0
 11
186.188208
 21
331.778387
 31
0.0
  0
LINE
  5
40
102
{ACAD_REACTORS
330
5A6
102
}
330
1F
100
AcDbEntity
  8
LC-001-002-----0
  6
ByBlock
 62
     7
370
    50
100
AcDbLine
 10
203.161211
 20
297.140705
 30
0.0
 11
175.863441
 21
372.140711
 31
0.0
  0
LINE
  5
41
102
{ACAD_REACTORS
330
5A6
102
}
330
1F
100
AcDbEntity
  8
LC-001-002-----0
  6
ByBlock
 62
     7
370
    50
100
AcDbLine
 10
175.148445
 20
368.055578
 30
0.0
 11
173.661577
 21
372.140714
 31
0.0
  0
LINE
  5
42
102
{ACAD_REACTORS
330
5A6
102
}
330
1F
100
AcDbEntity
  8
LC-001-002-----0
  6
ByBlock
 62
     7
370
    50
100
AcDbLine
 10
177.50131
 20
367.640705
 30
0.0
 11
175.148445
 21
368.055578
 31
0.0
  0
LINE
  5
43
102
{ACAD_REACTORS
330
5A6
102
}
330
1F
100
AcDbEntity
  8
LC-001-002-----0
  6
ByBlock
 62
     7
370
    50
100
AcDbLine
 10
183.318782
 20
297.140705
 30
0.0
 11
172.876757
 21
331.778387
 31
0.0
  0
LINE
  5
44
102
{ACAD_REACTORS
330
5A6
102
}
330
1F
100
AcDbEntity
  8
LC-001-002-----0
  6
ByBlock
 62
     7
370
    50
100
AcDbLine
 10
194.282881
 20
297.140705
 30
0.0
 11
181.494063
 21
331.778387
 31
0.0
  0
LINE
  5
45
102
{ACAD_REACTORS
330
5A6
102
}
330
1F
100
AcDbEntity
  8
LC-001-002-----0
  6
ByBlock
 62
     7
370
    50
100
AcDbLine
 10
146.461462
 20
288.440703
 30
0.0
 11
146.461451
 21
280.440705
 31
0.0
  0
INSERT
  5
56
102
{ACAD_REACTORS
330
5A6
102
}
330
1F
100
AcDbEntity
  8
LC-003-005-----0
 62
     7
370
    25
100
AcDbBlockReference
  2
*X11
 10
0.0
 20
0.0
 30
0.0
  0
LINE
  5
57
102
{ACAD_REACTORS
330
5A6
102
}
330
1F
100
AcDbEntity
  8
LC-001-002-----0
  6
ByBlock
 62
     7
370
    50
100
AcDbLine
 10
206.561211
 20
297.140705
 30
0.0
 11
206.561175
 21
270.640705
 31
0.0
  0
LINE
  5
58
102
{ACAD_REACTORS
330
5A6
102
}
330
1F
100
AcDbEntity
  8
LC-001-002-----0
  6
ByBlock
 62
     7
370
    50
100
AcDbLine
 10
178.622657
 20
336.440705
 30
0.0
 11
170.906019
 21
357.340718
 31
0.0
  0
ARC
  5
59
102
{ACAD_REACTORS
330
5A6
102
}
330
1F
100
AcDbEntity
  8
LC-002-002-RND-0
 62
     7
370
    50
100
AcDbCircle
 10
145.461462
 20
288.440705
 30
0.0
 40
1.000000000000031
100
AcDbArc
 50
359.999921
 51
90.0
  0
LINE
  5
5A
102
{ACAD_REACTORS
330
5A6
102
}
330
1F
100
AcDbEntity
  8
LC-001-002-----0
  6
ByBlock
 62
     7
370
    50
100
AcDbLine
 10
184.863512
 20
336.440705
 30
0.0
 11
176.256723
 21
357.34071
 31
0.0
  0
LINE
  5
5B
102
{ACAD_REACTORS
330
5A6
102
}
330
1F
100
AcDbEntity
  8
LC-001-002-----0
  6
ByBlock
 62
     7
370
    50
100
AcDbLine
 10
215.054475
 20
297.140705
 30
0.0
 11
218.247042
 21
298.965029
 31
0.0
  0
ARC
  5
5C
102
{ACAD_REACTORS
330
5A6
102
}
330
1F
100
AcDbEntity
  8
LC-002-002-RND-0
 62
     7
370
    50
100
AcDbCircle
 10
145.461462
 20
288.440705
 30
0.0
 40
1.0
100
AcDbArc
 50
90.0
 51
179.999921
  0
LINE
  5
5D
102
{ACAD_REACTORS
330
5A6
102
}
330
1F
100
AcDbEntity
  8
LC-001-002-----0
  6
ByBlock
 62
     7
370
    50
100
AcDbLine
 10
181.692436
 20
297.140705
 30
0.0
 11
171.232186
 21
331.778387
 31
0.0
  0
LINE
  5
5E
102
{ACAD_REACTORS
330
5A6
102
}
330
1F
100
AcDbEntity
  8
LC-001-002-----0
  6
ByBlock
 62
     7
370
    50
100
AcDbLine
 10
145.461462
 20
289.440705
 30
0.0
 11
145.310546
 21
289.440705
 31
0.0
  0
LINE
  5
5F
102
{ACAD_REACTORS
330
5A6
102
}
330
1F
100
AcDbEntity
  8
LC-001-002-----0
  6
ByBlock
 62
     7
370
    50
100
AcDbLine
 10
179.772657
 20
336.440705
 30
0.0
 11
172.056019
 21
357.340716
 31
0.0
  0
LINE
  5
60
102
{ACAD_REACTORS
330
5A6
102
}
330
1F
100
AcDbEntity
  8
LC-001-002-----0
  6
ByBlock
 62
     7
370
    50
100
AcDbLine
 10
181.250203
 20
357.340703
 30
0.0
 11
132.661474
 21
357.34077
 31
0.0
  0
LINE
  5
61
102
{ACAD_REACTORS
330
5A6
102
}
330
1F
100
AcDbEntity
  8
LC-001-002-----0
  6
ByBlock
 62
     7
370
    50
100
AcDbLine
 10
145.458213
 20
336.440705
 30
0.0
 11
143.152027
 21
357.340756
 31
0.0
  0
LINE
  5
62
102
{ACAD_REACTORS
330
5A6
102
}
330
1F
100
AcDbEntity
  8
LC-001-002-----0
  6
ByBlock
 62
     7
370
    50
100
AcDbLine
 10
152.016343
 20
297.140705
 30
0.0
 11
148.194299
 21
331.778387
 31
0.0
  0
LINE
  5
63
102
{ACAD_REACTORS
330
5A6
102
}
330
1F
100
AcDbEntity
  8
LC-001-002-----0
  6
ByBlock
 62
     7
370
    50
100
AcDbLine
 10
184.268228
 20
336.440705
 30
0.0
 11
175.661439
 21
357.340711
 31
0.0
  0
LINE
  5
64
102
{ACAD_REACTORS
330
5A6
102
}
330
1F
100
AcDbEntity
  8
LC-001-002-----0
  6
ByBlock
 62
     7
370
    50
100
AcDbLine
 10
133.811213
 20
331.778387
 30
0.0
 11
133.811213
 21
297.140705
 31
0.0
  0
LINE
  5
65
102
{ACAD_REACTORS
330
5A6
102
}
330
1F
100
AcDbEntity
  8
LC-001-002-----0
  6
ByBlock
 62
     7
370
    50
100
AcDbLine
 10
193.132881
 20
297.140705
 30
0.0
 11
180.344064
 21
331.778387
 31
0.0
  0
LINE
  5
66
102
{ACAD_REACTORS
330
5A6
102
}
330
1F
100
AcDbEntity
  8
LC-001-002-----0
  6
ByBlock
 62
     7
370
    50
100
AcDbLine
 10
203.6612
 20
289.440705
 30
0.0
 11
203.1612
 21
289.440705
 31
0.0
  0
LINE
  5
67
102
{ACAD_REACTORS
330
5A6
102
}
330
1F
100
AcDbEntity
  8
LC-001-002-----0
  6
ByBlock
 62
     7
370
    50
100
AcDbLine
 10
144.461462
 20
288.440706
 30
0.0
 11
144.461434
 21
268.140705
 31
0.0
  0
LINE
  5
68
102
{ACAD_REACTORS
330
5A6
102
}
330
1F
100
AcDbEntity
  8
LC-001-002-----0
  6
ByBlock
 62
     7
370
    50
100
AcDbLine
 10
133.811213
 20
357.340768
 30
0.0
 11
133.811213
 21
336.440705
 31
0.0
  0
ARC
  5
69
102
{ACAD_REACTORS
330
5A6
102
}
330
1F
100
AcDbEntity
  8
LC-002-002-RND-0
 62
     7
370
    50
100
AcDbCircle
 10
207.061173
 20
269.140705
 30
0.0
 40
1.000000000000031
100
AcDbArc
 50
359.999921
 51
90.0
  0
LINE
  5
6A
102
{ACAD_REACTORS
330
5A6
102
}
330
1F
100
AcDbEntity
  8
LC-001-002-----0
  6
ByBlock
 62
     7
370
    50
100
AcDbLine
 10
188.857181
 20
336.440705
 30
0.0
 11
188.857181
 21
332.077604
 31
0.0
  0
ARC
  5
6B
102
{ACAD_REACTORS
330
5A6
102
}
330
1F
100
AcDbEntity
  8
LC-002-002-RND-0
 62
     7
370
    50
100
AcDbCircle
 10
207.061173
 20
269.140705
 30
0.0
 40
1.0
100
AcDbArc
 50
270.0
 51
359.999921
  0
LINE
  5
6C
102
{ACAD_REACTORS
330
5A6
102
}
330
1F
100
AcDbEntity
  8
LC-001-002-----0
  6
ByBlock
 62
     7
370
    50
100
AcDbLine
 10
207.161173
 20
268.140705
 30
0.0
 11
203.661171
 21
268.140705
 31
0.0
  0
LINE
  5
6D
102
{ACAD_REACTORS
330
5A6
102
}
330
1F
100
AcDbEntity
  8
LC-001-002-----0
  6
ByBlock
 62
     7
370
    50
100
AcDbLine
 10
210.561188
 20
280.440705
 30
0.0
 11
206.561188
 21
280.440705
 31
0.0
  0
ARC
  5
6E
102
{ACAD_REACTORS
330
5A6
102
}
330
1F
100
AcDbEntity
  8
LC-002-002-RND-0
 62
     7
370
    50
100
AcDbCircle
 10
207.061175
 20
270.640705
 30
0.0
 40
0.5000000000000155
100
AcDbArc
 50
179.999921
 51
270.0
  0
LINE
  5
6F
102
{ACAD_REACTORS
330
5A6
102
}
330
1F
100
AcDbEntity
  8
LC-001-002-----0
  6
ByBlock
 62
     7
370
    50
100
AcDbLine
 10
169.82421
 20
336.440705
 30
0.0
 11
163.512602
 21
357.340728
 31
0.0
  0
LINE
  5
70
102
{ACAD_REACTORS
330
5A6
102
}
330
1F
100
AcDbEntity
  8
LC-001-002-----0
  6
ByBlock
 62
     7
370
    50
100
AcDbLine
 10
190.554126
 20
331.778387
 30
0.0
 11
188.857181
 21
332.077604
 31
0.0
  0
ARC
  5
71
102
{ACAD_REACTORS
330
5A6
102
}
330
1F
100
AcDbEntity
  8
LC-002-002-RND-0
 62
     7
370
    50
100
AcDbCircle
 10
210.561188
 20
280.940705
 30
0.0
 40
0.5
100
AcDbArc
 50
270.0
 51
359.999921
  0
LINE
  5
72
102
{ACAD_REACTORS
330
5A6
102
}
330
1F
100
AcDbEntity
  8
LC-001-002-----0
  6
ByBlock
 62
     7
370
    50
100
AcDbLine
 10
171.471235
 20
336.440705
 30
0.0
 11
165.170625
 21
357.340725
 31
0.0
  0
LINE
  5
73
102
{ACAD_REACTORS
330
5A6
102
}
330
1F
100
AcDbEntity
  8
LC-001-002-----0
  6
ByBlock
 62
     7
370
    50
100
AcDbLine
 10
203.6612
 20
289.440705
 30
0.0
 11
203.661171
 21
268.140705
 31
0.0
  0
LINE
  5
74
102
{ACAD_REACTORS
330
5A6
102
}
330
1F
100
AcDbEntity
  8
LC-001-002-----0
  6
ByBlock
 62
     7
370
    50
100
AcDbLine
 10
203.661188
 20
280.440705
 30
0.0
 11
146.461451
 21
280.440705
 31
0.0
  0
LINE
  5
75
102
{ACAD_REACTORS
330
5A6
102
}
330
1F
100
AcDbEntity
  8
LC-001-002-----0
  6
ByBlock
 62
     7
370
    50
100
AcDbLine
 10
211.06121
 20
297.140705
 30
0.0
 11
211.061188
 21
280.940704
 31
0.0
  0
LINE
  5
76
102
{ACAD_REACTORS
330
5A6
102
}
330
1F
100
AcDbEntity
  8
LC-001-002-----0
  6
ByBlock
 62
     7
370
    50
100
AcDbLine
 10
147.679842
 20
336.440705
 30
0.0
 11
145.373657
 21
357.340753
 31
0.0
  0
INSERT
  5
80
102
{ACAD_REACTORS
330
5A6
102
}
330
1F
100
AcDbEntity
  8
LC-003-005-----0
 62
     7
370
    25
100
AcDbBlockReference
  2
*X22
 10
0.0
 20
0.0
 30
0.0
  0
LINE
  5
81
102
{ACAD_REACTORS
330
5A6
102
}
330
1F
100
AcDbEntity
  8
LC-001-002-----0
  6
ByBlock
 62
     7
370
    50
100
AcDbLine
 10
160.524974
 20
336.440705
 30
0.0
 11
156.069768
 21
357.340738
 31
0.0
  0
LINE
  5
82
102
{ACAD_REACTORS
330
5A6
102
}
330
1F
100
AcDbEntity
  8
LC-001-002-----0
  6
ByBlock
 62
     7
370
    50
100
AcDbLine
 10
166.910594
 20
297.140705
 30
0.0
 11
159.52697
 21
331.778387
 31
0.0
  0
LINE
  5
83
102
{ACAD_REACTORS
330
5A6
102
}
330
1F
100
AcDbEntity
  8
LC-001-002-----0
  6
ByBlock
 62
     7
370
    50
100
AcDbLine
 10
188.857181
 20
336.440705
 30
0.0
 11
132.661474
 21
336.440705
 31
0.0
  0
LINE
  5
84
102
{ACAD_REACTORS
330
5A6
102
}
330
1F
100
AcDbEntity
  8
LC-001-002-----0
  6
ByBlock
 62
     7
370
    50
100
AcDbLine
 10
203.161211
 20
297.140705
 30
0.0
 11
203.1612
 21
289.440705
 31
0.0
  0
LINE
  5
85
102
{ACAD_REACTORS
330
5A6
102
}
330
1F
100
AcDbEntity
  8
LC-001-002-----0
  6
ByBlock
 62
     7
370
    50
100
AcDbLine
 10
218.247042
 20
298.965029
 30
0.0
 11
212.012967
 21
316.093011
 31
0.0
  0
LINE
  5
86
102
{ACAD_REACTORS
330
5A6
102
}
330
1F
100
AcDbEntity
  8
LC-001-002-----0
  6
ByBlock
 62
     7
370
    50
100
AcDbLine
 10
129.356058
 20
357.340765
 30
0.0
 11
129.356058
 21
372.140765
 31
0.0
  0
LINE
  5
87
102
{ACAD_REACTORS
330
5A6
102
}
330
1F
100
AcDbEntity
  8
LC-001-002-----0
  6
ByBlock
 62
     7
370
    50
100
AcDbLine
 10
96.420496
 20
297.140705
 30
0.0
 11
103.80412
 21
331.778387
 31
0.0
  0
LINE
  5
88
102
{ACAD_REACTORS
330
5A6
102
}
330
1F
100
AcDbEntity
  8
LC-001-002-----0
  6
ByBlock
 62
     7
370
    50
100
AcDbLine
 10
115.528235
 20
297.140705
 30
0.0
 11
119.350279
 21
331.778387
 31
0.0
  0
LINE
  5
89
102
{ACAD_REACTORS
330
5A6
102
}
330
1F
100
AcDbEntity
  8
LC-001-002-----0
  6
ByBlock
 62
     7
370
    50
100
AcDbLine
 10
64.275383
 20
297.140705
 30
0.0
 11
78.539457
 21
331.778387
 31
0.0
  0
ARC
  5
8A
102
{ACAD_REACTORS
330
5A6
102
}
330
1F
100
AcDbEntity
  8
LC-002-002-RND-0
 62
     7
370
    50
100
AcDbCircle
 10
84.212786
 20
357.140704
 30
0.0
 40
14.9999999999999
100
AcDbArc
 50
90.000079
 51
160.0
  0
LINE
  5
8B
102
{ACAD_REACTORS
330
5A6
102
}
330
1F
100
AcDbEntity
  8
LC-001-002-----0
  6
ByBlock
 62
     7
370
    50
100
AcDbLine
 10
120.861514
 20
268.140705
 30
0.0
 11
144.461434
 21
268.140705
 31
0.0
  0
LINE
  5
8C
102
{ACAD_REACTORS
330
5A6
102
}
330
1F
100
AcDbEntity
  8
LC-001-002-----0
  6
ByBlock
 62
     7
370
    50
100
AcDbLine
 10
106.789832
 20
336.440705
 30
0.0
 11
111.245039
 21
357.340741
 31
0.0
  0
LINE
  5
8D
102
{ACAD_REACTORS
330
5A6
102
}
330
1F
100
AcDbEntity
  8
LC-001-002-----0
  6
ByBlock
 62
     7
370
    50
100
AcDbLine
 10
74.768823
 20
331.778387
 30
0.0
 11
132.661474
 21
331.778387
 31
0.0
  0
LINE
  5
8E
102
{ACAD_REACTORS
330
5A6
102
}
330
1F
100
AcDbEntity
  8
LC-001-002-----0
  6
ByBlock
 62
     7
370
    50
100
AcDbLine
 10
117.643106
 20
336.440705
 30
0.0
 11
119.949291
 21
357.340753
 31
0.0
  0
LINE
  5
8F
102
{ACAD_REACTORS
330
5A6
102
}
330
1F
100
AcDbEntity
  8
LC-001-002-----0
  6
ByBlock
 62
     7
370
    50
100
AcDbLine
 10
53.283571
 20
316.020448
 30
0.0
 11
70.117397
 21
362.271006
 31
0.0
  0
LINE
  5
90
102
{ACAD_REACTORS
330
5A6
102
}
330
1F
100
AcDbEntity
  8
LC-001-002-----0
  6
ByBlock
 62
     7
370
    50
100
AcDbLine
 10
64.870666
 20
297.140705
 30
0.0
 11
79.13474
 21
331.778387
 31
0.0
  0
LINE
  5
91
102
{ACAD_REACTORS
330
5A6
102
}
330
1F
100
AcDbEntity
  8
LC-001-002-----0
  6
ByBlock
 62
     7
370
    50
100
AcDbLine
 10
62.161737
 20
297.140705
 30
0.0
 11
89.459507
 21
372.140711
 31
0.0
  0
LINE
  5
92
102
{ACAD_REACTORS
330
5A6
102
}
330
1F
100
AcDbEntity
  8
LC-001-002-----0
  6
ByBlock
 62
     7
370
    50
100
AcDbLine
 10
90.174504
 20
368.055578
 30
0.0
 11
91.661371
 21
372.140714
 31
0.0
  0
LINE
  5
93
102
{ACAD_REACTORS
330
5A6
102
}
330
1F
100
AcDbEntity
  8
LC-001-002-----0
  6
ByBlock
 62
     7
370
    50
100
AcDbLine
 10
87.821639
 20
367.640705
 30
0.0
 11
90.174504
 21
368.055578
 31
0.0
  0
LINE
  5
94
102
{ACAD_REACTORS
330
5A6
102
}
330
1F
100
AcDbEntity
  8
LC-001-002-----0
  6
ByBlock
 62
     7
370
    50
100
AcDbLine
 10
82.004167
 20
297.140705
 30
0.0
 11
92.446191
 21
331.778387
 31
0.0
  0
LINE
  5
95
102
{ACAD_REACTORS
330
5A6
102
}
330
1F
100
AcDbEntity
  8
LC-001-002-----0
  6
ByBlock
 62
     7
370
    50
100
AcDbLine
 10
71.040067
 20
297.140705
 30
0.0
 11
83.828885
 21
331.778387
 31
0.0
  0
LINE
  5
96
102
{ACAD_REACTORS
330
5A6
102
}
330
1F
100
AcDbEntity
  8
LC-001-002-----0
  6
ByBlock
 62
     7
370
    50
100
AcDbLine
 10
118.861486
 20
288.440703
 30
0.0
 11
118.861497
 21
280.440705
 31
0.0
  0
INSERT
  5
A6
102
{ACAD_REACTORS
330
5A6
102
}
330
1F
100
AcDbEntity
  8
LC-003-005-----0
 62
     7
370
    25
100
AcDbBlockReference
  2
*X33
 10
0.0
 20
0.0
 30
0.0
  0
LINE
  5
A7
102
{ACAD_REACTORS
330
5A6
102
}
330
1F
100
AcDbEntity
  8
LC-001-002-----0
  6
ByBlock
 62
     7
370
    50
100
AcDbLine
 10
58.761737
 20
297.140705
 30
0.0
 11
58.761774
 21
270.640705
 31
0.0
  0
LINE
  5
A9
102
{ACAD_REACTORS
330
5A6
102
}
330
1F
100
AcDbEntity
  8
LC-004-002-___-0
 62
     7
370
    25
100
AcDbLine
 10
63.679572
 20
280.440705
 30
0.0
 11
61.66176
 21
280.440705
 31
0.0
  0
LINE
  5
AA
102
{ACAD_REACTORS
330
5A6
102
}
330
1F
100
AcDbEntity
  8
LC-001-002-----0
  6
ByBlock
 62
     7
370
    50
100
AcDbLine
 10
86.700291
 20
336.440705
 30
0.0
 11
94.416929
 21
357.340718
 31
0.0
  0
ARC
  5
AB
102
{ACAD_REACTORS
330
5A6
102
}
330
1F
100
AcDbEntity
  8
LC-002-002-RND-0
 62
     7
370
    50
100
AcDbCircle
 10
119.861486
 20
288.440705
 30
0.0
 40
1.0
100
AcDbArc
 50
90.0
 51
180.000079
  0
LINE
  5
AC
102
{ACAD_REACTORS
330
5A6
102
}
330
1F
100
AcDbEntity
  8
LC-001-002-----0
  6
ByBlock
 62
     7
370
    50
100
AcDbLine
 10
80.459436
 20
336.440705
 30
0.0
 11
89.066226
 21
357.34071
 31
0.0
  0
LINE
  5
AD
102
{ACAD_REACTORS
330
5A6
102
}
330
1F
100
AcDbEntity
  8
LC-001-002-----0
  6
ByBlock
 62
     7
370
    50
100
AcDbLine
 10
50.268473
 20
297.140705
 30
0.0
 11
47.075906
 21
298.965029
 31
0.0
  0
ARC
  5
AE
102
{ACAD_REACTORS
330
5A6
102
}
330
1F
100
AcDbEntity
  8
LC-002-002-RND-0
 62
     7
370
    50
100
AcDbCircle
 10
119.861486
 20
288.440705
 30
0.0
 40
1.000000000000031
100
AcDbArc
 50
0.000079
 51
90.0
  0
LINE
  5
AF
102
{ACAD_REACTORS
330
5A6
102
}
330
1F
100
AcDbEntity
  8
LC-001-002-----0
  6
ByBlock
 62
     7
370
    50
100
AcDbLine
 10
83.630512
 20
297.140705
 30
0.0
 11
94.090763
 21
331.778387
 31
0.0
  0
LINE
  5
B0
102
{ACAD_REACTORS
330
5A6
102
}
330
1F
100
AcDbEntity
  8
LC-001-002-----0
  6
ByBlock
 62
     7
370
    50
100
AcDbLine
 10
119.861486
 20
289.440705
 30
0.0
 11
120.012402
 21
289.440705
 31
0.0
  0
LINE
  5
B1
102
{ACAD_REACTORS
330
5A6
102
}
330
1F
100
AcDbEntity
  8
LC-001-002-----0
  6
ByBlock
 62
     7
370
    50
100
AcDbLine
 10
85.550291
 20
336.440705
 30
0.0
 11
93.266929
 21
357.340716
 31
0.0
  0
LINE
  5
B2
102
{ACAD_REACTORS
330
5A6
102
}
330
1F
100
AcDbEntity
  8
LC-001-002-----0
  6
ByBlock
 62
     7
370
    50
100
AcDbLine
 10
84.072745
 20
357.340703
 30
0.0
 11
132.661474
 21
357.34077
 31
0.0
  0
LINE
  5
B3
102
{ACAD_REACTORS
330
5A6
102
}
330
1F
100
AcDbEntity
  8
LC-001-002-----0
  6
ByBlock
 62
     7
370
    50
100
AcDbLine
 10
119.864735
 20
336.440705
 30
0.0
 11
122.170921
 21
357.340756
 31
0.0
  0
LINE
  5
B4
102
{ACAD_REACTORS
330
5A6
102
}
330
1F
100
AcDbEntity
  8
LC-001-002-----0
  6
ByBlock
 62
     7
370
    50
100
AcDbLine
 10
113.306605
 20
297.140705
 30
0.0
 11
117.12865
 21
331.778387
 31
0.0
  0
LINE
  5
B5
102
{ACAD_REACTORS
330
5A6
102
}
330
1F
100
AcDbEntity
  8
LC-001-002-----0
  6
ByBlock
 62
     7
370
    50
100
AcDbLine
 10
81.05472
 20
336.440705
 30
0.0
 11
89.661509
 21
357.340711
 31
0.0
  0
LINE
  5
B6
102
{ACAD_REACTORS
330
5A6
102
}
330
1F
100
AcDbEntity
  8
LC-001-002-----0
  6
ByBlock
 62
     7
370
    50
100
AcDbLine
 10
131.511735
 20
331.778387
 30
0.0
 11
131.511735
 21
297.140705
 31
0.0
  0
LINE
  5
B7
102
{ACAD_REACTORS
330
5A6
102
}
330
1F
100
AcDbEntity
  8
LC-001-002-----0
  6
ByBlock
 62
     7
370
    50
100
AcDbLine
 10
72.190067
 20
297.140705
 30
0.0
 11
84.978885
 21
331.778387
 31
0.0
  0
LINE
  5
B8
102
{ACAD_REACTORS
330
5A6
102
}
330
1F
100
AcDbEntity
  8
LC-001-002-----0
  6
ByBlock
 62
     7
370
    50
100
AcDbLine
 10
61.661748
 20
289.440705
 30
0.0
 11
62.161748
 21
289.440705
 31
0.0
  0
LINE
  5
B9
102
{ACAD_REACTORS
330
5A6
102
}
330
1F
100
AcDbEntity
  8
LC-001-002-----0
  6
ByBlock
 62
     7
370
    50
100
AcDbLine
 10
120.861486
 20
288.440706
 30
0.0
 11
120.861514
 21
268.140705
 31
0.0
  0
LINE
  5
BA
102
{ACAD_REACTORS
330
5A6
102
}
330
1F
100
AcDbEntity
  8
LC-001-002-----0
  6
ByBlock
 62
     7
370
    50
100
AcDbLine
 10
131.511735
 20
357.340768
 30
0.0
 11
131.511735
 21
336.440705
 31
0.0
  0
ARC
  5
BB
102
{ACAD_REACTORS
330
5A6
102
}
330
1F
100
AcDbEntity
  8
LC-002-002-RND-0
 62
     7
370
    50
100
AcDbCircle
 10
58.261776
 20
269.140705
 30
0.0
 40
1.0
100
AcDbArc
 50
90.0
 51
180.000079
  0
LINE
  5
BC
102
{ACAD_REACTORS
330
5A6
102
}
330
1F
100
AcDbEntity
  8
LC-001-002-----0
  6
ByBlock
 62
     7
370
    50
100
AcDbLine
 10
76.465767
 20
336.440705
 30
0.0
 11
76.465767
 21
332.077604
 31
0.0
  0
LINE
  5
BD
102
{ACAD_REACTORS
330
5A6
102
}
330
1F
100
AcDbEntity
  8
LC-001-002-----0
  6
ByBlock
 62
     7
370
    50
100
AcDbLine
 10
58.161776
 20
268.140705
 30
0.0
 11
59.661778
 21
268.140705
 31
0.0
  0
LINE
  5
BE
102
{ACAD_REACTORS
330
5A6
102
}
330
1F
100
AcDbEntity
  8
LC-001-002-----0
  6
ByBlock
 62
     7
370
    50
100
AcDbLine
 10
54.76176
 20
280.440705
 30
0.0
 11
58.76176
 21
280.440705
 31
0.0
  0
ARC
  5
BF
102
{ACAD_REACTORS
330
5A6
102
}
330
1F
100
AcDbEntity
  8
LC-002-002-RND-0
 62
     7
370
    50
100
AcDbCircle
 10
58.261774
 20
270.640705
 30
0.0
 40
0.5
100
AcDbArc
 50
270.0
 51
0.000079
  0
LINE
  5
C0
102
{ACAD_REACTORS
330
5A6
102
}
330
1F
100
AcDbEntity
  8
LC-001-002-----0
  6
ByBlock
 62
     7
370
    50
100
AcDbLine
 10
58.261776
 20
268.140705
 30
0.0
 11
61.661777
 21
268.140705
 31
0.0
  0
LINE
  5
C1
102
{ACAD_REACTORS
330
5A6
102
}
330
1F
100
AcDbEntity
  8
LC-001-002-----0
  6
ByBlock
 62
     7
370
    50
100
AcDbLine
 10
95.498738
 20
336.440705
 30
0.0
 11
101.810346
 21
357.340728
 31
0.0
  0
LINE
  5
C2
102
{ACAD_REACTORS
330
5A6
102
}
330
1F
100
AcDbEntity
  8
LC-001-002-----0
  6
ByBlock
 62
     7
370
    50
100
AcDbLine
 10
74.768823
 20
331.778387
 30
0.0
 11
76.465767
 21
332.077604
 31
0.0
  0
ARC
  5
C3
102
{ACAD_REACTORS
330
5A6
102
}
330
1F
100
AcDbEntity
  8
LC-002-002-RND-0
 62
     7
370
    50
100
AcDbCircle
 10
54.76176
 20
280.940705
 30
0.0
 40
0.5000000000000155
100
AcDbArc
 50
180.000079
 51
270.0
  0
LINE
  5
C4
102
{ACAD_REACTORS
330
5A6
102
}
330
1F
100
AcDbEntity
  8
LC-001-002-----0
  6
ByBlock
 62
     7
370
    50
100
AcDbLine
 10
93.851713
 20
336.440705
 30
0.0
 11
100.152323
 21
357.340725
 31
0.0
  0
LINE
  5
C5
102
{ACAD_REACTORS
330
5A6
102
}
330
1F
100
AcDbEntity
  8
LC-001-002-----0
  6
ByBlock
 62
     7
370
    50
100
AcDbLine
 10
61.661748
 20
289.440705
 30
0.0
 11
61.661777
 21
268.140705
 31
0.0
  0
LINE
  5
C6
102
{ACAD_REACTORS
330
5A6
102
}
330
1F
100
AcDbEntity
  8
LC-001-002-----0
  6
ByBlock
 62
     7
370
    50
100
AcDbLine
 10
61.66176
 20
280.440705
 30
0.0
 11
118.861497
 21
280.440705
 31
0.0
  0
LINE
  5
C7
102
{ACAD_REACTORS
330
5A6
102
}
330
1F
100
AcDbEntity
  8
LC-001-002-----0
  6
ByBlock
 62
     7
370
    50
100
AcDbLine
 10
54.261738
 20
297.140705
 30
0.0
 11
54.26176
 21
280.940704
 31
0.0
  0
LINE
  5
C8
102
{ACAD_REACTORS
330
5A6
102
}
330
1F
100
AcDbEntity
  8
LC-001-002-----0
  6
ByBlock
 62
     7
370
    50
100
AcDbLine
 10
84.212766
 20
372.140704
 30
0.0
 11
132.661474
 21
372.14077
 31
0.0
  0
INSERT
  5
CE
102
{ACAD_REACTORS
330
5A6
102
}
330
1F
100
AcDbEntity
  8
LC-003-005-----0
 62
     7
370
    25
100
AcDbBlockReference
  2
*X44
 10
0.0
 20
0.0
 30
0.0
  0
LINE
  5
CF
102
{ACAD_REACTORS
330
5A6
102
}
330
1F
100
AcDbEntity
  8
LC-001-002-----0
  6
ByBlock
 62
     7
370
    50
100
AcDbLine
 10
104.797974
 20
336.440705
 30
0.0
 11
109.25318
 21
357.340738
 31
0.0
  0
LINE
  5
D0
102
{ACAD_REACTORS
330
5A6
102
}
330
1F
100
AcDbEntity
  8
LC-001-002-----0
  6
ByBlock
 62
     7
370
    50
100
AcDbLine
 10
98.412354
 20
297.140705
 30
0.0
 11
105.795978
 21
331.778387
 31
0.0
  0
LINE
  5
D1
102
{ACAD_REACTORS
330
5A6
102
}
330
1F
100
AcDbEntity
  8
LC-001-002-----0
  6
ByBlock
 62
     7
370
    50
100
AcDbLine
 10
76.465767
 20
336.440705
 30
0.0
 11
132.661474
 21
336.440705
 31
0.0
  0
LINE
  5
D2
102
{ACAD_REACTORS
330
5A6
102
}
330
1F
100
AcDbEntity
  8
LC-001-002-----0
  6
ByBlock
 62
     7
370
    50
100
AcDbLine
 10
62.161737
 20
297.140705
 30
0.0
 11
62.161748
 21
289.440705
 31
0.0
  0
LINE
  5
D3
102
{ACAD_REACTORS
330
5A6
102
}
330
1F
100
AcDbEntity
  8
LC-001-002-----0
  6
ByBlock
 62
     7
370
    50
100
AcDbLine
 10
47.075906
 20
298.965029
 30
0.0
 11
53.283571
 21
316.020448
 31
0.0
  0
LINE
  5
D4
102
{ACAD_REACTORS
330
5A6
102
}
330
1F
100
AcDbEntity
  8
LC-001-002-----0
  6
ByBlock
 62
     7
370
    50
100
AcDbLine
 10
50.268473
 20
297.140705
 30
0.0
 11
215.054475
 21
297.140705
 31
0.0
  0
LINE
  5
D5
102
{ACAD_REACTORS
330
5A3
102
}
330
1F
100
AcDbEntity
  8
LC-001-002-----0
  6
ByBlock
 62
     7
370
    50
100
AcDbLine
 10
23.911472
 20
294.640705
 30
0.0
 11
24.111472
 21
294.640705
 31
0.0
  0
LINE
  5
D6
102
{ACAD_REACTORS
330
5A3
102
}
330
1F
100
AcDbEntity
  8
LC-001-002-----0
  6
ByBlock
 62
     7
370
    50
100
AcDbLine
 10
23.411472
 20
294.140705
 30
0.0
 11
23.411472
 21
288.641166
 31
0.0
  0
LINE
  5
D7
102
{ACAD_REACTORS
330
5A3
102
}
330
1F
100
AcDbEntity
  8
LC-001-002-----0
  6
ByBlock
 62
     7
370
    50
100
AcDbLine
 10
31.411472
 20
294.140705
 30
0.0
 11
31.411472
 21
288.641166
 31
0.0
  0
ARC
  5
D8
102
{ACAD_REACTORS
330
5A3
102
}
330
1F
100
AcDbEntity
  8
LC-001-002-----0
  6
ByBlock
 62
     7
370
    50
100
AcDbCircle
 10
30.911472
 20
294.140705
 30
0.0
 40
0.5
100
AcDbArc
 50
360.0
 51
90.0
  0
ARC
  5
D9
102
{ACAD_REACTORS
330
5A3
102
}
330
1F
100
AcDbEntity
  8
LC-001-002-----0
  6
ByBlock
 62
     7
370
    50
100
AcDbCircle
 10
23.911472
 20
294.140705
 30
0.0
 40
0.5
100
AcDbArc
 50
90.0
 51
180.0
  0
LINE
  5
DA
102
{ACAD_REACTORS
330
5A3
102
}
330
1F
100
AcDbEntity
  8
LC-001-002-----0
  6
ByBlock
 62
     7
370
    50
100
AcDbLine
 10
23.411472
 20
288.641166
 30
0.0
 11
30.26873
 21
285.370422
 31
0.0
  0
LINE
  5
DB
102
{ACAD_REACTORS
330
5A3
102
}
330
1F
100
AcDbEntity
  8
LC-001-002-----0
  6
ByBlock
 62
     7
370
    50
100
AcDbLine
 10
24.111472
 20
294.640705
 30
0.0
 11
24.400147
 21
295.140705
 31
0.0
  0
LINE
  5
DC
102
{ACAD_REACTORS
330
5A3
102
}
330
1F
100
AcDbEntity
  8
LC-001-002-----0
  6
ByBlock
 62
     7
370
    50
100
AcDbLine
 10
24.400147
 20
295.140705
 30
0.0
 11
24.688822
 21
294.640705
 31
0.0
  0
LINE
  5
DD
102
{ACAD_REACTORS
330
5A3
102
}
330
1F
100
AcDbEntity
  8
LC-001-002-----0
  6
ByBlock
 62
     7
370
    50
100
AcDbLine
 10
25.400147
 20
295.140705
 30
0.0
 11
25.688822
 21
294.640705
 31
0.0
  0
LINE
  5
DE
102
{ACAD_REACTORS
330
5A3
102
}
330
1F
100
AcDbEntity
  8
LC-001-002-----0
  6
ByBlock
 62
     7
370
    50
100
AcDbLine
 10
25.111472
 20
294.640705
 30
0.0
 11
25.400147
 21
295.140705
 31
0.0
  0
LINE
  5
DF
102
{ACAD_REACTORS
330
5A3
102
}
330
1F
100
AcDbEntity
  8
LC-001-002-----0
  6
ByBlock
 62
     7
370
    50
100
AcDbLine
 10
26.400147
 20
295.140705
 30
0.0
 11
26.688822
 21
294.640705
 31
0.0
  0
LINE
  5
E0
102
{ACAD_REACTORS
330
5A3
102
}
330
1F
100
AcDbEntity
  8
LC-001-002-----0
  6
ByBlock
 62
     7
370
    50
100
AcDbLine
 10
26.111472
 20
294.640705
 30
0.0
 11
26.400147
 21
295.140705
 31
0.0
  0
LINE
  5
E1
102
{ACAD_REACTORS
330
5A3
102
}
330
1F
100
AcDbEntity
  8
LC-001-002-----0
  6
ByBlock
 62
     7
370
    50
100
AcDbLine
 10
27.400147
 20
295.140705
 30
0.0
 11
27.688822
 21
294.640705
 31
0.0
  0
LINE
  5
E2
102
{ACAD_REACTORS
330
5A3
102
}
330
1F
100
AcDbEntity
  8
LC-001-002-----0
  6
ByBlock
 62
     7
370
    50
100
AcDbLine
 10
27.111472
 20
294.640705
 30
0.0
 11
27.400147
 21
295.140705
 31
0.0
  0
LINE
  5
E3
102
{ACAD_REACTORS
330
5A3
102
}
330
1F
100
AcDbEntity
  8
LC-001-002-----0
  6
ByBlock
 62
     7
370
    50
100
AcDbLine
 10
28.400147
 20
295.140705
 30
0.0
 11
28.688822
 21
294.640705
 31
0.0
  0
LINE
  5
E4
102
{ACAD_REACTORS
330
5A3
102
}
330
1F
100
AcDbEntity
  8
LC-001-002-----0
  6
ByBlock
 62
     7
370
    50
100
AcDbLine
 10
28.111472
 20
294.640705
 30
0.0
 11
28.400147
 21
295.140705
 31
0.0
  0
LINE
  5
E5
102
{ACAD_REACTORS
330
5A3
102
}
330
1F
100
AcDbEntity
  8
LC-001-002-----0
  6
ByBlock
 62
     7
370
    50
100
AcDbLine
 10
29.400147
 20
295.140705
 30
0.0
 11
29.688822
 21
294.640705
 31
0.0
  0
LINE
  5
E6
102
{ACAD_REACTORS
330
5A3
102
}
330
1F
100
AcDbEntity
  8
LC-001-002-----0
  6
ByBlock
 62
     7
370
    50
100
AcDbLine
 10
29.111472
 20
294.640705
 30
0.0
 11
29.400147
 21
295.140705
 31
0.0
  0
LINE
  5
E7
102
{ACAD_REACTORS
330
5A3
102
}
330
1F
100
AcDbEntity
  8
LC-001-002-----0
  6
ByBlock
 62
     7
370
    50
100
AcDbLine
 10
30.400147
 20
295.140705
 30
0.0
 11
30.688822
 21
294.640705
 31
0.0
  0
LINE
  5
E8
102
{ACAD_REACTORS
330
5A3
102
}
330
1F
100
AcDbEntity
  8
LC-001-002-----0
  6
ByBlock
 62
     7
370
    50
100
AcDbLine
 10
30.111472
 20
294.640705
 30
0.0
 11
30.400147
 21
295.140705
 31
0.0
  0
LINE
  5
E9
102
{ACAD_REACTORS
330
5A3
102
}
330
1F
100
AcDbEntity
  8
LC-001-002-----0
  6
ByBlock
 62
     7
370
    50
100
AcDbLine
 10
30.688822
 20
294.640705
 30
0.0
 11
30.911472
 21
294.640705
 31
0.0
  0
LINE
  5
EA
102
{ACAD_REACTORS
330
5A3
102
}
330
1F
100
AcDbEntity
  8
LC-001-002-----0
  6
ByBlock
 62
     7
370
    50
100
AcDbLine
 10
29.688822
 20
294.640705
 30
0.0
 11
30.111472
 21
294.640705
 31
0.0
  0
LINE
  5
EB
102
{ACAD_REACTORS
330
5A3
102
}
330
1F
100
AcDbEntity
  8
LC-001-002-----0
  6
ByBlock
 62
     7
370
    50
100
AcDbLine
 10
28.688822
 20
294.640705
 30
0.0
 11
29.111472
 21
294.640705
 31
0.0
  0
LINE
  5
EC
102
{ACAD_REACTORS
330
5A3
102
}
330
1F
100
AcDbEntity
  8
LC-001-002-----0
  6
ByBlock
 62
     7
370
    50
100
AcDbLine
 10
27.688822
 20
294.640705
 30
0.0
 11
28.111472
 21
294.640705
 31
0.0
  0
LINE
  5
ED
102
{ACAD_REACTORS
330
5A3
102
}
330
1F
100
AcDbEntity
  8
LC-001-002-----0
  6
ByBlock
 62
     7
370
    50
100
AcDbLine
 10
26.688822
 20
294.640705
 30
0.0
 11
27.111472
 21
294.640705
 31
0.0
  0
LINE
  5
EE
102
{ACAD_REACTORS
330
5A3
102
}
330
1F
100
AcDbEntity
  8
LC-001-002-----0
  6
ByBlock
 62
     7
370
    50
100
AcDbLine
 10
25.688822
 20
294.640705
 30
0.0
 11
26.111472
 21
294.640705
 31
0.0
  0
LINE
  5
EF
102
{ACAD_REACTORS
330
5A3
102
}
330
1F
100
AcDbEntity
  8
LC-001-002-----0
  6
ByBlock
 62
     7
370
    50
100
AcDbLine
 10
24.688822
 20
294.640705
 30
0.0
 11
25.111472
 21
294.640705
 31
0.0
  0
ARC
  5
F0
102
{ACAD_REACTORS
330
5A3
102
}
330
1F
100
AcDbEntity
  8
LC-002-002-RND-0
 62
     7
370
    50
100
AcDbCircle
 10
30.483985
 20
285.821714
 30
0.0
 40
0.5000000000000253
100
AcDbArc
 50
244.5
 51
44.5
  0
LINE
  5
F1
102
{ACAD_REACTORS
330
5A3
102
}
330
1F
100
AcDbEntity
  8
LC-001-002-----0
  6
ByBlock
 62
     7
370
    50
100
AcDbLine
 10
30.840611
 20
286.172169
 30
0.0
 11
29.250074
 21
287.790711
 31
0.0
  0
ARC
  5
F2
102
{ACAD_REACTORS
330
5A3
102
}
330
1F
100
AcDbEntity
  8
LC-002-002-RND-0
 62
     7
370
    50
100
AcDbCircle
 10
29.606699
 20
288.141166
 30
0.0
 40
0.5
100
AcDbArc
 50
90.0
 51
224.5
  0
LINE
  5
F3
330
1F
100
AcDbEntity
  8
LC-001-002-----0
  6
ByBlock
 62
     7
370
    50
100
AcDbLine
 10
29.606699
 20
288.641166
 30
0.0
 11
31.411472
 21
288.641166
 31
0.0
  0
INSERT
  5
FB
330
1F
100
AcDbEntity
  8
LC-003-005-----0
 62
     7
370
    25
100
AcDbBlockReference
  2
*X55
 10
0.0
 20
0.0
 30
0.0
  0
LINE
  5
FC
102
{ACAD_REACTORS
330
5A7
102
}
330
1F
100
AcDbEntity
  8
LC-001-002-----0
  6
ByBlock
 62
     7
370
    50
100
AcDbLine
 10
241.411472
 20
294.640705
 30
0.0
 11
241.211472
 21
294.640705
 31
0.0
  0
LINE
  5
FD
102
{ACAD_REACTORS
330
5A7
102
}
330
1F
100
AcDbEntity
  8
LC-001-002-----0
  6
ByBlock
 62
     7
370
    50
100
AcDbLine
 10
241.911472
 20
294.140705
 30
0.0
 11
241.911472
 21
288.641166
 31
0.0
  0
LINE
  5
FE
102
{ACAD_REACTORS
330
5A7
102
}
330
1F
100
AcDbEntity
  8
LC-001-002-----0
  6
ByBlock
 62
     7
370
    50
100
AcDbLine
 10
233.911472
 20
294.140705
 30
0.0
 11
233.911472
 21
288.641166
 31
0.0
  0
ARC
  5
FF
102
{ACAD_REACTORS
330
5A7
102
}
330
1F
100
AcDbEntity
  8
LC-001-002-----0
  6
ByBlock
 62
     7
370
    50
100
AcDbCircle
 10
234.411472
 20
294.140705
 30
0.0
 40
0.5
100
AcDbArc
 50
90.0
 51
180.0
  0
ARC
  5
100
102
{ACAD_REACTORS
330
5A7
102
}
330
1F
100
AcDbEntity
  8
LC-001-002-----0
  6
ByBlock
 62
     7
370
    50
100
AcDbCircle
 10
241.411472
 20
294.140705
 30
0.0
 40
0.5
100
AcDbArc
 50
360.0
 51
90.0
  0
LINE
  5
101
102
{ACAD_REACTORS
330
5A7
102
}
330
1F
100
AcDbEntity
  8
LC-001-002-----0
  6
ByBlock
 62
     7
370
    50
100
AcDbLine
 10
241.911472
 20
288.641166
 30
0.0
 11
235.054214
 21
285.370422
 31
0.0
  0
LINE
  5
102
102
{ACAD_REACTORS
330
5A7
102
}
330
1F
100
AcDbEntity
  8
LC-001-002-----0
  6
ByBlock
 62
     7
370
    50
100
AcDbLine
 10
241.211472
 20
294.640705
 30
0.0
 11
240.922797
 21
295.140705
 31
0.0
  0
LINE
  5
103
102
{ACAD_REACTORS
330
5A7
102
}
330
1F
100
AcDbEntity
  8
LC-001-002-----0
  6
ByBlock
 62
     7
370
    50
100
AcDbLine
 10
240.922797
 20
295.140705
 30
0.0
 11
240.634122
 21
294.640705
 31
0.0
  0
LINE
  5
104
102
{ACAD_REACTORS
330
5A7
102
}
330
1F
100
AcDbEntity
  8
LC-001-002-----0
  6
ByBlock
 62
     7
370
    50
100
AcDbLine
 10
239.922797
 20
295.140705
 30
0.0
 11
239.634122
 21
294.640705
 31
0.0
  0
LINE
  5
105
102
{ACAD_REACTORS
330
5A7
102
}
330
1F
100
AcDbEntity
  8
LC-001-002-----0
  6
ByBlock
 62
     7
370
    50
100
AcDbLine
 10
240.211472
 20
294.640705
 30
0.0
 11
239.922797
 21
295.140705
 31
0.0
  0
LINE
  5
106
102
{ACAD_REACTORS
330
5A7
102
}
330
1F
100
AcDbEntity
  8
LC-001-002-----0
  6
ByBlock
 62
     7
370
    50
100
AcDbLine
 10
238.922797
 20
295.140705
 30
0.0
 11
238.634122
 21
294.640705
 31
0.0
  0
LINE
  5
107
102
{ACAD_REACTORS
330
5A7
102
}
330
1F
100
AcDbEntity
  8
LC-001-002-----0
  6
ByBlock
 62
     7
370
    50
100
AcDbLine
 10
239.211472
 20
294.640705
 30
0.0
 11
238.922797
 21
295.140705
 31
0.0
  0
LINE
  5
108
102
{ACAD_REACTORS
330
5A7
102
}
330
1F
100
AcDbEntity
  8
LC-001-002-----0
  6
ByBlock
 62
     7
370
    50
100
AcDbLine
 10
237.922797
 20
295.140705
 30
0.0
 11
237.634122
 21
294.640705
 31
0.0
  0
LINE
  5
109
102
{ACAD_REACTORS
330
5A7
102
}
330
1F
100
AcDbEntity
  8
LC-001-002-----0
  6
ByBlock
 62
     7
370
    50
100
AcDbLine
 10
238.211472
 20
294.640705
 30
0.0
 11
237.922797
 21
295.140705
 31
0.0
  0
LINE
  5
10A
102
{ACAD_REACTORS
330
5A7
102
}
330
1F
100
AcDbEntity
  8
LC-001-002-----0
  6
ByBlock
 62
     7
370
    50
100
AcDbLine
 10
236.922797
 20
295.140705
 30
0.0
 11
236.634122
 21
294.640705
 31
0.0
  0
LINE
  5
10B
102
{ACAD_REACTORS
330
5A7
102
}
330
1F
100
AcDbEntity
  8
LC-001-002-----0
  6
ByBlock
 62
     7
370
    50
100
AcDbLine
 10
237.211472
 20
294.640705
 30
0.0
 11
236.922797
 21
295.140705
 31
0.0
  0
LINE
  5
10C
102
{ACAD_REACTORS
330
5A7
102
}
330
1F
100
AcDbEntity
  8
LC-001-002-----0
  6
ByBlock
 62
     7
370
    50
100
AcDbLine
 10
235.922797
 20
295.140705
 30
0.0
 11
235.634122
 21
294.640705
 31
0.0
  0
LINE
  5
10D
102
{ACAD_REACTORS
330
5A7
102
}
330
1F
100
AcDbEntity
  8
LC-001-002-----0
  6
ByBlock
 62
     7
370
    50
100
AcDbLine
 10
236.211472
 20
294.640705
 30
0.0
 11
235.922797
 21
295.140705
 31
0.0
  0
LINE
  5
10E
102
{ACAD_REACTORS
330
5A7
102
}
330
1F
100
AcDbEntity
  8
LC-001-002-----0
  6
ByBlock
 62
     7
370
    50
100
AcDbLine
 10
234.922797
 20
295.140705
 30
0.0
 11
234.634122
 21
294.640705
 31
0.0
  0
LINE
  5
10F
102
{ACAD_REACTORS
330
5A7
102
}
330
1F
100
AcDbEntity
  8
LC-001-002-----0
  6
ByBlock
 62
     7
370
    50
100
AcDbLine
 10
235.211472
 20
294.640705
 30
0.0
 11
234.922797
 21
295.140705
 31
0.0
  0
LINE
  5
110
102
{ACAD_REACTORS
330
5A7
102
}
330
1F
100
AcDbEntity
  8
LC-001-002-----0
  6
ByBlock
 62
     7
370
    50
100
AcDbLine
 10
234.634122
 20
294.640705
 30
0.0
 11
234.411472
 21
294.640705
 31
0.0
  0
LINE
  5
111
102
{ACAD_REACTORS
330
5A7
102
}
330
1F
100
AcDbEntity
  8
LC-001-002-----0
  6
ByBlock
 62
     7
370
    50
100
AcDbLine
 10
235.634122
 20
294.640705
 30
0.0
 11
235.211472
 21
294.640705
 31
0.0
  0
LINE
  5
112
102
{ACAD_REACTORS
330
5A7
102
}
330
1F
100
AcDbEntity
  8
LC-001-002-----0
  6
ByBlock
 62
     7
370
    50
100
AcDbLine
 10
236.634122
 20
294.640705
 30
0.0
 11
236.211472
 21
294.640705
 31
0.0
  0
LINE
  5
113
102
{ACAD_REACTORS
330
5A7
102
}
330
1F
100
AcDbEntity
  8
LC-001-002-----0
  6
ByBlock
 62
     7
370
    50
100
AcDbLine
 10
237.634122
 20
294.640705
 30
0.0
 11
237.211472
 21
294.640705
 31
0.0
  0
LINE
  5
114
102
{ACAD_REACTORS
330
5A7
102
}
330
1F
100
AcDbEntity
  8
LC-001-002-----0
  6
ByBlock
 62
     7
370
    50
100
AcDbLine
 10
238.634122
 20
294.640705
 30
0.0
 11
238.211472
 21
294.640705
 31
0.0
  0
LINE
  5
115
102
{ACAD_REACTORS
330
5A7
102
}
330
1F
100
AcDbEntity
  8
LC-001-002-----0
  6
ByBlock
 62
     7
370
    50
100
AcDbLine
 10
239.634122
 20
294.640705
 30
0.0
 11
239.211472
 21
294.640705
 31
0.0
  0
LINE
  5
116
102
{ACAD_REACTORS
330
5A7
102
}
330
1F
100
AcDbEntity
  8
LC-001-002-----0
  6
ByBlock
 62
     7
370
    50
100
AcDbLine
 10
240.634122
 20
294.640705
 30
0.0
 11
240.211472
 21
294.640705
 31
0.0
  0
ARC
  5
117
102
{ACAD_REACTORS
330
5A7
102
}
330
1F
100
AcDbEntity
  8
LC-002-002-RND-0
 62
     7
370
    50
100
AcDbCircle
 10
234.838959
 20
285.821714
 30
0.0
 40
0.4999999999999898
100
AcDbArc
 50
135.5
 51
295.5
  0
LINE
  5
118
102
{ACAD_REACTORS
330
5A7
102
}
330
1F
100
AcDbEntity
  8
LC-001-002-----0
  6
ByBlock
 62
     7
370
    50
100
AcDbLine
 10
234.482334
 20
286.172169
 30
0.0
 11
236.072871
 21
287.790711
 31
0.0
  0
ARC
  5
119
102
{ACAD_REACTORS
330
5A7
102
}
330
1F
100
AcDbEntity
  8
LC-002-002-RND-0
 62
     7
370
    50
100
AcDbCircle
 10
235.716245
 20
288.141166
 30
0.0
 40
0.5000000000000318
100
AcDbArc
 50
315.5
 51
90.0
  0
LINE
  5
11A
330
1F
100
AcDbEntity
  8
LC-001-002-----0
  6
ByBlock
 62
     7
370
    50
100
AcDbLine
 10
235.716245
 20
288.641166
 30
0.0
 11
233.911472
 21
288.641166
 31
0.0
  0
INSERT
  5
123
330
1F
100
AcDbEntity
  8
LC-003-005-----0
 62
     7
370
    25
100
AcDbBlockReference
  2
*X66
 10
0.0
 20
0.0
 30
0.0
  0
DIMENSION
  5
127
330
1F
100
AcDbEntity
  8
LC-005-003-----0
 62
     7
370
    25
100
AcDbDimension
  2
*D7
 10
309.658948
 20
384.970681
 30
0.0
 11
132.658128
 21
415.765931
 31
0.0
 70
   160
  1
%%c<>
 71
     5
 42
353.999987
 53
0.001538
  3
LC-DIM-L-0140-02-02
100
AcDbAlignedDimension
 13
-44.338516
 23
290.966581
 33
0.0
 14
309.661471
 24
290.976082
 34
0.0
 50
0.001538
100
AcDbRotatedDimension
  0
LINE
  5
135
330
1F
100
AcDbEntity
  8
LC-001-002-----0
  6
ByBlock
 62
     7
370
    50
100
AcDbLine
 10
-44.338528
 20
296.640705
 30
0.0
 11
-44.338528
 21
297.140705
 31
0.0
  0
LINE
  5
136
330
1F
100
AcDbEntity
  8
LC-001-002-----0
  6
ByBlock
 62
     7
370
    50
100
AcDbLine
 10
-42.338528
 20
299.140705
 30
0.0
 11
33.090535
 21
299.140705
 31
0.0
  0
LINE
  5
137
330
1F
100
AcDbEntity
  8
LC-001-002-----0
  6
ByBlock
 62
     7
370
    50
100
AcDbLine
 10
44.232368
 20
299.140705
 30
0.0
 11
47.139847
 21
299.140705
 31
0.0
  0
LINE
  5
138
330
1F
100
AcDbEntity
  8
LC-001-002-----0
  6
ByBlock
 62
     7
370
    50
100
AcDbLine
 10
-44.338528
 20
296.640705
 30
0.0
 11
2.661472
 21
296.640705
 31
0.0
  0
LINE
  5
139
330
1F
100
AcDbEntity
  8
LC-001-002-----0
  6
ByBlock
 62
     7
370
    50
100
AcDbLine
 10
5.994805
 20
295.140705
 30
0.0
 11
10.661472
 21
295.140705
 31
0.0
  0
LINE
  5
13A
330
1F
100
AcDbEntity
  8
LC-001-002-----0
  6
ByBlock
 62
     7
370
    50
100
AcDbLine
 10
10.661472
 20
293.040705
 30
0.0
 11
10.661472
 21
295.140705
 31
0.0
  0
LINE
  5
13B
330
1F
100
AcDbEntity
  8
LC-001-002-----0
  6
ByBlock
 62
     7
370
    50
100
AcDbLine
 10
12.661472
 20
292.140705
 30
0.0
 11
12.661472
 21
295.140705
 31
0.0
  0
LINE
  5
13C
330
1F
100
AcDbEntity
  8
LC-001-002-----0
  6
ByBlock
 62
     7
370
    50
100
AcDbLine
 10
12.661472
 20
295.140705
 30
0.0
 11
20.661472
 21
295.140705
 31
0.0
  0
LINE
  5
13D
330
1F
100
AcDbEntity
  8
LC-001-002-----0
  6
ByBlock
 62
     7
370
    50
100
AcDbLine
 10
20.661472
 20
288.540705
 30
0.0
 11
20.661472
 21
295.140705
 31
0.0
  0
LINE
  5
13E
330
1F
100
AcDbEntity
  8
LC-001-002-----0
  6
ByBlock
 62
     7
370
    50
100
AcDbLine
 10
23.161472
 20
287.415705
 30
0.0
 11
23.161472
 21
295.140705
 31
0.0
  0
LINE
  5
13F
330
1F
100
AcDbEntity
  8
LC-001-002-----0
  6
ByBlock
 62
     7
370
    50
100
AcDbLine
 10
2.661472
 20
296.640705
 30
0.0
 11
5.994805
 21
295.140705
 31
0.0
  0
LINE
  5
140
330
1F
100
AcDbEntity
  8
LC-001-002-----0
  6
ByBlock
 62
     7
370
    50
100
AcDbLine
 10
20.661472
 20
288.540705
 30
0.0
 11
23.161472
 21
287.415705
 31
0.0
  0
LINE
  5
141
330
1F
100
AcDbEntity
  8
LC-001-002-----0
  6
ByBlock
 62
     7
370
    50
100
AcDbLine
 10
10.661472
 20
293.040705
 30
0.0
 11
12.661472
 21
292.140705
 31
0.0
  0
LINE
  5
142
330
1F
100
AcDbEntity
  8
LC-001-002-----0
  6
ByBlock
 62
     7
370
    50
100
AcDbLine
 10
23.161472
 20
295.140705
 30
0.0
 11
30.411472
 21
295.140705
 31
0.0
  0
LINE
  5
143
330
1F
100
AcDbEntity
  8
LC-001-002-----0
  6
ByBlock
 62
     7
370
    50
100
AcDbLine
 10
31.661472
 20
286.140705
 30
0.0
 11
35.511458
 21
286.140705
 31
0.0
  0
LINE
  5
144
330
1F
100
AcDbEntity
  8
LC-001-002-----0
  6
ByBlock
 62
     7
370
    50
100
AcDbLine
 10
41.811458
 20
286.140705
 30
0.0
 11
51.161472
 21
286.140705
 31
0.0
  0
LINE
  5
145
330
1F
100
AcDbEntity
  8
LC-001-002-----0
  6
ByBlock
 62
     7
370
    50
100
AcDbLine
 10
34.661472
 20
286.140705
 30
0.0
 11
34.661472
 21
296.140705
 31
0.0
  0
LINE
  5
146
330
1F
100
AcDbEntity
  8
LC-001-002-----0
  6
ByBlock
 62
     7
370
    50
100
AcDbLine
 10
34.661472
 20
296.140705
 30
0.0
 11
34.661472
 21
296.140798
 31
0.0
  0
LINE
  5
147
330
1F
100
AcDbEntity
  8
LC-001-002-----0
  6
ByBlock
 62
     7
370
    50
100
AcDbLine
 10
51.161472
 20
276.140705
 30
0.0
 11
51.161472
 21
293.078527
 31
0.0
  0
LINE
  5
148
330
1F
100
AcDbEntity
  8
LC-001-002-----0
  6
ByBlock
 62
     7
370
    50
100
AcDbLine
 10
56.161472
 20
271.140705
 30
0.0
 11
58.761773
 21
271.140705
 31
0.0
  0
LINE
  5
149
330
1F
100
AcDbEntity
  8
LC-001-002-----0
  6
ByBlock
 62
     7
370
    50
100
AcDbLine
 10
51.161472
 20
276.140705
 30
0.0
 11
56.161472
 21
271.140705
 31
0.0
  0
LINE
  5
14A
330
1F
100
AcDbEntity
  8
LC-001-002-----0
  6
ByBlock
 62
     7
370
    50
100
AcDbLine
 10
58.661472
 20
272.176239
 30
0.0
 11
58.661472
 21
271.140705
 31
0.0
  0
LINE
  5
14B
330
1F
100
AcDbEntity
  8
LC-001-002-----0
  6
ByBlock
 62
     7
370
    50
100
AcDbLine
 10
53.661472
 20
277.176239
 30
0.0
 11
58.661472
 21
272.176239
 31
0.0
  0
LINE
  5
14C
330
1F
100
AcDbEntity
  8
LC-001-002-----0
  6
ByBlock
 62
     7
370
    50
100
AcDbLine
 10
53.661472
 20
277.176239
 30
0.0
 11
53.661472
 21
297.140705
 31
0.0
  0
LINE
  5
14D
330
1F
100
AcDbEntity
  8
LC-001-002-----0
  6
ByBlock
 62
     7
370
    50
100
AcDbLine
 10
50.125574
 20
297.140705
 30
0.0
 11
132.661472
 21
297.140705
 31
0.0
  0
LINE
  5
14E
330
1F
100
AcDbEntity
  8
LC-001-002-----0
  6
ByBlock
 62
     7
370
    50
100
AcDbLine
 10
46.661472
 20
299.140705
 30
0.0
 11
50.125574
 21
297.140705
 31
0.0
  0
LINE
  5
14F
330
1F
100
AcDbEntity
  8
LC-001-002-----0
  6
ByBlock
 62
     7
370
    50
100
AcDbLine
 10
47.589675
 20
295.140705
 30
0.0
 11
51.161472
 21
293.078527
 31
0.0
  0
LINE
  5
150
330
1F
100
AcDbEntity
  8
LC-001-002-----0
  6
ByBlock
 62
     7
370
    50
100
AcDbLine
 10
23.161472
 20
287.415705
 30
0.0
 11
25.980705
 21
287.415705
 31
0.0
  0
LINE
  5
151
330
1F
100
AcDbEntity
  8
LC-001-002-----0
  6
ByBlock
 62
     7
370
    50
100
AcDbLine
 10
12.661472
 20
292.140705
 30
0.0
 11
20.661472
 21
292.140705
 31
0.0
  0
ARC
  5
152
330
1F
100
AcDbEntity
  8
LC-002-002-RND-0
 62
     7
370
    50
100
AcDbCircle
 10
-42.338528
 20
297.140705
 30
0.0
 40
2.0
100
AcDbArc
 50
90.0
 51
180.0
  0
LINE
  5
153
330
1F
100
AcDbEntity
  8
LC-001-002-----0
  6
ByBlock
 62
     7
370
    50
100
AcDbLine
 10
42.661472
 20
296.140705
 30
0.0
 11
42.661472
 21
286.140705
 31
0.0
  0
LINE
  5
154
330
1F
100
AcDbEntity
  8
LC-001-002-----0
  6
ByBlock
 62
     7
370
    50
100
AcDbLine
 10
46.911472
 20
295.140705
 30
0.0
 11
47.589675
 21
295.140705
 31
0.0
  0
LINE
  5
157
330
1F
100
AcDbEntity
  8
LC-006-006-MLN-0
 62
     7
370
    25
100
AcDbLine
 10
38.661472
 20
309.140705
 30
0.0
 11
38.661472
 21
276.140705
 31
0.0
  0
LINE
  5
158
330
1F
100
AcDbEntity
  8
LC-001-002-----0
  6
ByBlock
 62
     7
370
    50
100
AcDbLine
 10
32.411472
 20
296.140705
 30
0.0
 11
35.511468
 21
296.140705
 31
0.0
  0
LINE
  5
159
330
1F
100
AcDbEntity
  8
LC-001-002-----0
  6
ByBlock
 62
     7
370
    50
100
AcDbLine
 10
41.811468
 20
296.140705
 30
0.0
 11
44.911472
 21
296.140705
 31
0.0
  0
LINE
  5
15A
330
1F
100
AcDbEntity
  8
LC-001-002-----0
  6
ByBlock
 62
     7
370
    50
100
AcDbLine
 10
32.411472
 20
299.140705
 30
0.0
 11
32.411472
 21
297.675389
 31
0.0
  0
LINE
  5
15B
330
1F
100
AcDbEntity
  8
LC-001-002-----0
  6
ByBlock
 62
     7
370
    50
100
AcDbLine
 10
32.411472
 20
296.140788
 30
0.0
 11
32.411472
 21
296.140705
 31
0.0
  0
LINE
  5
15C
330
1F
100
AcDbEntity
  8
LC-001-002-----0
  6
ByBlock
 62
     7
370
    50
100
AcDbLine
 10
44.911472
 20
299.140705
 30
0.0
 11
44.911472
 21
296.140705
 31
0.0
  0
LINE
  5
15D
330
1F
100
AcDbEntity
  8
LC-001-002-----0
  6
ByBlock
 62
     7
370
    50
100
AcDbLine
 10
31.661472
 20
286.140705
 30
0.0
 11
30.411472
 21
295.140705
 31
0.0
  0
LINE
  5
15E
330
1F
100
AcDbEntity
  8
LC-001-002-----0
  6
ByBlock
 62
     7
370
    50
100
AcDbLine
 10
45.661472
 20
286.140705
 30
0.0
 11
46.911472
 21
295.140705
 31
0.0
  0
INSERT
  5
17A
330
1F
100
AcDbEntity
  8
LC-003-005-----0
 62
     7
370
    25
100
AcDbBlockReference
  2
*X78
 10
0.0
 20
0.0
 30
0.0
  0
INSERT
  5
187
330
1F
100
AcDbEntity
  8
LC-003-005-----0
 62
     7
370
    25
100
AcDbBlockReference
  2
*X89
 10
0.0
 20
0.0
 30
0.0
  0
LINE
  5
188
330
1F
100
AcDbEntity
  8
LC-001-002-----0
  6
ByBlock
 62
     7
370
    50
100
AcDbLine
 10
309.661472
 20
296.640705
 30
0.0
 11
309.661472
 21
297.140705
 31
0.0
  0
LINE
  5
189
330
1F
100
AcDbEntity
  8
LC-001-002-----0
  6
ByBlock
 62
     7
370
    50
100
AcDbLine
 10
307.661472
 20
299.140705
 30
0.0
 11
232.237681
 21
299.140705
 31
0.0
  0
LINE
  5
18A
330
1F
100
AcDbEntity
  8
LC-001-002-----0
  6
ByBlock
 62
     7
370
    50
100
AcDbLine
 10
221.106708
 20
299.140705
 30
0.0
 11
218.247042
 21
299.140705
 31
0.0
  0
LINE
  5
18B
330
1F
100
AcDbEntity
  8
LC-001-002-----0
  6
ByBlock
 62
     7
370
    50
100
AcDbLine
 10
309.661472
 20
296.640705
 30
0.0
 11
262.661472
 21
296.640705
 31
0.0
  0
LINE
  5
18C
330
1F
100
AcDbEntity
  8
LC-001-002-----0
  6
ByBlock
 62
     7
370
    50
100
AcDbLine
 10
259.328139
 20
295.140705
 30
0.0
 11
254.661472
 21
295.140705
 31
0.0
  0
LINE
  5
18D
330
1F
100
AcDbEntity
  8
LC-001-002-----0
  6
ByBlock
 62
     7
370
    50
100
AcDbLine
 10
254.661472
 20
293.040705
 30
0.0
 11
254.661472
 21
295.140705
 31
0.0
  0
LINE
  5
18E
330
1F
100
AcDbEntity
  8
LC-001-002-----0
  6
ByBlock
 62
     7
370
    50
100
AcDbLine
 10
252.661472
 20
292.140705
 30
0.0
 11
252.661472
 21
295.140705
 31
0.0
  0
LINE
  5
18F
330
1F
100
AcDbEntity
  8
LC-001-002-----0
  6
ByBlock
 62
     7
370
    50
100
AcDbLine
 10
252.661472
 20
295.140705
 30
0.0
 11
244.661472
 21
295.140705
 31
0.0
  0
LINE
  5
190
330
1F
100
AcDbEntity
  8
LC-001-002-----0
  6
ByBlock
 62
     7
370
    50
100
AcDbLine
 10
244.661472
 20
288.540705
 30
0.0
 11
244.661472
 21
295.140705
 31
0.0
  0
LINE
  5
191
330
1F
100
AcDbEntity
  8
LC-001-002-----0
  6
ByBlock
 62
     7
370
    50
100
AcDbLine
 10
242.161472
 20
287.415705
 30
0.0
 11
242.161472
 21
295.140705
 31
0.0
  0
LINE
  5
192
330
1F
100
AcDbEntity
  8
LC-001-002-----0
  6
ByBlock
 62
     7
370
    50
100
AcDbLine
 10
262.661472
 20
296.640705
 30
0.0
 11
259.328139
 21
295.140705
 31
0.0
  0
LINE
  5
193
330
1F
100
AcDbEntity
  8
LC-001-002-----0
  6
ByBlock
 62
     7
370
    50
100
AcDbLine
 10
244.661472
 20
288.540705
 30
0.0
 11
242.161472
 21
287.415705
 31
0.0
  0
LINE
  5
194
330
1F
100
AcDbEntity
  8
LC-001-002-----0
  6
ByBlock
 62
     7
370
    50
100
AcDbLine
 10
254.661472
 20
293.040705
 30
0.0
 11
252.661472
 21
292.140705
 31
0.0
  0
LINE
  5
195
330
1F
100
AcDbEntity
  8
LC-001-002-----0
  6
ByBlock
 62
     7
370
    50
100
AcDbLine
 10
242.161472
 20
295.140705
 30
0.0
 11
234.911472
 21
295.140705
 31
0.0
  0
LINE
  5
196
330
1F
100
AcDbEntity
  8
LC-001-002-----0
  6
ByBlock
 62
     7
370
    50
100
AcDbLine
 10
233.661472
 20
286.140705
 30
0.0
 11
229.821935
 21
286.140705
 31
0.0
  0
LINE
  5
197
330
1F
100
AcDbEntity
  8
LC-001-002-----0
  6
ByBlock
 62
     7
370
    50
100
AcDbLine
 10
223.521935
 20
286.140705
 30
0.0
 11
214.161472
 21
286.140705
 31
0.0
  0
LINE
  5
198
330
1F
100
AcDbEntity
  8
LC-001-002-----0
  6
ByBlock
 62
     7
370
    50
100
AcDbLine
 10
230.661472
 20
286.140705
 30
0.0
 11
230.661472
 21
296.136471
 31
0.0
  0
LINE
  5
199
330
1F
100
AcDbEntity
  8
LC-001-002-----0
  6
ByBlock
 62
     7
370
    50
100
AcDbLine
 10
214.161472
 20
276.140705
 30
0.0
 11
214.161472
 21
293.078527
 31
0.0
  0
LINE
  5
19A
330
1F
100
AcDbEntity
  8
LC-001-002-----0
  6
ByBlock
 62
     7
370
    50
100
AcDbLine
 10
209.161472
 20
271.140705
 30
0.0
 11
206.561175
 21
271.140705
 31
0.0
  0
LINE
  5
19B
330
1F
100
AcDbEntity
  8
LC-001-002-----0
  6
ByBlock
 62
     7
370
    50
100
AcDbLine
 10
214.161472
 20
276.140705
 30
0.0
 11
209.161472
 21
271.140705
 31
0.0
  0
LINE
  5
19C
330
1F
100
AcDbEntity
  8
LC-001-002-----0
  6
ByBlock
 62
     7
370
    50
100
AcDbLine
 10
206.661472
 20
272.176239
 30
0.0
 11
206.661472
 21
271.140705
 31
0.0
  0
LINE
  5
19D
330
1F
100
AcDbEntity
  8
LC-001-002-----0
  6
ByBlock
 62
     7
370
    50
100
AcDbLine
 10
211.661472
 20
277.176239
 30
0.0
 11
206.661472
 21
272.176239
 31
0.0
  0
LINE
  5
19E
330
1F
100
AcDbEntity
  8
LC-001-002-----0
  6
ByBlock
 62
     7
370
    50
100
AcDbLine
 10
211.661472
 20
277.176239
 30
0.0
 11
211.661472
 21
297.140705
 31
0.0
  0
LINE
  5
19F
330
1F
100
AcDbEntity
  8
LC-001-002-----0
  6
ByBlock
 62
     7
370
    50
100
AcDbLine
 10
215.19737
 20
297.140705
 30
0.0
 11
132.661472
 21
297.140705
 31
0.0
  0
LINE
  5
1A0
330
1F
100
AcDbEntity
  8
LC-001-002-----0
  6
ByBlock
 62
     7
370
    50
100
AcDbLine
 10
218.661472
 20
299.140705
 30
0.0
 11
215.19737
 21
297.140705
 31
0.0
  0
LINE
  5
1A1
330
1F
100
AcDbEntity
  8
LC-001-002-----0
  6
ByBlock
 62
     7
370
    50
100
AcDbLine
 10
217.733269
 20
295.140705
 30
0.0
 11
214.161472
 21
293.078527
 31
0.0
  0
LINE
  5
1A2
330
1F
100
AcDbEntity
  8
LC-001-002-----0
  6
ByBlock
 62
     7
370
    50
100
AcDbLine
 10
242.161472
 20
287.415705
 30
0.0
 11
239.342239
 21
287.415705
 31
0.0
  0
LINE
  5
1A3
330
1F
100
AcDbEntity
  8
LC-001-002-----0
  6
ByBlock
 62
     7
370
    50
100
AcDbLine
 10
252.661472
 20
292.140705
 30
0.0
 11
244.661472
 21
292.140705
 31
0.0
  0
ARC
  5
1A4
330
1F
100
AcDbEntity
  8
LC-002-002-RND-0
 62
     7
370
    50
100
AcDbCircle
 10
307.661472
 20
297.140705
 30
0.0
 40
2.0
100
AcDbArc
 50
0.0
 51
90.0
  0
LINE
  5
1A5
330
1F
100
AcDbEntity
  8
LC-001-002-----0
  6
ByBlock
 62
     7
370
    50
100
AcDbLine
 10
222.661472
 20
296.136857
 30
0.0
 11
222.661472
 21
286.140705
 31
0.0
  0
LINE
  5
1A6
330
1F
100
AcDbEntity
  8
LC-001-002-----0
  6
ByBlock
 62
     7
370
    50
100
AcDbLine
 10
218.411472
 20
295.140705
 30
0.0
 11
217.733269
 21
295.140705
 31
0.0
  0
LINE
  5
1A7
330
1F
100
AcDbEntity
  8
LC-006-006-MLN-0
 62
     7
370
    25
100
AcDbLine
 10
226.661472
 20
309.140705
 30
0.0
 11
226.661472
 21
266.13655
 31
0.0
  0
LINE
  5
1A8
330
1F
100
AcDbEntity
  8
LC-001-002-----0
  6
ByBlock
 62
     7
370
    50
100
AcDbLine
 10
220.422367
 20
296.140705
 30
0.0
 11
220.411472
 21
296.140705
 31
0.0
  0
LINE
  5
1A9
330
1F
100
AcDbEntity
  8
LC-001-002-----0
  6
ByBlock
 62
     7
370
    50
100
AcDbLine
 10
232.911472
 20
299.140705
 30
0.0
 11
232.911472
 21
297.729982
 31
0.0
  0
LINE
  5
1AA
330
1F
100
AcDbEntity
  8
LC-001-002-----0
  6
ByBlock
 62
     7
370
    50
100
AcDbLine
 10
220.411472
 20
299.140705
 30
0.0
 11
220.411472
 21
296.140705
 31
0.0
  0
LINE
  5
1AB
330
1F
100
AcDbEntity
  8
LC-001-002-----0
  6
ByBlock
 62
     7
370
    50
100
AcDbLine
 10
233.661472
 20
286.140705
 30
0.0
 11
234.911472
 21
295.140705
 31
0.0
  0
LINE
  5
1AC
330
1F
100
AcDbEntity
  8
LC-001-002-----0
  6
ByBlock
 62
     7
370
    50
100
AcDbLine
 10
219.661472
 20
286.140705
 30
0.0
 11
218.411472
 21
295.140705
 31
0.0
  0
INSERT
  5
1C9
330
1F
100
AcDbEntity
  8
LC-003-005-----0
 62
     7
370
    25
100
AcDbBlockReference
  2
*X910
 10
0.0
 20
0.0
 30
0.0
  0
INSERT
  5
1DA
330
1F
100
AcDbEntity
  8
LC-003-005-----0
 62
     7
370
    25
100
AcDbBlockReference
  2
*X1011
 10
0.0
 20
0.0
 30
0.0
  0
LINE
  5
1DB
102
{ACAD_REACTORS
330
5A2
102
}
330
1F
100
AcDbEntity
  8
LC-001-002-----0
  6
ByBlock
 62
     7
370
    50
100
AcDbLine
 10
229.822135
 20
290.508995
 30
0.0
 11
223.521974
 21
286.871966
 31
0.0
  0
LINE
  5
1DC
102
{ACAD_REACTORS
330
5A2
102
}
330
1F
100
AcDbEntity
  8
LC-001-002-----0
  6
ByBlock
 62
     7
370
    50
100
AcDbLine
 10
229.822014
 20
287.544845
 30
0.0
 11
223.521854
 21
283.907816
 31
0.0
  0
LINE
  5
1DD
102
{ACAD_REACTORS
330
5A2
102
}
330
1F
100
AcDbEntity
  8
LC-001-002-----0
  6
ByBlock
 62
     7
370
    50
100
AcDbLine
 10
222.922366
 20
296.136852
 30
0.0
 11
220.67237
 21
296.136966
 31
0.0
  0
LINE
  5
1DE
102
{ACAD_REACTORS
330
5A2
102
}
330
1F
100
AcDbEntity
  8
LC-001-002-----0
  6
ByBlock
 62
     7
370
    50
100
AcDbLine
 10
230.422366
 20
296.136474
 30
0.0
 11
231.651192
 21
296.136412
 31
0.0
  0
ARC
  5
1DF
102
{ACAD_REACTORS
330
5A2
102
}
330
1F
100
AcDbEntity
  8
LC-002-002-RND-0
 62
     7
370
    50
100
AcDbCircle
 10
230.922434
 20
297.671029
 30
0.0
 40
2.000000000000069
100
AcDbArc
 50
359.99747
 51
63.121961
  0
LINE
  5
1E0
102
{ACAD_REACTORS
330
5A2
102
}
330
1F
100
AcDbEntity
  8
LC-001-002-----0
  6
ByBlock
 62
     7
370
    50
100
AcDbLine
 10
232.922366
 20
296.136361
 30
0.0
 11
220.422366
 21
296.136965
 31
0.0
  0
LINE
  5
1E1
102
{ACAD_REACTORS
330
5A2
102
}
330
1F
100
AcDbEntity
  8
LC-001-002-----0
  6
ByBlock
 62
     7
370
    50
100
AcDbLine
 10
220.422366
 20
296.136965
 30
0.0
 11
220.422434
 21
297.671467
 31
0.0
  0
LINE
  5
1E2
102
{ACAD_REACTORS
330
5A2
102
}
330
1F
100
AcDbEntity
  8
LC-001-002-----0
  6
ByBlock
 62
     7
370
    50
100
AcDbLine
 10
229.821739
 20
281.592371
 30
0.0
 11
226.671498
 21
276.13655
 31
0.0
  0
LINE
  5
1E3
102
{ACAD_REACTORS
330
5A2
102
}
330
1F
100
AcDbEntity
  8
LC-001-002-----0
  6
ByBlock
 62
     7
370
    50
100
AcDbLine
 10
224.172943
 20
280.464615
 30
0.0
 11
223.521739
 21
281.592649
 31
0.0
  0
LINE
  5
1E4
102
{ACAD_REACTORS
330
5A2
102
}
330
1F
100
AcDbEntity
  8
LC-001-002-----0
  6
ByBlock
 62
     7
370
    50
100
AcDbLine
 10
232.922366
 20
296.136361
 30
0.0
 11
232.922434
 21
297.670941
 31
0.0
  0
LINE
  5
1E5
102
{ACAD_REACTORS
330
5A2
102
}
330
1F
100
AcDbEntity
  8
LC-001-002-----0
  6
ByBlock
 62
     7
370
    50
100
AcDbLine
 10
223.522286
 20
294.318143
 30
0.0
 11
226.672378
 21
296.136663
 31
0.0
  0
LINE
  5
1E6
102
{ACAD_REACTORS
330
5A2
102
}
330
1F
100
AcDbEntity
  8
LC-001-002-----0
  6
ByBlock
 62
     7
370
    50
100
AcDbLine
 10
226.671498
 20
276.13655
 30
0.0
 11
224.172943
 21
280.464615
 31
0.0
  0
LINE
  5
1E7
102
{ACAD_REACTORS
330
5A2
102
}
330
1F
100
AcDbEntity
  8
LC-001-002-----0
  6
ByBlock
 62
     7
370
    50
100
AcDbLine
 10
229.821739
 20
281.592371
 30
0.0
 11
229.822366
 21
296.136511
 31
0.0
  0
LINE
  5
1E8
102
{ACAD_REACTORS
330
5A2
102
}
330
1F
100
AcDbEntity
  8
LC-001-002-----0
  6
ByBlock
 62
     7
370
    50
100
AcDbLine
 10
229.821826
 20
283.562753
 30
0.0
 11
224.243483
 21
280.342423
 31
0.0
  0
LINE
  5
1E9
102
{ACAD_REACTORS
330
5A2
102
}
330
1F
100
AcDbEntity
  8
LC-001-002-----0
  6
ByBlock
 62
     7
370
    50
100
AcDbLine
 10
228.528041
 20
279.351848
 30
0.0
 11
225.743368
 21
277.744281
 31
0.0
  0
LINE
  5
1EA
102
{ACAD_REACTORS
330
5A2
102
}
330
1F
100
AcDbEntity
  8
LC-001-002-----0
  6
ByBlock
 62
     7
370
    50
100
AcDbLine
 10
229.822294
 20
294.491069
 30
0.0
 11
223.522133
 21
290.854041
 31
0.0
  0
LINE
  5
1EB
102
{ACAD_REACTORS
330
5A2
102
}
330
1F
100
AcDbEntity
  8
LC-001-002-----0
  6
ByBlock
 62
     7
370
    50
100
AcDbLine
 10
223.521739
 20
281.592649
 30
0.0
 11
223.522366
 21
296.136816
 31
0.0
  0
ARC
  5
1EC
102
{ACAD_REACTORS
330
5A2
102
}
330
1F
100
AcDbEntity
  8
LC-001-002-----0
  6
ByBlock
 62
     7
370
    50
100
AcDbCircle
 10
226.672089
 20
289.285176
 30
0.0
 40
11.40148749780557
100
AcDbArc
 50
63.121961
 51
116.87332
  0
ARC
  5
1ED
102
{ACAD_REACTORS
330
5A2
102
}
330
1F
100
AcDbEntity
  8
LC-002-002-RND-0
 62
     7
370
    50
100
AcDbCircle
 10
222.422434
 20
297.671379
 30
0.0
 40
1.999999999999974
100
AcDbArc
 50
116.87332
 51
179.99747
  0
LINE
  5
1EE
102
{ACAD_REACTORS
330
5A5
102
}
330
1F
100
AcDbEntity
  8
LC-001-002-----0
  6
ByBlock
 62
     7
370
    50
100
AcDbLine
 10
35.511451
 20
290.513285
 30
0.0
 11
41.811451
 21
286.875978
 31
0.0
  0
LINE
  5
1EF
102
{ACAD_REACTORS
330
5A5
102
}
330
1F
100
AcDbEntity
  8
LC-001-002-----0
  6
ByBlock
 62
     7
370
    50
100
AcDbLine
 10
35.511441
 20
287.549135
 30
0.0
 11
41.811441
 21
283.911828
 31
0.0
  0
LINE
  5
1F0
102
{ACAD_REACTORS
330
5A5
102
}
330
1F
100
AcDbEntity
  8
LC-001-002-----0
  6
ByBlock
 62
     7
370
    50
100
AcDbLine
 10
42.411469
 20
296.140838
 30
0.0
 11
44.661464
 21
296.140852
 31
0.0
  0
LINE
  5
1F1
102
{ACAD_REACTORS
330
5A5
102
}
330
1F
100
AcDbEntity
  8
LC-001-002-----0
  6
ByBlock
 62
     7
370
    50
100
AcDbLine
 10
34.911469
 20
296.140791
 30
0.0
 11
33.682642
 21
296.140783
 31
0.0
  0
ARC
  5
1F2
102
{ACAD_REACTORS
330
5A5
102
}
330
1F
100
AcDbEntity
  8
LC-002-002-RND-0
 62
     7
370
    50
100
AcDbCircle
 10
34.411468
 20
297.675368
 30
0.0
 40
2.000000000000036
100
AcDbArc
 50
116.875509
 51
180.0
  0
LINE
  5
1F3
102
{ACAD_REACTORS
330
5A5
102
}
330
1F
100
AcDbEntity
  8
LC-001-002-----0
  6
ByBlock
 62
     7
370
    50
100
AcDbLine
 10
32.411468
 20
296.140788
 30
0.0
 11
44.911468
 21
296.14084
 31
0.0
  0
LINE
  5
1F4
102
{ACAD_REACTORS
330
5A5
102
}
330
1F
100
AcDbEntity
  8
LC-001-002-----0
  6
ByBlock
 62
     7
370
    50
100
AcDbLine
 10
44.911468
 20
296.14084
 30
0.0
 11
44.911468
 21
297.675342
 31
0.0
  0
LINE
  5
1F5
102
{ACAD_REACTORS
330
5A5
102
}
330
1F
100
AcDbEntity
  8
LC-001-002-----0
  6
ByBlock
 62
     7
370
    50
100
AcDbLine
 10
35.511454
 20
281.596661
 30
0.0
 11
38.661454
 21
276.140701
 31
0.0
  0
LINE
  5
1F6
102
{ACAD_REACTORS
330
5A5
102
}
330
1F
100
AcDbEntity
  8
LC-001-002-----0
  6
ByBlock
 62
     7
370
    50
100
AcDbLine
 10
41.160199
 20
280.468655
 30
0.0
 11
41.811454
 21
281.596661
 31
0.0
  0
LINE
  5
1F7
102
{ACAD_REACTORS
330
5A5
102
}
330
1F
100
AcDbEntity
  8
LC-001-002-----0
  6
ByBlock
 62
     7
370
    50
100
AcDbLine
 10
32.411468
 20
296.140788
 30
0.0
 11
32.411468
 21
297.675368
 31
0.0
  0
LINE
  5
1F8
102
{ACAD_REACTORS
330
5A5
102
}
330
1F
100
AcDbEntity
  8
LC-001-002-----0
  6
ByBlock
 62
     7
370
    50
100
AcDbLine
 10
41.811468
 20
294.322155
 30
0.0
 11
38.661457
 21
296.140814
 31
0.0
  0
LINE
  5
1F9
102
{ACAD_REACTORS
330
5A5
102
}
330
1F
100
AcDbEntity
  8
LC-001-002-----0
  6
ByBlock
 62
     7
370
    50
100
AcDbLine
 10
38.661454
 20
276.140701
 30
0.0
 11
41.160199
 21
280.468655
 31
0.0
  0
LINE
  5
1FA
102
{ACAD_REACTORS
330
5A5
102
}
330
1F
100
AcDbEntity
  8
LC-001-002-----0
  6
ByBlock
 62
     7
370
    50
100
AcDbLine
 10
35.511454
 20
281.596661
 30
0.0
 11
35.511468
 21
296.140801
 31
0.0
  0
LINE
  5
1FB
102
{ACAD_REACTORS
330
5A5
102
}
330
1F
100
AcDbEntity
  8
LC-001-002-----0
  6
ByBlock
 62
     7
370
    50
100
AcDbLine
 10
35.511454
 20
283.567043
 30
0.0
 11
41.089654
 21
280.346467
 31
0.0
  0
LINE
  5
1FC
102
{ACAD_REACTORS
330
5A5
102
}
330
1F
100
AcDbEntity
  8
LC-001-002-----0
  6
ByBlock
 62
     7
370
    50
100
AcDbLine
 10
36.805053
 20
279.356081
 30
0.0
 11
39.589654
 21
277.748391
 31
0.0
  0
LINE
  5
1FD
102
{ACAD_REACTORS
330
5A5
102
}
330
1F
100
AcDbEntity
  8
LC-001-002-----0
  6
ByBlock
 62
     7
370
    50
100
AcDbLine
 10
35.511468
 20
294.49536
 30
0.0
 11
41.811468
 21
290.858053
 31
0.0
  0
LINE
  5
1FE
102
{ACAD_REACTORS
330
5A5
102
}
330
1F
100
AcDbEntity
  8
LC-001-002-----0
  6
ByBlock
 62
     7
370
    50
100
AcDbLine
 10
41.811454
 20
281.596661
 30
0.0
 11
41.811468
 21
296.140828
 31
0.0
  0
ARC
  5
1FF
102
{ACAD_REACTORS
330
5A5
102
}
330
1F
100
AcDbEntity
  8
LC-001-002-----0
  6
ByBlock
 62
     7
370
    50
100
AcDbCircle
 10
38.661443
 20
289.289327
 30
0.0
 40
11.4014874978057
100
AcDbArc
 50
63.12415
 51
116.875509
  0
ARC
  5
200
102
{ACAD_REACTORS
330
5A5
102
}
330
1F
100
AcDbEntity
  8
LC-002-002-RND-0
 62
     7
370
    50
100
AcDbCircle
 10
42.911468
 20
297.675342
 30
0.0
 40
2.0
100
AcDbArc
 50
360.0
 51
63.12415
  0
LINE
  5
201
330
1F
100
AcDbEntity
  8
LC-001-002-----0
  6
ByBlock
 62
     7
370
    50
100
AcDbLine
 10
29.618592
 20
287.415705
 30
0.0
 11
31.484389
 21
287.415705
 31
0.0
  0
LINE
  5
202
330
1F
100
AcDbEntity
  8
LC-001-002-----0
  6
ByBlock
 62
     7
370
    50
100
AcDbLine
 10
235.704353
 20
287.415705
 30
0.0
 11
233.838555
 21
287.415705
 31
0.0
  0
DIMENSION
  5
203
330
1F
100
AcDbEntity
  8
LC-005-003-----0
 62
     7
370
    25
100
AcDbDimension
  2
*D12
 10
195.161472
 20
214.214032
 30
0.0
 11
132.661472
 21
245.014032
 31
0.0
 70
   160
  1
%%c<>
 71
     5
 42
125.0
  3
LC-DIM-L-0140-02-02
100
AcDbAlignedDimension
 13
70.161472
 23
250.10383
 33
0.0
 14
195.161472
 24
250.10383
 34
0.0
100
AcDbRotatedDimension
  0
DIMENSION
  5
210
330
1F
100
AcDbEntity
  8
LC-005-003-----0
 62
     7
370
    25
100
AcDbDimension
  2
*D13
 10
229.769244
 20
185.055185
 30
0.0
 11
198.969244
 21
67.055112
 31
0.0
 70
   160
 71
     5
 42
236.000148
 53
90.0
  3
LC-DIM-L-0140-02-02
100
AcDbAlignedDimension
 13
157.661472
 23
-50.944962
 33
0.0
 14
163.911824
 24
185.055185
 34
0.0
 50
90.0
100
AcDbRotatedDimension
  0
DIMENSION
  5
21D
330
1F
100
AcDbEntity
  8
LC-005-003-----0
 62
     7
370
    25
100
AcDbDimension
  2
*D14
 10
268.969244
 20
250.10383
 30
0.0
 11
238.169244
 21
99.579434
 31
0.0
 70
   160
  1
301
 71
     5
 42
301.048792
 53
90.0
  3
LC-DIM-L-0140-02-02
100
AcDbAlignedDimension
 13
157.661472
 23
-50.944962
 33
0.0
 14
213.411472
 24
250.10383
 34
0.0
 50
90.0
100
AcDbRotatedDimension
  0
DIMENSION
  5
22A
330
1F
100
AcDbEntity
  8
LC-005-003-----0
 62
     7
370
    25
100
AcDbDimension
  2
*D15
 10
308.169244
 20
299.140705
 30
0.0
 11
277.369244
 21
124.097871
 31
0.0
 70
   160
  1
350
 71
     5
 42
350.085667
 53
90.0
  3
LC-DIM-L-0140-02-02
100
AcDbAlignedDimension
 13
176.455701
 23
-50.944962
 33
0.0
 14
305.160872
 24
299.140705
 34
0.0
 50
90.0
100
AcDbRotatedDimension
  0
DIMENSION
  5
237
330
1F
100
AcDbEntity
  8
LC-005-003-----0
 62
     7
370
    25
100
AcDbDimension
  2
*D16
 10
160.661472
 20
-70.145612
 30
0.0
 11
21.256022
 21
-39.345612
 31
0.0
 70
   160
  1
%%c<>
 71
     5
 42
56.0
  3
LC-DIM-L-0140-02-02
100
AcDbAlignedDimension
 13
104.661472
 23
-46.444962
 33
0.0
 14
160.661472
 24
-46.444962
 34
0.0
100
AcDbRotatedDimension
  0
LINE
  5
245
102
{ACAD_REACTORS
330
5A1
102
}
330
1F
100
AcDbEntity
  8
LC-001-002-----0
  6
ByBlock
 62
     7
370
    50
100
AcDbLine
 10
50.161471
 20
268.555038
 30
0.0
 11
54.911472
 21
268.555038
 31
0.0
  0
LINE
  5
246
102
{ACAD_REACTORS
330
5A1
102
}
330
1F
100
AcDbEntity
  8
LC-001-002-----0
  6
ByBlock
 62
     7
370
    50
100
AcDbLine
 10
107.661472
 20
-50.944962
 30
0.0
 11
157.661472
 21
-50.944962
 31
0.0
  0
LINE
  5
247
102
{ACAD_REACTORS
330
5A1
102
}
330
1F
100
AcDbEntity
  8
LC-001-002-----0
  6
ByBlock
 62
     7
370
    50
100
AcDbLine
 10
193.568081
 20
253.10383
 30
0.0
 11
210.411472
 21
253.10383
 31
0.0
  0
LINE
  5
248
102
{ACAD_REACTORS
330
5A1
102
}
330
1F
100
AcDbEntity
  8
LC-001-002-----0
  6
ByBlock
 62
     7
370
    50
100
AcDbLine
 10
210.411472
 20
268.555038
 30
0.0
 11
215.161471
 21
268.555038
 31
0.0
  0
LINE
  5
249
102
{ACAD_REACTORS
330
5A1
102
}
330
1F
100
AcDbEntity
  8
LC-001-002-----0
  6
ByBlock
 62
     7
370
    50
100
AcDbLine
 10
47.161471
 20
265.555038
 30
0.0
 11
50.911472
 21
265.555038
 31
0.0
  0
LINE
  5
24A
102
{ACAD_REACTORS
330
5A1
102
}
330
1F
100
AcDbEntity
  8
LC-001-002-----0
  6
ByBlock
 62
     7
370
    50
100
AcDbLine
 10
50.161471
 20
268.555038
 30
0.0
 11
50.161471
 21
284.79845
 31
0.0
  0
LINE
  5
24B
102
{ACAD_REACTORS
330
5A1
102
}
330
1F
100
AcDbEntity
  8
LC-001-002-----0
  6
ByBlock
 62
     7
370
    50
100
AcDbLine
 10
215.161471
 20
285.298855
 30
0.0
 11
215.161471
 21
268.555038
 31
0.0
  0
LINE
  5
24C
102
{ACAD_REACTORS
330
5A1
102
}
330
1F
100
AcDbEntity
  8
LC-001-002-----0
  6
ByBlock
 62
     7
370
    50
100
AcDbLine
 10
28.710057
 20
282.296416
 30
0.0
 11
31.656286
 21
282.296702
 31
0.0
  0
LINE
  5
24D
102
{ACAD_REACTORS
330
5A1
102
}
330
1F
100
AcDbEntity
  8
LC-001-002-----0
  6
ByBlock
 62
     7
370
    50
100
AcDbLine
 10
50.911472
 20
265.555038
 30
0.0
 11
51.911472
 21
264.555038
 31
0.0
  0
LINE
  5
24E
102
{ACAD_REACTORS
330
5A1
102
}
330
1F
100
AcDbEntity
  8
LC-001-002-----0
  6
ByBlock
 62
     7
370
    50
100
AcDbLine
 10
104.661472
 20
199.054783
 30
0.0
 11
104.661472
 21
-46.444962
 31
0.0
  0
LINE
  5
24F
102
{ACAD_REACTORS
330
5A1
102
}
330
1F
100
AcDbEntity
  8
LC-001-002-----0
  6
ByBlock
 62
     7
370
    50
100
AcDbLine
 10
218.161473
 20
265.555038
 30
0.0
 11
214.411472
 21
265.555038
 31
0.0
  0
LINE
  5
250
102
{ACAD_REACTORS
330
5A1
102
}
330
1F
100
AcDbEntity
  8
LC-001-002-----0
  6
ByBlock
 62
     7
370
    50
100
AcDbLine
 10
214.411472
 20
265.555038
 30
0.0
 11
213.411472
 21
264.555038
 31
0.0
  0
LINE
  5
251
102
{ACAD_REACTORS
330
5A1
102
}
330
1F
100
AcDbEntity
  8
LC-006-006-MLN-0
 62
     7
370
    25
100
AcDbLine
 10
38.655318
 20
295.297381
 30
0.0
 11
38.659658
 21
249.296251
 31
0.0
  0
LINE
  5
252
102
{ACAD_REACTORS
330
5A1
102
}
330
1F
100
AcDbEntity
  8
LC-001-002-----0
  6
ByBlock
 62
     7
370
    50
100
AcDbLine
 10
107.661472
 20
199.973661
 30
0.0
 11
157.661477
 21
199.973699
 31
0.0
  0
LINE
  5
253
102
{ACAD_REACTORS
330
5A1
102
}
330
1F
100
AcDbEntity
  8
LC-006-006-MLN-0
 62
     7
370
    25
100
AcDbLine
 10
226.667604
 20
295.297788
 30
0.0
 11
226.663524
 21
249.296251
 31
0.0
  0
LINE
  5
254
102
{ACAD_REACTORS
330
5A1
102
}
330
1F
100
AcDbEntity
  8
LC-001-002-----0
  6
ByBlock
 62
     7
370
    50
100
AcDbLine
 10
54.911472
 20
253.10383
 30
0.0
 11
54.911472
 21
268.555038
 31
0.0
  0
LINE
  5
255
102
{ACAD_REACTORS
330
5A1
102
}
330
1F
100
AcDbEntity
  8
LC-001-002-----0
  6
ByBlock
 62
     7
370
    50
100
AcDbLine
 10
210.411472
 20
253.10383
 30
0.0
 11
210.411472
 21
268.555038
 31
0.0
  0
LINE
  5
256
102
{ACAD_REACTORS
330
5A1
102
}
330
1F
100
AcDbEntity
  8
LC-001-002-----0
  6
ByBlock
 62
     7
370
    50
100
AcDbLine
 10
107.661472
 20
199.973661
 30
0.0
 11
107.661472
 21
-50.944962
 31
0.0
  0
LINE
  5
257
102
{ACAD_REACTORS
330
5A1
102
}
330
1F
100
AcDbEntity
  8
LC-001-002-----0
  6
ByBlock
 62
     7
370
    50
100
AcDbLine
 10
160.661477
 20
199.054821
 30
0.0
 11
160.661472
 21
-46.444962
 31
0.0
  0
LINE
  5
258
102
{ACAD_REACTORS
330
5A1
102
}
330
1F
100
AcDbEntity
  8
LC-001-002-----0
  6
ByBlock
 62
     7
370
    50
100
AcDbLine
 10
159.455701
 20
-50.944962
 30
0.0
 11
160.661472
 21
-46.444962
 31
0.0
  0
LINE
  5
259
102
{ACAD_REACTORS
330
5A1
102
}
330
1F
100
AcDbEntity
  8
LC-001-002-----0
  6
ByBlock
 62
     7
370
    50
100
AcDbLine
 10
105.867243
 20
-50.944962
 30
0.0
 11
104.661472
 21
-46.444962
 31
0.0
  0
LINE
  5
25A
102
{ACAD_REACTORS
330
5A1
102
}
330
1F
100
AcDbEntity
  8
LC-001-002-----0
  6
ByBlock
 62
     7
370
    50
100
AcDbLine
 10
54.911472
 20
253.10383
 30
0.0
 11
71.754863
 21
253.10383
 31
0.0
  0
LINE
  5
25B
102
{ACAD_REACTORS
330
5A1
102
}
330
1F
100
AcDbEntity
  8
LC-001-002-----0
  6
ByBlock
 62
     7
370
    50
100
AcDbLine
 10
107.661472
 20
-50.944962
 30
0.0
 11
105.867243
 21
-50.944962
 31
0.0
  0
LINE
  5
25C
102
{ACAD_REACTORS
330
5A1
102
}
330
1F
100
AcDbEntity
  8
LC-001-002-----0
  6
ByBlock
 62
     7
370
    50
100
AcDbLine
 10
157.661472
 20
-50.944962
 30
0.0
 11
159.455701
 21
-50.944962
 31
0.0
  0
LINE
  5
25D
102
{ACAD_REACTORS
330
5A1
102
}
330
1F
100
AcDbEntity
  8
LC-001-002-----0
  6
ByBlock
 62
     7
370
    50
100
AcDbLine
 10
157.661477
 20
199.973669
 30
0.0
 11
157.661472
 21
-50.944962
 31
0.0
  0
LINE
  5
25E
102
{ACAD_REACTORS
330
5A1
102
}
330
1F
100
AcDbEntity
  8
LC-001-002-----0
  6
ByBlock
 62
     7
370
    50
100
AcDbLine
 10
195.161472
 20
250.10383
 30
0.0
 11
210.411472
 21
250.10383
 31
0.0
  0
LINE
  5
25F
102
{ACAD_REACTORS
330
5A1
102
}
330
1F
100
AcDbEntity
  8
LC-001-002-----0
  6
ByBlock
 62
     7
370
    50
100
AcDbLine
 10
51.911472
 20
264.555038
 30
0.0
 11
51.911472
 21
253.10383
 31
0.0
  0
LINE
  5
260
102
{ACAD_REACTORS
330
5A1
102
}
330
1F
100
AcDbEntity
  8
LC-001-002-----0
  6
ByBlock
 62
     7
370
    50
100
AcDbLine
 10
193.568081
 20
253.10383
 30
0.0
 11
157.661472
 21
199.973661
 31
0.0
  0
LINE
  5
261
102
{ACAD_REACTORS
330
5A1
102
}
330
1F
100
AcDbEntity
  8
LC-001-002-----0
  6
ByBlock
 62
     7
370
    50
100
AcDbLine
 10
70.161472
 20
250.10383
 30
0.0
 11
104.661438
 21
199.055038
 31
0.0
  0
LINE
  5
262
102
{ACAD_REACTORS
330
5A1
102
}
330
1F
100
AcDbEntity
  8
LC-001-002-----0
  6
ByBlock
 62
     7
370
    50
100
AcDbLine
 10
71.754863
 20
253.10383
 30
0.0
 11
107.661472
 21
199.973661
 31
0.0
  0
LINE
  5
263
102
{ACAD_REACTORS
330
5A1
102
}
330
1F
100
AcDbEntity
  8
LC-001-002-----0
  6
ByBlock
 62
     7
370
    50
100
AcDbLine
 10
195.161472
 20
250.10383
 30
0.0
 11
160.661506
 21
199.055038
 31
0.0
  0
LINE
  5
264
102
{ACAD_REACTORS
330
5A1
102
}
330
1F
100
AcDbEntity
  8
LC-001-002-----0
  6
ByBlock
 62
     7
370
    50
100
AcDbLine
 10
50.161471
 20
268.555038
 30
0.0
 11
50.161471
 21
285.298854
 31
0.0
  0
LINE
  5
265
102
{ACAD_REACTORS
330
5A1
102
}
330
1F
100
AcDbEntity
  8
LC-001-002-----0
  6
ByBlock
 62
     7
370
    50
100
AcDbLine
 10
54.911472
 20
250.10383
 30
0.0
 11
70.161472
 21
250.10383
 31
0.0
  0
LINE
  5
266
102
{ACAD_REACTORS
330
5A1
102
}
330
1F
100
AcDbEntity
  8
LC-001-002-----0
  6
ByBlock
 62
     7
370
    50
100
AcDbLine
 10
236.600134
 20
282.296417
 30
0.0
 11
233.666658
 21
282.296702
 31
0.0
  0
LINE
  5
267
102
{ACAD_REACTORS
330
5A1
102
}
330
1F
100
AcDbEntity
  8
LC-001-002-----0
  6
ByBlock
 62
     7
370
    50
100
AcDbLine
 10
213.411472
 20
264.555038
 30
0.0
 11
213.411472
 21
253.10383
 31
0.0
  0
LINE
  5
268
102
{ACAD_REACTORS
330
5A1
102
}
330
1F
100
AcDbEntity
  8
LC-001-002-----0
  6
ByBlock
 62
     7
370
    50
100
AcDbLine
 10
4.919809
 20
294.055038
 30
0.0
 11
28.976362
 21
285.299287
 31
0.0
  0
LINE
  5
269
102
{ACAD_REACTORS
330
5A1
102
}
330
1F
100
AcDbEntity
  8
LC-001-002-----0
  6
ByBlock
 62
     7
370
    50
100
AcDbLine
 10
4.645617
 20
291.055038
 30
0.0
 11
28.710057
 21
282.296416
 31
0.0
  0
LINE
  5
26A
102
{ACAD_REACTORS
330
5A1
102
}
330
1F
100
AcDbEntity
  8
LC-001-002-----0
  6
ByBlock
 62
     7
370
    50
100
AcDbLine
 10
35.511457
 20
285.297238
 30
0.0
 11
28.976362
 21
285.299287
 31
0.0
  0
LINE
  5
26B
102
{ACAD_REACTORS
330
5A1
102
}
330
1F
100
AcDbEntity
  8
LC-001-002-----0
  6
ByBlock
 62
     7
370
    50
100
AcDbLine
 10
50.154552
 20
285.298498
 30
0.0
 11
41.811457
 21
285.297688
 31
0.0
  0
LINE
  5
26C
102
{ACAD_REACTORS
330
5A1
102
}
330
1F
100
AcDbEntity
  8
LC-001-002-----0
  6
ByBlock
 62
     7
370
    50
100
AcDbLine
 10
260.397679
 20
294.055038
 30
0.0
 11
236.329426
 21
285.297533
 31
0.0
  0
LINE
  5
26D
102
{ACAD_REACTORS
330
5A1
102
}
330
1F
100
AcDbEntity
  8
LC-001-002-----0
  6
ByBlock
 62
     7
370
    50
100
AcDbLine
 10
260.671727
 20
291.055038
 30
0.0
 11
236.600134
 21
282.296417
 31
0.0
  0
LINE
  5
26E
102
{ACAD_REACTORS
330
5A1
102
}
330
1F
100
AcDbEntity
  8
LC-001-002-----0
  6
ByBlock
 62
     7
370
    50
100
AcDbLine
 10
229.821899
 20
285.297533
 30
0.0
 11
236.329426
 21
285.297533
 31
0.0
  0
LINE
  5
26F
102
{ACAD_REACTORS
330
5A1
102
}
330
1F
100
AcDbEntity
  8
LC-001-002-----0
  6
ByBlock
 62
     7
370
    50
100
AcDbLine
 10
215.168448
 20
285.298854
 30
0.0
 11
223.521899
 21
285.29808
 31
0.0
  0
LINE
  5
270
102
{ACAD_REACTORS
330
5A1
102
}
330
1F
100
AcDbEntity
  8
LC-001-002-----0
  6
ByBlock
 62
     7
370
    50
100
AcDbLine
 10
71.754863
 20
253.10383
 30
0.0
 11
193.568081
 21
253.10383
 31
0.0
  0
LINE
  5
271
102
{ACAD_REACTORS
330
5A1
102
}
330
1F
100
AcDbEntity
  8
LC-001-002-----0
  6
ByBlock
 62
     7
370
    50
100
AcDbLine
 10
309.661472
 20
292.055038
 30
0.0
 11
309.661472
 21
291.055038
 31
0.0
  0
LINE
  5
272
102
{ACAD_REACTORS
330
5A1
102
}
330
1F
100
AcDbEntity
  8
LC-001-002-----0
  6
ByBlock
 62
     7
370
    50
100
AcDbLine
 10
260.397679
 20
294.055038
 30
0.0
 11
307.661472
 21
294.055038
 31
0.0
  0
LINE
  5
273
102
{ACAD_REACTORS
330
5A1
102
}
330
1F
100
AcDbEntity
  8
LC-001-002-----0
  6
ByBlock
 62
     7
370
    50
100
AcDbLine
 10
260.671727
 20
291.055038
 30
0.0
 11
309.661472
 21
291.055038
 31
0.0
  0
LINE
  5
274
102
{ACAD_REACTORS
330
5A1
102
}
330
1F
100
AcDbEntity
  8
LC-001-002-----0
  6
ByBlock
 62
     7
370
    50
100
AcDbLine
 10
4.919809
 20
294.055038
 30
0.0
 11
-42.338528
 21
294.055038
 31
0.0
  0
LINE
  5
275
102
{ACAD_REACTORS
330
5A1
102
}
330
1F
100
AcDbEntity
  8
LC-001-002-----0
  6
ByBlock
 62
     7
370
    50
100
AcDbLine
 10
4.651217
 20
291.055038
 30
0.0
 11
-44.338528
 21
291.055038
 31
0.0
  0
LINE
  5
276
102
{ACAD_REACTORS
330
5A1
102
}
330
1F
100
AcDbEntity
  8
LC-001-002-----0
  6
ByBlock
 62
     7
370
    50
100
AcDbLine
 10
-44.338528
 20
292.055038
 30
0.0
 11
-44.338528
 21
291.055038
 31
0.0
  0
LINE
  5
277
102
{ACAD_REACTORS
330
5A1
102
}
330
1F
100
AcDbEntity
  8
LC-001-002-----0
  6
ByBlock
 62
     7
370
    50
100
AcDbLine
 10
31.656286
 20
282.296702
 30
0.0
 11
32.656292
 21
281.29689
 31
0.0
  0
LINE
  5
278
102
{ACAD_REACTORS
330
5A1
102
}
330
1F
100
AcDbEntity
  8
LC-001-002-----0
  6
ByBlock
 62
     7
370
    50
100
AcDbLine
 10
233.666658
 20
282.296702
 30
0.0
 11
232.666659
 21
281.296897
 31
0.0
  0
ARC
  5
279
102
{ACAD_REACTORS
330
5A1
102
}
330
1F
100
AcDbEntity
  8
LC-002-002-RND-0
 62
     7
370
    50
100
AcDbCircle
 10
-42.338528
 20
292.055038
 30
0.0
 40
2.0
100
AcDbArc
 50
90.0
 51
180.0
  0
ARC
  5
27A
102
{ACAD_REACTORS
330
5A1
102
}
330
1F
100
AcDbEntity
  8
LC-002-002-RND-0
 62
     7
370
    50
100
AcDbCircle
 10
307.661472
 20
292.055038
 30
0.0
 40
2.0
100
AcDbArc
 50
360.0
 51
90.0
  0
LINE
  5
27B
102
{ACAD_REACTORS
330
5A1
102
}
330
1F
100
AcDbEntity
  8
LC-001-002-----0
  6
ByBlock
 62
     7
370
    50
100
AcDbLine
 10
32.656374
 20
267.79622
 30
0.0
 11
32.656292
 21
281.298133
 31
0.0
  0
LINE
  5
27C
102
{ACAD_REACTORS
330
5A1
102
}
330
1F
100
AcDbEntity
  8
LC-001-002-----0
  6
ByBlock
 62
     7
370
    50
100
AcDbLine
 10
33.156377
 20
267.296223
 30
0.0
 11
34.657993
 21
267.296232
 31
0.0
  0
LINE
  5
27D
102
{ACAD_REACTORS
330
5A1
102
}
330
1F
100
AcDbEntity
  8
LC-001-002-----0
  6
ByBlock
 62
     7
370
    50
100
AcDbLine
 10
42.658037
 20
267.296324
 30
0.0
 11
44.15954
 21
267.296396
 31
0.0
  0
LINE
  5
27E
102
{ACAD_REACTORS
330
5A1
102
}
330
1F
100
AcDbEntity
  8
LC-001-002-----0
  6
ByBlock
 62
     7
370
    50
100
AcDbLine
 10
41.158028
 20
259.296262
 30
0.0
 11
36.158028
 21
259.29624
 31
0.0
  0
LINE
  5
27F
102
{ACAD_REACTORS
330
5A1
102
}
330
1F
100
AcDbEntity
  8
LC-001-002-----0
  6
ByBlock
 62
     7
370
    50
100
AcDbLine
 10
35.658026
 20
259.796238
 30
0.0
 11
35.657998
 21
266.296239
 31
0.0
  0
LINE
  5
280
102
{ACAD_REACTORS
330
5A1
102
}
330
1F
100
AcDbEntity
  8
LC-001-002-----0
  6
ByBlock
 62
     7
370
    50
100
AcDbLine
 10
41.657998
 20
266.296275
 30
0.0
 11
41.658026
 21
259.796264
 31
0.0
  0
LINE
  5
281
102
{ACAD_REACTORS
330
5A1
102
}
330
1F
100
AcDbEntity
  8
LC-001-002-----0
  6
ByBlock
 62
     7
370
    50
100
AcDbLine
 10
34.657993
 20
267.296232
 30
0.0
 11
35.657998
 21
266.296239
 31
0.0
  0
LINE
  5
282
102
{ACAD_REACTORS
330
5A1
102
}
330
1F
100
AcDbEntity
  8
LC-001-002-----0
  6
ByBlock
 62
     7
370
    50
100
AcDbLine
 10
41.657998
 20
266.296275
 30
0.0
 11
42.658037
 21
267.296324
 31
0.0
  0
LINE
  5
283
102
{ACAD_REACTORS
330
5A1
102
}
330
1F
100
AcDbEntity
  8
LC-001-002-----0
  6
ByBlock
 62
     7
370
    50
100
AcDbLine
 10
36.158028
 20
259.29624
 30
0.0
 11
35.658026
 21
259.796238
 31
0.0
  0
LINE
  5
284
102
{ACAD_REACTORS
330
5A1
102
}
330
1F
100
AcDbEntity
  8
LC-001-002-----0
  6
ByBlock
 62
     7
370
    50
100
AcDbLine
 10
41.658026
 20
259.796264
 30
0.0
 11
41.158028
 21
259.296262
 31
0.0
  0
LINE
  5
285
102
{ACAD_REACTORS
330
5A1
102
}
330
1F
100
AcDbEntity
  8
LC-001-002-----0
  6
ByBlock
 62
     7
370
    50
100
AcDbLine
 10
44.659516
 20
267.79649
 30
0.0
 11
44.656979
 21
281.299297
 31
0.0
  0
LINE
  5
286
102
{ACAD_REACTORS
330
5A1
102
}
330
1F
100
AcDbEntity
  8
LC-001-002-----0
  6
ByBlock
 62
     7
370
    50
100
AcDbLine
 10
44.656979
 20
281.299297
 30
0.0
 11
45.658135
 21
282.300829
 31
0.0
  0
LINE
  5
287
102
{ACAD_REACTORS
330
5A1
102
}
330
1F
100
AcDbEntity
  8
LC-001-002-----0
  6
ByBlock
 62
     7
370
    50
100
AcDbLine
 10
47.161471
 20
282.301112
 30
0.0
 11
45.658135
 21
282.300829
 31
0.0
  0
LINE
  5
288
102
{ACAD_REACTORS
330
5A1
102
}
330
1F
100
AcDbEntity
  8
LC-001-002-----0
  6
ByBlock
 62
     7
370
    50
100
AcDbLine
 10
47.161471
 20
265.555038
 30
0.0
 11
47.161471
 21
282.301112
 31
0.0
  0
LINE
  5
289
102
{ACAD_REACTORS
330
5A1
102
}
330
1F
100
AcDbEntity
  8
LC-001-002-----0
  6
ByBlock
 62
     7
370
    50
100
AcDbLine
 10
35.906673
 20
280.912121
 30
0.0
 11
35.90746
 21
272.797115
 31
0.0
  0
LINE
  5
28A
102
{ACAD_REACTORS
330
5A1
102
}
330
1F
100
AcDbEntity
  8
LC-001-002-----0
  6
ByBlock
 62
     7
370
    50
100
AcDbLine
 10
41.407461
 20
272.797648
 30
0.0
 11
35.907461
 21
272.797115
 31
0.0
  0
LINE
  5
28B
102
{ACAD_REACTORS
330
5A1
102
}
330
1F
100
AcDbEntity
  8
LC-001-002-----0
  6
ByBlock
 62
     7
370
    50
100
AcDbLine
 10
41.406675
 20
280.895563
 30
0.0
 11
41.40746
 21
272.797648
 31
0.0
  0
LINE
  5
28C
102
{ACAD_REACTORS
330
5A1
102
}
330
1F
100
AcDbEntity
  8
LC-001-002-----0
  6
ByBlock
 62
     7
370
    50
100
AcDbLine
 10
233.666658
 20
282.296702
 30
0.0
 11
232.666652
 21
281.29689
 31
0.0
  0
LINE
  5
28D
102
{ACAD_REACTORS
330
5A1
102
}
330
1F
100
AcDbEntity
  8
LC-001-002-----0
  6
ByBlock
 62
     7
370
    50
100
AcDbLine
 10
232.66657
 20
267.79622
 30
0.0
 11
232.666652
 21
281.298133
 31
0.0
  0
ARC
  5
28E
102
{ACAD_REACTORS
330
5A1
102
}
330
1F
100
AcDbEntity
  8
LC-002-002-RND-0
 62
     7
370
    50
100
AcDbCircle
 10
232.16657
 20
267.796223
 30
0.0
 40
0.5000000000000491
100
AcDbArc
 50
271.339467
 51
359.999666
  0
LINE
  5
28F
102
{ACAD_REACTORS
330
5A1
102
}
330
1F
100
AcDbEntity
  8
LC-001-002-----0
  6
ByBlock
 62
     7
370
    50
100
AcDbLine
 10
232.166568
 20
267.296223
 30
0.0
 11
230.664951
 21
267.296232
 31
0.0
  0
LINE
  5
290
102
{ACAD_REACTORS
330
5A1
102
}
330
1F
100
AcDbEntity
  8
LC-001-002-----0
  6
ByBlock
 62
     7
370
    50
100
AcDbLine
 10
222.664907
 20
267.296324
 30
0.0
 11
221.163404
 21
267.296396
 31
0.0
  0
LINE
  5
291
102
{ACAD_REACTORS
330
5A1
102
}
330
1F
100
AcDbEntity
  8
LC-001-002-----0
  6
ByBlock
 62
     7
370
    50
100
AcDbLine
 10
224.164916
 20
259.296262
 30
0.0
 11
229.164916
 21
259.29624
 31
0.0
  0
LINE
  5
292
102
{ACAD_REACTORS
330
5A1
102
}
330
1F
100
AcDbEntity
  8
LC-001-002-----0
  6
ByBlock
 62
     7
370
    50
100
AcDbLine
 10
229.664918
 20
259.796238
 30
0.0
 11
229.664947
 21
266.296239
 31
0.0
  0
LINE
  5
293
102
{ACAD_REACTORS
330
5A1
102
}
330
1F
100
AcDbEntity
  8
LC-001-002-----0
  6
ByBlock
 62
     7
370
    50
100
AcDbLine
 10
223.664947
 20
266.296275
 30
0.0
 11
223.664918
 21
259.796264
 31
0.0
  0
LINE
  5
294
102
{ACAD_REACTORS
330
5A1
102
}
330
1F
100
AcDbEntity
  8
LC-001-002-----0
  6
ByBlock
 62
     7
370
    50
100
AcDbLine
 10
230.664951
 20
267.296232
 30
0.0
 11
229.664947
 21
266.296239
 31
0.0
  0
LINE
  5
295
102
{ACAD_REACTORS
330
5A1
102
}
330
1F
100
AcDbEntity
  8
LC-001-002-----0
  6
ByBlock
 62
     7
370
    50
100
AcDbLine
 10
223.664947
 20
266.296275
 30
0.0
 11
222.664907
 21
267.296324
 31
0.0
  0
LINE
  5
296
102
{ACAD_REACTORS
330
5A1
102
}
330
1F
100
AcDbEntity
  8
LC-001-002-----0
  6
ByBlock
 62
     7
370
    50
100
AcDbLine
 10
229.164916
 20
259.29624
 30
0.0
 11
229.664918
 21
259.796238
 31
0.0
  0
LINE
  5
297
102
{ACAD_REACTORS
330
5A1
102
}
330
1F
100
AcDbEntity
  8
LC-001-002-----0
  6
ByBlock
 62
     7
370
    50
100
AcDbLine
 10
223.664918
 20
259.796264
 30
0.0
 11
224.164916
 21
259.296262
 31
0.0
  0
ARC
  5
298
102
{ACAD_REACTORS
330
5A1
102
}
330
1F
100
AcDbEntity
  8
LC-002-002-RND-0
 62
     7
370
    50
100
AcDbCircle
 10
221.163428
 20
267.796396
 30
0.0
 40
0.5000000000000197
100
AcDbArc
 50
179.989235
 51
269.997224
  0
LINE
  5
299
102
{ACAD_REACTORS
330
5A1
102
}
330
1F
100
AcDbEntity
  8
LC-001-002-----0
  6
ByBlock
 62
     7
370
    50
100
AcDbLine
 10
220.663428
 20
267.79649
 30
0.0
 11
220.665965
 21
281.299297
 31
0.0
  0
LINE
  5
29A
102
{ACAD_REACTORS
330
5A1
102
}
330
1F
100
AcDbEntity
  8
LC-001-002-----0
  6
ByBlock
 62
     7
370
    50
100
AcDbLine
 10
220.665965
 20
281.299297
 30
0.0
 11
219.664809
 21
282.300829
 31
0.0
  0
LINE
  5
29B
102
{ACAD_REACTORS
330
5A1
102
}
330
1F
100
AcDbEntity
  8
LC-001-002-----0
  6
ByBlock
 62
     7
370
    50
100
AcDbLine
 10
218.161473
 20
282.301112
 30
0.0
 11
219.664809
 21
282.300829
 31
0.0
  0
LINE
  5
29C
102
{ACAD_REACTORS
330
5A1
102
}
330
1F
100
AcDbEntity
  8
LC-001-002-----0
  6
ByBlock
 62
     7
370
    50
100
AcDbLine
 10
218.161473
 20
265.555038
 30
0.0
 11
218.161473
 21
282.301112
 31
0.0
  0
LINE
  5
29D
102
{ACAD_REACTORS
330
5A1
102
}
330
1F
100
AcDbEntity
  8
LC-001-002-----0
  6
ByBlock
 62
     7
370
    50
100
AcDbLine
 10
223.915483
 20
272.797648
 30
0.0
 11
229.415483
 21
272.797115
 31
0.0
  0
LINE
  5
29E
102
{ACAD_REACTORS
330
5A1
102
}
330
1F
100
AcDbEntity
  8
LC-001-002-----0
  6
ByBlock
 62
     7
370
    50
100
AcDbLine
 10
229.416269
 20
280.890148
 30
0.0
 11
229.415484
 21
272.797115
 31
0.0
  0
LINE
  5
29F
102
{ACAD_REACTORS
330
5A1
102
}
330
1F
100
AcDbEntity
  8
LC-001-002-----0
  6
ByBlock
 62
     7
370
    50
100
AcDbLine
 10
223.916271
 20
280.90923
 30
0.0
 11
223.915484
 21
272.797648
 31
0.0
  0
ARC
  5
2A0
102
{ACAD_REACTORS
330
5A1
102
}
330
1F
100
AcDbEntity
  8
LC-002-002-RND-0
 62
     7
370
    50
100
AcDbCircle
 10
210.411472
 20
253.10383
 30
0.0
 40
3.0
100
AcDbArc
 50
270.0
 51
360.0
  0
ARC
  5
2A1
102
{ACAD_REACTORS
330
5A1
102
}
330
1F
100
AcDbEntity
  8
LC-002-002-RND-0
 62
     7
370
    50
100
AcDbCircle
 10
54.911472
 20
253.10383
 30
0.0
 40
3.0
100
AcDbArc
 50
180.0
 51
270.0
  0
ARC
  5
2A2
102
{ACAD_REACTORS
330
5A4
102
}
330
1F
100
AcDbEntity
  8
LC-001-002-----0
  6
ByBlock
 62
     7
370
    50
100
AcDbCircle
 10
102.661472
 20
181.888544
 30
0.0
 40
1.0
100
AcDbArc
 50
360.0
 51
76.0
  0
INSERT
  5
2F3
102
{ACAD_REACTORS
330
5A4
102
}
330
1F
100
AcDbEntity
  8
LC-003-005-----0
 62
     7
370
    25
100
AcDbBlockReference
  2
*X1117
 10
0.0
 20
0.0
 30
0.0
  0
ARC
  5
2F4
102
{ACAD_REACTORS
330
5A4
102
}
330
1F
100
AcDbEntity
  8
LC-001-002-----0
  6
ByBlock
 62
     7
370
    50
100
AcDbCircle
 10
96.660767
 20
184.55589
 30
0.0
 40
0.4992953058712146
100
AcDbArc
 50
90.0
 51
256.0
  0
ARC
  5
2F5
102
{ACAD_REACTORS
330
5A4
102
}
330
1F
100
AcDbEntity
  8
LC-001-002-----0
  6
ByBlock
 62
     7
370
    50
100
AcDbCircle
 10
162.661472
 20
181.888544
 30
0.0
 40
0.9999999999999252
100
AcDbArc
 50
104.0
 51
180.0
  0
LINE
  5
2F6
102
{ACAD_REACTORS
330
5A4
102
}
330
1F
100
AcDbEntity
  8
LC-001-002-----0
  6
ByBlock
 62
     7
370
    50
100
AcDbLine
 10
96.539977
 20
184.071426
 30
0.0
 11
102.903394
 21
182.85884
 31
0.0
  0
INSERT
  5
34E
102
{ACAD_REACTORS
330
5A4
102
}
330
1F
100
AcDbEntity
  8
LC-003-005-----0
 62
     7
370
    25
100
AcDbBlockReference
  2
*X1218
 10
0.0
 20
0.0
 30
0.0
  0
LINE
  5
34F
102
{ACAD_REACTORS
330
5A4
102
}
330
1F
100
AcDbEntity
  8
LC-001-002-----0
  6
ByBlock
 62
     7
370
    50
100
AcDbLine
 10
96.540682
 20
171.74126
 30
0.0
 11
102.904099
 21
170.528674
 31
0.0
  0
ARC
  5
350
102
{ACAD_REACTORS
330
5A4
102
}
330
1F
100
AcDbEntity
  8
LC-001-002-----0
  6
ByBlock
 62
     7
370
    50
100
AcDbCircle
 10
102.662177
 20
169.558378
 30
0.0
 40
1.0
100
AcDbArc
 50
360.0
 51
76.0
  0
ARC
  5
351
102
{ACAD_REACTORS
330
5A4
102
}
330
1F
100
AcDbEntity
  8
LC-001-002-----0
  6
ByBlock
 62
     7
370
    50
100
AcDbCircle
 10
96.661472
 20
172.225724
 30
0.0
 40
0.4992953058712146
100
AcDbArc
 50
90.0
 51
256.0
  0
ARC
  5
352
102
{ACAD_REACTORS
330
5A4
102
}
330
1F
100
AcDbEntity
  8
LC-001-002-----0
  6
ByBlock
 62
     7
370
    50
100
AcDbCircle
 10
102.662881
 20
157.228213
 30
0.0
 40
1.0
100
AcDbArc
 50
360.0
 51
76.0
  0
ARC
  5
353
102
{ACAD_REACTORS
330
5A4
102
}
330
1F
100
AcDbEntity
  8
LC-001-002-----0
  6
ByBlock
 62
     7
370
    50
100
AcDbCircle
 10
168.662177
 20
184.55589
 30
0.0
 40
0.4992953058710902
100
AcDbArc
 50
284.0
 51
90.0
  0
LINE
  5
354
102
{ACAD_REACTORS
330
5A4
102
}
330
1F
100
AcDbEntity
  8
LC-001-002-----0
  6
ByBlock
 62
     7
370
    50
100
AcDbLine
 10
168.782967
 20
184.071426
 30
0.0
 11
162.41955
 21
182.85884
 31
0.0
  0
LINE
  5
355
102
{ACAD_REACTORS
330
5A4
102
}
330
1F
100
AcDbEntity
  8
LC-001-002-----0
  6
ByBlock
 62
     7
370
    50
100
AcDbLine
 10
168.782263
 20
171.74126
 30
0.0
 11
162.418845
 21
170.528674
 31
0.0
  0
ARC
  5
356
102
{ACAD_REACTORS
330
5A4
102
}
330
1F
100
AcDbEntity
  8
LC-001-002-----0
  6
ByBlock
 62
     7
370
    50
100
AcDbCircle
 10
162.660767
 20
169.558378
 30
0.0
 40
0.9999999999999527
100
AcDbArc
 50
104.0
 51
180.0
  0
ARC
  5
357
102
{ACAD_REACTORS
330
5A4
102
}
330
1F
100
AcDbEntity
  8
LC-001-002-----0
  6
ByBlock
 62
     7
370
    50
100
AcDbCircle
 10
168.661472
 20
172.225724
 30
0.0
 40
0.4992953058710902
100
AcDbArc
 50
284.0
 51
90.0
  0
ARC
  5
358
102
{ACAD_REACTORS
330
5A4
102
}
330
1F
100
AcDbEntity
  8
LC-001-002-----0
  6
ByBlock
 62
     7
370
    50
100
AcDbCircle
 10
96.662177
 20
159.895559
 30
0.0
 40
0.4992953058712146
100
AcDbArc
 50
90.0
 51
256.0
  0
LINE
  5
359
102
{ACAD_REACTORS
330
5A4
102
}
330
1F
100
AcDbEntity
  8
LC-001-002-----0
  6
ByBlock
 62
     7
370
    50
100
AcDbLine
 10
96.541386
 20
159.411095
 30
0.0
 11
102.904803
 21
158.198509
 31
0.0
  0
LINE
  5
35A
102
{ACAD_REACTORS
330
5A4
102
}
330
1F
100
AcDbEntity
  8
LC-001-002-----0
  6
ByBlock
 62
     7
370
    50
100
AcDbLine
 10
96.661472
 20
148.064688
 30
0.0
 11
103.161472
 21
148.064688
 31
0.0
  0
LINE
  5
35B
102
{ACAD_REACTORS
330
5A4
102
}
330
1F
100
AcDbEntity
  8
LC-001-002-----0
  6
ByBlock
 62
     7
370
    50
100
AcDbLine
 10
96.661472
 20
160.394854
 30
0.0
 11
103.161472
 21
160.394854
 31
0.0
  0
LINE
  5
35C
102
{ACAD_REACTORS
330
5A4
102
}
330
1F
100
AcDbEntity
  8
LC-001-002-----0
  6
ByBlock
 62
     7
370
    50
100
AcDbLine
 10
96.661472
 20
172.72502
 30
0.0
 11
103.161472
 21
172.72502
 31
0.0
  0
LINE
  5
35D
102
{ACAD_REACTORS
330
5A4
102
}
330
1F
100
AcDbEntity
  8
LC-001-002-----0
  6
ByBlock
 62
     7
370
    50
100
AcDbLine
 10
96.660767
 20
185.055185
 30
0.0
 11
104.661472
 21
185.055185
 31
0.0
  0
LINE
  5
35E
102
{ACAD_REACTORS
330
5A4
102
}
330
1F
100
AcDbEntity
  8
LC-001-002-----0
  6
ByBlock
 62
     7
370
    50
100
AcDbLine
 10
96.542091
 20
147.080929
 30
0.0
 11
102.905508
 21
145.868343
 31
0.0
  0
ARC
  5
35F
102
{ACAD_REACTORS
330
5A4
102
}
330
1F
100
AcDbEntity
  8
LC-001-002-----0
  6
ByBlock
 62
     7
370
    50
100
AcDbCircle
 10
162.660063
 20
157.228213
 30
0.0
 40
0.9999999999999527
100
AcDbArc
 50
104.0
 51
180.0
  0
ARC
  5
360
102
{ACAD_REACTORS
330
5A4
102
}
330
1F
100
AcDbEntity
  8
LC-001-002-----0
  6
ByBlock
 62
     7
370
    50
100
AcDbCircle
 10
168.660767
 20
159.895559
 30
0.0
 40
0.4992953058711177
100
AcDbArc
 50
284.0
 51
90.0
  0
LINE
  5
361
102
{ACAD_REACTORS
330
5A4
102
}
330
1F
100
AcDbEntity
  8
LC-001-002-----0
  6
ByBlock
 62
     7
370
    50
100
AcDbLine
 10
168.781558
 20
159.411095
 30
0.0
 11
162.418141
 21
158.198509
 31
0.0
  0
ARC
  5
362
102
{ACAD_REACTORS
330
5A4
102
}
330
1F
100
AcDbEntity
  8
LC-001-002-----0
  6
ByBlock
 62
     7
370
    50
100
AcDbCircle
 10
102.663586
 20
144.898047
 30
0.0
 40
1.0
100
AcDbArc
 50
360.0
 51
76.0
  0
ARC
  5
363
102
{ACAD_REACTORS
330
5A4
102
}
330
1F
100
AcDbEntity
  8
LC-001-002-----0
  6
ByBlock
 62
     7
370
    50
100
AcDbCircle
 10
96.662881
 20
147.565393
 30
0.0
 40
0.4992953058712146
100
AcDbArc
 50
90.0
 51
256.0
  0
ARC
  5
364
102
{ACAD_REACTORS
330
5A4
102
}
330
1F
100
AcDbEntity
  8
LC-001-002-----0
  6
ByBlock
 62
     7
370
    50
100
AcDbCircle
 10
102.664291
 20
132.567881
 30
0.0
 40
1.0
100
AcDbArc
 50
360.0
 51
76.0
  0
LINE
  5
365
102
{ACAD_REACTORS
330
5A4
102
}
330
1F
100
AcDbEntity
  8
LC-001-002-----0
  6
ByBlock
 62
     7
370
    50
100
AcDbLine
 10
96.542796
 20
134.750763
 30
0.0
 11
102.906213
 21
133.538177
 31
0.0
  0
ARC
  5
366
102
{ACAD_REACTORS
330
5A4
102
}
330
1F
100
AcDbEntity
  8
LC-001-002-----0
  6
ByBlock
 62
     7
370
    50
100
AcDbCircle
 10
96.663586
 20
135.235227
 30
0.0
 40
0.4992953058712146
100
AcDbArc
 50
90.0
 51
256.0
  0
LINE
  5
367
102
{ACAD_REACTORS
330
5A4
102
}
330
1F
100
AcDbEntity
  8
LC-001-002-----0
  6
ByBlock
 62
     7
370
    50
100
AcDbLine
 10
96.5435
 20
122.420598
 30
0.0
 11
102.906917
 21
121.208012
 31
0.0
  0
ARC
  5
368
102
{ACAD_REACTORS
330
5A4
102
}
330
1F
100
AcDbEntity
  8
LC-001-002-----0
  6
ByBlock
 62
     7
370
    50
100
AcDbCircle
 10
102.664996
 20
120.237716
 30
0.0
 40
1.0
100
AcDbArc
 50
360.0
 51
76.0
  0
ARC
  5
369
102
{ACAD_REACTORS
330
5A4
102
}
330
1F
100
AcDbEntity
  8
LC-001-002-----0
  6
ByBlock
 62
     7
370
    50
100
AcDbCircle
 10
96.664291
 20
122.905062
 30
0.0
 40
0.4992953058712146
100
AcDbArc
 50
90.0
 51
256.0
  0
ARC
  5
36A
102
{ACAD_REACTORS
330
5A4
102
}
330
1F
100
AcDbEntity
  8
LC-001-002-----0
  6
ByBlock
 62
     7
370
    50
100
AcDbCircle
 10
102.6657
 20
107.90755
 30
0.0
 40
1.0
100
AcDbArc
 50
360.0
 51
76.0
  0
LINE
  5
36B
102
{ACAD_REACTORS
330
5A4
102
}
330
1F
100
AcDbEntity
  8
LC-001-002-----0
  6
ByBlock
 62
     7
370
    50
100
AcDbLine
 10
96.544205
 20
110.090432
 30
0.0
 11
102.907622
 21
108.877846
 31
0.0
  0
ARC
  5
36C
102
{ACAD_REACTORS
330
5A4
102
}
330
1F
100
AcDbEntity
  8
LC-001-002-----0
  6
ByBlock
 62
     7
370
    50
100
AcDbCircle
 10
96.664996
 20
110.574896
 30
0.0
 40
0.4992953058712146
100
AcDbArc
 50
90.0
 51
256.0
  0
ARC
  5
36D
102
{ACAD_REACTORS
330
5A4
102
}
330
1F
100
AcDbEntity
  8
LC-001-002-----0
  6
ByBlock
 62
     7
370
    50
100
AcDbCircle
 10
102.666405
 20
95.577384
 30
0.0
 40
1.0
100
AcDbArc
 50
360.0
 51
76.0
  0
LINE
  5
36E
102
{ACAD_REACTORS
330
5A4
102
}
330
1F
100
AcDbEntity
  8
LC-001-002-----0
  6
ByBlock
 62
     7
370
    50
100
AcDbLine
 10
103.661472
 20
136.234523
 30
0.0
 11
103.661472
 21
144.895423
 31
0.0
  0
LINE
  5
36F
102
{ACAD_REACTORS
330
5A4
102
}
330
1F
100
AcDbEntity
  8
LC-001-002-----0
  6
ByBlock
 62
     7
370
    50
100
AcDbLine
 10
103.661472
 20
148.564688
 30
0.0
 11
103.661472
 21
157.225589
 31
0.0
  0
LINE
  5
370
102
{ACAD_REACTORS
330
5A4
102
}
330
1F
100
AcDbEntity
  8
LC-001-002-----0
  6
ByBlock
 62
     7
370
    50
100
AcDbLine
 10
103.661472
 20
160.894854
 30
0.0
 11
103.661472
 21
169.555754
 31
0.0
  0
LINE
  5
371
102
{ACAD_REACTORS
330
5A4
102
}
330
1F
100
AcDbEntity
  8
LC-001-002-----0
  6
ByBlock
 62
     7
370
    50
100
AcDbLine
 10
103.661472
 20
173.22502
 30
0.0
 11
103.661472
 21
181.888544
 31
0.0
  0
LINE
  5
372
102
{ACAD_REACTORS
330
5A4
102
}
330
1F
100
AcDbEntity
  8
LC-001-002-----0
  6
ByBlock
 62
     7
370
    50
100
AcDbLine
 10
96.54491
 20
97.760266
 30
0.0
 11
102.908327
 21
96.54768
 31
0.0
  0
ARC
  5
373
102
{ACAD_REACTORS
330
5A4
102
}
330
1F
100
AcDbEntity
  8
LC-002-002-RND-0
 62
     7
370
    50
100
AcDbCircle
 10
103.161472
 20
136.234523
 30
0.0
 40
0.5
100
AcDbArc
 50
270.0
 51
360.0
  0
ARC
  5
374
102
{ACAD_REACTORS
330
5A4
102
}
330
1F
100
AcDbEntity
  8
LC-002-002-RND-0
 62
     7
370
    50
100
AcDbCircle
 10
103.161472
 20
148.564688
 30
0.0
 40
0.5
100
AcDbArc
 50
270.0
 51
360.0
  0
ARC
  5
375
102
{ACAD_REACTORS
330
5A4
102
}
330
1F
100
AcDbEntity
  8
LC-002-002-RND-0
 62
     7
370
    50
100
AcDbCircle
 10
103.161472
 20
160.894854
 30
0.0
 40
0.5
100
AcDbArc
 50
270.0
 51
360.0
  0
ARC
  5
376
102
{ACAD_REACTORS
330
5A4
102
}
330
1F
100
AcDbEntity
  8
LC-002-002-RND-0
 62
     7
370
    50
100
AcDbCircle
 10
103.161472
 20
173.22502
 30
0.0
 40
0.5
100
AcDbArc
 50
270.0
 51
360.0
  0
ARC
  5
377
102
{ACAD_REACTORS
330
5A4
102
}
330
1F
100
AcDbEntity
  8
LC-001-002-----0
  6
ByBlock
 62
     7
370
    50
100
AcDbCircle
 10
96.6657
 20
98.24473
 30
0.0
 40
0.4992953058712146
100
AcDbArc
 50
90.0
 51
256.0
  0
LINE
  5
378
102
{ACAD_REACTORS
330
5A4
102
}
330
1F
100
AcDbEntity
  8
LC-001-002-----0
  6
ByBlock
 62
     7
370
    50
100
AcDbLine
 10
168.661472
 20
148.064688
 30
0.0
 11
162.161472
 21
148.064688
 31
0.0
  0
LINE
  5
379
102
{ACAD_REACTORS
330
5A4
102
}
330
1F
100
AcDbEntity
  8
LC-001-002-----0
  6
ByBlock
 62
     7
370
    50
100
AcDbLine
 10
168.661472
 20
160.394854
 30
0.0
 11
162.161472
 21
160.394854
 31
0.0
  0
LINE
  5
37A
102
{ACAD_REACTORS
330
5A4
102
}
330
1F
100
AcDbEntity
  8
LC-001-002-----0
  6
ByBlock
 62
     7
370
    50
100
AcDbLine
 10
168.661472
 20
172.72502
 30
0.0
 11
162.161472
 21
172.72502
 31
0.0
  0
LINE
  5
37B
102
{ACAD_REACTORS
330
5A4
102
}
330
1F
100
AcDbEntity
  8
LC-001-002-----0
  6
ByBlock
 62
     7
370
    50
100
AcDbLine
 10
168.662177
 20
185.055185
 30
0.0
 11
160.661472
 21
185.055185
 31
0.0
  0
ARC
  5
37C
102
{ACAD_REACTORS
330
5A4
102
}
330
1F
100
AcDbEntity
  8
LC-001-002-----0
  6
ByBlock
 62
     7
370
    50
100
AcDbCircle
 10
102.66711
 20
83.247219
 30
0.0
 40
1.0
100
AcDbArc
 50
360.0
 51
76.0
  0
LINE
  5
37D
102
{ACAD_REACTORS
330
5A4
102
}
330
1F
100
AcDbEntity
  8
LC-001-002-----0
  6
ByBlock
 62
     7
370
    50
100
AcDbLine
 10
168.780853
 20
147.080929
 30
0.0
 11
162.417436
 21
145.868343
 31
0.0
  0
ARC
  5
37E
102
{ACAD_REACTORS
330
5A4
102
}
330
1F
100
AcDbEntity
  8
LC-001-002-----0
  6
ByBlock
 62
     7
370
    50
100
AcDbCircle
 10
162.659358
 20
144.898047
 30
0.0
 40
0.9999999999999252
100
AcDbArc
 50
104.0
 51
180.0
  0
ARC
  5
37F
102
{ACAD_REACTORS
330
5A4
102
}
330
1F
100
AcDbEntity
  8
LC-001-002-----0
  6
ByBlock
 62
     7
370
    50
100
AcDbCircle
 10
168.660063
 20
147.565393
 30
0.0
 40
0.4992953058710902
100
AcDbArc
 50
284.0
 51
90.0
  0
ARC
  5
380
102
{ACAD_REACTORS
330
5A4
102
}
330
1F
100
AcDbEntity
  8
LC-001-002-----0
  6
ByBlock
 62
     7
370
    50
100
AcDbCircle
 10
162.658653
 20
132.567881
 30
0.0
 40
0.9999999999999527
100
AcDbArc
 50
104.0
 51
180.0
  0
LINE
  5
381
102
{ACAD_REACTORS
330
5A4
102
}
330
1F
100
AcDbEntity
  8
LC-001-002-----0
  6
ByBlock
 62
     7
370
    50
100
AcDbLine
 10
96.545614
 20
85.430101
 30
0.0
 11
102.909032
 21
84.217515
 31
0.0
  0
LINE
  5
382
102
{ACAD_REACTORS
330
5A4
102
}
330
1F
100
AcDbEntity
  8
LC-001-002-----0
  6
ByBlock
 62
     7
370
    50
100
AcDbLine
 10
168.780148
 20
134.750763
 30
0.0
 11
162.416731
 21
133.538177
 31
0.0
  0
ARC
  5
383
102
{ACAD_REACTORS
330
5A4
102
}
330
1F
100
AcDbEntity
  8
LC-001-002-----0
  6
ByBlock
 62
     7
370
    50
100
AcDbCircle
 10
168.659358
 20
135.235227
 30
0.0
 40
0.4992953058710902
100
AcDbArc
 50
284.0
 51
90.0
  0
LINE
  5
384
102
{ACAD_REACTORS
330
5A4
102
}
330
1F
100
AcDbEntity
  8
LC-001-002-----0
  6
ByBlock
 62
     7
370
    50
100
AcDbLine
 10
168.779444
 20
122.420598
 30
0.0
 11
162.416027
 21
121.208012
 31
0.0
  0
ARC
  5
385
102
{ACAD_REACTORS
330
5A4
102
}
330
1F
100
AcDbEntity
  8
LC-001-002-----0
  6
ByBlock
 62
     7
370
    50
100
AcDbCircle
 10
162.657949
 20
120.237716
 30
0.0
 40
0.9999999999999527
100
AcDbArc
 50
104.0
 51
180.0
  0
ARC
  5
386
102
{ACAD_REACTORS
330
5A4
102
}
330
1F
100
AcDbEntity
  8
LC-001-002-----0
  6
ByBlock
 62
     7
370
    50
100
AcDbCircle
 10
96.666405
 20
85.914565
 30
0.0
 40
0.4992953058712146
100
AcDbArc
 50
90.0
 51
256.0
  0
ARC
  5
387
102
{ACAD_REACTORS
330
5A4
102
}
330
1F
100
AcDbEntity
  8
LC-001-002-----0
  6
ByBlock
 62
     7
370
    50
100
AcDbCircle
 10
168.658653
 20
122.905062
 30
0.0
 40
0.4992953058711177
100
AcDbArc
 50
284.0
 51
90.0
  0
ARC
  5
388
102
{ACAD_REACTORS
330
5A4
102
}
330
1F
100
AcDbEntity
  8
LC-001-002-----0
  6
ByBlock
 62
     7
370
    50
100
AcDbCircle
 10
162.657244
 20
107.90755
 30
0.0
 40
0.9999999999999804
100
AcDbArc
 50
104.0
 51
180.0
  0
LINE
  5
389
102
{ACAD_REACTORS
330
5A4
102
}
330
1F
100
AcDbEntity
  8
LC-001-002-----0
  6
ByBlock
 62
     7
370
    50
100
AcDbLine
 10
168.778739
 20
110.090432
 30
0.0
 11
162.415322
 21
108.877846
 31
0.0
  0
ARC
  5
38A
102
{ACAD_REACTORS
330
5A4
102
}
330
1F
100
AcDbEntity
  8
LC-001-002-----0
  6
ByBlock
 62
     7
370
    50
100
AcDbCircle
 10
168.657949
 20
110.574896
 30
0.0
 40
0.4992953058710902
100
AcDbArc
 50
284.0
 51
90.0
  0
ARC
  5
38B
102
{ACAD_REACTORS
330
5A4
102
}
330
1F
100
AcDbEntity
  8
LC-001-002-----0
  6
ByBlock
 62
     7
370
    50
100
AcDbCircle
 10
162.656539
 20
95.577384
 30
0.0
 40
1.000000000000008
100
AcDbArc
 50
104.0
 51
180.0
  0
ARC
  5
38C
102
{ACAD_REACTORS
330
5A4
102
}
330
1F
100
AcDbEntity
  8
LC-001-002-----0
  6
ByBlock
 62
     7
370
    50
100
AcDbCircle
 10
102.667814
 20
70.917053
 30
0.0
 40
1.0
100
AcDbArc
 50
360.0
 51
76.0
  0
LINE
  5
38D
102
{ACAD_REACTORS
330
5A4
102
}
330
1F
100
AcDbEntity
  8
LC-001-002-----0
  6
ByBlock
 62
     7
370
    50
100
AcDbLine
 10
96.546319
 20
73.099935
 30
0.0
 11
102.909736
 21
71.887349
 31
0.0
  0
ARC
  5
38E
102
{ACAD_REACTORS
330
5A4
102
}
330
1F
100
AcDbEntity
  8
LC-001-002-----0
  6
ByBlock
 62
     7
370
    50
100
AcDbCircle
 10
96.66711
 20
73.584399
 30
0.0
 40
0.4992953058712146
100
AcDbArc
 50
90.0
 51
256.0
  0
ARC
  5
38F
102
{ACAD_REACTORS
330
5A4
102
}
330
1F
100
AcDbEntity
  8
LC-001-002-----0
  6
ByBlock
 62
     7
370
    50
100
AcDbCircle
 10
102.668519
 20
58.586887
 30
0.0
 40
1.0
100
AcDbArc
 50
360.0
 51
76.0
  0
LINE
  5
390
102
{ACAD_REACTORS
330
5A4
102
}
330
1F
100
AcDbEntity
  8
LC-001-002-----0
  6
ByBlock
 62
     7
370
    50
100
AcDbLine
 10
96.547024
 20
60.769769
 30
0.0
 11
102.910441
 21
59.557183
 31
0.0
  0
ARC
  5
391
102
{ACAD_REACTORS
330
5A4
102
}
330
1F
100
AcDbEntity
  8
LC-001-002-----0
  6
ByBlock
 62
     7
370
    50
100
AcDbCircle
 10
96.667814
 20
61.254233
 30
0.0
 40
0.4992953058712146
100
AcDbArc
 50
90.0
 51
256.0
  0
ARC
  5
392
102
{ACAD_REACTORS
330
5A4
102
}
330
1F
100
AcDbEntity
  8
LC-001-002-----0
  6
ByBlock
 62
     7
370
    50
100
AcDbCircle
 10
102.669224
 20
46.256722
 30
0.0
 40
1.0
100
AcDbArc
 50
360.0
 51
76.0
  0
LINE
  5
393
102
{ACAD_REACTORS
330
5A4
102
}
330
1F
100
AcDbEntity
  8
LC-001-002-----0
  6
ByBlock
 62
     7
370
    50
100
AcDbLine
 10
96.547729
 20
48.439604
 30
0.0
 11
102.911146
 21
47.227018
 31
0.0
  0
ARC
  5
394
102
{ACAD_REACTORS
330
5A4
102
}
330
1F
100
AcDbEntity
  8
LC-001-002-----0
  6
ByBlock
 62
     7
370
    50
100
AcDbCircle
 10
96.668519
 20
48.924068
 30
0.0
 40
0.4992953058712146
100
AcDbArc
 50
90.0
 51
256.0
  0
ARC
  5
395
102
{ACAD_REACTORS
330
5A4
102
}
330
1F
100
AcDbEntity
  8
LC-001-002-----0
  6
ByBlock
 62
     7
370
    50
100
AcDbCircle
 10
102.669928
 20
33.926556
 30
0.0
 40
1.0
100
AcDbArc
 50
360.0
 51
76.0
  0
LINE
  5
396
102
{ACAD_REACTORS
330
5A4
102
}
330
1F
100
AcDbEntity
  8
LC-001-002-----0
  6
ByBlock
 62
     7
370
    50
100
AcDbLine
 10
96.548433
 20
36.109438
 30
0.0
 11
102.91185
 21
34.896852
 31
0.0
  0
ARC
  5
397
102
{ACAD_REACTORS
330
5A4
102
}
330
1F
100
AcDbEntity
  8
LC-001-002-----0
  6
ByBlock
 62
     7
370
    50
100
AcDbCircle
 10
96.669224
 20
36.593902
 30
0.0
 40
0.4992953058712146
100
AcDbArc
 50
90.0
 51
256.0
  0
ARC
  5
398
102
{ACAD_REACTORS
330
5A4
102
}
330
1F
100
AcDbEntity
  8
LC-001-002-----0
  6
ByBlock
 62
     7
370
    50
100
AcDbCircle
 10
102.670633
 20
21.596391
 30
0.0
 40
1.0
100
AcDbArc
 50
360.0
 51
76.0
  0
LINE
  5
399
102
{ACAD_REACTORS
330
5A4
102
}
330
1F
100
AcDbEntity
  8
LC-001-002-----0
  6
ByBlock
 62
     7
370
    50
100
AcDbLine
 10
103.661472
 20
-40.057062
 30
0.0
 11
103.661472
 21
-40.444962
 31
0.0
  0
LINE
  5
39A
102
{ACAD_REACTORS
330
5A4
102
}
330
1F
100
AcDbEntity
  8
LC-001-002-----0
  6
ByBlock
 62
     7
370
    50
100
AcDbLine
 10
103.661472
 20
-36.387797
 30
0.0
 11
103.661472
 21
-27.726896
 31
0.0
  0
LINE
  5
39B
102
{ACAD_REACTORS
330
5A4
102
}
330
1F
100
AcDbEntity
  8
LC-001-002-----0
  6
ByBlock
 62
     7
370
    50
100
AcDbLine
 10
103.661472
 20
123.904357
 30
0.0
 11
103.661472
 21
132.565257
 31
0.0
  0
LINE
  5
39C
102
{ACAD_REACTORS
330
5A4
102
}
330
1F
100
AcDbEntity
  8
LC-001-002-----0
  6
ByBlock
 62
     7
370
    50
100
AcDbLine
 10
103.161472
 20
-36.887797
 30
0.0
 11
96.661472
 21
-36.887797
 31
0.0
  0
LINE
  5
39D
102
{ACAD_REACTORS
330
5A4
102
}
330
1F
100
AcDbEntity
  8
LC-001-002-----0
  6
ByBlock
 62
     7
370
    50
100
AcDbLine
 10
103.661472
 20
111.574191
 30
0.0
 11
103.661472
 21
120.235092
 31
0.0
  0
LINE
  5
39E
102
{ACAD_REACTORS
330
5A4
102
}
330
1F
100
AcDbEntity
  8
LC-001-002-----0
  6
ByBlock
 62
     7
370
    50
100
AcDbLine
 10
103.661472
 20
99.244026
 30
0.0
 11
103.661472
 21
107.904926
 31
0.0
  0
LINE
  5
39F
102
{ACAD_REACTORS
330
5A4
102
}
330
1F
100
AcDbEntity
  8
LC-001-002-----0
  6
ByBlock
 62
     7
370
    50
100
AcDbLine
 10
103.661472
 20
86.91386
 30
0.0
 11
103.661472
 21
95.57476
 31
0.0
  0
LINE
  5
3A0
102
{ACAD_REACTORS
330
5A4
102
}
330
1F
100
AcDbEntity
  8
LC-001-002-----0
  6
ByBlock
 62
     7
370
    50
100
AcDbLine
 10
96.549138
 20
23.779272
 30
0.0
 11
102.912555
 21
22.566686
 31
0.0
  0
LINE
  5
3A1
102
{ACAD_REACTORS
330
5A4
102
}
330
1F
100
AcDbEntity
  8
LC-001-002-----0
  6
ByBlock
 62
     7
370
    50
100
AcDbLine
 10
103.161472
 20
-24.557631
 30
0.0
 11
96.661472
 21
-24.557631
 31
0.0
  0
ARC
  5
3A2
102
{ACAD_REACTORS
330
5A4
102
}
330
1F
100
AcDbEntity
  8
LC-001-002-----0
  6
ByBlock
 62
     7
370
    50
100
AcDbCircle
 10
96.669928
 20
24.263736
 30
0.0
 40
0.4992953058712146
100
AcDbArc
 50
90.0
 51
256.0
  0
ARC
  5
3A3
102
{ACAD_REACTORS
330
5A4
102
}
330
1F
100
AcDbEntity
  8
LC-001-002-----0
  6
ByBlock
 62
     7
370
    50
100
AcDbCircle
 10
102.671338
 20
9.266225
 30
0.0
 40
1.0
100
AcDbArc
 50
360.0
 51
76.0
  0
LINE
  5
3A4
102
{ACAD_REACTORS
330
5A4
102
}
330
1F
100
AcDbEntity
  8
LC-001-002-----0
  6
ByBlock
 62
     7
370
    50
100
AcDbLine
 10
103.161472
 20
-12.227465
 30
0.0
 11
96.661472
 21
-12.227465
 31
0.0
  0
LINE
  5
3A5
102
{ACAD_REACTORS
330
5A4
102
}
330
1F
100
AcDbEntity
  8
LC-001-002-----0
  6
ByBlock
 62
     7
370
    50
100
AcDbLine
 10
96.549843
 20
11.449107
 30
0.0
 11
102.91326
 21
10.236521
 31
0.0
  0
ARC
  5
3A6
102
{ACAD_REACTORS
330
5A4
102
}
330
1F
100
AcDbEntity
  8
LC-001-002-----0
  6
ByBlock
 62
     7
370
    50
100
AcDbCircle
 10
96.670633
 20
11.933571
 30
0.0
 40
0.4992953058712146
100
AcDbArc
 50
90.0
 51
256.0
  0
LINE
  5
3A7
102
{ACAD_REACTORS
330
5A4
102
}
330
1F
100
AcDbEntity
  8
LC-001-002-----0
  6
ByBlock
 62
     7
370
    50
100
AcDbLine
 10
103.161472
 20
0.1027
 30
0.0
 11
96.661472
 21
0.1027
 31
0.0
  0
ARC
  5
3A8
102
{ACAD_REACTORS
330
5A4
102
}
330
1F
100
AcDbEntity
  8
LC-001-002-----0
  6
ByBlock
 62
     7
370
    50
100
AcDbCircle
 10
102.672042
 20
-3.063941
 30
0.0
 40
1.0
100
AcDbArc
 50
360.0
 51
76.0
  0
LINE
  5
3A9
102
{ACAD_REACTORS
330
5A4
102
}
330
1F
100
AcDbEntity
  8
LC-001-002-----0
  6
ByBlock
 62
     7
370
    50
100
AcDbLine
 10
96.550547
 20
-0.881059
 30
0.0
 11
102.913964
 21
-2.093645
 31
0.0
  0
LINE
  5
3AA
102
{ACAD_REACTORS
330
5A4
102
}
330
1F
100
AcDbEntity
  8
LC-001-002-----0
  6
ByBlock
 62
     7
370
    50
100
AcDbLine
 10
103.161472
 20
12.432866
 30
0.0
 11
96.661472
 21
12.432866
 31
0.0
  0
ARC
  5
3AB
102
{ACAD_REACTORS
330
5A4
102
}
330
1F
100
AcDbEntity
  8
LC-001-002-----0
  6
ByBlock
 62
     7
370
    50
100
AcDbCircle
 10
96.671338
 20
-0.396595
 30
0.0
 40
0.4992953058712146
100
AcDbArc
 50
90.0
 51
256.0
  0
ARC
  5
3AC
102
{ACAD_REACTORS
330
5A4
102
}
330
1F
100
AcDbEntity
  8
LC-001-002-----0
  6
ByBlock
 62
     7
370
    50
100
AcDbCircle
 10
102.672747
 20
-15.394106
 30
0.0
 40
1.0
100
AcDbArc
 50
360.0
 51
76.0
  0
LINE
  5
3AD
102
{ACAD_REACTORS
330
5A4
102
}
330
1F
100
AcDbEntity
  8
LC-001-002-----0
  6
ByBlock
 62
     7
370
    50
100
AcDbLine
 10
96.551252
 20
-13.211225
 30
0.0
 11
102.914669
 21
-14.423811
 31
0.0
  0
LINE
  5
3AE
102
{ACAD_REACTORS
330
5A4
102
}
330
1F
100
AcDbEntity
  8
LC-001-002-----0
  6
ByBlock
 62
     7
370
    50
100
AcDbLine
 10
103.161472
 20
24.763032
 30
0.0
 11
96.661472
 21
24.763032
 31
0.0
  0
ARC
  5
3AF
102
{ACAD_REACTORS
330
5A4
102
}
330
1F
100
AcDbEntity
  8
LC-001-002-----0
  6
ByBlock
 62
     7
370
    50
100
AcDbCircle
 10
96.672042
 20
-12.726761
 30
0.0
 40
0.4992953058712146
100
AcDbArc
 50
90.0
 51
256.0
  0
ARC
  5
3B0
102
{ACAD_REACTORS
330
5A4
102
}
330
1F
100
AcDbEntity
  8
LC-001-002-----0
  6
ByBlock
 62
     7
370
    50
100
AcDbCircle
 10
102.673452
 20
-27.724272
 30
0.0
 40
1.0
100
AcDbArc
 50
360.0
 51
76.0
  0
LINE
  5
3B1
102
{ACAD_REACTORS
330
5A4
102
}
330
1F
100
AcDbEntity
  8
LC-001-002-----0
  6
ByBlock
 62
     7
370
    50
100
AcDbLine
 10
103.161472
 20
37.093197
 30
0.0
 11
96.661472
 21
37.093197
 31
0.0
  0
LINE
  5
3B2
102
{ACAD_REACTORS
330
5A4
102
}
330
1F
100
AcDbEntity
  8
LC-001-002-----0
  6
ByBlock
 62
     7
370
    50
100
AcDbLine
 10
103.661472
 20
74.583694
 30
0.0
 11
103.661472
 21
83.244595
 31
0.0
  0
LINE
  5
3B3
102
{ACAD_REACTORS
330
5A4
102
}
330
1F
100
AcDbEntity
  8
LC-001-002-----0
  6
ByBlock
 62
     7
370
    50
100
AcDbLine
 10
103.661472
 20
62.253529
 30
0.0
 11
103.661472
 21
70.914429
 31
0.0
  0
LINE
  5
3B4
102
{ACAD_REACTORS
330
5A4
102
}
330
1F
100
AcDbEntity
  8
LC-001-002-----0
  6
ByBlock
 62
     7
370
    50
100
AcDbLine
 10
96.551957
 20
-25.54139
 30
0.0
 11
102.915374
 21
-26.753976
 31
0.0
  0
ARC
  5
3B5
102
{ACAD_REACTORS
330
5A4
102
}
330
1F
100
AcDbEntity
  8
LC-001-002-----0
  6
ByBlock
 62
     7
370
    50
100
AcDbCircle
 10
96.672747
 20
-25.056926
 30
0.0
 40
0.4992953058712146
100
AcDbArc
 50
90.0
 51
256.0
  0
LINE
  5
3B6
102
{ACAD_REACTORS
330
5A4
102
}
330
1F
100
AcDbEntity
  8
LC-001-002-----0
  6
ByBlock
 62
     7
370
    50
100
AcDbLine
 10
103.161472
 20
49.423363
 30
0.0
 11
96.661472
 21
49.423363
 31
0.0
  0
ARC
  5
3B7
102
{ACAD_REACTORS
330
5A4
102
}
330
1F
100
AcDbEntity
  8
LC-001-002-----0
  6
ByBlock
 62
     7
370
    50
100
AcDbCircle
 10
102.674157
 20
-40.054438
 30
0.0
 40
1.0
100
AcDbArc
 50
360.0
 51
76.0
  0
LINE
  5
3B8
102
{ACAD_REACTORS
330
5A4
102
}
330
1F
100
AcDbEntity
  8
LC-001-002-----0
  6
ByBlock
 62
     7
370
    50
100
AcDbLine
 10
96.552661
 20
-37.871556
 30
0.0
 11
102.916078
 21
-39.084142
 31
0.0
  0
LINE
  5
3B9
102
{ACAD_REACTORS
330
5A4
102
}
330
1F
100
AcDbEntity
  8
LC-001-002-----0
  6
ByBlock
 62
     7
370
    50
100
AcDbLine
 10
103.161472
 20
61.753529
 30
0.0
 11
96.661472
 21
61.753529
 31
0.0
  0
ARC
  5
3BA
102
{ACAD_REACTORS
330
5A4
102
}
330
1F
100
AcDbEntity
  8
LC-001-002-----0
  6
ByBlock
 62
     7
370
    50
100
AcDbCircle
 10
96.673452
 20
-37.387092
 30
0.0
 40
0.4992953058712146
100
AcDbArc
 50
90.0
 51
256.0
  0
LINE
  5
3BB
102
{ACAD_REACTORS
330
5A4
102
}
330
1F
100
AcDbEntity
  8
LC-001-002-----0
  6
ByBlock
 62
     7
370
    50
100
AcDbLine
 10
103.661472
 20
37.593197
 30
0.0
 11
103.661472
 21
46.254098
 31
0.0
  0
LINE
  5
3BC
102
{ACAD_REACTORS
330
5A4
102
}
330
1F
100
AcDbEntity
  8
LC-001-002-----0
  6
ByBlock
 62
     7
370
    50
100
AcDbLine
 10
103.661472
 20
12.932866
 30
0.0
 11
103.661472
 21
21.593766
 31
0.0
  0
LINE
  5
3BD
102
{ACAD_REACTORS
330
5A4
102
}
330
1F
100
AcDbEntity
  8
LC-001-002-----0
  6
ByBlock
 62
     7
370
    50
100
AcDbLine
 10
103.661472
 20
0.6027
 30
0.0
 11
103.661472
 21
9.263601
 31
0.0
  0
LINE
  5
3BE
102
{ACAD_REACTORS
330
5A4
102
}
330
1F
100
AcDbEntity
  8
LC-001-002-----0
  6
ByBlock
 62
     7
370
    50
100
AcDbLine
 10
103.661472
 20
-11.727465
 30
0.0
 11
103.661472
 21
-3.066565
 31
0.0
  0
LINE
  5
3BF
102
{ACAD_REACTORS
330
5A4
102
}
330
1F
100
AcDbEntity
  8
LC-001-002-----0
  6
ByBlock
 62
     7
370
    50
100
AcDbLine
 10
103.661472
 20
-24.057631
 30
0.0
 11
103.661472
 21
-15.396731
 31
0.0
  0
LINE
  5
3C0
102
{ACAD_REACTORS
330
5A4
102
}
330
1F
100
AcDbEntity
  8
LC-001-002-----0
  6
ByBlock
 62
     7
370
    50
100
AcDbLine
 10
161.661472
 20
136.234523
 30
0.0
 11
161.661472
 21
144.895423
 31
0.0
  0
LINE
  5
3C1
102
{ACAD_REACTORS
330
5A4
102
}
330
1F
100
AcDbEntity
  8
LC-001-002-----0
  6
ByBlock
 62
     7
370
    50
100
AcDbLine
 10
161.661472
 20
148.564688
 30
0.0
 11
161.661472
 21
157.225589
 31
0.0
  0
LINE
  5
3C2
102
{ACAD_REACTORS
330
5A4
102
}
330
1F
100
AcDbEntity
  8
LC-001-002-----0
  6
ByBlock
 62
     7
370
    50
100
AcDbLine
 10
161.661472
 20
160.894854
 30
0.0
 11
161.661472
 21
169.555754
 31
0.0
  0
LINE
  5
3C3
102
{ACAD_REACTORS
330
5A4
102
}
330
1F
100
AcDbEntity
  8
LC-001-002-----0
  6
ByBlock
 62
     7
370
    50
100
AcDbLine
 10
161.661472
 20
173.22502
 30
0.0
 11
161.661472
 21
181.888544
 31
0.0
  0
LINE
  5
3C4
102
{ACAD_REACTORS
330
5A4
102
}
330
1F
100
AcDbEntity
  8
LC-001-002-----0
  6
ByBlock
 62
     7
370
    50
100
AcDbLine
 10
103.661472
 20
25.263032
 30
0.0
 11
103.661472
 21
33.923932
 31
0.0
  0
LINE
  5
3C5
102
{ACAD_REACTORS
330
5A4
102
}
330
1F
100
AcDbEntity
  8
LC-001-002-----0
  6
ByBlock
 62
     7
370
    50
100
AcDbLine
 10
168.778034
 20
97.760266
 30
0.0
 11
162.414617
 21
96.54768
 31
0.0
  0
ARC
  5
3C6
102
{ACAD_REACTORS
330
5A4
102
}
330
1F
100
AcDbEntity
  8
LC-002-002-RND-0
 62
     7
370
    50
100
AcDbCircle
 10
162.161472
 20
136.234523
 30
0.0
 40
0.5
100
AcDbArc
 50
180.0
 51
270.0
  0
LINE
  5
3C7
102
{ACAD_REACTORS
330
5A4
102
}
330
1F
100
AcDbEntity
  8
LC-001-002-----0
  6
ByBlock
 62
     7
370
    50
100
AcDbLine
 10
103.661472
 20
49.923363
 30
0.0
 11
103.661472
 21
58.584263
 31
0.0
  0
ARC
  5
3C8
102
{ACAD_REACTORS
330
5A4
102
}
330
1F
100
AcDbEntity
  8
LC-002-002-RND-0
 62
     7
370
    50
100
AcDbCircle
 10
162.161472
 20
148.564688
 30
0.0
 40
0.5
100
AcDbArc
 50
180.0
 51
270.0
  0
ARC
  5
3C9
102
{ACAD_REACTORS
330
5A4
102
}
330
1F
100
AcDbEntity
  8
LC-002-002-RND-0
 62
     7
370
    50
100
AcDbCircle
 10
162.161472
 20
160.894854
 30
0.0
 40
0.5
100
AcDbArc
 50
180.0
 51
270.0
  0
ARC
  5
3CA
102
{ACAD_REACTORS
330
5A4
102
}
330
1F
100
AcDbEntity
  8
LC-002-002-RND-0
 62
     7
370
    50
100
AcDbCircle
 10
162.161472
 20
173.22502
 30
0.0
 40
0.5
100
AcDbArc
 50
180.0
 51
270.0
  0
ARC
  5
3CB
102
{ACAD_REACTORS
330
5A4
102
}
330
1F
100
AcDbEntity
  8
LC-001-002-----0
  6
ByBlock
 62
     7
370
    50
100
AcDbCircle
 10
168.657244
 20
98.24473
 30
0.0
 40
0.4992953058710902
100
AcDbArc
 50
284.0
 51
90.0
  0
ARC
  5
3CC
102
{ACAD_REACTORS
330
5A4
102
}
330
1F
100
AcDbEntity
  8
LC-001-002-----0
  6
ByBlock
 62
     7
370
    50
100
AcDbCircle
 10
162.655835
 20
83.247219
 30
0.0
 40
0.9999999999999804
100
AcDbArc
 50
104.0
 51
180.0
  0
LINE
  5
3CD
102
{ACAD_REACTORS
330
5A4
102
}
330
1F
100
AcDbEntity
  8
LC-001-002-----0
  6
ByBlock
 62
     7
370
    50
100
AcDbLine
 10
168.77733
 20
85.430101
 30
0.0
 11
162.413913
 21
84.217515
 31
0.0
  0
ARC
  5
3CE
102
{ACAD_REACTORS
330
5A4
102
}
330
1F
100
AcDbEntity
  8
LC-001-002-----0
  6
ByBlock
 62
     7
370
    50
100
AcDbCircle
 10
168.656539
 20
85.914565
 30
0.0
 40
0.4992953058711177
100
AcDbArc
 50
284.0
 51
90.0
  0
ARC
  5
3CF
102
{ACAD_REACTORS
330
5A4
102
}
330
1F
100
AcDbEntity
  8
LC-001-002-----0
  6
ByBlock
 62
     7
370
    50
100
AcDbCircle
 10
162.65513
 20
70.917053
 30
0.0
 40
0.9999999999999804
100
AcDbArc
 50
104.0
 51
180.0
  0
LINE
  5
3D0
102
{ACAD_REACTORS
330
5A4
102
}
330
1F
100
AcDbEntity
  8
LC-001-002-----0
  6
ByBlock
 62
     7
370
    50
100
AcDbLine
 10
168.776625
 20
73.099935
 30
0.0
 11
162.413208
 21
71.887349
 31
0.0
  0
LINE
  5
3D1
102
{ACAD_REACTORS
330
5A4
102
}
330
1F
100
AcDbEntity
  8
LC-001-002-----0
  6
ByBlock
 62
     7
370
    50
100
AcDbLine
 10
104.161472
 20
-40.944962
 30
0.0
 11
104.661472
 21
-40.944962
 31
0.0
  0
LINE
  5
3D2
102
{ACAD_REACTORS
330
5A4
102
}
330
1F
100
AcDbEntity
  8
LC-001-002-----0
  6
ByBlock
 62
     7
370
    50
100
AcDbLine
 10
103.661472
 20
-40.444962
 30
0.0
 11
104.161472
 21
-40.944962
 31
0.0
  0
ARC
  5
3D3
102
{ACAD_REACTORS
330
5A4
102
}
330
1F
100
AcDbEntity
  8
LC-001-002-----0
  6
ByBlock
 62
     7
370
    50
100
AcDbCircle
 10
168.655835
 20
73.584399
 30
0.0
 40
0.4992953058710902
100
AcDbArc
 50
284.0
 51
90.0
  0
LINE
  5
3D4
102
{ACAD_REACTORS
330
5A4
102
}
330
1F
100
AcDbEntity
  8
LC-001-002-----0
  6
ByBlock
 62
     7
370
    50
100
AcDbLine
 10
103.161472
 20
74.083694
 30
0.0
 11
96.661472
 21
74.083694
 31
0.0
  0
ARC
  5
3D5
102
{ACAD_REACTORS
330
5A4
102
}
330
1F
100
AcDbEntity
  8
LC-001-002-----0
  6
ByBlock
 62
     7
370
    50
100
AcDbCircle
 10
162.654425
 20
58.586887
 30
0.0
 40
1.000000000000008
100
AcDbArc
 50
104.0
 51
180.0
  0
LINE
  5
3D6
102
{ACAD_REACTORS
330
5A4
102
}
330
1F
100
AcDbEntity
  8
LC-001-002-----0
  6
ByBlock
 62
     7
370
    50
100
AcDbLine
 10
168.77592
 20
60.769769
 30
0.0
 11
162.412503
 21
59.557183
 31
0.0
  0
LINE
  5
3D7
102
{ACAD_REACTORS
330
5A4
102
}
330
1F
100
AcDbEntity
  8
LC-001-002-----0
  6
ByBlock
 62
     7
370
    50
100
AcDbLine
 10
103.161472
 20
86.41386
 30
0.0
 11
96.661472
 21
86.41386
 31
0.0
  0
ARC
  5
3D8
102
{ACAD_REACTORS
330
5A4
102
}
330
1F
100
AcDbEntity
  8
LC-001-002-----0
  6
ByBlock
 62
     7
370
    50
100
AcDbCircle
 10
168.65513
 20
61.254233
 30
0.0
 40
0.4992953058710902
100
AcDbArc
 50
284.0
 51
90.0
  0
ARC
  5
3D9
102
{ACAD_REACTORS
330
5A4
102
}
330
1F
100
AcDbEntity
  8
LC-001-002-----0
  6
ByBlock
 62
     7
370
    50
100
AcDbCircle
 10
162.65372
 20
46.256722
 30
0.0
 40
0.9999999999999804
100
AcDbArc
 50
104.0
 51
180.0
  0
LINE
  5
3DA
102
{ACAD_REACTORS
330
5A4
102
}
330
1F
100
AcDbEntity
  8
LC-001-002-----0
  6
ByBlock
 62
     7
370
    50
100
AcDbLine
 10
103.161472
 20
98.744026
 30
0.0
 11
96.661472
 21
98.744026
 31
0.0
  0
LINE
  5
3DB
102
{ACAD_REACTORS
330
5A4
102
}
330
1F
100
AcDbEntity
  8
LC-001-002-----0
  6
ByBlock
 62
     7
370
    50
100
AcDbLine
 10
168.775216
 20
48.439604
 30
0.0
 11
162.411799
 21
47.227018
 31
0.0
  0
ARC
  5
3DC
102
{ACAD_REACTORS
330
5A4
102
}
330
1F
100
AcDbEntity
  8
LC-001-002-----0
  6
ByBlock
 62
     7
370
    50
100
AcDbCircle
 10
168.654425
 20
48.924068
 30
0.0
 40
0.4992953058711177
100
AcDbArc
 50
284.0
 51
90.0
  0
LINE
  5
3DD
102
{ACAD_REACTORS
330
5A4
102
}
330
1F
100
AcDbEntity
  8
LC-001-002-----0
  6
ByBlock
 62
     7
370
    50
100
AcDbLine
 10
103.161472
 20
111.074191
 30
0.0
 11
96.661472
 21
111.074191
 31
0.0
  0
ARC
  5
3DE
102
{ACAD_REACTORS
330
5A4
102
}
330
1F
100
AcDbEntity
  8
LC-001-002-----0
  6
ByBlock
 62
     7
370
    50
100
AcDbCircle
 10
162.653016
 20
33.926556
 30
0.0
 40
0.9999999999999804
100
AcDbArc
 50
104.0
 51
180.0
  0
LINE
  5
3DF
102
{ACAD_REACTORS
330
5A4
102
}
330
1F
100
AcDbEntity
  8
LC-001-002-----0
  6
ByBlock
 62
     7
370
    50
100
AcDbLine
 10
168.774511
 20
36.109438
 30
0.0
 11
162.411094
 21
34.896852
 31
0.0
  0
LINE
  5
3E0
102
{ACAD_REACTORS
330
5A4
102
}
330
1F
100
AcDbEntity
  8
LC-001-002-----0
  6
ByBlock
 62
     7
370
    50
100
AcDbLine
 10
103.161472
 20
123.404357
 30
0.0
 11
96.661472
 21
123.404357
 31
0.0
  0
ARC
  5
3E1
102
{ACAD_REACTORS
330
5A4
102
}
330
1F
100
AcDbEntity
  8
LC-001-002-----0
  6
ByBlock
 62
     7
370
    50
100
AcDbCircle
 10
168.65372
 20
36.593902
 30
0.0
 40
0.4992953058710902
100
AcDbArc
 50
284.0
 51
90.0
  0
ARC
  5
3E2
102
{ACAD_REACTORS
330
5A4
102
}
330
1F
100
AcDbEntity
  8
LC-001-002-----0
  6
ByBlock
 62
     7
370
    50
100
AcDbCircle
 10
162.652311
 20
21.596391
 30
0.0
 40
1.000000000000008
100
AcDbArc
 50
104.0
 51
180.0
  0
LINE
  5
3E3
102
{ACAD_REACTORS
330
5A4
102
}
330
1F
100
AcDbEntity
  8
LC-001-002-----0
  6
ByBlock
 62
     7
370
    50
100
AcDbLine
 10
161.661472
 20
-40.057062
 30
0.0
 11
161.661472
 21
-40.444962
 31
0.0
  0
LINE
  5
3E4
102
{ACAD_REACTORS
330
5A4
102
}
330
1F
100
AcDbEntity
  8
LC-001-002-----0
  6
ByBlock
 62
     7
370
    50
100
AcDbLine
 10
161.661472
 20
-36.387797
 30
0.0
 11
161.661472
 21
-27.726896
 31
0.0
  0
LINE
  5
3E5
102
{ACAD_REACTORS
330
5A4
102
}
330
1F
100
AcDbEntity
  8
LC-001-002-----0
  6
ByBlock
 62
     7
370
    50
100
AcDbLine
 10
161.661472
 20
123.904357
 30
0.0
 11
161.661472
 21
132.565257
 31
0.0
  0
LINE
  5
3E6
102
{ACAD_REACTORS
330
5A4
102
}
330
1F
100
AcDbEntity
  8
LC-001-002-----0
  6
ByBlock
 62
     7
370
    50
100
AcDbLine
 10
162.161472
 20
-36.887797
 30
0.0
 11
168.661472
 21
-36.887797
 31
0.0
  0
LINE
  5
3E7
102
{ACAD_REACTORS
330
5A4
102
}
330
1F
100
AcDbEntity
  8
LC-001-002-----0
  6
ByBlock
 62
     7
370
    50
100
AcDbLine
 10
161.661472
 20
111.574191
 30
0.0
 11
161.661472
 21
120.235092
 31
0.0
  0
LINE
  5
3E8
102
{ACAD_REACTORS
330
5A4
102
}
330
1F
100
AcDbEntity
  8
LC-001-002-----0
  6
ByBlock
 62
     7
370
    50
100
AcDbLine
 10
161.661472
 20
99.244026
 30
0.0
 11
161.661472
 21
107.904926
 31
0.0
  0
ARC
  5
3E9
102
{ACAD_REACTORS
330
5A4
102
}
330
1F
100
AcDbEntity
  8
LC-002-002-RND-0
 62
     7
370
    50
100
AcDbCircle
 10
103.161472
 20
-24.057631
 30
0.0
 40
0.5
100
AcDbArc
 50
270.0
 51
360.0
  0
LINE
  5
3EA
102
{ACAD_REACTORS
330
5A4
102
}
330
1F
100
AcDbEntity
  8
LC-001-002-----0
  6
ByBlock
 62
     7
370
    50
100
AcDbLine
 10
161.661472
 20
86.91386
 30
0.0
 11
161.661472
 21
95.57476
 31
0.0
  0
ARC
  5
3EB
102
{ACAD_REACTORS
330
5A4
102
}
330
1F
100
AcDbEntity
  8
LC-002-002-RND-0
 62
     7
370
    50
100
AcDbCircle
 10
103.161472
 20
-36.387797
 30
0.0
 40
0.5
100
AcDbArc
 50
270.0
 51
360.0
  0
LINE
  5
3EC
102
{ACAD_REACTORS
330
5A4
102
}
330
1F
100
AcDbEntity
  8
LC-001-002-----0
  6
ByBlock
 62
     7
370
    50
100
AcDbLine
 10
168.773806
 20
23.779272
 30
0.0
 11
162.410389
 21
22.566686
 31
0.0
  0
ARC
  5
3ED
102
{ACAD_REACTORS
330
5A4
102
}
330
1F
100
AcDbEntity
  8
LC-002-002-RND-0
 62
     7
370
    50
100
AcDbCircle
 10
103.161472
 20
-11.727465
 30
0.0
 40
0.5
100
AcDbArc
 50
270.0
 51
360.0
  0
LINE
  5
3EE
102
{ACAD_REACTORS
330
5A4
102
}
330
1F
100
AcDbEntity
  8
LC-001-002-----0
  6
ByBlock
 62
     7
370
    50
100
AcDbLine
 10
162.161472
 20
-24.557631
 30
0.0
 11
168.661472
 21
-24.557631
 31
0.0
  0
ARC
  5
3EF
102
{ACAD_REACTORS
330
5A4
102
}
330
1F
100
AcDbEntity
  8
LC-002-002-RND-0
 62
     7
370
    50
100
AcDbCircle
 10
103.161472
 20
0.6027
 30
0.0
 40
0.5
100
AcDbArc
 50
270.0
 51
360.0
  0
ARC
  5
3F0
102
{ACAD_REACTORS
330
5A4
102
}
330
1F
100
AcDbEntity
  8
LC-001-002-----0
  6
ByBlock
 62
     7
370
    50
100
AcDbCircle
 10
168.653016
 20
24.263736
 30
0.0
 40
0.4992953058710902
100
AcDbArc
 50
284.0
 51
90.0
  0
ARC
  5
3F1
102
{ACAD_REACTORS
330
5A4
102
}
330
1F
100
AcDbEntity
  8
LC-002-002-RND-0
 62
     7
370
    50
100
AcDbCircle
 10
103.161472
 20
12.932866
 30
0.0
 40
0.5
100
AcDbArc
 50
270.0
 51
360.0
  0
ARC
  5
3F2
102
{ACAD_REACTORS
330
5A4
102
}
330
1F
100
AcDbEntity
  8
LC-002-002-RND-0
 62
     7
370
    50
100
AcDbCircle
 10
103.161472
 20
25.263032
 30
0.0
 40
0.5
100
AcDbArc
 50
270.0
 51
360.0
  0
ARC
  5
3F3
102
{ACAD_REACTORS
330
5A4
102
}
330
1F
100
AcDbEntity
  8
LC-002-002-RND-0
 62
     7
370
    50
100
AcDbCircle
 10
103.161472
 20
37.593197
 30
0.0
 40
0.5
100
AcDbArc
 50
270.0
 51
360.0
  0
ARC
  5
3F4
102
{ACAD_REACTORS
330
5A4
102
}
330
1F
100
AcDbEntity
  8
LC-002-002-RND-0
 62
     7
370
    50
100
AcDbCircle
 10
103.161472
 20
49.923363
 30
0.0
 40
0.5
100
AcDbArc
 50
270.0
 51
360.0
  0
ARC
  5
3F5
102
{ACAD_REACTORS
330
5A4
102
}
330
1F
100
AcDbEntity
  8
LC-002-002-RND-0
 62
     7
370
    50
100
AcDbCircle
 10
103.161472
 20
62.253529
 30
0.0
 40
0.5
100
AcDbArc
 50
270.0
 51
360.0
  0
ARC
  5
3F6
102
{ACAD_REACTORS
330
5A4
102
}
330
1F
100
AcDbEntity
  8
LC-002-002-RND-0
 62
     7
370
    50
100
AcDbCircle
 10
103.161472
 20
74.583694
 30
0.0
 40
0.5
100
AcDbArc
 50
270.0
 51
360.0
  0
ARC
  5
3F7
102
{ACAD_REACTORS
330
5A4
102
}
330
1F
100
AcDbEntity
  8
LC-002-002-RND-0
 62
     7
370
    50
100
AcDbCircle
 10
103.161472
 20
86.91386
 30
0.0
 40
0.5
100
AcDbArc
 50
270.0
 51
360.0
  0
ARC
  5
3F8
102
{ACAD_REACTORS
330
5A4
102
}
330
1F
100
AcDbEntity
  8
LC-002-002-RND-0
 62
     7
370
    50
100
AcDbCircle
 10
103.161472
 20
99.244026
 30
0.0
 40
0.5
100
AcDbArc
 50
270.0
 51
360.0
  0
ARC
  5
3F9
102
{ACAD_REACTORS
330
5A4
102
}
330
1F
100
AcDbEntity
  8
LC-002-002-RND-0
 62
     7
370
    50
100
AcDbCircle
 10
103.161472
 20
111.574191
 30
0.0
 40
0.5
100
AcDbArc
 50
270.0
 51
360.0
  0
ARC
  5
3FA
102
{ACAD_REACTORS
330
5A4
102
}
330
1F
100
AcDbEntity
  8
LC-002-002-RND-0
 62
     7
370
    50
100
AcDbCircle
 10
103.161472
 20
123.904357
 30
0.0
 40
0.5
100
AcDbArc
 50
270.0
 51
360.0
  0
ARC
  5
3FB
102
{ACAD_REACTORS
330
5A4
102
}
330
1F
100
AcDbEntity
  8
LC-001-002-----0
  6
ByBlock
 62
     7
370
    50
100
AcDbCircle
 10
162.651606
 20
9.266225
 30
0.0
 40
0.9999999999999804
100
AcDbArc
 50
104.0
 51
180.0
  0
LINE
  5
3FC
102
{ACAD_REACTORS
330
5A4
102
}
330
1F
100
AcDbEntity
  8
LC-001-002-----0
  6
ByBlock
 62
     7
370
    50
100
AcDbLine
 10
162.161472
 20
-12.227465
 30
0.0
 11
168.661472
 21
-12.227465
 31
0.0
  0
LINE
  5
3FD
102
{ACAD_REACTORS
330
5A4
102
}
330
1F
100
AcDbEntity
  8
LC-001-002-----0
  6
ByBlock
 62
     7
370
    50
100
AcDbLine
 10
168.773102
 20
11.449107
 30
0.0
 11
162.409684
 21
10.236521
 31
0.0
  0
ARC
  5
3FE
102
{ACAD_REACTORS
330
5A4
102
}
330
1F
100
AcDbEntity
  8
LC-001-002-----0
  6
ByBlock
 62
     7
370
    50
100
AcDbCircle
 10
168.652311
 20
11.933571
 30
0.0
 40
0.4992953058711177
100
AcDbArc
 50
284.0
 51
90.0
  0
LINE
  5
3FF
102
{ACAD_REACTORS
330
5A4
102
}
330
1F
100
AcDbEntity
  8
LC-001-002-----0
  6
ByBlock
 62
     7
370
    50
100
AcDbLine
 10
162.161472
 20
0.1027
 30
0.0
 11
168.661472
 21
0.1027
 31
0.0
  0
ARC
  5
400
102
{ACAD_REACTORS
330
5A4
102
}
330
1F
100
AcDbEntity
  8
LC-001-002-----0
  6
ByBlock
 62
     7
370
    50
100
AcDbCircle
 10
162.650902
 20
-3.063941
 30
0.0
 40
0.9999999999999804
100
AcDbArc
 50
104.0
 51
180.0
  0
LINE
  5
401
102
{ACAD_REACTORS
330
5A4
102
}
330
1F
100
AcDbEntity
  8
LC-001-002-----0
  6
ByBlock
 62
     7
370
    50
100
AcDbLine
 10
168.772397
 20
-0.881059
 30
0.0
 11
162.40898
 21
-2.093645
 31
0.0
  0
LINE
  5
402
102
{ACAD_REACTORS
330
5A4
102
}
330
1F
100
AcDbEntity
  8
LC-001-002-----0
  6
ByBlock
 62
     7
370
    50
100
AcDbLine
 10
162.161472
 20
12.432866
 30
0.0
 11
168.661472
 21
12.432866
 31
0.0
  0
ARC
  5
403
102
{ACAD_REACTORS
330
5A4
102
}
330
1F
100
AcDbEntity
  8
LC-001-002-----0
  6
ByBlock
 62
     7
370
    50
100
AcDbCircle
 10
168.651606
 20
-0.396595
 30
0.0
 40
0.4992953058710902
100
AcDbArc
 50
284.0
 51
90.0
  0
ARC
  5
404
102
{ACAD_REACTORS
330
5A4
102
}
330
1F
100
AcDbEntity
  8
LC-001-002-----0
  6
ByBlock
 62
     7
370
    50
100
AcDbCircle
 10
162.650197
 20
-15.394106
 30
0.0
 40
1.000000000000022
100
AcDbArc
 50
104.0
 51
180.0
  0
LINE
  5
405
102
{ACAD_REACTORS
330
5A4
102
}
330
1F
100
AcDbEntity
  8
LC-001-002-----0
  6
ByBlock
 62
     7
370
    50
100
AcDbLine
 10
168.771692
 20
-13.211225
 30
0.0
 11
162.408275
 21
-14.423811
 31
0.0
  0
LINE
  5
406
102
{ACAD_REACTORS
330
5A4
102
}
330
1F
100
AcDbEntity
  8
LC-001-002-----0
  6
ByBlock
 62
     7
370
    50
100
AcDbLine
 10
162.161472
 20
24.763032
 30
0.0
 11
168.661472
 21
24.763032
 31
0.0
  0
ARC
  5
407
102
{ACAD_REACTORS
330
5A4
102
}
330
1F
100
AcDbEntity
  8
LC-001-002-----0
  6
ByBlock
 62
     7
370
    50
100
AcDbCircle
 10
168.650902
 20
-12.726761
 30
0.0
 40
0.4992953058711315
100
AcDbArc
 50
284.0
 51
90.0
  0
ARC
  5
408
102
{ACAD_REACTORS
330
5A4
102
}
330
1F
100
AcDbEntity
  8
LC-001-002-----0
  6
ByBlock
 62
     7
370
    50
100
AcDbCircle
 10
162.649492
 20
-27.724272
 30
0.0
 40
0.9999999999999941
100
AcDbArc
 50
104.0
 51
180.0
  0
LINE
  5
409
102
{ACAD_REACTORS
330
5A4
102
}
330
1F
100
AcDbEntity
  8
LC-001-002-----0
  6
ByBlock
 62
     7
370
    50
100
AcDbLine
 10
162.161472
 20
37.093197
 30
0.0
 11
168.661472
 21
37.093197
 31
0.0
  0
LINE
  5
40A
102
{ACAD_REACTORS
330
5A4
102
}
330
1F
100
AcDbEntity
  8
LC-001-002-----0
  6
ByBlock
 62
     7
370
    50
100
AcDbLine
 10
161.661472
 20
74.583694
 30
0.0
 11
161.661472
 21
83.244595
 31
0.0
  0
LINE
  5
40B
102
{ACAD_REACTORS
330
5A4
102
}
330
1F
100
AcDbEntity
  8
LC-001-002-----0
  6
ByBlock
 62
     7
370
    50
100
AcDbLine
 10
161.661472
 20
62.253529
 30
0.0
 11
161.661472
 21
70.914429
 31
0.0
  0
LINE
  5
40C
102
{ACAD_REACTORS
330
5A4
102
}
330
1F
100
AcDbEntity
  8
LC-001-002-----0
  6
ByBlock
 62
     7
370
    50
100
AcDbLine
 10
168.770987
 20
-25.54139
 30
0.0
 11
162.40757
 21
-26.753976
 31
0.0
  0
ARC
  5
40D
102
{ACAD_REACTORS
330
5A4
102
}
330
1F
100
AcDbEntity
  8
LC-001-002-----0
  6
ByBlock
 62
     7
370
    50
100
AcDbCircle
 10
168.650197
 20
-25.056926
 30
0.0
 40
0.4992953058711315
100
AcDbArc
 50
284.0
 51
90.0
  0
LINE
  5
40E
102
{ACAD_REACTORS
330
5A4
102
}
330
1F
100
AcDbEntity
  8
LC-001-002-----0
  6
ByBlock
 62
     7
370
    50
100
AcDbLine
 10
162.161472
 20
49.423363
 30
0.0
 11
168.661472
 21
49.423363
 31
0.0
  0
ARC
  5
40F
102
{ACAD_REACTORS
330
5A4
102
}
330
1F
100
AcDbEntity
  8
LC-001-002-----0
  6
ByBlock
 62
     7
370
    50
100
AcDbCircle
 10
162.648788
 20
-40.054438
 30
0.0
 40
0.9999999999999941
100
AcDbArc
 50
104.0
 51
180.0
  0
LINE
  5
410
102
{ACAD_REACTORS
330
5A4
102
}
330
1F
100
AcDbEntity
  8
LC-001-002-----0
  6
ByBlock
 62
     7
370
    50
100
AcDbLine
 10
168.770283
 20
-37.871556
 30
0.0
 11
162.406866
 21
-39.084142
 31
0.0
  0
LINE
  5
411
102
{ACAD_REACTORS
330
5A4
102
}
330
1F
100
AcDbEntity
  8
LC-001-002-----0
  6
ByBlock
 62
     7
370
    50
100
AcDbLine
 10
162.161472
 20
61.753529
 30
0.0
 11
168.661472
 21
61.753529
 31
0.0
  0
ARC
  5
412
102
{ACAD_REACTORS
330
5A4
102
}
330
1F
100
AcDbEntity
  8
LC-001-002-----0
  6
ByBlock
 62
     7
370
    50
100
AcDbCircle
 10
168.649492
 20
-37.387092
 30
0.0
 40
0.499295305871104
100
AcDbArc
 50
284.0
 51
90.0
  0
LINE
  5
413
102
{ACAD_REACTORS
330
5A4
102
}
330
1F
100
AcDbEntity
  8
LC-001-002-----0
  6
ByBlock
 62
     7
370
    50
100
AcDbLine
 10
161.661472
 20
37.593197
 30
0.0
 11
161.661472
 21
46.254098
 31
0.0
  0
LINE
  5
414
102
{ACAD_REACTORS
330
5A4
102
}
330
1F
100
AcDbEntity
  8
LC-001-002-----0
  6
ByBlock
 62
     7
370
    50
100
AcDbLine
 10
161.661472
 20
12.932866
 30
0.0
 11
161.661472
 21
21.593766
 31
0.0
  0
LINE
  5
415
102
{ACAD_REACTORS
330
5A4
102
}
330
1F
100
AcDbEntity
  8
LC-001-002-----0
  6
ByBlock
 62
     7
370
    50
100
AcDbLine
 10
161.661472
 20
0.6027
 30
0.0
 11
161.661472
 21
9.263601
 31
0.0
  0
LINE
  5
416
102
{ACAD_REACTORS
330
5A4
102
}
330
1F
100
AcDbEntity
  8
LC-001-002-----0
  6
ByBlock
 62
     7
370
    50
100
AcDbLine
 10
161.661472
 20
-11.727465
 30
0.0
 11
161.661472
 21
-3.066565
 31
0.0
  0
LINE
  5
417
102
{ACAD_REACTORS
330
5A4
102
}
330
1F
100
AcDbEntity
  8
LC-001-002-----0
  6
ByBlock
 62
     7
370
    50
100
AcDbLine
 10
161.661472
 20
-24.057631
 30
0.0
 11
161.661472
 21
-15.396731
 31
0.0
  0
LINE
  5
418
102
{ACAD_REACTORS
330
5A4
102
}
330
1F
100
AcDbEntity
  8
LC-001-002-----0
  6
ByBlock
 62
     7
370
    50
100
AcDbLine
 10
161.661472
 20
25.263032
 30
0.0
 11
161.661472
 21
33.923932
 31
0.0
  0
LINE
  5
419
102
{ACAD_REACTORS
330
5A4
102
}
330
1F
100
AcDbEntity
  8
LC-001-002-----0
  6
ByBlock
 62
     7
370
    50
100
AcDbLine
 10
161.661472
 20
49.923363
 30
0.0
 11
161.661472
 21
58.584263
 31
0.0
  0
LINE
  5
41A
102
{ACAD_REACTORS
330
5A4
102
}
330
1F
100
AcDbEntity
  8
LC-001-002-----0
  6
ByBlock
 62
     7
370
    50
100
AcDbLine
 10
161.161472
 20
-40.944962
 30
0.0
 11
160.661472
 21
-40.944962
 31
0.0
  0
LINE
  5
41B
102
{ACAD_REACTORS
330
5A4
102
}
330
1F
100
AcDbEntity
  8
LC-001-002-----0
  6
ByBlock
 62
     7
370
    50
100
AcDbLine
 10
161.661472
 20
-40.444962
 30
0.0
 11
161.161472
 21
-40.944962
 31
0.0
  0
LINE
  5
41C
102
{ACAD_REACTORS
330
5A4
102
}
330
1F
100
AcDbEntity
  8
LC-001-002-----0
  6
ByBlock
 62
     7
370
    50
100
AcDbLine
 10
162.161472
 20
74.083694
 30
0.0
 11
168.661472
 21
74.083694
 31
0.0
  0
LINE
  5
41D
102
{ACAD_REACTORS
330
5A4
102
}
330
1F
100
AcDbEntity
  8
LC-001-002-----0
  6
ByBlock
 62
     7
370
    50
100
AcDbLine
 10
162.161472
 20
86.41386
 30
0.0
 11
168.661472
 21
86.41386
 31
0.0
  0
LINE
  5
41E
102
{ACAD_REACTORS
330
5A4
102
}
330
1F
100
AcDbEntity
  8
LC-001-002-----0
  6
ByBlock
 62
     7
370
    50
100
AcDbLine
 10
162.161472
 20
98.744026
 30
0.0
 11
168.661472
 21
98.744026
 31
0.0
  0
LINE
  5
41F
102
{ACAD_REACTORS
330
5A4
102
}
330
1F
100
AcDbEntity
  8
LC-001-002-----0
  6
ByBlock
 62
     7
370
    50
100
AcDbLine
 10
162.161472
 20
111.074191
 30
0.0
 11
168.661472
 21
111.074191
 31
0.0
  0
LINE
  5
420
102
{ACAD_REACTORS
330
5A4
102
}
330
1F
100
AcDbEntity
  8
LC-001-002-----0
  6
ByBlock
 62
     7
370
    50
100
AcDbLine
 10
162.161472
 20
123.404357
 30
0.0
 11
168.661472
 21
123.404357
 31
0.0
  0
ARC
  5
421
102
{ACAD_REACTORS
330
5A4
102
}
330
1F
100
AcDbEntity
  8
LC-002-002-RND-0
 62
     7
370
    50
100
AcDbCircle
 10
162.161472
 20
-24.057631
 30
0.0
 40
0.5
100
AcDbArc
 50
180.0
 51
270.0
  0
ARC
  5
422
102
{ACAD_REACTORS
330
5A4
102
}
330
1F
100
AcDbEntity
  8
LC-002-002-RND-0
 62
     7
370
    50
100
AcDbCircle
 10
162.161472
 20
-36.387797
 30
0.0
 40
0.5
100
AcDbArc
 50
180.0
 51
270.0
  0
ARC
  5
423
102
{ACAD_REACTORS
330
5A4
102
}
330
1F
100
AcDbEntity
  8
LC-002-002-RND-0
 62
     7
370
    50
100
AcDbCircle
 10
162.161472
 20
-11.727465
 30
0.0
 40
0.5
100
AcDbArc
 50
180.0
 51
270.0
  0
ARC
  5
424
102
{ACAD_REACTORS
330
5A4
102
}
330
1F
100
AcDbEntity
  8
LC-002-002-RND-0
 62
     7
370
    50
100
AcDbCircle
 10
162.161472
 20
0.6027
 30
0.0
 40
0.5
100
AcDbArc
 50
180.0
 51
270.0
  0
ARC
  5
425
102
{ACAD_REACTORS
330
5A4
102
}
330
1F
100
AcDbEntity
  8
LC-002-002-RND-0
 62
     7
370
    50
100
AcDbCircle
 10
162.161472
 20
12.932866
 30
0.0
 40
0.5
100
AcDbArc
 50
180.0
 51
270.0
  0
ARC
  5
426
102
{ACAD_REACTORS
330
5A4
102
}
330
1F
100
AcDbEntity
  8
LC-002-002-RND-0
 62
     7
370
    50
100
AcDbCircle
 10
162.161472
 20
25.263032
 30
0.0
 40
0.5
100
AcDbArc
 50
180.0
 51
270.0
  0
ARC
  5
427
102
{ACAD_REACTORS
330
5A4
102
}
330
1F
100
AcDbEntity
  8
LC-002-002-RND-0
 62
     7
370
    50
100
AcDbCircle
 10
162.161472
 20
37.593197
 30
0.0
 40
0.5
100
AcDbArc
 50
180.0
 51
270.0
  0
ARC
  5
428
102
{ACAD_REACTORS
330
5A4
102
}
330
1F
100
AcDbEntity
  8
LC-002-002-RND-0
 62
     7
370
    50
100
AcDbCircle
 10
162.161472
 20
49.923363
 30
0.0
 40
0.5
100
AcDbArc
 50
180.0
 51
270.0
  0
ARC
  5
429
102
{ACAD_REACTORS
330
5A4
102
}
330
1F
100
AcDbEntity
  8
LC-002-002-RND-0
 62
     7
370
    50
100
AcDbCircle
 10
162.161472
 20
62.253529
 30
0.0
 40
0.5
100
AcDbArc
 50
180.0
 51
270.0
  0
ARC
  5
42A
102
{ACAD_REACTORS
330
5A4
102
}
330
1F
100
AcDbEntity
  8
LC-002-002-RND-0
 62
     7
370
    50
100
AcDbCircle
 10
162.161472
 20
74.583694
 30
0.0
 40
0.5
100
AcDbArc
 50
180.0
 51
270.0
  0
ARC
  5
42B
102
{ACAD_REACTORS
330
5A4
102
}
330
1F
100
AcDbEntity
  8
LC-002-002-RND-0
 62
     7
370
    50
100
AcDbCircle
 10
162.161472
 20
86.91386
 30
0.0
 40
0.5
100
AcDbArc
 50
180.0
 51
270.0
  0
ARC
  5
42C
102
{ACAD_REACTORS
330
5A4
102
}
330
1F
100
AcDbEntity
  8
LC-002-002-RND-0
 62
     7
370
    50
100
AcDbCircle
 10
162.161472
 20
99.244026
 30
0.0
 40
0.5
100
AcDbArc
 50
180.0
 51
270.0
  0
ARC
  5
42D
102
{ACAD_REACTORS
330
5A4
102
}
330
1F
100
AcDbEntity
  8
LC-002-002-RND-0
 62
     7
370
    50
100
AcDbCircle
 10
162.161472
 20
111.574191
 30
0.0
 40
0.5
100
AcDbArc
 50
180.0
 51
270.0
  0
ARC
  5
42E
102
{ACAD_REACTORS
330
5A4
102
}
330
1F
100
AcDbEntity
  8
LC-002-002-RND-0
 62
     7
370
    50
100
AcDbCircle
 10
162.161472
 20
123.904357
 30
0.0
 40
0.5
100
AcDbArc
 50
180.0
 51
270.0
  0
LINE
  5
42F
102
{ACAD_REACTORS
330
5A4
102
}
330
1F
100
AcDbEntity
  8
LC-001-002-----0
  6
ByBlock
 62
     7
370
    50
100
AcDbLine
 10
160.661472
 20
-40.944962
 30
0.0
 11
160.661472
 21
185.055185
 31
0.0
  0
LINE
  5
430
102
{ACAD_REACTORS
330
5A4
102
}
330
1F
100
AcDbEntity
  8
LC-001-002-----0
  6
ByBlock
 62
     7
370
    50
100
AcDbLine
 10
168.661472
 20
135.734523
 30
0.0
 11
162.161472
 21
135.734523
 31
0.0
  0
LINE
  5
431
102
{ACAD_REACTORS
330
5A4
102
}
330
1F
100
AcDbEntity
  8
LC-001-002-----0
  6
ByBlock
 62
     7
370
    50
100
AcDbLine
 10
104.661472
 20
-40.944962
 30
0.0
 11
104.661472
 21
185.055185
 31
0.0
  0
LINE
  5
432
102
{ACAD_REACTORS
330
5A4
102
}
330
1F
100
AcDbEntity
  8
LC-001-002-----0
  6
ByBlock
 62
     7
370
    50
100
AcDbLine
 10
96.661472
 20
135.734523
 30
0.0
 11
103.161472
 21
135.734523
 31
0.0
  0
INSERT
  5
4F2
330
1F
100
AcDbEntity
  8
LC-003-005-----0
 62
     7
370
    25
100
AcDbBlockReference
  2
*X1319
 10
0.0
 20
0.0
 30
0.0
  0
INSERT
  5
591
330
1F
100
AcDbEntity
  8
LC-003-005-----0
 62
     7
370
    25
100
AcDbBlockReference
  2
*X1420
 10
0.0
 20
0.0
 30
0.0
  0
DIMENSION
  5
592
330
1F
100
AcDbEntity
  8
LC-005-003-----0
 62
     7
370
    25
100
AcDbDimension
  2
*D21
 10
169.145066
 20
-129.009635
 30
0.0
 11
50.637304
 21
-98.209635
 31
0.0
 70
   160
  1
%%c73,5
 71
     5
 42
72.970909
  3
LC-DIM-L-0140-02-02
100
AcDbAlignedDimension
 13
96.174157
 23
-37.387092
 33
0.0
 14
169.145066
 24
-37.326243
 34
0.0
100
AcDbRotatedDimension
  0
LINE
  5
5A0
330
1F
100
AcDbEntity
  8
LC-001-002-----0
 62
     7
370
    25
100
AcDbLine
 10
132.661472
 20
262.548
 30
0.0
 11
132.661472
 21
372.14077
 31
0.0
  0
ENDSEC
  0
SECTION
  2
OBJECTS
  0
DICTIONARY
  5
C
330
0
100
AcDbDictionary
281
     1
  3
ACAD_GROUP
350
D
  3
ACAD_LAYOUT
350
1A
  3
ACAD_MLINESTYLE
350
17
  3
ACAD_PLOTSETTINGS
350
19
  3
ACAD_PLOTSTYLENAME
350
E
  0
DICTIONARY
  5
D
102
{ACAD_REACTORS
330
C
102
}
330
C
100
AcDbDictionary
281
     1
  3
LCGROUP1580
350
5A6
  3
LCGROUP1717
350
5A3
  3
LCGROUP1869
350
5A7
  3
LCGROUP2805
350
5A2
  3
LCGROUP2838
350
5A5
  3
LCGROUP3266
350
5A1
  3
LCGROUP3369
350
5A4
  0
DICTIONARY
  5
1A
102
{ACAD_REACTORS
330
C
102
}
330
C
100
AcDbDictionary
281
     1
  3
Layout1
350
1E
  3
Layout2
350
26
  3
Model
350
22
  0
DICTIONARY
  5
17
102
{ACAD_REACTORS
330
C
102
}
330
C
100
AcDbDictionary
281
     1
  3
Standard
350
18
  0
DICTIONARY
  5
19
102
{ACAD_REACTORS
330
C
102
}
330
C
100
AcDbDictionary
281
     1
  0
ACDBDICTIONARYWDFLT
  5
E
102
{ACAD_REACTORS
330
C
102
}
330
C
100
AcDbDictionary
281
     1
  3
Normal
350
F
100
AcDbDictionaryWithDefault
340
F
  0
GROUP
  5
5A6
102
{ACAD_REACTORS
330
D
102
}
330
D
100
AcDbGroup
300
GRP1580
 70
     1
 71
     1
340
36
340
37
340
38
340
39
340
3A
340
3B
340
3C
340
3D
340
3E
340
3F
340
40
340
41
340
42
340
43
340
44
340
45
340
56
340
57
340
58
340
59
340
5A
340
5B
340
5C
340
5D
340
5E
340
5F
340
60
340
61
340
62
340
63
340
64
340
65
340
66
340
67
340
68
340
69
340
6A
340
6B
340
6C
340
6D
340
6E
340
6F
340
70
340
71
340
72
340
73
340
74
340
75
340
76
340
80
340
81
340
82
340
83
340
84
340
85
340
86
340
87
340
88
340
89
340
8A
340
8B
340
8C
340
8D
340
8E
340
8F
340
90
340
91
340
92
340
93
340
94
340
95
340
96
340
A6
340
A7
340
A9
340
AA
340
AB
340
AC
340
AD
340
AE
340
AF
340
B0
340
B1
340
B2
340
B3
340
B4
340
B5
340
B6
340
B7
340
B8
340
B9
340
BA
340
BB
340
BC
340
BD
340
BE
340
BF
340
C0
340
C1
340
C2
340
C3
340
C4
340
C5
340
C6
340
C7
340
C8
340
CE
340
CF
340
D0
340
D1
340
D2
340
D3
340
D4
  0
GROUP
  5
5A3
102
{ACAD_REACTORS
330
D
102
}
330
D
100
AcDbGroup
300
GRP1717
 70
     1
 71
     1
340
D5
340
D6
340
D7
340
D8
340
D9
340
DA
340
DB
340
DC
340
DD
340
DE
340
DF
340
E0
340
E1
340
E2
340
E3
340
E4
340
E5
340
E6
340
E7
340
E8
340
E9
340
EA
340
EB
340
EC
340
ED
340
EE
340
EF
340
F0
340
F1
340
F2
  0
GROUP
  5
5A7
102
{ACAD_REACTORS
330
D
102
}
330
D
100
AcDbGroup
300
GRP1869
 70
     1
 71
     1
340
FC
340
FD
340
FE
340
FF
340
100
340
101
340
102
340
103
340
104
340
105
340
106
340
107
340
108
340
109
340
10A
340
10B
340
10C
340
10D
340
10E
340
10F
340
110
340
111
340
112
340
113
340
114
340
115
340
116
340
117
340
118
340
119
  0
GROUP
  5
5A2
102
{ACAD_REACTORS
330
D
102
}
330
D
100
AcDbGroup
300
schraub
 70
     1
 71
     1
340
1DB
340
1DC
340
1DD
340
1DE
340
1DF
340
1E0
340
1E1
340
1E2
340
1E3
340
1E4
340
1E5
340
1E6
340
1E7
340
1E8
340
1E9
340
1EA
340
1EB
340
1EC
340
1ED
  0
GROUP
  5
5A5
102
{ACAD_REACTORS
330
D
102
}
330
D
100
AcDbGroup
300
schraub
 70
     1
 71
     1
340
1EE
340
1EF
340
1F0
340
1F1
340
1F2
340
1F3
340
1F4
340
1F5
340
1F6
340
1F7
340
1F8
340
1F9
340
1FA
340
1FB
340
1FC
340
1FD
340
1FE
340
1FF
340
200
  0
GROUP
  5
5A1
102
{ACAD_REACTORS
330
D
102
}
330
D
100
AcDbGroup
300
GRP3266
 70
     1
 71
     1
340
34
340
35
340
245
340
246
340
247
340
248
340
249
340
24A
340
24B
340
24C
340
24D
340
24E
340
24F
340
250
340
251
340
252
340
253
340
254
340
255
340
256
340
257
340
258
340
259
340
25A
340
25B
340
25C
340
25D
340
25E
340
25F
340
260
340
261
340
262
340
263
340
264
340
265
340
266
340
267
340
268
340
269
340
26A
340
26B
340
26C
340
26D
340
26E
340
26F
340
270
340
271
340
272
340
273
340
274
340
275
340
276
340
277
340
278
340
279
340
27A
340
27B
340
27C
340
27D
340
27E
340
27F
340
280
340
281
340
282
340
283
340
284
340
285
340
286
340
287
340
288
340
289
340
28A
340
28B
340
28C
340
28D
340
28E
340
28F
340
290
340
291
340
292
340
293
340
294
340
295
340
296
340
297
340
298
340
299
340
29A
340
29B
340
29C
340
29D
340
29E
340
29F
340
2A0
340
2A1
  0
GROUP
  5
5A4
102
{ACAD_REACTORS
330
D
102
}
330
D
100
AcDbGroup
300
GRP3369
 70
     1
 71
     1
340
2A2
340
2F3
340
2F4
340
2F5
340
2F6
340
34E
340
34F
340
350
340
351
340
352
340
353
340
354
340
355
340
356
340
357
340
358
340
359
340
35A
340
35B
340
35C
340
35D
340
35E
340
35F
340
360
340
361
340
362
340
363
340
364
340
365
340
366
340
367
340
368
340
369
340
36A
340
36B
340
36C
340
36D
340
36E
340
36F
340
370
340
371
340
372
340
373
340
374
340
375
340
376
340
377
340
378
340
379
340
37A
340
37B
340
37C
340
37D
340
37E
340
37F
340
380
340
381
340
382
340
383
340
384
340
385
340
386
340
387
340
388
340
389
340
38A
340
38B
340
38C
340
38D
340
38E
340
38F
340
390
340
391
340
392
340
393
340
394
340
395
340
396
340
397
340
398
340
399
340
39A
340
39B
340
39C
340
39D
340
39E
340
39F
340
3A0
340
3A1
340
3A2
340
3A3
340
3A4
340
3A5
340
3A6
340
3A7
340
3A8
340
3A9
340
3AA
340
3AB
340
3AC
340
3AD
340
3AE
340
3AF
340
3B0
340
3B1
340
3B2
340
3B3
340
3B4
340
3B5
340
3B6
340
3B7
340
3B8
340
3B9
340
3BA
340
3BB
340
3BC
340
3BD
340
3BE
340
3BF
340
3C0
340
3C1
340
3C2
340
3C3
340
3C4
340
3C5
340
3C6
340
3C7
340
3C8
340
3C9
340
3CA
340
3CB
340
3CC
340
3CD
340
3CE
340
3CF
340
3D0
340
3D1
340
3D2
340
3D3
340
3D4
340
3D5
340
3D6
340
3D7
340
3D8
340
3D9
340
3DA
340
3DB
340
3DC
340
3DD
340
3DE
340
3DF
340
3E0
340
3E1
340
3E2
340
3E3
340
3E4
340
3E5
340
3E6
340
3E7
340
3E8
340
3E9
340
3EA
340
3EB
340
3EC
340
3ED
340
3EE
340
3EF
340
3F0
340
3F1
340
3F2
340
3F3
340
3F4
340
3F5
340
3F6
340
3F7
340
3F8
340
3F9
340
3FA
340
3FB
340
3FC
340
3FD
340
3FE
340
3FF
340
400
340
401
340
402
340
403
340
404
340
405
340
406
340
407
340
408
340
409
340
40A
340
40B
340
40C
340
40D
340
40E
340
40F
340
410
340
411
340
412
340
413
340
414
340
415
340
416
340
417
340
418
340
419
340
41A
340
41B
340
41C
340
41D
340
41E
340
41F
340
420
340
421
340
422
340
423
340
424
340
425
340
426
340
427
340
428
340
429
340
42A
340
42B
340
42C
340
42D
340
42E
340
42F
340
430
340
431
340
432
  0
LAYOUT
  5
1E
102
{ACAD_REACTORS
330
1A
102
}
330
1A
100
AcDbPlotSettings
  1

  2

  4

  6

 40
0.0
 41
0.0
 42
0.0
 43
0.0
 44
0.0
 45
0.0
 46
0.0
 47
0.0
 48
0.0
 49
0.0
140
0.0
141
0.0
142
1.0
143
1.0
 70
   688
 72
     0
 73
     0
 74
     5
  7

 75
    16
147
1.0
148
0.0
149
0.0
100
AcDbLayout
  1
Layout1
 70
     1
 71
     1
 10
-210.0
 20
-148.5
 11
630.0
 21
445.5
 12
0.0
 22
0.0
 32
0.0
 14
-210.0
 24
-148.5
 34
0.0
 15
630.0
 25
445.5
 35
0.0
146
0.0
 13
0.0
 23
0.0
 33
0.0
 16
1.0
 26
0.0
 36
0.0
 17
0.0
 27
1.0
 37
0.0
 76
     0
330
1B
  0
LAYOUT
  5
26
102
{ACAD_REACTORS
330
1A
102
}
330
1A
100
AcDbPlotSettings
  1

  2

  4

  6

 40
0.0
 41
0.0
 42
0.0
 43
0.0
 44
0.0
 45
0.0
 46
0.0
 47
0.0
 48
0.0
 49
0.0
140
0.0
141
0.0
142
1.0
143
1.0
 70
   688
 72
     0
 73
     0
 74
     5
  7

 75
    16
147
1.0
148
0.0
149
0.0
100
AcDbLayout
  1
Layout2
 70
     1
 71
     2
 10
0.0
 20
0.0
 11
0.0
 21
0.0
 12
0.0
 22
0.0
 32
0.0
 14
0.0
 24
0.0
 34
0.0
 15
0.0
 25
0.0
 35
0.0
146
0.0
 13
0.0
 23
0.0
 33
0.0
 16
1.0
 26
0.0
 36
0.0
 17
0.0
 27
1.0
 37
0.0
 76
     0
330
23
  0
LAYOUT
  5
22
102
{ACAD_REACTORS
330
1A
102
}
330
1A
100
AcDbPlotSettings
  1

  2

  4

  6

 40
0.0
 41
0.0
 42
0.0
 43
0.0
 44
0.0
 45
0.0
 46
0.0
 47
0.0
 48
0.0
 49
0.0
140
0.0
141
0.0
142
1.0
143
1.0
 70
  1776
 72
     0
 73
     0
 74
     0
  7

 75
     0
147
1.0
148
0.0
149
0.0
100
AcDbLayout
  1
Model
 70
     1
 71
     0
 10
-210.0
 20
-148.5
 11
630.0
 21
445.5
 12
0.0
 22
0.0
 32
0.0
 14
-210.0
 24
-148.5
 34
0.0
 15
630.0
 25
445.5
 35
0.0
146
0.0
 13
0.0
 23
0.0
 33
0.0
 16
1.0
 26
0.0
 36
0.0
 17
0.0
 27
1.0
 37
0.0
 76
     0
330
1F
  0
MLINESTYLE
  5
18
102
{ACAD_REACTORS
330
17
102
}
330
17
100
AcDbMlineStyle
  2
Standard
 70
     0
  3

 62
   256
 51
90.0
 52
90.0
 71
     2
 49
0.5
 62
   256
  6
BYLAYER
 49
-0.5
 62
   256
  6
BYLAYER
  0
ACDBPLACEHOLDER
  5
F
102
{ACAD_REACTORS
330
E
102
}
330
E
  0
ENDSEC
  0
EOF
