  0
SECTION
  2
HEADER
  9
$ACADVER
  1
AC1009
  9
$INSBASE
 10
0.0
 20
0.0
 30
0.0
  9
$EXTMIN
 10
-231.687089
 20
-82.014
 30
0.0
  9
$EXTMAX
 10
956.312911
 20
757.986
 30
0.0
  9
$LIMMIN
 10
-231.687089
 20
-82.014
  9
$LIMMAX
 10
956.312911
 20
757.986
  9
$ORTHOMODE
 70
     0
  9
$REGENMODE
 70
     1
  9
$FILLMODE
 70
     1
  9
$QTEXTMODE
 70
     0
  9
$MIRRTEXT
 70
     1
  9
$DRAGMODE
 70
     2
  9
$LTSCALE
 40
2.0
  9
$OSMODE
 70
     0
  9
$ATTMODE
 70
     1
  9
$TEXTSIZE
 40
0.2
  9
$TRACEWID
 40
0.05
  9
$TEXTSTYLE
  7
STANDARD
  9
$CLAYER
  8
0
  9
$CELTYPE
  6
BYLAYER
  9
$CECOLOR
 62
     7
  9
$DIMSCALE
 40
2.0
  9
$DIMASZ
 40
3.5
  9
$DIMEXO
 40
0.0625
  9
$DIMDLI
 40
0.38
  9
$DIMRND
 40
0.0
  9
$DIMDLE
 40
0.0
  9
$DIMEXE
 40
0.18
  9
$DIMTP
 40
0.0
  9
$DIMTM
 40
0.0
  9
$DIMTXT
 40
3.5
  9
$DIMCEN
 40
0.09
  9
$DIMTSZ
 40
0.0
  9
$DIMTOL
 70
     0
  9
$DIMLIM
 70
     0
  9
$DIMTIH
 70
     1
  9
$DIMTOH
 70
     1
  9
$DIMSE1
 70
     0
  9
$DIMSE2
 70
     0
  9
$DIMTAD
 70
     1
  9
$DIMZIN
 70
     0
  9
$DIMBLK
  1

  9
$DIMASO
 70
     1
  9
$DIMSHO
 70
     1
  9
$DIMPOST
  1

  9
$DIMAPOST
  1

  9
$DIMALT
 70
     0
  9
$DIMALTD
 70
     2
  9
$DIMALTF
 40
25.4
  9
$DIMLFAC
 40
1.0
  9
$DIMTOFL
 70
     0
  9
$DIMTVP
 40
0.0
  9
$DIMTIX
 70
     0
  9
$DIMSOXD
 70
     0
  9
$DIMSAH
 70
     0
  9
$DIMBLK1
  1

  9
$DIMBLK2
  1

  9
$DIMSTYLE
  2
STANDARD
  9
$DIMCLRD
 70
     0
  9
$DIMCLRE
 70
     0
  9
$DIMCLRT
 70
     0
  9
$DIMTFAC
 40
1.0
  9
$DIMGAP
 40
0.09
  9
$LUNITS
 70
     2
  9
$LUPREC
 70
     2
  9
$AXISMODE
 70
     0
  9
$AXISUNIT
 10
0.0
 20
0.0
  9
$SKETCHINC
 40
0.1
  9
$FILLETRAD
 40
0.0
  9
$AUNITS
 70
     0
  9
$AUPREC
 70
     0
  9
$MENU
  1
acad
  9
$ELEVATION
 40
0.0
  9
$PELEVATION
 40
0.0
  9
$THICKNESS
 40
0.0
  9
$LIMCHECK
 70
     0
  9
$BLIPMODE
 70
     1
  9
$CHAMFERA
 40
0.0
  9
$CHAMFERB
 40
0.0
  9
$SKPOLY
 70
     0
  9
$TDCREATE
 40
0.000000000
  9
$TDUPDATE
 40
0.000000000
  9
$TDINDWG
 40
0.0000000000
  9
$TDUSRTIMER
 40
0.0000000000
  9
$USRTIMER
 70
     1
  9
$ANGBASE
 50
0.0
  9
$ANGDIR
 70
     0
  9
$PDMODE
 70
     0
  9
$PDSIZE
 40
0.0
  9
$PLINEWID
 40
0.0
  9
$COORDS
 70
     0
  9
$SPLFRAME
 70
     0
  9
$SPLINETYPE
 70
     6
  9
$SPLINESEGS
 70
     8
  9
$ATTDIA
 70
     0
  9
$ATTREQ
 70
     1
  9
$HANDLING
 70
     1
  9
$HANDSEED
  5
639
  9
$SURFTAB1
 70
     6
  9
$SURFTAB2
 70
     6
  9
$SURFTYPE
 70
     6
  9
$SURFU
 70
     6
  9
$SURFV
 70
     6
  9
$UCSNAME
  2

  9
$UCSORG
 10
0.0
 20
0.0
 30
0.0
  9
$UCSXDIR
 10
1.0
 20
0.0
 30
0.0
  9
$UCSYDIR
 10
0.0
 20
1.0
 30
0.0
  9
$PUCSNAME
  2

  9
$PUCSORG
 10
0.0
 20
0.0
 30
0.0
  9
$PUCSXDIR
 10
1.0
 20
0.0
 30
0.0
  9
$PUCSYDIR
 10
0.0
 20
1.0
 30
0.0
  9
$USERI1
 70
     0
  9
$USERI2
 70
     0
  9
$USERI3
 70
     0
  9
$USERI4
 70
     0
  9
$USERI5
 70
     0
  9
$USERR1
 40
0.0
  9
$USERR2
 40
0.0
  9
$USERR3
 40
0.0
  9
$USERR4
 40
0.0
  9
$USERR5
 40
0.0
  9
$WORLDVIEW
 70
     1
  9
$SHADEDGE
 70
     3
  9
$SHADEDIF
 70
    70
  9
$TILEMODE
 70
     1
  9
$MAXACTVP
 70
    16
  9
$PINSBASE
 10
0.0
 20
0.0
 30
0.0
  9
$PLIMCHECK
 70
     0
  9
$PEXTMIN
 10
1.000000E+20
 20
1.000000E+20
 30
1.000000E+20
  9
$PEXTMAX
 10
-1.000000E+20
 20
-1.000000E+20
 30
-1.000000E+20
  9
$PLIMMIN
 10
-231.687089
 20
-82.014
  9
$PLIMMAX
 10
956.312911
 20
757.986
  9
$UNITMODE
 70
     0
  9
$VISRETAIN
 70
     0
  9
$PLINEGEN
 70
     1
  9
$PSLTSCALE
 70
     0
  9
$TREEDEPTH
 70
  3020
  9
$DWGCODEPAGE
  3
dos850
  0
ENDSEC
  0
SECTION
  2
TABLES
  0
TABLE
  2
VPORT
 70
     1
  0
VPORT
  2
*ACTIVE
 70
     0
 10
0.0
 20
0.0
 11
1.0
 21
1.0
 12
594.0
 22
420.0
 13
0.0
 23
0.0
 14
1.0
 24
1.0
 15
0.0
 25
0.0
 16
0.0
 26
0.0
 36
1.0
 17
-231.687089
 27
-82.014
 37
0.0
 40
840.0
 41
1.604229
 42
50.0
 43
0.0
 44
0.0
 50
0.0
 51
0.0
 71
     0
 72
   100
 73
     1
 74
     1
 75
     0
 76
     0
 77
     0
 78
     0
  0
ENDTAB
  0
TABLE
  2
LTYPE
 70
     4
  0
LTYPE
  2
CONTINUOUS
 70
    64
  3
Solid line
 72
    65
 73
     0
 40
0.0
  0
LTYPE
  2
DASHDOT
 70
    64
  3
__ . __ . __ . __ . __
 72
    65
 73
     4
 40
7.5
 49
5.0
 49
-1.25
 49
0.0
 49
-1.25
  0
LTYPE
  2
DASHED
 70
    64
  3
__ __ __ __ __
 72
    65
 73
     2
 40
6.25
 49
5.0
 49
-1.25
  0
LTYPE
  2
CENTER
 70
    64
  3
__ . __ . __ . __ . __
 72
    65
 73
     4
 40
7.5
 49
5.0
 49
-1.25
 49
0.0
 49
-1.25
  0
ENDTAB
  0
TABLE
  2
LAYER
 70
    13
  0
LAYER
  2
0
 70
     0
 62
     7
  6
CONTINUOUS
  0
LAYER
  2
LC-INFO-1-2-MM-A2-0
 70
     1
 62
    -1
  6
CONTINUOUS
  0
LAYER
  2
LC-004-003-MTH-0
 70
     0
 62
     2
  6
CONTINUOUS
  0
LAYER
  2
LC-005-003-MTG-0
 70
     0
 62
     2
  6
CONTINUOUS
  0
LAYER
  2
LC-003-003-----0
 70
     0
 62
     2
  6
CONTINUOUS
  0
LAYER
  2
LC-002-002-----0
 70
     0
 62
     1
  6
CONTINUOUS
  0
LAYER
  2
LC-006-000-----0
 70
     0
 62
     7
  6
CONTINUOUS
  0
LAYER
  2
LC-008-000-----0
 70
     0
 62
     7
  6
CONTINUOUS
  0
LAYER
  2
LC-001-002-RND-0
 70
     0
 62
     1
  6
CONTINUOUS
  0
LAYER
  2
LC-007-001-----0
 70
     0
 62
     2
  6
DASHDOT
  0
LAYER
  2
LC-009-006-MLN-0
 70
     0
 62
     2
  6
CENTER
  0
LAYER
  2
LC-010-002-___-0
 70
     0
 62
     2
  6
DASHED
  0
LAYER
  2
LC-000
 70
     0
 62
     7
  6
CONTINUOUS
  0
ENDTAB
  0
TABLE
  2
STYLE
 70
     4
  0
STYLE
  2
STANDARD
 70
     0
 40
0.0
 41
1.0
 50
0.0
 71
     0
 42
0.0
  3
txt
  4

  0
STYLE
  2
LC-STANDARD
 70
    64
 40
0.0
 41
1.0
 50
0.0
 71
     0
 42
3.5
  3
MONOTXT
  4

  0
STYLE
  2
LC-TXTSTYLE-150-400-0-0-D2
 70
    64
 40
0.0
 41
1.0
 50
15.0
 71
     0
 42
3.5
  3
MONOTXT
  4

  0
STYLE
  2
LC-TXTSTYLE-150-400-0-0-D3
 70
    64
 40
0.0
 41
1.0
 50
15.0
 71
     0
 42
3.5
  3
LC-STANDARD
  4

  0
ENDTAB
  0
TABLE
  2
VIEW
 70
     0
  0
ENDTAB
  0
TABLE
  2
UCS
 70
     0
  0
ENDTAB
  0
TABLE
  2
APPID
 70
     1
  0
APPID
  2
ACAD
 70
     0
  0
ENDTAB
  0
TABLE
  2
DIMSTYLE
 70
     3
  0
DIMSTYLE
  2
STANDARD
 70
     0
  3

  4

  5

  6

  7

 40
1.0
 41
0.18
 42
0.0625
 43
0.38
 44
0.18
 45
0.0
 46
0.0
 47
0.0
 48
0.0
 71
     0
 72
     0
 73
     1
 74
     1
 75
     0
 76
     0
 77
     0
 78
     0
140
0.18
141
0.09
142
0.0
143
25.4
144
1.0
145
0.0
146
1.0
147
0.09
170
     0
171
     2
172
     0
173
     0
174
     0
175
     0
176
     0
177
     0
178
     0
  0
DIMSTYLE
  2
LC-STANDARD
 70
     0
  3

  4

  5

  6

  7

 40
1.0
 41
3.5
 42
0.0
 43
7.5
 44
1.8
 45
0.0
 46
0.0
 47
0.0
 48
0.0
 71
     0
 72
     0
 73
     0
 74
     0
 75
     0
 76
     0
 77
     1
 78
     8
140
3.5
141
0.0
142
0.0
143
25.4
144
1.0
145
0.0
146
0.71
147
1.5
170
     0
171
     2
172
     1
173
     0
174
     0
175
     0
176
     0
177
     0
178
     3
  0
DIMSTYLE
  2
LC-DIM-L-0090-02-02
 70
     0
  3

  4

  5

  6

  7

 40
2.0
 41
3.5
 42
0.0
 43
7.5
 44
1.8
 45
0.0
 46
0.0
 47
0.0
 48
0.0
 71
     0
 72
     0
 73
     0
 74
     0
 75
     0
 76
     0
 77
     1
 78
     8
140
9.0
141
0.0
142
0.0
143
25.4
144
1.0
145
0.0
146
0.71
147
1.5
170
     0
171
     2
172
     0
173
     0
174
     0
175
     0
176
     2
177
     2
178
     6
  0
ENDTAB
  0
ENDSEC
  0
SECTION
  2
BLOCKS
  0
BLOCK
  8
0
  5
23
  2
*D0
 70
    65
 10
0.0
 20
0.0
 30
0.0
  3
*D0
  0
LINE
  8
LC-004-003-MTH-0
  6
CONTINUOUS
  5
25
 10
321.210789
 20
469.867992
 30
0.0
 11
321.210789
 21
586.8
 31
0.0
  0
LINE
  8
LC-004-003-MTH-0
  6
CONTINUOUS
  5
26
 10
601.210789
 20
469.867992
 30
0.0
 11
601.210789
 21
586.8
 31
0.0
  0
LINE
  8
LC-005-003-MTG-0
  6
CONTINUOUS
  5
28
 10
321.210789
 20
576.0
 30
0.0
 11
601.210789
 21
576.0
 31
0.0
  0
LINE
  8
LC-003-003-----0
  6
CONTINUOUS
  5
2A
 10
339.056796
 20
578.349471
 30
0.0
 11
321.210789
 21
576.0
 31
0.0
  0
LINE
  8
LC-003-003-----0
  6
CONTINUOUS
  5
2B
 10
321.210789
 20
576.0
 30
0.0
 11
339.056796
 21
573.650529
 31
0.0
  0
LINE
  8
LC-003-003-----0
  6
CONTINUOUS
  5
2C
 10
339.056796
 20
573.650529
 30
0.0
 11
339.056796
 21
578.349471
 31
0.0
  0
LINE
  8
LC-003-003-----0
  6
CONTINUOUS
  5
2D
 10
339.096834
 20
577.738609
 30
0.0
 11
325.890789
 21
576.0
 31
0.0
  0
LINE
  8
LC-003-003-----0
  6
CONTINUOUS
  5
2E
 10
325.890789
 20
576.0
 30
0.0
 11
339.096834
 21
574.261391
 31
0.0
  0
LINE
  8
LC-003-003-----0
  6
CONTINUOUS
  5
2F
 10
339.136872
 20
577.127746
 30
0.0
 11
330.570789
 21
576.0
 31
0.0
  0
LINE
  8
LC-003-003-----0
  6
CONTINUOUS
  5
30
 10
330.570789
 20
576.0
 30
0.0
 11
339.136872
 21
574.872254
 31
0.0
  0
LINE
  8
LC-003-003-----0
  6
CONTINUOUS
  5
31
 10
339.17691
 20
576.516884
 30
0.0
 11
335.250789
 21
576.0
 31
0.0
  0
LINE
  8
LC-003-003-----0
  6
CONTINUOUS
  5
32
 10
335.250789
 20
576.0
 30
0.0
 11
339.17691
 21
575.483116
 31
0.0
  0
LINE
  8
LC-003-003-----0
  6
CONTINUOUS
  5
33
 10
583.364781
 20
573.650529
 30
0.0
 11
601.210789
 21
576.0
 31
0.0
  0
LINE
  8
LC-003-003-----0
  6
CONTINUOUS
  5
34
 10
601.210789
 20
576.0
 30
0.0
 11
583.364781
 21
578.349471
 31
0.0
  0
LINE
  8
LC-003-003-----0
  6
CONTINUOUS
  5
35
 10
583.364781
 20
578.349471
 30
0.0
 11
583.364781
 21
573.650529
 31
0.0
  0
LINE
  8
LC-003-003-----0
  6
CONTINUOUS
  5
36
 10
583.324743
 20
574.261391
 30
0.0
 11
596.530789
 21
576.0
 31
0.0
  0
LINE
  8
LC-003-003-----0
  6
CONTINUOUS
  5
37
 10
596.530789
 20
576.0
 30
0.0
 11
583.324743
 21
577.738609
 31
0.0
  0
LINE
  8
LC-003-003-----0
  6
CONTINUOUS
  5
38
 10
583.284705
 20
574.872254
 30
0.0
 11
591.850789
 21
576.0
 31
0.0
  0
LINE
  8
LC-003-003-----0
  6
CONTINUOUS
  5
39
 10
591.850789
 20
576.0
 30
0.0
 11
583.284705
 21
577.127746
 31
0.0
  0
LINE
  8
LC-003-003-----0
  6
CONTINUOUS
  5
3A
 10
583.244667
 20
575.483116
 30
0.0
 11
587.170789
 21
576.0
 31
0.0
  0
LINE
  8
LC-003-003-----0
  6
CONTINUOUS
  5
3B
 10
587.170789
 20
576.0
 30
0.0
 11
583.244667
 21
576.516884
 31
0.0
  0
TEXT
  8
LC-003-003-----0
  6
CONTINUOUS
 62
     6
  5
3D
 10
440.517757
 20
586.431999
 30
0.0
 40
18.0
  1
280
 41
0.9
 51
15.0
  7
LC-TXTSTYLE-150-400-0-0-D0
 72
     1
 11
459.651616
 21
586.431999
 31
0.0
  0
ENDBLK
  8
0
  5
3E
  0
BLOCK
  8
0
  5
40
  2
BLK1
 70
    64
 10
0.0
 20
0.0
 30
0.0
  3
BLK1
  0
ENDBLK
  8
0
  5
41
  0
BLOCK
  8
0
  5
43
  2
BLK2
 70
    64
 10
0.0
 20
0.0
 30
0.0
  3
BLK2
  0
ENDBLK
  8
0
  5
44
  0
BLOCK
  8
0
  5
46
  2
BLK3
 70
    64
 10
0.0
 20
0.0
 30
0.0
  3
BLK3
  0
ARC
  8
LC-002-002-----0
  6
CONTINUOUS
  5
48
 10
54.825529
 20
427.261116
 30
0.0
 40
9.503897
 50
359.691743
 51
18.076087
  0
ARC
  8
LC-002-002-----0
  6
CONTINUOUS
  5
49
 10
58.511918
 20
428.561755
 30
0.0
 40
5.596654
 50
17.127699
 51
43.385681
  0
ARC
  8
LC-002-002-----0
  6
CONTINUOUS
  5
4A
 10
60.460093
 20
430.315789
 30
0.0
 40
2.976645
 50
44.607571
 51
64.637306
  0
ARC
  8
LC-002-002-----0
  6
CONTINUOUS
  5
4B
 10
60.81797
 20
431.050789
 30
0.0
 40
2.159209
 50
64.864126
 51
89.700366
  0
ARC
  8
LC-002-002-----0
  6
CONTINUOUS
  5
4C
 10
60.840572
 20
431.05079
 30
0.0
 40
2.159209
 50
90.30014
 51
115.13638
  0
ARC
  8
LC-002-002-----0
  6
CONTINUOUS
  5
4D
 10
61.198456
 20
430.315792
 30
0.0
 40
2.976645
 50
115.3632
 51
135.392934
  0
ARC
  8
LC-002-002-----0
  6
CONTINUOUS
  5
4E
 10
63.146647
 20
428.561775
 30
0.0
 40
5.596654
 50
136.614824
 51
162.872807
  0
ARC
  8
LC-002-002-----0
  6
CONTINUOUS
  5
4F
 10
66.833047
 20
427.261169
 30
0.0
 40
9.503897
 50
161.924418
 51
180.308763
  0
ARC
  8
LC-002-002-----0
  6
CONTINUOUS
  5
50
 10
66.833047
 20
427.158822
 30
0.0
 40
9.503897
 50
179.691743
 51
198.076087
  0
ARC
  8
LC-002-002-----0
  6
CONTINUOUS
  5
51
 10
63.146659
 20
425.858183
 30
0.0
 40
5.596654
 50
197.127699
 51
223.385681
  0
ARC
  8
LC-002-002-----0
  6
CONTINUOUS
  5
52
 10
61.198484
 20
424.104149
 30
0.0
 40
2.976645
 50
224.607571
 51
244.637306
  0
ARC
  8
LC-002-002-----0
  6
CONTINUOUS
  5
53
 10
60.840606
 20
423.369149
 30
0.0
 40
2.159209
 50
244.864126
 51
269.700366
  0
ARC
  8
LC-002-002-----0
  6
CONTINUOUS
  5
54
 10
60.818004
 20
423.369148
 30
0.0
 40
2.159209
 50
270.30014
 51
295.13638
  0
ARC
  8
LC-002-002-----0
  6
CONTINUOUS
  5
55
 10
60.46012
 20
424.104146
 30
0.0
 40
2.976645
 50
295.3632
 51
315.392934
  0
ARC
  8
LC-002-002-----0
  6
CONTINUOUS
  5
56
 10
58.511929
 20
425.858163
 30
0.0
 40
5.596654
 50
316.614824
 51
342.872807
  0
ARC
  8
LC-002-002-----0
  6
CONTINUOUS
  5
57
 10
54.825529
 20
427.158769
 30
0.0
 40
9.503897
 50
341.924418
 51
0.308763
  0
ENDBLK
  8
0
  5
58
  0
BLOCK
  8
0
  5
5A
  2
BLK4
 70
    64
 10
0.0
 20
0.0
 30
0.0
  3
BLK4
  0
ARC
  8
LC-002-002-----0
  6
CONTINUOUS
  5
5B
 10
58.801979
 20
414.23998
 30
0.0
 40
5.522367
 50
359.802929
 51
23.824283
  0
ARC
  8
LC-002-002-----0
  6
CONTINUOUS
  5
5C
 10
60.043289
 20
414.825016
 30
0.0
 40
4.150652
 50
23.358008
 51
52.474731
  0
ARC
  8
LC-002-002-----0
  6
CONTINUOUS
  5
5D
 10
60.793628
 20
415.79135
 30
0.0
 40
2.927234
 50
52.601501
 51
89.462986
  0
ARC
  8
LC-002-002-----0
  6
CONTINUOUS
  5
5E
 10
60.852727
 20
415.791393
 30
0.0
 40
2.927234
 50
90.619786
 51
127.481271
  0
ARC
  8
LC-002-002-----0
  6
CONTINUOUS
  5
5F
 10
61.604461
 20
414.826144
 30
0.0
 40
4.150652
 50
127.608041
 51
156.724764
  0
ARC
  8
LC-002-002-----0
  6
CONTINUOUS
  5
60
 10
62.846615
 20
414.242902
 30
0.0
 40
5.522367
 50
156.258489
 51
180.279843
  0
ARC
  8
LC-002-002-----0
  6
CONTINUOUS
  5
61
 10
62.846649
 20
414.196935
 30
0.0
 40
5.522367
 50
179.802929
 51
203.824283
  0
ARC
  8
LC-002-002-----0
  6
CONTINUOUS
  5
62
 10
61.605338
 20
413.611899
 30
0.0
 40
4.150652
 50
203.358008
 51
232.474731
  0
ARC
  8
LC-002-002-----0
  6
CONTINUOUS
  5
63
 10
60.855
 20
412.645565
 30
0.0
 40
2.927234
 50
232.601501
 51
269.462986
  0
ARC
  8
LC-002-002-----0
  6
CONTINUOUS
  5
64
 10
60.7959
 20
412.645522
 30
0.0
 40
2.927234
 50
270.619786
 51
307.481271
  0
ARC
  8
LC-002-002-----0
  6
CONTINUOUS
  5
65
 10
60.044167
 20
413.610771
 30
0.0
 40
4.150652
 50
307.608041
 51
336.724764
  0
ARC
  8
LC-002-002-----0
  6
CONTINUOUS
  5
66
 10
58.802012
 20
414.194014
 30
0.0
 40
5.522367
 50
336.258489
 51
0.279843
  0
ENDBLK
  8
0
  5
67
  0
BLOCK
  8
0
  5
69
  2
BLK5
 70
    64
 10
0.0
 20
0.0
 30
0.0
  3
BLK5
  0
ARC
  8
LC-002-002-----0
  6
CONTINUOUS
  5
6A
 10
58.800467
 20
440.225684
 30
0.0
 40
5.522367
 50
359.726959
 51
23.748313
  0
ARC
  8
LC-002-002-----0
  6
CONTINUOUS
  5
6B
 10
60.042552
 20
440.809073
 30
0.0
 40
4.150652
 50
23.282038
 51
52.398761
  0
ARC
  8
LC-002-002-----0
  6
CONTINUOUS
  5
6C
 10
60.794171
 20
441.774412
 30
0.0
 40
2.927234
 50
52.525531
 51
89.387016
  0
ARC
  8
LC-002-002-----0
  6
CONTINUOUS
  5
6D
 10
60.853271
 20
441.774376
 30
0.0
 40
2.927234
 50
90.543815
 51
127.405301
  0
ARC
  8
LC-002-002-----0
  6
CONTINUOUS
  5
6E
 10
61.603724
 20
440.808131
 30
0.0
 40
4.150652
 50
127.53207
 51
156.648794
  0
ARC
  8
LC-002-002-----0
  6
CONTINUOUS
  5
6F
 10
62.845104
 20
440.223242
 30
0.0
 40
5.522367
 50
156.182518
 51
180.203873
  0
ARC
  8
LC-002-002-----0
  6
CONTINUOUS
  5
70
 10
62.845076
 20
440.177276
 30
0.0
 40
5.522367
 50
179.726959
 51
203.748313
  0
ARC
  8
LC-002-002-----0
  6
CONTINUOUS
  5
71
 10
61.602991
 20
439.593886
 30
0.0
 40
4.150652
 50
203.282038
 51
232.398761
  0
ARC
  8
LC-002-002-----0
  6
CONTINUOUS
  5
72
 10
60.851372
 20
438.628548
 30
0.0
 40
2.927234
 50
232.525531
 51
269.387016
  0
ARC
  8
LC-002-002-----0
  6
CONTINUOUS
  5
73
 10
60.792272
 20
438.628583
 30
0.0
 40
2.927234
 50
270.543815
 51
307.405301
  0
ARC
  8
LC-002-002-----0
  6
CONTINUOUS
  5
74
 10
60.041819
 20
439.594829
 30
0.0
 40
4.150652
 50
307.53207
 51
336.648794
  0
ARC
  8
LC-002-002-----0
  6
CONTINUOUS
  5
75
 10
58.800439
 20
440.179717
 30
0.0
 40
5.522367
 50
336.182518
 51
0.203873
  0
ENDBLK
  8
0
  5
76
  0
BLOCK
  8
0
  5
78
  2
BLK6
 70
    64
 10
0.0
 20
0.0
 30
0.0
  3
BLK6
  0
ENDBLK
  8
0
  5
79
  0
BLOCK
  8
0
  5
7B
  2
BLK7
 70
    64
 10
0.0
 20
0.0
 30
0.0
  3
BLK7
  0
ENDBLK
  8
0
  5
7C
  0
BLOCK
  8
0
  5
7E
  2
BLK8
 70
    64
 10
0.0
 20
0.0
 30
0.0
  3
BLK8
  0
ENDBLK
  8
0
  5
7F
  0
BLOCK
  8
0
  5
81
  2
BLK9
 70
    64
 10
0.0
 20
0.0
 30
0.0
  3
BLK9
  0
ENDBLK
  8
0
  5
82
  0
BLOCK
  8
0
  5
84
  2
BLK10
 70
    64
 10
0.0
 20
0.0
 30
0.0
  3
BLK10
  0
ENDBLK
  8
0
  5
85
  0
BLOCK
  8
0
  5
87
  2
BLK11
 70
    64
 10
0.0
 20
0.0
 30
0.0
  3
BLK11
  0
ENDBLK
  8
0
  5
88
  0
BLOCK
  8
0
  5
8A
  2
*D12
 70
    65
 10
0.0
 20
0.0
 30
0.0
  3
*D12
  0
LINE
  8
LC-004-003-MTH-0
  6
CONTINUOUS
  5
8B
 10
371.210789
 20
484.505177
 30
0.0
 11
371.210789
 21
514.8
 31
0.0
  0
LINE
  8
LC-004-003-MTH-0
  6
CONTINUOUS
  5
8C
 10
451.210789
 20
484.867992
 30
0.0
 11
451.210789
 21
514.8
 31
0.0
  0
LINE
  8
LC-005-003-MTG-0
  6
CONTINUOUS
  5
8D
 10
371.210789
 20
504.0
 30
0.0
 11
451.210789
 21
504.0
 31
0.0
  0
LINE
  8
LC-003-003-----0
  6
CONTINUOUS
  5
8E
 10
389.056796
 20
506.349471
 30
0.0
 11
371.210789
 21
504.0
 31
0.0
  0
LINE
  8
LC-003-003-----0
  6
CONTINUOUS
  5
8F
 10
371.210789
 20
504.0
 30
0.0
 11
389.056796
 21
501.650529
 31
0.0
  0
LINE
  8
LC-003-003-----0
  6
CONTINUOUS
  5
90
 10
389.056796
 20
501.650529
 30
0.0
 11
389.056796
 21
506.349471
 31
0.0
  0
LINE
  8
LC-003-003-----0
  6
CONTINUOUS
  5
91
 10
389.096834
 20
505.738609
 30
0.0
 11
375.890789
 21
504.0
 31
0.0
  0
LINE
  8
LC-003-003-----0
  6
CONTINUOUS
  5
92
 10
375.890789
 20
504.0
 30
0.0
 11
389.096834
 21
502.261391
 31
0.0
  0
LINE
  8
LC-003-003-----0
  6
CONTINUOUS
  5
93
 10
389.136872
 20
505.127746
 30
0.0
 11
380.570789
 21
504.0
 31
0.0
  0
LINE
  8
LC-003-003-----0
  6
CONTINUOUS
  5
94
 10
380.570789
 20
504.0
 30
0.0
 11
389.136872
 21
502.872254
 31
0.0
  0
LINE
  8
LC-003-003-----0
  6
CONTINUOUS
  5
95
 10
389.17691
 20
504.516884
 30
0.0
 11
385.250789
 21
504.0
 31
0.0
  0
LINE
  8
LC-003-003-----0
  6
CONTINUOUS
  5
96
 10
385.250789
 20
504.0
 30
0.0
 11
389.17691
 21
503.483116
 31
0.0
  0
LINE
  8
LC-003-003-----0
  6
CONTINUOUS
  5
97
 10
433.364781
 20
501.650529
 30
0.0
 11
451.210789
 21
504.0
 31
0.0
  0
LINE
  8
LC-003-003-----0
  6
CONTINUOUS
  5
98
 10
451.210789
 20
504.0
 30
0.0
 11
433.364781
 21
506.349471
 31
0.0
  0
LINE
  8
LC-003-003-----0
  6
CONTINUOUS
  5
99
 10
433.364781
 20
506.349471
 30
0.0
 11
433.364781
 21
501.650529
 31
0.0
  0
LINE
  8
LC-003-003-----0
  6
CONTINUOUS
  5
9A
 10
433.324743
 20
502.261391
 30
0.0
 11
446.530789
 21
504.0
 31
0.0
  0
LINE
  8
LC-003-003-----0
  6
CONTINUOUS
  5
9B
 10
446.530789
 20
504.0
 30
0.0
 11
433.324743
 21
505.738609
 31
0.0
  0
LINE
  8
LC-003-003-----0
  6
CONTINUOUS
  5
9C
 10
433.284705
 20
502.872254
 30
0.0
 11
441.850789
 21
504.0
 31
0.0
  0
LINE
  8
LC-003-003-----0
  6
CONTINUOUS
  5
9D
 10
441.850789
 20
504.0
 30
0.0
 11
433.284705
 21
505.127746
 31
0.0
  0
LINE
  8
LC-003-003-----0
  6
CONTINUOUS
  5
9E
 10
433.244667
 20
503.483116
 30
0.0
 11
437.170789
 21
504.0
 31
0.0
  0
LINE
  8
LC-003-003-----0
  6
CONTINUOUS
  5
9F
 10
437.170789
 20
504.0
 30
0.0
 11
433.244667
 21
504.516884
 31
0.0
  0
TEXT
  8
LC-003-003-----0
  6
CONTINUOUS
 62
     6
  5
A0
 10
402.143042
 20
514.431999
 30
0.0
 40
18.0
  1
80
 51
15.0
  7
LC-TXTSTYLE-150-400-0-0-D0
 72
     1
 11
414.006034
 21
514.431999
 31
0.0
  0
ENDBLK
  8
0
  5
A1
  0
BLOCK
  8
0
  5
A3
  2
*D13
 70
    65
 10
0.0
 20
0.0
 30
0.0
  3
*D13
  0
LINE
  8
LC-004-003-MTH-0
  6
CONTINUOUS
  5
A4
 10
551.210789
 20
462.610164
 30
0.0
 11
551.210789
 21
514.8
 31
0.0
  0
LINE
  8
LC-005-003-MTG-0
  6
CONTINUOUS
  5
A5
 10
451.210789
 20
504.0
 30
0.0
 11
551.210789
 21
504.0
 31
0.0
  0
LINE
  8
LC-003-003-----0
  6
CONTINUOUS
  5
A6
 10
469.056796
 20
506.349471
 30
0.0
 11
451.210789
 21
504.0
 31
0.0
  0
LINE
  8
LC-003-003-----0
  6
CONTINUOUS
  5
A7
 10
451.210789
 20
504.0
 30
0.0
 11
469.056796
 21
501.650529
 31
0.0
  0
LINE
  8
LC-003-003-----0
  6
CONTINUOUS
  5
A8
 10
469.056796
 20
501.650529
 30
0.0
 11
469.056796
 21
506.349471
 31
0.0
  0
LINE
  8
LC-003-003-----0
  6
CONTINUOUS
  5
A9
 10
469.096834
 20
505.738609
 30
0.0
 11
455.890789
 21
504.0
 31
0.0
  0
LINE
  8
LC-003-003-----0
  6
CONTINUOUS
  5
AA
 10
455.890789
 20
504.0
 30
0.0
 11
469.096834
 21
502.261391
 31
0.0
  0
LINE
  8
LC-003-003-----0
  6
CONTINUOUS
  5
AB
 10
469.136872
 20
505.127746
 30
0.0
 11
460.570789
 21
504.0
 31
0.0
  0
LINE
  8
LC-003-003-----0
  6
CONTINUOUS
  5
AC
 10
460.570789
 20
504.0
 30
0.0
 11
469.136872
 21
502.872254
 31
0.0
  0
LINE
  8
LC-003-003-----0
  6
CONTINUOUS
  5
AD
 10
469.17691
 20
504.516884
 30
0.0
 11
465.250789
 21
504.0
 31
0.0
  0
LINE
  8
LC-003-003-----0
  6
CONTINUOUS
  5
AE
 10
465.250789
 20
504.0
 30
0.0
 11
469.17691
 21
503.483116
 31
0.0
  0
LINE
  8
LC-003-003-----0
  6
CONTINUOUS
  5
AF
 10
533.364781
 20
501.650529
 30
0.0
 11
551.210789
 21
504.0
 31
0.0
  0
LINE
  8
LC-003-003-----0
  6
CONTINUOUS
  5
B0
 10
551.210789
 20
504.0
 30
0.0
 11
533.364781
 21
506.349471
 31
0.0
  0
LINE
  8
LC-003-003-----0
  6
CONTINUOUS
  5
B1
 10
533.364781
 20
506.349471
 30
0.0
 11
533.364781
 21
501.650529
 31
0.0
  0
LINE
  8
LC-003-003-----0
  6
CONTINUOUS
  5
B2
 10
533.324743
 20
502.261391
 30
0.0
 11
546.530789
 21
504.0
 31
0.0
  0
LINE
  8
LC-003-003-----0
  6
CONTINUOUS
  5
B3
 10
546.530789
 20
504.0
 30
0.0
 11
533.324743
 21
505.738609
 31
0.0
  0
LINE
  8
LC-003-003-----0
  6
CONTINUOUS
  5
B4
 10
533.284705
 20
502.872254
 30
0.0
 11
541.850789
 21
504.0
 31
0.0
  0
LINE
  8
LC-003-003-----0
  6
CONTINUOUS
  5
B5
 10
541.850789
 20
504.0
 30
0.0
 11
533.284705
 21
505.127746
 31
0.0
  0
LINE
  8
LC-003-003-----0
  6
CONTINUOUS
  5
B6
 10
533.244667
 20
503.483116
 30
0.0
 11
537.170789
 21
504.0
 31
0.0
  0
LINE
  8
LC-003-003-----0
  6
CONTINUOUS
  5
B7
 10
537.170789
 20
504.0
 30
0.0
 11
533.244667
 21
504.516884
 31
0.0
  0
TEXT
  8
LC-003-003-----0
  6
CONTINUOUS
 62
     6
  5
B8
 10
484.872176
 20
514.431999
 30
0.0
 40
18.0
  1
100
 51
15.0
  7
LC-TXTSTYLE-150-400-0-0-D0
 72
     1
 11
504.006034
 21
514.431999
 31
0.0
  0
ENDBLK
  8
0
  5
B9
  0
BLOCK
  8
0
  5
BB
  2
*D14
 70
    65
 10
0.0
 20
0.0
 30
0.0
  3
*D14
  0
LINE
  8
LC-004-003-MTH-0
  6
CONTINUOUS
  5
BC
 10
321.210789
 20
469.867992
 30
0.0
 11
321.210789
 21
550.8
 31
0.0
  0
LINE
  8
LC-004-003-MTH-0
  6
CONTINUOUS
  5
BD
 10
451.210789
 20
484.867992
 30
0.0
 11
451.210789
 21
550.8
 31
0.0
  0
LINE
  8
LC-005-003-MTG-0
  6
CONTINUOUS
  5
BE
 10
321.210789
 20
540.0
 30
0.0
 11
451.210789
 21
540.0
 31
0.0
  0
LINE
  8
LC-003-003-----0
  6
CONTINUOUS
  5
BF
 10
339.056796
 20
542.349471
 30
0.0
 11
321.210789
 21
540.0
 31
0.0
  0
LINE
  8
LC-003-003-----0
  6
CONTINUOUS
  5
C0
 10
321.210789
 20
540.0
 30
0.0
 11
339.056796
 21
537.650529
 31
0.0
  0
LINE
  8
LC-003-003-----0
  6
CONTINUOUS
  5
C1
 10
339.056796
 20
537.650529
 30
0.0
 11
339.056796
 21
542.349471
 31
0.0
  0
LINE
  8
LC-003-003-----0
  6
CONTINUOUS
  5
C2
 10
339.096834
 20
541.738609
 30
0.0
 11
325.890789
 21
540.0
 31
0.0
  0
LINE
  8
LC-003-003-----0
  6
CONTINUOUS
  5
C3
 10
325.890789
 20
540.0
 30
0.0
 11
339.096834
 21
538.261391
 31
0.0
  0
LINE
  8
LC-003-003-----0
  6
CONTINUOUS
  5
C4
 10
339.136872
 20
541.127746
 30
0.0
 11
330.570789
 21
540.0
 31
0.0
  0
LINE
  8
LC-003-003-----0
  6
CONTINUOUS
  5
C5
 10
330.570789
 20
540.0
 30
0.0
 11
339.136872
 21
538.872254
 31
0.0
  0
LINE
  8
LC-003-003-----0
  6
CONTINUOUS
  5
C6
 10
339.17691
 20
540.516884
 30
0.0
 11
335.250789
 21
540.0
 31
0.0
  0
LINE
  8
LC-003-003-----0
  6
CONTINUOUS
  5
C7
 10
335.250789
 20
540.0
 30
0.0
 11
339.17691
 21
539.483116
 31
0.0
  0
LINE
  8
LC-003-003-----0
  6
CONTINUOUS
  5
C8
 10
433.364781
 20
537.650529
 30
0.0
 11
451.210789
 21
540.0
 31
0.0
  0
LINE
  8
LC-003-003-----0
  6
CONTINUOUS
  5
C9
 10
451.210789
 20
540.0
 30
0.0
 11
433.364781
 21
542.349471
 31
0.0
  0
LINE
  8
LC-003-003-----0
  6
CONTINUOUS
  5
CA
 10
433.364781
 20
542.349471
 30
0.0
 11
433.364781
 21
537.650529
 31
0.0
  0
LINE
  8
LC-003-003-----0
  6
CONTINUOUS
  5
CB
 10
433.324743
 20
538.261391
 30
0.0
 11
446.530789
 21
540.0
 31
0.0
  0
LINE
  8
LC-003-003-----0
  6
CONTINUOUS
  5
CC
 10
446.530789
 20
540.0
 30
0.0
 11
433.324743
 21
541.738609
 31
0.0
  0
LINE
  8
LC-003-003-----0
  6
CONTINUOUS
  5
CD
 10
433.284705
 20
538.872254
 30
0.0
 11
441.850789
 21
540.0
 31
0.0
  0
LINE
  8
LC-003-003-----0
  6
CONTINUOUS
  5
CE
 10
441.850789
 20
540.0
 30
0.0
 11
433.284705
 21
541.127746
 31
0.0
  0
LINE
  8
LC-003-003-----0
  6
CONTINUOUS
  5
CF
 10
433.244667
 20
539.483116
 30
0.0
 11
437.170789
 21
540.0
 31
0.0
  0
LINE
  8
LC-003-003-----0
  6
CONTINUOUS
  5
D0
 10
437.170789
 20
540.0
 30
0.0
 11
433.244667
 21
540.516884
 31
0.0
  0
TEXT
  8
LC-003-003-----0
  6
CONTINUOUS
 62
     6
  5
D1
 10
359.480507
 20
550.431999
 30
0.0
 40
18.0
  1
130
 51
15.0
  7
LC-TXTSTYLE-150-400-0-0-D0
 72
     1
 11
378.614365
 21
550.431999
 31
0.0
  0
ENDBLK
  8
0
  5
D2
  0
BLOCK
  8
0
  5
D4
  2
*D15
 70
    65
 10
0.0
 20
0.0
 30
0.0
  3
*D15
  0
LINE
  8
LC-004-003-MTH-0
  6
CONTINUOUS
  5
D5
 10
70.329174
 20
377.209984
 30
0.0
 11
70.329174
 21
297.2
 31
0.0
  0
LINE
  8
LC-004-003-MTH-0
  6
CONTINUOUS
  5
D6
 10
167.170183
 20
375.924021
 30
0.0
 11
167.170183
 21
297.2
 31
0.0
  0
LINE
  8
LC-003-003-----0
  6
CONTINUOUS
  5
D7
 10
52.483167
 20
305.650529
 30
0.0
 11
70.329174
 21
308.0
 31
0.0
  0
LINE
  8
LC-003-003-----0
  6
CONTINUOUS
  5
D8
 10
70.329174
 20
308.0
 30
0.0
 11
52.483167
 21
310.349471
 31
0.0
  0
LINE
  8
LC-003-003-----0
  6
CONTINUOUS
  5
D9
 10
52.483167
 20
310.349471
 30
0.0
 11
52.483167
 21
305.650529
 31
0.0
  0
LINE
  8
LC-003-003-----0
  6
CONTINUOUS
  5
DA
 10
52.443129
 20
306.261391
 30
0.0
 11
65.649174
 21
308.0
 31
0.0
  0
LINE
  8
LC-003-003-----0
  6
CONTINUOUS
  5
DB
 10
65.649174
 20
308.0
 30
0.0
 11
52.443129
 21
309.738609
 31
0.0
  0
LINE
  8
LC-003-003-----0
  6
CONTINUOUS
  5
DC
 10
52.403091
 20
306.872254
 30
0.0
 11
60.969174
 21
308.0
 31
0.0
  0
LINE
  8
LC-003-003-----0
  6
CONTINUOUS
  5
DD
 10
60.969174
 20
308.0
 30
0.0
 11
52.403091
 21
309.127746
 31
0.0
  0
LINE
  8
LC-003-003-----0
  6
CONTINUOUS
  5
DE
 10
52.363053
 20
307.483116
 30
0.0
 11
56.289174
 21
308.0
 31
0.0
  0
LINE
  8
LC-003-003-----0
  6
CONTINUOUS
  5
DF
 10
56.289174
 20
308.0
 30
0.0
 11
52.363053
 21
308.516884
 31
0.0
  0
LINE
  8
LC-003-003-----0
  6
CONTINUOUS
  5
E0
 10
185.016191
 20
310.349471
 30
0.0
 11
167.170183
 21
308.0
 31
0.0
  0
LINE
  8
LC-003-003-----0
  6
CONTINUOUS
  5
E1
 10
167.170183
 20
308.0
 30
0.0
 11
185.016191
 21
305.650529
 31
0.0
  0
LINE
  8
LC-003-003-----0
  6
CONTINUOUS
  5
E2
 10
185.016191
 20
305.650529
 30
0.0
 11
185.016191
 21
310.349471
 31
0.0
  0
LINE
  8
LC-003-003-----0
  6
CONTINUOUS
  5
E3
 10
185.056229
 20
309.738609
 30
0.0
 11
171.850183
 21
308.0
 31
0.0
  0
LINE
  8
LC-003-003-----0
  6
CONTINUOUS
  5
E4
 10
171.850183
 20
308.0
 30
0.0
 11
185.056229
 21
306.261391
 31
0.0
  0
LINE
  8
LC-003-003-----0
  6
CONTINUOUS
  5
E5
 10
185.096267
 20
309.127746
 30
0.0
 11
176.530183
 21
308.0
 31
0.0
  0
LINE
  8
LC-003-003-----0
  6
CONTINUOUS
  5
E6
 10
176.530183
 20
308.0
 30
0.0
 11
185.096267
 21
306.872254
 31
0.0
  0
LINE
  8
LC-003-003-----0
  6
CONTINUOUS
  5
E7
 10
185.136305
 20
308.516884
 30
0.0
 11
181.210183
 21
308.0
 31
0.0
  0
LINE
  8
LC-003-003-----0
  6
CONTINUOUS
  5
E8
 10
181.210183
 20
308.0
 30
0.0
 11
185.136305
 21
307.483116
 31
0.0
  0
LINE
  8
LC-005-003-MTG-0
  6
CONTINUOUS
  5
E9
 10
-52.473345
 20
308.0
 30
0.0
 11
192.370183
 21
308.0
 31
0.0
  0
TEXT
  8
LC-003-003-----0
  6
CONTINUOUS
 62
     6
  5
EA
 10
-34.906761
 20
318.431999
 30
0.0
 40
18.0
  1
73-120
 51
15.0
  7
LC-TXTSTYLE-150-400-0-0-D0
 72
     2
 11
48.64442
 21
318.431999
 31
0.0
  0
ENDBLK
  8
0
  5
EB
  0
BLOCK
  8
0
  5
ED
  2
*D16
 70
    65
 10
0.0
 20
0.0
 30
0.0
  3
*D16
  0
LINE
  8
LC-004-003-MTH-0
  6
CONTINUOUS
  5
EE
 10
109.670183
 20
290.53454
 30
0.0
 11
109.670183
 21
205.2
 31
0.0
  0
LINE
  8
LC-004-003-MTH-0
  6
CONTINUOUS
  5
EF
 10
149.670183
 20
290.709984
 30
0.0
 11
149.670183
 21
205.2
 31
0.0
  0
LINE
  8
LC-003-003-----0
  6
CONTINUOUS
  5
F0
 10
91.824176
 20
213.650529
 30
0.0
 11
109.670183
 21
216.0
 31
0.0
  0
LINE
  8
LC-003-003-----0
  6
CONTINUOUS
  5
F1
 10
109.670183
 20
216.0
 30
0.0
 11
91.824176
 21
218.349471
 31
0.0
  0
LINE
  8
LC-003-003-----0
  6
CONTINUOUS
  5
F2
 10
91.824176
 20
218.349471
 30
0.0
 11
91.824176
 21
213.650529
 31
0.0
  0
LINE
  8
LC-003-003-----0
  6
CONTINUOUS
  5
F3
 10
91.784138
 20
214.261391
 30
0.0
 11
104.990183
 21
216.0
 31
0.0
  0
LINE
  8
LC-003-003-----0
  6
CONTINUOUS
  5
F4
 10
104.990183
 20
216.0
 30
0.0
 11
91.784138
 21
217.738609
 31
0.0
  0
LINE
  8
LC-003-003-----0
  6
CONTINUOUS
  5
F5
 10
91.7441
 20
214.872254
 30
0.0
 11
100.310183
 21
216.0
 31
0.0
  0
LINE
  8
LC-003-003-----0
  6
CONTINUOUS
  5
F6
 10
100.310183
 20
216.0
 30
0.0
 11
91.7441
 21
217.127746
 31
0.0
  0
LINE
  8
LC-003-003-----0
  6
CONTINUOUS
  5
F7
 10
91.704062
 20
215.483116
 30
0.0
 11
95.630183
 21
216.0
 31
0.0
  0
LINE
  8
LC-003-003-----0
  6
CONTINUOUS
  5
F8
 10
95.630183
 20
216.0
 30
0.0
 11
91.704062
 21
216.516884
 31
0.0
  0
LINE
  8
LC-003-003-----0
  6
CONTINUOUS
  5
F9
 10
167.516191
 20
218.349471
 30
0.0
 11
149.670183
 21
216.0
 31
0.0
  0
LINE
  8
LC-003-003-----0
  6
CONTINUOUS
  5
FA
 10
149.670183
 20
216.0
 30
0.0
 11
167.516191
 21
213.650529
 31
0.0
  0
LINE
  8
LC-003-003-----0
  6
CONTINUOUS
  5
FB
 10
167.516191
 20
213.650529
 30
0.0
 11
167.516191
 21
218.349471
 31
0.0
  0
LINE
  8
LC-003-003-----0
  6
CONTINUOUS
  5
FC
 10
167.556229
 20
217.738609
 30
0.0
 11
154.350183
 21
216.0
 31
0.0
  0
LINE
  8
LC-003-003-----0
  6
CONTINUOUS
  5
FD
 10
154.350183
 20
216.0
 30
0.0
 11
167.556229
 21
214.261391
 31
0.0
  0
LINE
  8
LC-003-003-----0
  6
CONTINUOUS
  5
FE
 10
167.596267
 20
217.127746
 30
0.0
 11
159.030183
 21
216.0
 31
0.0
  0
LINE
  8
LC-003-003-----0
  6
CONTINUOUS
  5
FF
 10
159.030183
 20
216.0
 30
0.0
 11
167.596267
 21
214.872254
 31
0.0
  0
LINE
  8
LC-003-003-----0
  6
CONTINUOUS
  5
100
 10
167.636305
 20
216.516884
 30
0.0
 11
163.710183
 21
216.0
 31
0.0
  0
LINE
  8
LC-003-003-----0
  6
CONTINUOUS
  5
101
 10
163.710183
 20
216.0
 30
0.0
 11
167.636305
 21
215.483116
 31
0.0
  0
LINE
  8
LC-005-003-MTG-0
  6
CONTINUOUS
  5
102
 10
84.470183
 20
216.0
 30
0.0
 11
248.445189
 21
216.0
 31
0.0
  0
TEXT
  8
LC-003-003-----0
  6
CONTINUOUS
 62
     6
  5
103
 10
185.317915
 20
226.431999
 30
0.0
 40
18.0
  1
DN40
 51
15.0
  7
LC-TXTSTYLE-150-400-0-0-D0
  0
ENDBLK
  8
0
  5
104
  0
BLOCK
  8
0
  5
106
  2
*D17
 70
    65
 10
0.0
 20
0.0
 30
0.0
  3
*D17
  0
LINE
  8
LC-004-003-MTH-0
  6
CONTINUOUS
  5
107
 10
104.670183
 20
237.709984
 30
0.0
 11
104.670183
 21
169.2
 31
0.0
  0
LINE
  8
LC-004-003-MTH-0
  6
CONTINUOUS
  5
108
 10
154.670183
 20
237.709984
 30
0.0
 11
154.670183
 21
169.2
 31
0.0
  0
LINE
  8
LC-003-003-----0
  6
CONTINUOUS
  5
109
 10
86.824176
 20
177.650529
 30
0.0
 11
104.670183
 21
180.0
 31
0.0
  0
LINE
  8
LC-003-003-----0
  6
CONTINUOUS
  5
10A
 10
104.670183
 20
180.0
 30
0.0
 11
86.824176
 21
182.349471
 31
0.0
  0
LINE
  8
LC-003-003-----0
  6
CONTINUOUS
  5
10B
 10
86.824176
 20
182.349471
 30
0.0
 11
86.824176
 21
177.650529
 31
0.0
  0
LINE
  8
LC-003-003-----0
  6
CONTINUOUS
  5
10C
 10
86.784138
 20
178.261391
 30
0.0
 11
99.990183
 21
180.0
 31
0.0
  0
LINE
  8
LC-003-003-----0
  6
CONTINUOUS
  5
10D
 10
99.990183
 20
180.0
 30
0.0
 11
86.784138
 21
181.738609
 31
0.0
  0
LINE
  8
LC-003-003-----0
  6
CONTINUOUS
  5
10E
 10
86.7441
 20
178.872254
 30
0.0
 11
95.310183
 21
180.0
 31
0.0
  0
LINE
  8
LC-003-003-----0
  6
CONTINUOUS
  5
10F
 10
95.310183
 20
180.0
 30
0.0
 11
86.7441
 21
181.127746
 31
0.0
  0
LINE
  8
LC-003-003-----0
  6
CONTINUOUS
  5
110
 10
86.704062
 20
179.483116
 30
0.0
 11
90.630183
 21
180.0
 31
0.0
  0
LINE
  8
LC-003-003-----0
  6
CONTINUOUS
  5
111
 10
90.630183
 20
180.0
 30
0.0
 11
86.704062
 21
180.516884
 31
0.0
  0
LINE
  8
LC-003-003-----0
  6
CONTINUOUS
  5
112
 10
172.516191
 20
182.349471
 30
0.0
 11
154.670183
 21
180.0
 31
0.0
  0
LINE
  8
LC-003-003-----0
  6
CONTINUOUS
  5
113
 10
154.670183
 20
180.0
 30
0.0
 11
172.516191
 21
177.650529
 31
0.0
  0
LINE
  8
LC-003-003-----0
  6
CONTINUOUS
  5
114
 10
172.516191
 20
177.650529
 30
0.0
 11
172.516191
 21
182.349471
 31
0.0
  0
LINE
  8
LC-003-003-----0
  6
CONTINUOUS
  5
115
 10
172.556229
 20
181.738609
 30
0.0
 11
159.350183
 21
180.0
 31
0.0
  0
LINE
  8
LC-003-003-----0
  6
CONTINUOUS
  5
116
 10
159.350183
 20
180.0
 30
0.0
 11
172.556229
 21
178.261391
 31
0.0
  0
LINE
  8
LC-003-003-----0
  6
CONTINUOUS
  5
117
 10
172.596267
 20
181.127746
 30
0.0
 11
164.030183
 21
180.0
 31
0.0
  0
LINE
  8
LC-003-003-----0
  6
CONTINUOUS
  5
118
 10
164.030183
 20
180.0
 30
0.0
 11
172.596267
 21
178.872254
 31
0.0
  0
LINE
  8
LC-003-003-----0
  6
CONTINUOUS
  5
119
 10
172.636305
 20
180.516884
 30
0.0
 11
168.710183
 21
180.0
 31
0.0
  0
LINE
  8
LC-003-003-----0
  6
CONTINUOUS
  5
11A
 10
168.710183
 20
180.0
 30
0.0
 11
172.636305
 21
179.483116
 31
0.0
  0
LINE
  8
LC-005-003-MTG-0
  6
CONTINUOUS
  5
11B
 10
79.470183
 20
180.0
 30
0.0
 11
245.072703
 21
180.0
 31
0.0
  0
TEXT
  8
LC-003-003-----0
  6
CONTINUOUS
 62
     6
  5
11C
 10
181.945429
 20
190.431999
 30
0.0
 40
18.0
  1
DN50
 51
15.0
  7
LC-TXTSTYLE-150-400-0-0-D0
  0
ENDBLK
  8
0
  5
11D
  0
BLOCK
  8
0
  5
11F
  2
*D18
 70
    65
 10
0.0
 20
0.0
 30
0.0
  3
*D18
  0
LINE
  8
LC-004-003-MTH-0
  6
CONTINUOUS
  5
120
 10
427.148611
 20
234.367992
 30
0.0
 11
283.2
 21
234.367992
 31
0.0
  0
LINE
  8
LC-004-003-MTH-0
  6
CONTINUOUS
  5
121
 10
232.070789
 20
427.367992
 30
0.0
 11
304.8
 21
427.367992
 31
0.0
  0
LINE
  8
LC-005-003-MTG-0
  6
CONTINUOUS
  5
122
 10
294.0
 20
234.367992
 30
0.0
 11
294.0
 21
427.367992
 31
0.0
  0
LINE
  8
LC-003-003-----0
  6
CONTINUOUS
  5
123
 10
291.650529
 20
252.214
 30
0.0
 11
294.0
 21
234.367992
 31
0.0
  0
LINE
  8
LC-003-003-----0
  6
CONTINUOUS
  5
124
 10
294.0
 20
234.367992
 30
0.0
 11
296.349471
 21
252.214
 31
0.0
  0
LINE
  8
LC-003-003-----0
  6
CONTINUOUS
  5
125
 10
296.349471
 20
252.214
 30
0.0
 11
291.650529
 21
252.214
 31
0.0
  0
LINE
  8
LC-003-003-----0
  6
CONTINUOUS
  5
126
 10
292.261391
 20
252.254038
 30
0.0
 11
294.0
 21
239.047992
 31
0.0
  0
LINE
  8
LC-003-003-----0
  6
CONTINUOUS
  5
127
 10
294.0
 20
239.047992
 30
0.0
 11
295.738609
 21
252.254038
 31
0.0
  0
LINE
  8
LC-003-003-----0
  6
CONTINUOUS
  5
128
 10
292.872254
 20
252.294076
 30
0.0
 11
294.0
 21
243.727992
 31
0.0
  0
LINE
  8
LC-003-003-----0
  6
CONTINUOUS
  5
129
 10
294.0
 20
243.727992
 30
0.0
 11
295.127746
 21
252.294076
 31
0.0
  0
LINE
  8
LC-003-003-----0
  6
CONTINUOUS
  5
12A
 10
293.483116
 20
252.334114
 30
0.0
 11
294.0
 21
248.407992
 31
0.0
  0
LINE
  8
LC-003-003-----0
  6
CONTINUOUS
  5
12B
 10
294.0
 20
248.407992
 30
0.0
 11
294.516884
 21
252.334114
 31
0.0
  0
LINE
  8
LC-003-003-----0
  6
CONTINUOUS
  5
12C
 10
296.349471
 20
409.521985
 30
0.0
 11
294.0
 21
427.367992
 31
0.0
  0
LINE
  8
LC-003-003-----0
  6
CONTINUOUS
  5
12D
 10
294.0
 20
427.367992
 30
0.0
 11
291.650529
 21
409.521985
 31
0.0
  0
LINE
  8
LC-003-003-----0
  6
CONTINUOUS
  5
12E
 10
291.650529
 20
409.521985
 30
0.0
 11
296.349471
 21
409.521985
 31
0.0
  0
LINE
  8
LC-003-003-----0
  6
CONTINUOUS
  5
12F
 10
295.738609
 20
409.481947
 30
0.0
 11
294.0
 21
422.687992
 31
0.0
  0
LINE
  8
LC-003-003-----0
  6
CONTINUOUS
  5
130
 10
294.0
 20
422.687992
 30
0.0
 11
292.261391
 21
409.481947
 31
0.0
  0
LINE
  8
LC-003-003-----0
  6
CONTINUOUS
  5
131
 10
295.127746
 20
409.441909
 30
0.0
 11
294.0
 21
418.007992
 31
0.0
  0
LINE
  8
LC-003-003-----0
  6
CONTINUOUS
  5
132
 10
294.0
 20
418.007992
 30
0.0
 11
292.872254
 21
409.441909
 31
0.0
  0
LINE
  8
LC-003-003-----0
  6
CONTINUOUS
  5
133
 10
294.516884
 20
409.401871
 30
0.0
 11
294.0
 21
413.327992
 31
0.0
  0
LINE
  8
LC-003-003-----0
  6
CONTINUOUS
  5
134
 10
294.0
 20
413.327992
 30
0.0
 11
293.483116
 21
409.401871
 31
0.0
  0
TEXT
  8
LC-003-003-----0
  6
CONTINUOUS
 62
     6
  5
135
 10
283.568001
 20
314.52938
 30
0.0
 40
18.0
  1
193
 50
90.0
 51
15.0
  7
LC-TXTSTYLE-150-400-0-0-D0
 72
     1
 11
283.568001
 21
333.663238
 31
0.0
  0
ENDBLK
  8
0
  5
136
  0
BLOCK
  8
0
  5
138
  2
*D19
 70
    65
 10
0.0
 20
0.0
 30
0.0
  3
*D19
  0
LINE
  8
LC-004-003-MTH-0
  6
CONTINUOUS
  5
139
 10
598.710789
 20
377.367992
 30
0.0
 11
658.8
 21
377.367992
 31
0.0
  0
LINE
  8
LC-004-003-MTH-0
  6
CONTINUOUS
  5
13A
 10
598.710789
 20
477.367992
 30
0.0
 11
658.8
 21
477.367992
 31
0.0
  0
LINE
  8
LC-003-003-----0
  6
CONTINUOUS
  5
13B
 10
650.349471
 20
359.521985
 30
0.0
 11
648.0
 21
377.367992
 31
0.0
  0
LINE
  8
LC-003-003-----0
  6
CONTINUOUS
  5
13C
 10
648.0
 20
377.367992
 30
0.0
 11
645.650529
 21
359.521985
 31
0.0
  0
LINE
  8
LC-003-003-----0
  6
CONTINUOUS
  5
13D
 10
645.650529
 20
359.521985
 30
0.0
 11
650.349471
 21
359.521985
 31
0.0
  0
LINE
  8
LC-003-003-----0
  6
CONTINUOUS
  5
13E
 10
649.738609
 20
359.481947
 30
0.0
 11
648.0
 21
372.687992
 31
0.0
  0
LINE
  8
LC-003-003-----0
  6
CONTINUOUS
  5
13F
 10
648.0
 20
372.687992
 30
0.0
 11
646.261391
 21
359.481947
 31
0.0
  0
LINE
  8
LC-003-003-----0
  6
CONTINUOUS
  5
140
 10
649.127746
 20
359.441909
 30
0.0
 11
648.0
 21
368.007992
 31
0.0
  0
LINE
  8
LC-003-003-----0
  6
CONTINUOUS
  5
141
 10
648.0
 20
368.007992
 30
0.0
 11
646.872254
 21
359.441909
 31
0.0
  0
LINE
  8
LC-003-003-----0
  6
CONTINUOUS
  5
142
 10
648.516884
 20
359.401871
 30
0.0
 11
648.0
 21
363.327992
 31
0.0
  0
LINE
  8
LC-003-003-----0
  6
CONTINUOUS
  5
143
 10
648.0
 20
363.327992
 30
0.0
 11
647.483116
 21
359.401871
 31
0.0
  0
LINE
  8
LC-003-003-----0
  6
CONTINUOUS
  5
144
 10
645.650529
 20
495.214
 30
0.0
 11
648.0
 21
477.367992
 31
0.0
  0
LINE
  8
LC-003-003-----0
  6
CONTINUOUS
  5
145
 10
648.0
 20
477.367992
 30
0.0
 11
650.349471
 21
495.214
 31
0.0
  0
LINE
  8
LC-003-003-----0
  6
CONTINUOUS
  5
146
 10
650.349471
 20
495.214
 30
0.0
 11
645.650529
 21
495.214
 31
0.0
  0
LINE
  8
LC-003-003-----0
  6
CONTINUOUS
  5
147
 10
646.261391
 20
495.254038
 30
0.0
 11
648.0
 21
482.047992
 31
0.0
  0
LINE
  8
LC-003-003-----0
  6
CONTINUOUS
  5
148
 10
648.0
 20
482.047992
 30
0.0
 11
649.738609
 21
495.254038
 31
0.0
  0
LINE
  8
LC-003-003-----0
  6
CONTINUOUS
  5
149
 10
646.872254
 20
495.294076
 30
0.0
 11
648.0
 21
486.727992
 31
0.0
  0
LINE
  8
LC-003-003-----0
  6
CONTINUOUS
  5
14A
 10
648.0
 20
486.727992
 30
0.0
 11
649.127746
 21
495.294076
 31
0.0
  0
LINE
  8
LC-003-003-----0
  6
CONTINUOUS
  5
14B
 10
647.483116
 20
495.334114
 30
0.0
 11
648.0
 21
491.407992
 31
0.0
  0
LINE
  8
LC-003-003-----0
  6
CONTINUOUS
  5
14C
 10
648.0
 20
491.407992
 30
0.0
 11
648.516884
 21
495.334114
 31
0.0
  0
LINE
  8
LC-005-003-MTG-0
  6
CONTINUOUS
  5
14D
 10
648.0
 20
303.165473
 30
0.0
 11
648.0
 21
502.567992
 31
0.0
  0
TEXT
  8
LC-003-003-----0
  6
CONTINUOUS
 62
     6
  5
14E
 10
637.568001
 20
317.415521
 30
0.0
 40
18.0
  1
100
 50
90.0
 51
15.0
  7
LC-TXTSTYLE-150-400-0-0-D0
 72
     2
 11
637.568001
 21
355.683238
 31
0.0
  0
ENDBLK
  8
0
  5
14F
  0
BLOCK
  8
0
  5
151
  2
*D20
 70
    65
 10
0.0
 20
0.0
 30
0.0
  3
*D20
  0
LINE
  8
LC-004-003-MTH-0
  6
CONTINUOUS
  5
152
 10
12.327022
 20
426.211265
 30
0.0
 11
12.327022
 21
500.8
 31
0.0
  0
LINE
  8
LC-004-003-MTH-0
  6
CONTINUOUS
  5
153
 10
65.329174
 20
470.967344
 30
0.0
 11
65.329174
 21
500.8
 31
0.0
  0
LINE
  8
LC-005-003-MTG-0
  6
CONTINUOUS
  5
154
 10
12.327022
 20
490.0
 30
0.0
 11
65.329174
 21
490.0
 31
0.0
  0
LINE
  8
LC-003-003-----0
  6
CONTINUOUS
  5
155
 10
30.173029
 20
492.349471
 30
0.0
 11
12.327022
 21
490.0
 31
0.0
  0
LINE
  8
LC-003-003-----0
  6
CONTINUOUS
  5
156
 10
12.327022
 20
490.0
 30
0.0
 11
30.173029
 21
487.650529
 31
0.0
  0
LINE
  8
LC-003-003-----0
  6
CONTINUOUS
  5
157
 10
30.173029
 20
487.650529
 30
0.0
 11
30.173029
 21
492.349471
 31
0.0
  0
LINE
  8
LC-003-003-----0
  6
CONTINUOUS
  5
158
 10
30.213067
 20
491.738609
 30
0.0
 11
17.007022
 21
490.0
 31
0.0
  0
LINE
  8
LC-003-003-----0
  6
CONTINUOUS
  5
159
 10
17.007022
 20
490.0
 30
0.0
 11
30.213067
 21
488.261391
 31
0.0
  0
LINE
  8
LC-003-003-----0
  6
CONTINUOUS
  5
15A
 10
30.253105
 20
491.127746
 30
0.0
 11
21.687022
 21
490.0
 31
0.0
  0
LINE
  8
LC-003-003-----0
  6
CONTINUOUS
  5
15B
 10
21.687022
 20
490.0
 30
0.0
 11
30.253105
 21
488.872254
 31
0.0
  0
LINE
  8
LC-003-003-----0
  6
CONTINUOUS
  5
15C
 10
30.293143
 20
490.516884
 30
0.0
 11
26.367022
 21
490.0
 31
0.0
  0
LINE
  8
LC-003-003-----0
  6
CONTINUOUS
  5
15D
 10
26.367022
 20
490.0
 30
0.0
 11
30.293143
 21
489.483116
 31
0.0
  0
LINE
  8
LC-003-003-----0
  6
CONTINUOUS
  5
15E
 10
47.483167
 20
487.650529
 30
0.0
 11
65.329174
 21
490.0
 31
0.0
  0
LINE
  8
LC-003-003-----0
  6
CONTINUOUS
  5
15F
 10
65.329174
 20
490.0
 30
0.0
 11
47.483167
 21
492.349471
 31
0.0
  0
LINE
  8
LC-003-003-----0
  6
CONTINUOUS
  5
160
 10
47.483167
 20
492.349471
 30
0.0
 11
47.483167
 21
487.650529
 31
0.0
  0
LINE
  8
LC-003-003-----0
  6
CONTINUOUS
  5
161
 10
47.443129
 20
488.261391
 30
0.0
 11
60.649174
 21
490.0
 31
0.0
  0
LINE
  8
LC-003-003-----0
  6
CONTINUOUS
  5
162
 10
60.649174
 20
490.0
 30
0.0
 11
47.443129
 21
491.738609
 31
0.0
  0
LINE
  8
LC-003-003-----0
  6
CONTINUOUS
  5
163
 10
47.403091
 20
488.872254
 30
0.0
 11
55.969174
 21
490.0
 31
0.0
  0
LINE
  8
LC-003-003-----0
  6
CONTINUOUS
  5
164
 10
55.969174
 20
490.0
 30
0.0
 11
47.403091
 21
491.127746
 31
0.0
  0
LINE
  8
LC-003-003-----0
  6
CONTINUOUS
  5
165
 10
47.363053
 20
489.483116
 30
0.0
 11
51.289174
 21
490.0
 31
0.0
  0
LINE
  8
LC-003-003-----0
  6
CONTINUOUS
  5
166
 10
51.289174
 20
490.0
 30
0.0
 11
47.363053
 21
490.516884
 31
0.0
  0
TEXT
  8
LC-003-003-----0
  6
CONTINUOUS
 62
     6
  5
167
 10
29.760352
 20
500.431999
 30
0.0
 40
18.0
  1
55
 51
15.0
  7
LC-TXTSTYLE-150-400-0-0-D0
 72
     1
 11
41.623344
 21
500.431999
 31
0.0
  0
ENDBLK
  8
0
  5
168
  0
BLOCK
  8
0
  5
16A
  2
BLK12
 70
    64
 10
0.0
 20
0.0
 30
0.0
  3
BLK12
  0
ARC
  8
LC-002-002-----0
  6
CONTINUOUS
  5
16B
 10
453.507404
 20
450.321936
 30
0.0
 40
3.207986
 50
0.822609
 51
39.628027
  0
ARC
  8
LC-002-002-----0
  6
CONTINUOUS
  5
16C
 10
452.099872
 20
449.151376
 30
0.0
 40
5.038655
 50
39.671711
 51
68.273542
  0
ARC
  8
LC-002-002-----0
  6
CONTINUOUS
  5
16D
 10
451.248555
 20
447.216019
 30
0.0
 40
7.152052
 50
67.677361
 51
90.268336
  0
ARC
  8
LC-002-002-----0
  6
CONTINUOUS
  5
16E
 10
451.181565
 20
447.216019
 30
0.0
 40
7.152052
 50
89.731664
 51
112.322639
  0
ARC
  8
LC-002-002-----0
  6
CONTINUOUS
  5
16F
 10
450.330248
 20
449.151376
 30
0.0
 40
5.038655
 50
111.726458
 51
140.328289
  0
ARC
  8
LC-002-002-----0
  6
CONTINUOUS
  5
170
 10
448.922716
 20
450.321936
 30
0.0
 40
3.207986
 50
140.371973
 51
179.177391
  0
ARC
  8
LC-002-002-----0
  6
CONTINUOUS
  5
171
 10
448.922716
 20
450.414048
 30
0.0
 40
3.207986
 50
180.822609
 51
219.628027
  0
ARC
  8
LC-002-002-----0
  6
CONTINUOUS
  5
172
 10
450.330248
 20
451.584609
 30
0.0
 40
5.038655
 50
219.671711
 51
248.273542
  0
ARC
  8
LC-002-002-----0
  6
CONTINUOUS
  5
173
 10
451.181565
 20
453.519966
 30
0.0
 40
7.152052
 50
247.677361
 51
270.268336
  0
ARC
  8
LC-002-002-----0
  6
CONTINUOUS
  5
174
 10
451.248555
 20
453.519966
 30
0.0
 40
7.152052
 50
269.731664
 51
292.322639
  0
ARC
  8
LC-002-002-----0
  6
CONTINUOUS
  5
175
 10
452.099872
 20
451.584609
 30
0.0
 40
5.038655
 50
291.726458
 51
320.328289
  0
ARC
  8
LC-002-002-----0
  6
CONTINUOUS
  5
176
 10
453.507404
 20
450.414048
 30
0.0
 40
3.207986
 50
320.371973
 51
359.177391
  0
ENDBLK
  8
0
  5
177
  0
BLOCK
  8
0
  5
179
  2
BLK13
 70
    64
 10
0.0
 20
0.0
 30
0.0
  3
BLK13
  0
ARC
  8
LC-002-002-----0
  6
CONTINUOUS
  5
17A
 10
432.746507
 20
445.883915
 30
0.0
 40
7.152052
 50
314.731664
 51
337.322639
  0
ARC
  8
LC-002-002-----0
  6
CONTINUOUS
  5
17B
 10
434.716983
 20
445.117382
 30
0.0
 40
5.038655
 50
336.726458
 51
5.328289
  0
ARC
  8
LC-002-002-----0
  6
CONTINUOUS
  5
17C
 10
436.53997
 20
445.284947
 30
0.0
 40
3.207986
 50
5.371973
 51
44.177391
  0
ARC
  8
LC-002-002-----0
  6
CONTINUOUS
  5
17D
 10
436.605103
 20
445.219814
 30
0.0
 40
3.207986
 50
45.822609
 51
84.628027
  0
ARC
  8
LC-002-002-----0
  6
CONTINUOUS
  5
17E
 10
436.437538
 20
443.396827
 30
0.0
 40
5.038655
 50
84.671711
 51
113.273542
  0
ARC
  8
LC-002-002-----0
  6
CONTINUOUS
  5
17F
 10
437.204071
 20
441.426351
 30
0.0
 40
7.152052
 50
112.677361
 51
135.268336
  0
ARC
  8
LC-002-002-----0
  6
CONTINUOUS
  5
180
 10
437.156701
 20
441.378981
 30
0.0
 40
7.152052
 50
134.731664
 51
157.322639
  0
ARC
  8
LC-002-002-----0
  6
CONTINUOUS
  5
181
 10
435.186225
 20
442.145514
 30
0.0
 40
5.038655
 50
156.726458
 51
185.328289
  0
ARC
  8
LC-002-002-----0
  6
CONTINUOUS
  5
182
 10
433.363238
 20
441.977949
 30
0.0
 40
3.207986
 50
185.371973
 51
224.177391
  0
ARC
  8
LC-002-002-----0
  6
CONTINUOUS
  5
183
 10
433.298105
 20
442.043083
 30
0.0
 40
3.207986
 50
225.822609
 51
264.628027
  0
ARC
  8
LC-002-002-----0
  6
CONTINUOUS
  5
184
 10
433.46567
 20
443.866069
 30
0.0
 40
5.038655
 50
264.671711
 51
293.273542
  0
ARC
  8
LC-002-002-----0
  6
CONTINUOUS
  5
185
 10
432.699137
 20
445.836545
 30
0.0
 40
7.152052
 50
292.677361
 51
315.268336
  0
ENDBLK
  8
0
  5
186
  0
BLOCK
  8
0
  5
188
  2
BLK14
 70
    64
 10
0.0
 20
0.0
 30
0.0
  3
BLK14
  0
ARC
  8
LC-002-002-----0
  6
CONTINUOUS
  5
189
 10
425.063086
 20
427.401488
 30
0.0
 40
7.152052
 50
359.731664
 51
22.322639
  0
ARC
  8
LC-002-002-----0
  6
CONTINUOUS
  5
18A
 10
426.998444
 20
428.252804
 30
0.0
 40
5.038655
 50
21.726458
 51
50.328289
  0
ARC
  8
LC-002-002-----0
  6
CONTINUOUS
  5
18B
 10
428.169004
 20
429.660337
 30
0.0
 40
3.207986
 50
50.371973
 51
89.177391
  0
ARC
  8
LC-002-002-----0
  6
CONTINUOUS
  5
18C
 10
428.261116
 20
429.660337
 30
0.0
 40
3.207986
 50
90.822609
 51
129.628027
  0
ARC
  8
LC-002-002-----0
  6
CONTINUOUS
  5
18D
 10
429.431676
 20
428.252804
 30
0.0
 40
5.038655
 50
129.671711
 51
158.273542
  0
ARC
  8
LC-002-002-----0
  6
CONTINUOUS
  5
18E
 10
431.367034
 20
427.401488
 30
0.0
 40
7.152052
 50
157.677361
 51
180.268336
  0
ARC
  8
LC-002-002-----0
  6
CONTINUOUS
  5
18F
 10
431.367034
 20
427.334497
 30
0.0
 40
7.152052
 50
179.731664
 51
202.322639
  0
ARC
  8
LC-002-002-----0
  6
CONTINUOUS
  5
190
 10
429.431676
 20
426.48318
 30
0.0
 40
5.038655
 50
201.726458
 51
230.328289
  0
ARC
  8
LC-002-002-----0
  6
CONTINUOUS
  5
191
 10
428.261116
 20
425.075648
 30
0.0
 40
3.207986
 50
230.371973
 51
269.177391
  0
ARC
  8
LC-002-002-----0
  6
CONTINUOUS
  5
192
 10
428.169004
 20
425.075648
 30
0.0
 40
3.207986
 50
270.822609
 51
309.628027
  0
ARC
  8
LC-002-002-----0
  6
CONTINUOUS
  5
193
 10
426.998444
 20
426.48318
 30
0.0
 40
5.038655
 50
309.671711
 51
338.273542
  0
ARC
  8
LC-002-002-----0
  6
CONTINUOUS
  5
194
 10
425.063086
 20
427.334497
 30
0.0
 40
7.152052
 50
337.677361
 51
0.268336
  0
ENDBLK
  8
0
  5
195
  0
BLOCK
  8
0
  5
197
  2
BLK15
 70
    64
 10
0.0
 20
0.0
 30
0.0
  3
BLK15
  0
ARC
  8
LC-002-002-----0
  6
CONTINUOUS
  5
198
 10
432.60986
 20
408.754238
 30
0.0
 40
7.318905
 50
25.290613
 51
49.424115
  0
ARC
  8
LC-002-002-----0
  6
CONTINUOUS
  5
199
 10
432.911367
 20
409.232032
 30
0.0
 40
6.760376
 50
48.731032
 51
74.190826
  0
ARC
  8
LC-002-002-----0
  6
CONTINUOUS
  5
19A
 10
433.528812
 20
411.611806
 30
0.0
 40
4.302747
 50
73.46851
 51
108.014104
  0
ARC
  8
LC-002-002-----0
  6
CONTINUOUS
  5
19B
 10
433.164774
 20
412.89567
 30
0.0
 40
2.969674
 50
108.995088
 51
153.418831
  0
ARC
  8
LC-002-002-----0
  6
CONTINUOUS
  5
19C
 10
434.070694
 20
412.553856
 30
0.0
 40
3.934052
 50
154.870779
 51
191.576925
  0
ARC
  8
LC-002-002-----0
  6
CONTINUOUS
  5
19D
 10
436.492847
 20
412.977224
 30
0.0
 40
6.39229
 50
190.937552
 51
217.37685
  0
ARC
  8
LC-002-002-----0
  6
CONTINUOUS
  5
19E
 10
437.39046
 20
413.547381
 30
0.0
 40
7.45227
 50
216.670891
 51
240.512567
  0
ARC
  8
LC-002-002-----0
  6
CONTINUOUS
  5
19F
 10
436.560414
 20
411.9316
 30
0.0
 40
5.637686
 50
239.772526
 51
268.550704
  0
ARC
  8
LC-002-002-----0
  6
CONTINUOUS
  5
1A0
 10
436.521698
 20
409.699772
 30
0.0
 40
3.405639
 50
268.252179
 51
308.729567
  0
ARC
  8
LC-002-002-----0
  6
CONTINUOUS
  5
1A1
 10
436.602808
 20
409.422796
 30
0.0
 40
3.140749
 50
310.736934
 51
353.501792
  0
ENDBLK
  8
0
  5
1A2
  0
BLOCK
  8
0
  5
1A4
  2
BLK16
 70
    64
 10
0.0
 20
0.0
 30
0.0
  3
BLK16
  0
ARC
  8
LC-002-002-----0
  6
CONTINUOUS
  5
1A5
 10
465.827312
 20
409.422796
 30
0.0
 40
3.140749
 50
186.498208
 51
229.263066
  0
ARC
  8
LC-002-002-----0
  6
CONTINUOUS
  5
1A6
 10
465.908422
 20
409.699772
 30
0.0
 40
3.405639
 50
231.270433
 51
271.747821
  0
ARC
  8
LC-002-002-----0
  6
CONTINUOUS
  5
1A7
 10
465.869706
 20
411.9316
 30
0.0
 40
5.637686
 50
271.449296
 51
300.227474
  0
ARC
  8
LC-002-002-----0
  6
CONTINUOUS
  5
1A8
 10
465.03966
 20
413.547381
 30
0.0
 40
7.45227
 50
299.487433
 51
323.329109
  0
ARC
  8
LC-002-002-----0
  6
CONTINUOUS
  5
1A9
 10
465.937273
 20
412.977224
 30
0.0
 40
6.39229
 50
322.62315
 51
349.062448
  0
ARC
  8
LC-002-002-----0
  6
CONTINUOUS
  5
1AA
 10
468.359426
 20
412.553856
 30
0.0
 40
3.934052
 50
348.423075
 51
25.129221
  0
ARC
  8
LC-002-002-----0
  6
CONTINUOUS
  5
1AB
 10
469.265346
 20
412.89567
 30
0.0
 40
2.969674
 50
26.581169
 51
71.004912
  0
ARC
  8
LC-002-002-----0
  6
CONTINUOUS
  5
1AC
 10
468.901308
 20
411.611806
 30
0.0
 40
4.302747
 50
71.985896
 51
106.53149
  0
ARC
  8
LC-002-002-----0
  6
CONTINUOUS
  5
1AD
 10
469.518753
 20
409.232032
 30
0.0
 40
6.760376
 50
105.809174
 51
131.268968
  0
ARC
  8
LC-002-002-----0
  6
CONTINUOUS
  5
1AE
 10
469.82026
 20
408.754238
 30
0.0
 40
7.318905
 50
130.575885
 51
154.709387
  0
ENDBLK
  8
0
  5
1AF
  0
BLOCK
  8
0
  5
1B1
  2
BLK17
 70
    64
 10
0.0
 20
0.0
 30
0.0
  3
BLK17
  0
ARC
  8
LC-002-002-----0
  6
CONTINUOUS
  5
1B2
 10
471.063086
 20
427.401488
 30
0.0
 40
7.152052
 50
359.731664
 51
22.322639
  0
ARC
  8
LC-002-002-----0
  6
CONTINUOUS
  5
1B3
 10
472.998444
 20
428.252804
 30
0.0
 40
5.038655
 50
21.726458
 51
50.328289
  0
ARC
  8
LC-002-002-----0
  6
CONTINUOUS
  5
1B4
 10
474.169004
 20
429.660337
 30
0.0
 40
3.207986
 50
50.371973
 51
89.177391
  0
ARC
  8
LC-002-002-----0
  6
CONTINUOUS
  5
1B5
 10
474.261116
 20
429.660337
 30
0.0
 40
3.207986
 50
90.822609
 51
129.628027
  0
ARC
  8
LC-002-002-----0
  6
CONTINUOUS
  5
1B6
 10
475.431676
 20
428.252804
 30
0.0
 40
5.038655
 50
129.671711
 51
158.273542
  0
ARC
  8
LC-002-002-----0
  6
CONTINUOUS
  5
1B7
 10
477.367034
 20
427.401488
 30
0.0
 40
7.152052
 50
157.677361
 51
180.268336
  0
ARC
  8
LC-002-002-----0
  6
CONTINUOUS
  5
1B8
 10
477.367034
 20
427.334497
 30
0.0
 40
7.152052
 50
179.731664
 51
202.322639
  0
ARC
  8
LC-002-002-----0
  6
CONTINUOUS
  5
1B9
 10
475.431676
 20
426.48318
 30
0.0
 40
5.038655
 50
201.726458
 51
230.328289
  0
ARC
  8
LC-002-002-----0
  6
CONTINUOUS
  5
1BA
 10
474.261116
 20
425.075648
 30
0.0
 40
3.207986
 50
230.371973
 51
269.177391
  0
ARC
  8
LC-002-002-----0
  6
CONTINUOUS
  5
1BB
 10
474.169004
 20
425.075648
 30
0.0
 40
3.207986
 50
270.822609
 51
309.628027
  0
ARC
  8
LC-002-002-----0
  6
CONTINUOUS
  5
1BC
 10
472.998444
 20
426.48318
 30
0.0
 40
5.038655
 50
309.671711
 51
338.273542
  0
ARC
  8
LC-002-002-----0
  6
CONTINUOUS
  5
1BD
 10
471.063086
 20
427.334497
 30
0.0
 40
7.152052
 50
337.677361
 51
0.268336
  0
ENDBLK
  8
0
  5
1BE
  0
BLOCK
  8
0
  5
1C0
  2
BLK18
 70
    64
 10
0.0
 20
0.0
 30
0.0
  3
BLK18
  0
ARC
  8
LC-002-002-----0
  6
CONTINUOUS
  5
1C1
 10
469.066882
 20
441.977949
 30
0.0
 40
3.207986
 50
315.822609
 51
354.628027
  0
ARC
  8
LC-002-002-----0
  6
CONTINUOUS
  5
1C2
 10
467.243895
 20
442.145514
 30
0.0
 40
5.038655
 50
354.671711
 51
23.273542
  0
ARC
  8
LC-002-002-----0
  6
CONTINUOUS
  5
1C3
 10
465.273419
 20
441.378981
 30
0.0
 40
7.152052
 50
22.677361
 51
45.268336
  0
ARC
  8
LC-002-002-----0
  6
CONTINUOUS
  5
1C4
 10
465.226049
 20
441.426351
 30
0.0
 40
7.152052
 50
44.731664
 51
67.322639
  0
ARC
  8
LC-002-002-----0
  6
CONTINUOUS
  5
1C5
 10
465.992582
 20
443.396827
 30
0.0
 40
5.038655
 50
66.726458
 51
95.328289
  0
ARC
  8
LC-002-002-----0
  6
CONTINUOUS
  5
1C6
 10
465.825017
 20
445.219814
 30
0.0
 40
3.207986
 50
95.371973
 51
134.177391
  0
ARC
  8
LC-002-002-----0
  6
CONTINUOUS
  5
1C7
 10
465.89015
 20
445.284947
 30
0.0
 40
3.207986
 50
135.822609
 51
174.628027
  0
ARC
  8
LC-002-002-----0
  6
CONTINUOUS
  5
1C8
 10
467.713137
 20
445.117382
 30
0.0
 40
5.038655
 50
174.671711
 51
203.273542
  0
ARC
  8
LC-002-002-----0
  6
CONTINUOUS
  5
1C9
 10
469.683613
 20
445.883915
 30
0.0
 40
7.152052
 50
202.677361
 51
225.268336
  0
ARC
  8
LC-002-002-----0
  6
CONTINUOUS
  5
1CA
 10
469.730983
 20
445.836545
 30
0.0
 40
7.152052
 50
224.731664
 51
247.322639
  0
ARC
  8
LC-002-002-----0
  6
CONTINUOUS
  5
1CB
 10
468.96445
 20
443.866069
 30
0.0
 40
5.038655
 50
246.726458
 51
275.328289
  0
ARC
  8
LC-002-002-----0
  6
CONTINUOUS
  5
1CC
 10
469.132015
 20
442.043083
 30
0.0
 40
3.207986
 50
275.371973
 51
314.177391
  0
ENDBLK
  8
0
  5
1CD
  0
BLOCK
  8
0
  5
1CF
  2
BLK19
 70
    64
 10
0.0
 20
0.0
 30
0.0
  3
BLK19
  0
ENDBLK
  8
0
  5
1D0
  0
BLOCK
  8
0
  5
1D2
  2
BLK20
 70
    64
 10
0.0
 20
0.0
 30
0.0
  3
BLK20
  0
ENDBLK
  8
0
  5
1D3
  0
BLOCK
  8
0
  5
1D5
  2
BLK21
 70
    64
 10
0.0
 20
0.0
 30
0.0
  3
BLK21
  0
ENDBLK
  8
0
  5
1D6
  0
BLOCK
  8
0
  5
1D8
  2
BLK22
 70
    64
 10
0.0
 20
0.0
 30
0.0
  3
BLK22
  0
ENDBLK
  8
0
  5
1D9
  0
BLOCK
  8
0
  5
1DB
  2
BLK23
 70
    64
 10
0.0
 20
0.0
 30
0.0
  3
BLK23
  0
ARC
  8
LC-002-002-----0
  6
CONTINUOUS
  5
1DC
 10
374.703203
 20
466.078904
 30
0.0
 40
14.50759
 50
0.0408
 51
19.267939
  0
ARC
  8
LC-002-002-----0
  6
CONTINUOUS
  5
1DD
 10
373.836838
 20
465.759356
 30
0.0
 40
15.43088
 50
19.326458
 51
37.775609
  0
ENDBLK
  8
0
  5
1DE
  0
BLOCK
  8
0
  5
1E0
  2
BLK24
 70
    64
 10
0.0
 20
0.0
 30
0.0
  3
BLK24
  0
ARC
  8
LC-002-002-----0
  6
CONTINUOUS
  5
1E1
 10
368.334101
 20
465.904177
 30
0.0
 40
15.144109
 50
142.076592
 51
170.031531
  0
ARC
  8
LC-002-002-----0
  6
CONTINUOUS
  5
1E2
 10
367.65085
 20
466.087061
 30
0.0
 40
14.439647
 50
170.276942
 51
199.142556
  0
ARC
  8
LC-002-002-----0
  6
CONTINUOUS
  5
1E3
 10
368.893667
 20
466.574762
 30
0.0
 40
15.77376
 50
199.335761
 51
226.534929
  0
ARC
  8
LC-002-002-----0
  6
CONTINUOUS
  5
1E4
 10
370.596364
 20
468.357602
 30
0.0
 40
18.239043
 50
226.505494
 51
251.174254
  0
ENDBLK
  8
0
  5
1E5
  0
BLOCK
  8
0
  5
1E7
  2
BLK25
 70
    64
 10
0.0
 20
0.0
 30
0.0
  3
BLK25
  0
ARC
  8
LC-002-002-----0
  6
CONTINUOUS
  5
1E8
 10
372.030108
 20
467.978395
 30
0.0
 40
17.814148
 50
288.595564
 51
321.959183
  0
ARC
  8
LC-002-002-----0
  6
CONTINUOUS
  5
1E9
 10
374.301635
 20
466.167653
 30
0.0
 40
14.90936
 50
322.060339
 51
359.698641
  0
ENDBLK
  8
0
  5
1EA
  0
BLOCK
  8
0
  5
1EC
  2
BLK26
 70
    64
 10
0.0
 20
0.0
 30
0.0
  3
BLK26
  0
ARC
  8
LC-002-002-----0
  6
CONTINUOUS
  5
1ED
 10
377.37756
 20
473.407022
 30
0.0
 40
8.834087
 50
0.798777
 51
39.42846
  0
ARC
  8
LC-002-002-----0
  6
CONTINUOUS
  5
1EE
 10
373.591074
 20
470.27694
 30
0.0
 40
13.746804
 50
39.482147
 51
68.134473
  0
ARC
  8
LC-002-002-----0
  6
CONTINUOUS
  5
1EF
 10
371.300897
 20
465.101787
 30
0.0
 40
19.403599
 50
67.549671
 51
90.266076
  0
ARC
  8
LC-002-002-----0
  6
CONTINUOUS
  5
1F0
 10
371.120681
 20
465.101787
 30
0.0
 40
19.403599
 50
89.733924
 51
112.450329
  0
ARC
  8
LC-002-002-----0
  6
CONTINUOUS
  5
1F1
 10
368.830504
 20
470.27694
 30
0.0
 40
13.746804
 50
111.865527
 51
140.517853
  0
ARC
  8
LC-002-002-----0
  6
CONTINUOUS
  5
1F2
 10
365.044017
 20
473.407022
 30
0.0
 40
8.834087
 50
140.57154
 51
179.201223
  0
ARC
  8
LC-002-002-----0
  6
CONTINUOUS
  5
1F3
 10
365.044017
 20
473.653331
 30
0.0
 40
8.834087
 50
180.798777
 51
219.42846
  0
ARC
  8
LC-002-002-----0
  6
CONTINUOUS
  5
1F4
 10
368.830504
 20
476.783414
 30
0.0
 40
13.746804
 50
219.482147
 51
248.134473
  0
ARC
  8
LC-002-002-----0
  6
CONTINUOUS
  5
1F5
 10
371.120681
 20
481.958566
 30
0.0
 40
19.403599
 50
247.549671
 51
270.266076
  0
ARC
  8
LC-002-002-----0
  6
CONTINUOUS
  5
1F6
 10
371.300897
 20
481.958566
 30
0.0
 40
19.403599
 50
269.733924
 51
292.450329
  0
ARC
  8
LC-002-002-----0
  6
CONTINUOUS
  5
1F7
 10
373.591074
 20
476.783414
 30
0.0
 40
13.746804
 50
291.865527
 51
320.517853
  0
ARC
  8
LC-002-002-----0
  6
CONTINUOUS
  5
1F8
 10
377.37756
 20
473.653331
 30
0.0
 40
8.834087
 50
320.57154
 51
359.201223
  0
ENDBLK
  8
0
  5
1F9
  0
BLOCK
  8
0
  5
1FB
  2
BLK27
 70
    64
 10
0.0
 20
0.0
 30
0.0
  3
BLK27
  0
ENDBLK
  8
0
  5
1FC
  0
BLOCK
  8
0
  5
1FE
  2
BLK28
 70
    64
 10
0.0
 20
0.0
 30
0.0
  3
BLK28
  0
ENDBLK
  8
0
  5
1FF
  0
BLOCK
  8
0
  5
201
  2
BLK29
 70
    64
 10
0.0
 20
0.0
 30
0.0
  3
BLK29
  0
ENDBLK
  8
0
  5
202
  0
BLOCK
  8
0
  5
204
  2
BLK30
 70
    64
 10
0.0
 20
0.0
 30
0.0
  3
BLK30
  0
ENDBLK
  8
0
  5
205
  0
BLOCK
  8
0
  5
207
  2
BLK31
 70
    64
 10
0.0
 20
0.0
 30
0.0
  3
BLK31
  0
ENDBLK
  8
0
  5
208
  0
BLOCK
  8
0
  5
20A
  2
BLK32
 70
    64
 10
0.0
 20
0.0
 30
0.0
  3
BLK32
  0
ENDBLK
  8
0
  5
20B
  0
BLOCK
  8
0
  5
20D
  2
BLK33
 70
    64
 10
0.0
 20
0.0
 30
0.0
  3
BLK33
  0
ENDBLK
  8
0
  5
20E
  0
BLOCK
  8
0
  5
210
  2
BLK34
 70
    64
 10
0.0
 20
0.0
 30
0.0
  3
BLK34
  0
ENDBLK
  8
0
  5
211
  0
BLOCK
  8
0
  5
213
  2
BLK35
 70
    64
 10
0.0
 20
0.0
 30
0.0
  3
BLK35
  0
ENDBLK
  8
0
  5
214
  0
BLOCK
  8
0
  5
216
  2
BLK36
 70
    64
 10
0.0
 20
0.0
 30
0.0
  3
BLK36
  0
ENDBLK
  8
0
  5
217
  0
BLOCK
  8
0
  5
219
  2
BLK37
 70
    64
 10
0.0
 20
0.0
 30
0.0
  3
BLK37
  0
ENDBLK
  8
0
  5
21A
  0
BLOCK
  8
0
  5
21C
  2
BLK38
 70
    64
 10
0.0
 20
0.0
 30
0.0
  3
BLK38
  0
ENDBLK
  8
0
  5
21D
  0
BLOCK
  8
0
  5
21F
  2
BLK39
 70
    64
 10
0.0
 20
0.0
 30
0.0
  3
BLK39
  0
ENDBLK
  8
0
  5
220
  0
BLOCK
  8
0
  5
222
  2
BLK40
 70
    64
 10
0.0
 20
0.0
 30
0.0
  3
BLK40
  0
ENDBLK
  8
0
  5
223
  0
BLOCK
  8
0
  5
225
  2
BLK41
 70
    64
 10
0.0
 20
0.0
 30
0.0
  3
BLK41
  0
ENDBLK
  8
0
  5
226
  0
BLOCK
  8
0
  5
228
  2
BLK42
 70
    64
 10
0.0
 20
0.0
 30
0.0
  3
BLK42
  0
ENDBLK
  8
0
  5
229
  0
BLOCK
  8
0
  5
22B
  2
BLK43
 70
    64
 10
0.0
 20
0.0
 30
0.0
  3
BLK43
  0
ENDBLK
  8
0
  5
22C
  0
BLOCK
  8
0
  5
22E
  2
BLK44
 70
    64
 10
0.0
 20
0.0
 30
0.0
  3
BLK44
  0
ENDBLK
  8
0
  5
22F
  0
BLOCK
  8
0
  5
231
  2
BLK45
 70
    64
 10
0.0
 20
0.0
 30
0.0
  3
BLK45
  0
ENDBLK
  8
0
  5
232
  0
BLOCK
  8
0
  5
234
  2
BLK46
 70
    64
 10
0.0
 20
0.0
 30
0.0
  3
BLK46
  0
ENDBLK
  8
0
  5
235
  0
BLOCK
  8
0
  5
237
  2
BLK47
 70
    64
 10
0.0
 20
0.0
 30
0.0
  3
BLK47
  0
ENDBLK
  8
0
  5
238
  0
ENDSEC
  0
SECTION
  2
ENTITIES
  0
VIEWPORT
  8
LC-000
  5
614
 67
     1
 68
     1
 10
594.0
 20
420.0
 30
0.0
 40
1188.0
 41
840.0
 69
     1
1001
ACAD
1000
MVIEW
1002
{
1070
    16
1010
0.0
1020
0.0
1030
0.0
1010
0.0
1020
0.0
1030
1.0
1040
0.0
1040
840.0
1040
594.0
1040
420.0
1040
50.0
1040
0.0
1040
0.0
1070
     0
1070
   100
1070
     1
1070
     1
1070
     0
1070
     0
1070
     0
1070
     0
1040
0.0
1040
0.0
1040
0.0
1040
1.0
1040
1.0
1040
0.0
1040
0.0
1070
     0
1002
{
1002
}
1002
}
  0
VIEWPORT
  8
0
  5
615
 67
     1
 68
     1
 10
0.0
 20
0.0
 30
0.0
 40
0.0
 41
0.0
 69
     1
1001
ACAD
1000
MVIEW
1002
{
1070
    16
1010
0.0
1020
0.0
1030
0.0
1010
0.0
1020
0.0
1030
1.0
1040
0.0
1040
840.0
1040
0.0
1040
0.0
1040
50.0
1040
0.0
1040
0.0
1070
     0
1070
   100
1070
     0
1070
     1
1070
     0
1070
     0
1070
     0
1070
     0
1040
0.0
1040
0.0
1040
0.0
1040
0.5
1040
0.5
1040
0.5
1040
0.5
1070
     0
1002
{
1002
}
1002
}
  0
DIMENSION
  8
0
  5
239
  2
*D0
 10
456.85637
 20
576.0
 30
0.0
 11
456.85637
 21
576.0
 31
0.0
 13
321.210789
 23
469.867992
 33
0.0
 14
601.210789
 24
469.867992
 34
0.0
  3
LC-DIM-L-0090-02-02
  0
INSERT
  8
0
  5
23B
  2
BLK1
 10
0.0
 20
0.0
 30
0.0
  0
INSERT
  8
0
  5
23C
  2
BLK2
 10
0.0
 20
0.0
 30
0.0
  0
INSERT
  8
0
  5
23D
  2
BLK3
 10
0.0
 20
0.0
 30
0.0
  0
INSERT
  8
0
  5
23E
  2
BLK4
 10
0.0
 20
0.0
 30
0.0
  0
INSERT
  8
0
  5
23F
  2
BLK5
 10
0.0
 20
0.0
 30
0.0
  0
INSERT
  8
0
  5
241
  2
BLK6
 10
0.0
 20
0.0
 30
0.0
  0
INSERT
  8
0
  5
242
  2
BLK7
 10
0.0
 20
0.0
 30
0.0
  0
INSERT
  8
0
  5
243
  2
BLK8
 10
0.0
 20
0.0
 30
0.0
  0
INSERT
  8
0
  5
244
  2
BLK9
 10
0.0
 20
0.0
 30
0.0
  0
INSERT
  8
0
  5
245
  2
BLK10
 10
0.0
 20
0.0
 30
0.0
  0
INSERT
  8
0
  5
246
  2
BLK11
 10
0.0
 20
0.0
 30
0.0
  0
DIMENSION
  8
0
  5
247
  2
*D12
 10
411.210789
 20
504.0
 30
0.0
 11
411.210789
 21
504.0
 31
0.0
 13
371.210789
 23
484.505177
 33
0.0
 14
451.210789
 24
484.867992
 34
0.0
  3
LC-DIM-L-0090-02-02
  0
DIMENSION
  8
0
  5
248
  2
*D13
 10
501.210789
 20
504.0
 30
0.0
 11
501.210789
 21
504.0
 31
0.0
 13
451.210789
 23
504.0
 33
0.0
 14
551.210789
 24
462.610164
 34
0.0
  3
LC-DIM-L-0090-02-02
  0
DIMENSION
  8
0
  5
249
  2
*D14
 10
375.81912
 20
540.0
 30
0.0
 11
375.81912
 21
540.0
 31
0.0
 13
321.210789
 23
469.867992
 33
0.0
 14
451.210789
 24
484.867992
 34
0.0
  3
LC-DIM-L-0090-02-02
  0
DIMENSION
  8
0
  5
24A
  2
*D15
 10
17.631826
 20
308.0
 30
0.0
 11
17.631826
 21
308.0
 31
0.0
  1
73-120
 13
70.329174
 23
377.209984
 33
0.0
 14
167.170183
 24
375.924021
 34
0.0
  3
LC-DIM-L-0090-02-02
  0
DIMENSION
  8
0
  5
24B
  2
*D16
 10
212.24393
 20
216.0
 30
0.0
 11
212.24393
 21
216.0
 31
0.0
  1
DN40
 13
109.670183
 23
290.53454
 33
0.0
 14
149.670183
 24
290.709984
 34
0.0
  3
LC-DIM-L-0090-02-02
  0
DIMENSION
  8
0
  5
24C
  2
*D17
 10
189.733582
 20
180.0
 30
0.0
 11
189.733582
 21
180.0
 31
0.0
  1
DN50
 13
104.670183
 23
237.709984
 33
0.0
 14
154.670183
 24
237.709984
 34
0.0
  3
LC-DIM-L-0090-02-02
  0
DIMENSION
  8
0
  5
24D
  2
*D18
 10
294.0
 20
330.867992
 30
0.0
 11
294.0
 21
330.867992
 31
0.0
 13
232.070789
 23
427.367992
 33
0.0
 14
427.148611
 24
234.367992
 34
0.0
 50
90.0
  3
LC-DIM-L-0090-02-02
  0
DIMENSION
  8
0
  5
24E
  2
*D19
 10
648.0
 20
338.826
 30
0.0
 11
648.0
 21
338.826
 31
0.0
 13
598.710789
 23
377.367992
 33
0.0
 14
598.710789
 24
477.367992
 34
0.0
 50
90.0
  3
LC-DIM-L-0090-02-02
  0
DIMENSION
  8
0
  5
24F
  2
*D20
 10
38.828098
 20
490.0
 30
0.0
 11
38.828098
 21
490.0
 31
0.0
  1
55
 13
12.327022
 23
426.211265
 33
0.0
 14
65.329174
 24
470.967344
 34
0.0
  3
LC-DIM-L-0090-02-02
  0
INSERT
  8
0
  5
250
  2
BLK12
 10
0.0
 20
0.0
 30
0.0
  0
INSERT
  8
0
  5
251
  2
BLK13
 10
0.0
 20
0.0
 30
0.0
  0
INSERT
  8
0
  5
252
  2
BLK14
 10
0.0
 20
0.0
 30
0.0
  0
INSERT
  8
0
  5
253
  2
BLK15
 10
0.0
 20
0.0
 30
0.0
  0
INSERT
  8
0
  5
254
  2
BLK16
 10
0.0
 20
0.0
 30
0.0
  0
INSERT
  8
0
  5
255
  2
BLK17
 10
0.0
 20
0.0
 30
0.0
  0
INSERT
  8
0
  5
256
  2
BLK18
 10
0.0
 20
0.0
 30
0.0
  0
INSERT
  8
0
  5
257
  2
BLK19
 10
0.0
 20
0.0
 30
0.0
  0
INSERT
  8
0
  5
258
  2
BLK20
 10
0.0
 20
0.0
 30
0.0
  0
INSERT
  8
0
  5
259
  2
BLK21
 10
0.0
 20
0.0
 30
0.0
  0
INSERT
  8
0
  5
25A
  2
BLK22
 10
0.0
 20
0.0
 30
0.0
  0
INSERT
  8
0
  5
25B
  2
BLK23
 10
0.0
 20
0.0
 30
0.0
  0
INSERT
  8
0
  5
25C
  2
BLK24
 10
0.0
 20
0.0
 30
0.0
  0
INSERT
  8
0
  5
25D
  2
BLK25
 10
0.0
 20
0.0
 30
0.0
  0
INSERT
  8
0
  5
25E
  2
BLK26
 10
0.0
 20
0.0
 30
0.0
  0
INSERT
  8
0
  5
25F
  2
BLK27
 10
0.0
 20
0.0
 30
0.0
  0
INSERT
  8
0
  5
260
  2
BLK28
 10
0.0
 20
0.0
 30
0.0
  0
INSERT
  8
0
  5
261
  2
BLK29
 10
0.0
 20
0.0
 30
0.0
  0
INSERT
  8
0
  5
262
  2
BLK30
 10
0.0
 20
0.0
 30
0.0
  0
INSERT
  8
0
  5
263
  2
BLK31
 10
0.0
 20
0.0
 30
0.0
  0
INSERT
  8
0
  5
264
  2
BLK32
 10
0.0
 20
0.0
 30
0.0
  0
INSERT
  8
0
  5
265
  2
BLK33
 10
0.0
 20
0.0
 30
0.0
  0
INSERT
  8
0
  5
266
  2
BLK34
 10
0.0
 20
0.0
 30
0.0
  0
INSERT
  8
0
  5
267
  2
BLK35
 10
0.0
 20
0.0
 30
0.0
  0
INSERT
  8
0
  5
268
  2
BLK36
 10
0.0
 20
0.0
 30
0.0
  0
INSERT
  8
0
  5
269
  2
BLK37
 10
0.0
 20
0.0
 30
0.0
  0
INSERT
  8
0
  5
26A
  2
BLK38
 10
0.0
 20
0.0
 30
0.0
  0
INSERT
  8
0
  5
26B
  2
BLK39
 10
0.0
 20
0.0
 30
0.0
  0
INSERT
  8
0
  5
26C
  2
BLK40
 10
0.0
 20
0.0
 30
0.0
  0
INSERT
  8
0
  5
26D
  2
BLK41
 10
0.0
 20
0.0
 30
0.0
  0
INSERT
  8
0
  5
26E
  2
BLK42
 10
0.0
 20
0.0
 30
0.0
  0
INSERT
  8
0
  5
26F
  2
BLK43
 10
0.0
 20
0.0
 30
0.0
  0
INSERT
  8
0
  5
270
  2
BLK44
 10
0.0
 20
0.0
 30
0.0
  0
INSERT
  8
0
  5
271
  2
BLK45
 10
0.0
 20
0.0
 30
0.0
  0
INSERT
  8
0
  5
272
  2
BLK46
 10
0.0
 20
0.0
 30
0.0
  0
INSERT
  8
0
  5
273
  2
BLK47
 10
0.0
 20
0.0
 30
0.0
  0
ARC
  8
LC-001-002-RND-0
  6
CONTINUOUS
  5
275
 10
430.210789
 20
284.367992
 30
0.0
 40
4.0
 50
90.0
 51
180.0
  0
LINE
  8
LC-002-002-----0
  6
CONTINUOUS
  5
276
 10
583.710789
 20
467.367992
 30
0.0
 11
518.710789
 21
467.367992
 31
0.0
  0
LINE
  8
LC-002-002-----0
  6
DASHDOT
 62
     2
  5
278
 10
404.210789
 20
432.367992
 30
0.0
 11
404.210789
 21
422.367992
 31
0.0
  0
LINE
  8
LC-002-002-----0
  6
CONTINUOUS
  5
279
 10
525.460789
 20
456.117992
 30
0.0
 11
576.960789
 21
456.117992
 31
0.0
  0
LINE
  8
LC-002-002-----0
  6
CONTINUOUS
  5
27A
 10
525.460789
 20
398.617992
 30
0.0
 11
576.960789
 21
398.617992
 31
0.0
  0
LINE
  8
LC-002-002-----0
  6
CONTINUOUS
  5
27B
 10
422.229267
 20
339.367992
 30
0.0
 11
477.874356
 21
339.367992
 31
0.0
  0
LINE
  8
LC-002-002-----0
  6
CONTINUOUS
  5
27C
 10
-179.974716
 20
427.209984
 30
0.0
 11
-179.974716
 21
452.209984
 31
0.0
  0
LINE
  8
LC-002-002-----0
  6
DASHDOT
 62
     2
  5
27D
 10
498.210789
 20
432.367992
 30
0.0
 11
498.210789
 21
422.367992
 31
0.0
  0
ARC
  8
LC-001-002-RND-0
  6
CONTINUOUS
  5
27E
 10
472.210789
 20
284.367992
 30
0.0
 40
4.0
 50
360.0
 51
90.0
  0
LINE
  8
LC-002-002-----0
  6
DASHDOT
 62
     2
  5
27F
 10
492.436867
 20
393.365193
 30
0.0
 11
492.436867
 21
383.365193
 31
0.0
  0
LINE
  8
LC-002-002-----0
  6
CONTINUOUS
  5
280
 10
471.210789
 20
339.367992
 30
0.0
 11
471.210789
 21
288.367992
 31
0.0
  0
LINE
  8
LC-002-002-----0
  6
CONTINUOUS
  5
281
 10
90.329174
 20
410.709984
 30
0.0
 11
90.329174
 21
443.709984
 31
0.0
  0
LINE
  8
LC-002-002-----0
  6
DASHDOT
 62
     2
  5
282
 10
489.836867
 20
388.365193
 30
0.0
 11
497.436867
 21
388.365193
 31
0.0
  0
LINE
  8
LC-002-002-----0
  6
DASHDOT
 62
     2
  5
283
 10
401.436867
 20
387.865193
 30
0.0
 11
410.788708
 21
387.865193
 31
0.0
  0
LINE
  8
LC-002-002-----0
  6
DASHDOT
 62
     2
  5
284
 10
406.436867
 20
392.865193
 30
0.0
 11
406.436867
 21
382.865193
 31
0.0
  0
LINE
  8
LC-002-002-----0
  6
DASHDOT
 62
     2
  5
285
 10
351.21506
 20
430.367992
 30
0.0
 11
351.21506
 21
424.367992
 31
0.0
  0
LINE
  8
LC-002-002-----0
  6
DASHDOT
 62
     2
  5
286
 10
391.21506
 20
430.367992
 30
0.0
 11
391.21506
 21
424.367992
 31
0.0
  0
LINE
  8
LC-002-002-----0
  6
CONTINUOUS
  5
287
 10
151.170183
 20
429.309984
 30
0.0
 11
151.170183
 21
447.209984
 31
0.0
  0
LINE
  8
LC-002-002-----0
  6
CONTINUOUS
  5
288
 10
152.670183
 20
429.309984
 30
0.0
 11
152.670183
 21
447.209984
 31
0.0
  0
LINE
  8
LC-002-002-----0
  6
DASHDOT
 62
     2
  5
289
 10
451.210789
 20
288.367992
 30
0.0
 11
451.210789
 21
231.81099
 31
0.0
  0
LINE
  8
LC-002-002-----0
  6
CONTINUOUS
  5
28A
 10
154.170183
 20
429.309984
 30
0.0
 11
154.170183
 21
447.209984
 31
0.0
  0
ARC
  8
LC-002-002-----0
  6
DASHED
 62
     2
  5
28C
 10
371.210789
 20
439.867992
 30
0.0
 40
6.0
 50
89.033562
 51
90.966438
  0
LINE
  8
LC-002-002-----0
  6
CONTINUOUS
  5
28D
 10
169.170183
 20
420.209984
 30
0.0
 11
168.670183
 21
420.209984
 31
0.0
  0
ARC
  8
LC-002-002-----0
  6
CONTINUOUS
  5
28E
 10
160.045183
 20
414.709984
 30
0.0
 40
10.625
 50
334.942385
 51
25.057615
  0
ARC
  8
LC-001-002-RND-0
  6
CONTINUOUS
  5
28F
 10
168.670183
 20
419.709984
 30
0.0
 40
0.5
 50
90.0
 51
180.0
  0
ARC
  8
LC-001-002-RND-0
  6
CONTINUOUS
  5
290
 10
169.170183
 20
419.709984
 30
0.0
 40
0.5
 50
0.0
 51
90.0
  0
LINE
  8
LC-002-002-----0
  6
CONTINUOUS
  5
291
 10
169.670183
 20
409.709984
 30
0.0
 11
169.670183
 21
419.709984
 31
0.0
  0
ARC
  8
LC-001-002-RND-0
  6
CONTINUOUS
  5
292
 10
169.170183
 20
409.709984
 30
0.0
 40
0.5
 50
270.0
 51
0.0
  0
LINE
  8
LC-002-002-----0
  6
CONTINUOUS
  5
293
 10
169.170183
 20
409.209984
 30
0.0
 11
168.670183
 21
409.209984
 31
0.0
  0
ARC
  8
LC-001-002-RND-0
  6
CONTINUOUS
  5
294
 10
168.670183
 20
409.709984
 30
0.0
 40
0.5
 50
180.0
 51
270.0
  0
LINE
  8
LC-002-002-----0
  6
CONTINUOUS
  5
295
 10
-177.474716
 20
454.709984
 30
0.0
 11
-175.974716
 21
454.709984
 31
0.0
  0
LINE
  8
LC-002-002-----0
  6
CONTINUOUS
  5
296
 10
-185.974716
 20
427.209984
 30
0.0
 11
-185.974716
 21
449.709984
 31
0.0
  0
LINE
  8
LC-002-002-----0
  6
CONTINUOUS
  5
297
 10
-183.474716
 20
452.209984
 30
0.0
 11
-179.974716
 21
452.209984
 31
0.0
  0
LINE
  8
LC-002-002-----0
  6
CONTINUOUS
  5
298
 10
-49.969817
 20
420.209984
 30
0.0
 11
-50.469817
 21
420.209984
 31
0.0
  0
ARC
  8
LC-002-002-----0
  6
CONTINUOUS
  5
299
 10
-59.094817
 20
414.709984
 30
0.0
 40
10.625
 50
334.942385
 51
25.057615
  0
ARC
  8
LC-001-002-RND-0
  6
CONTINUOUS
  5
29A
 10
-50.469817
 20
419.709984
 30
0.0
 40
0.5
 50
90.0
 51
180.0
  0
ARC
  8
LC-001-002-RND-0
  6
CONTINUOUS
  5
29B
 10
-49.969817
 20
419.709984
 30
0.0
 40
0.5
 50
0.0
 51
90.0
  0
LINE
  8
LC-002-002-----0
  6
CONTINUOUS
  5
29C
 10
-49.469817
 20
409.709984
 30
0.0
 11
-49.469817
 21
419.709984
 31
0.0
  0
ARC
  8
LC-001-002-RND-0
  6
CONTINUOUS
  5
29D
 10
-49.969817
 20
409.709984
 30
0.0
 40
0.5
 50
270.0
 51
0.0
  0
ARC
  8
LC-002-002-----0
  6
DASHED
 62
     2
  5
29E
 10
451.210789
 20
427.367992
 30
0.0
 40
57.5
 50
209.712765
 51
330.408154
  0
ARC
  8
LC-002-002-----0
  6
CONTINUOUS
  5
29F
 10
451.210789
 20
427.367992
 30
0.0
 40
57.5
 50
331.317262
 51
29.591846
  0
LINE
  8
LC-002-002-----0
  6
CONTINUOUS
  5
2A0
 10
323.710789
 20
477.367992
 30
0.0
 11
357.15779
 21
477.367992
 31
0.0
  0
LINE
  8
LC-002-002-----0
  6
CONTINUOUS
  5
2A1
 10
-49.969817
 20
409.209984
 30
0.0
 11
-50.469817
 21
409.209984
 31
0.0
  0
LINE
  8
LC-002-002-----0
  6
CONTINUOUS
  5
2A2
 10
791.550802
 20
477.873279
 30
0.0
 11
791.550802
 21
376.862705
 31
0.0
  0
LINE
  8
LC-002-002-----0
  6
CONTINUOUS
  5
2A3
 10
791.550802
 20
477.873279
 30
0.0
 11
795.678834
 21
473.758682
 31
0.0
  0
LINE
  8
LC-002-002-----0
  6
CONTINUOUS
  5
2A4
 10
693.721169
 20
420.367992
 30
0.0
 11
694.221169
 21
420.367992
 31
0.0
  0
ARC
  8
LC-002-002-----0
  6
CONTINUOUS
  5
2A5
 10
702.846169
 20
414.867992
 30
0.0
 40
10.625
 50
154.942385
 51
205.057615
  0
ARC
  8
LC-001-002-RND-0
  6
CONTINUOUS
  5
2A6
 10
694.221169
 20
419.867992
 30
0.0
 40
0.5
 50
0.0
 51
90.0
  0
ARC
  8
LC-001-002-RND-0
  6
CONTINUOUS
  5
2A7
 10
693.721169
 20
419.867992
 30
0.0
 40
0.5
 50
90.0
 51
180.0
  0
LINE
  8
LC-002-002-----0
  6
CONTINUOUS
  5
2A8
 10
693.221169
 20
409.867992
 30
0.0
 11
693.221169
 21
419.867992
 31
0.0
  0
ARC
  8
LC-001-002-RND-0
  6
CONTINUOUS
  5
2A9
 10
693.721169
 20
409.867992
 30
0.0
 40
0.5
 50
180.0
 51
270.0
  0
LINE
  8
LC-002-002-----0
  6
CONTINUOUS
  5
2AA
 10
693.721169
 20
409.367992
 30
0.0
 11
694.221169
 21
409.367992
 31
0.0
  0
ARC
  8
LC-001-002-RND-0
  6
CONTINUOUS
  5
2AB
 10
-50.469817
 20
409.709984
 30
0.0
 40
0.5
 50
180.0
 51
270.0
  0
LINE
  8
LC-002-002-----0
  6
CONTINUOUS
  5
2AC
 10
-53.969817
 20
484.709984
 30
0.0
 11
-53.969817
 21
475.613998
 31
0.0
  0
LINE
  8
LC-002-002-----0
  6
CONTINUOUS
  5
2AD
 10
-62.969817
 20
483.709984
 30
0.0
 11
-62.969817
 21
464.209984
 31
0.0
  0
ARC
  8
LC-001-002-RND-0
  6
CONTINUOUS
  5
2AE
 10
694.221169
 20
409.867992
 30
0.0
 40
0.5
 50
270.0
 51
0.0
  0
ARC
  8
LC-001-002-RND-0
  6
CONTINUOUS
  5
2AF
 10
889.135012
 20
464.332302
 30
0.0
 40
2.5
 50
315.0
 51
45.0
  0
LINE
  8
LC-002-002-----0
  6
DASHED
 62
     2
  5
2B0
 10
769.721169
 20
437.855513
 30
0.0
 11
769.721169
 21
416.895513
 31
0.0
  0
LINE
  8
LC-002-002-----0
  6
CONTINUOUS
  5
2B1
 10
809.221169
 20
439.867992
 30
0.0
 11
808.221169
 21
440.867992
 31
0.0
  0
LINE
  8
LC-002-002-----0
  6
CONTINUOUS
  5
2B2
 10
697.721169
 20
484.867992
 30
0.0
 11
697.721169
 21
475.772006
 31
0.0
  0
LINE
  8
LC-002-002-----0
  6
CONTINUOUS
  5
2B3
 10
706.721169
 20
483.867992
 30
0.0
 11
706.721169
 21
370.867992
 31
0.0
  0
LINE
  8
LC-002-002-----0
  6
CONTINUOUS
  5
2B4
 10
695.721169
 20
478.653955
 30
0.0
 11
695.721169
 21
453.367992
 31
0.0
  0
LINE
  8
LC-002-002-----0
  6
CONTINUOUS
  5
2B5
 10
705.721169
 20
285.867992
 30
0.0
 11
708.513069
 21
285.867992
 31
0.0
  0
LINE
  8
LC-002-002-----0
  6
CONTINUOUS
  5
2B6
 10
705.721169
 20
288.367992
 30
0.0
 11
705.721169
 21
285.867992
 31
0.0
  0
LINE
  8
LC-002-002-----0
  6
CONTINUOUS
  5
2B7
 10
757.929268
 20
285.867992
 30
0.0
 11
760.721169
 21
285.867992
 31
0.0
  0
LINE
  8
LC-002-002-----0
  6
CONTINUOUS
  5
2B8
 10
760.721169
 20
288.367992
 30
0.0
 11
760.721169
 21
285.867992
 31
0.0
  0
LINE
  8
LC-002-002-----0
  6
CONTINUOUS
  5
2B9
 10
753.221169
 20
290.692548
 30
0.0
 11
753.221169
 21
341.367992
 31
0.0
  0
ARC
  8
LC-001-002-RND-0
  6
CONTINUOUS
  5
2BA
 10
752.221169
 20
343.867992
 30
0.0
 40
2.5
 50
270.0
 51
0.0
  0
LINE
  8
LC-002-002-----0
  6
CONTINUOUS
  5
2BB
 10
756.200443
 20
234.367992
 30
0.0
 11
710.241895
 21
234.367992
 31
0.0
  0
ARC
  8
LC-001-002-RND-0
  6
CONTINUOUS
  5
2BC
 10
710.721169
 20
290.867992
 30
0.0
 40
2.5
 50
270.0
 51
0.0
  0
ARC
  8
LC-001-002-RND-0
  6
CONTINUOUS
  5
2BD
 10
755.721169
 20
290.692548
 30
0.0
 40
2.5
 50
180.0
 51
256.657636
  0
LINE
  8
LC-002-002-----0
  6
CONTINUOUS
  5
2BE
 10
708.221169
 20
237.867992
 30
0.0
 11
708.221169
 21
284.367992
 31
0.0
  0
LINE
  8
LC-002-002-----0
  6
CONTINUOUS
  5
2BF
 10
712.221169
 20
288.367992
 30
0.0
 11
760.721169
 21
288.367992
 31
0.0
  0
LINE
  8
LC-002-002-----0
  6
CONTINUOUS
  5
2C0
 10
809.221169
 20
414.867992
 30
0.0
 11
808.221169
 21
413.867992
 31
0.0
  0
LINE
  8
LC-002-002-----0
  6
CONTINUOUS
  5
2C1
 10
808.221169
 20
440.867992
 30
0.0
 11
808.221169
 21
413.867992
 31
0.0
  0
LINE
  8
LC-002-002-----0
  6
CONTINUOUS
  5
2C2
 10
808.221169
 20
437.87735
 30
0.0
 11
808.221169
 21
416.87735
 31
0.0
  0
ARC
  8
LC-001-002-RND-0
  6
CONTINUOUS
  5
2C3
 10
752.221169
 20
366.367992
 30
0.0
 40
2.5
 50
0.0
 51
10.917885
  0
LINE
  8
LC-002-002-----0
  6
CONTINUOUS
  5
2C4
 10
754.675918
 20
366.841497
 30
0.0
 11
745.604817
 21
413.867992
 31
0.0
  0
ARC
  8
LC-001-002-RND-0
  6
CONTINUOUS
  5
2C5
 10
733.221169
 20
464.867992
 30
0.0
 40
2.5
 50
10.917885
 51
90.0
  0
LINE
  8
LC-002-002-----0
  6
CONTINUOUS
  5
2C6
 10
165.170183
 20
484.709984
 30
0.0
 11
165.170183
 21
475.613998
 31
0.0
  0
LINE
  8
LC-002-002-----0
  6
CONTINUOUS
  5
2C7
 10
156.170183
 20
483.709984
 30
0.0
 11
156.170183
 21
370.709984
 31
0.0
  0
LINE
  8
LC-002-002-----0
  6
CONTINUOUS
  5
2C8
 10
737.792634
 20
454.367992
 30
0.0
 11
735.675918
 21
465.341497
 31
0.0
  0
ARC
  8
LC-002-002-----0
  6
CONTINUOUS
  5
2C9
 10
793.560975
 20
471.633907
 30
0.0
 40
3.0
 50
0.093394
 51
45.093394
  0
LINE
  8
LC-002-002-----0
  6
CONTINUOUS
  5
2CA
 10
167.170183
 20
478.495947
 30
0.0
 11
167.170183
 21
453.209984
 31
0.0
  0
ARC
  8
LC-002-002-----0
  6
CONTINUOUS
  5
2CB
 10
793.560975
 20
383.102078
 30
0.0
 40
3.0
 50
314.906606
 51
359.906606
  0
LINE
  8
LC-002-002-----0
  6
DASHED
 62
     2
  5
2CC
 10
727.721169
 20
390.465193
 30
0.0
 11
714.621169
 21
390.465193
 31
0.0
  0
LINE
  8
LC-002-002-----0
  6
DASHED
 62
     2
  5
2CD
 10
727.721169
 20
385.265193
 30
0.0
 11
714.621169
 21
385.265193
 31
0.0
  0
LINE
  8
LC-002-002-----0
  6
CONTINUOUS
  5
2CE
 10
727.721169
 20
447.367992
 30
0.0
 11
727.721169
 21
449.867992
 31
0.0
  0
LINE
  8
LC-002-002-----0
  6
CONTINUOUS
  5
2CF
 10
791.550802
 20
376.862705
 30
0.0
 11
795.678834
 21
380.977302
 31
0.0
  0
LINE
  8
LC-002-002-----0
  6
DASHDOT
 62
     2
  5
2D0
 10
847.221169
 20
440.096127
 30
0.0
 11
847.221169
 21
378.12735
 31
0.0
  0
LINE
  8
LC-002-002-----0
  6
CONTINUOUS
  5
2D1
 10
834.221169
 20
410.62735
 30
0.0
 11
860.221169
 21
410.62735
 31
0.0
  0
LINE
  8
LC-002-002-----0
  6
CONTINUOUS
  5
2D2
 10
862.721169
 20
393.62735
 30
0.0
 11
831.721169
 21
393.62735
 31
0.0
  0
LINE
  8
LC-002-002-----0
  6
CONTINUOUS
  5
2D3
 10
831.721169
 20
393.62735
 30
0.0
 11
831.721169
 21
408.12735
 31
0.0
  0
LINE
  8
LC-002-002-----0
  6
CONTINUOUS
  5
2D4
 10
862.721169
 20
408.12735
 30
0.0
 11
862.721169
 21
393.62735
 31
0.0
  0
LINE
  8
LC-002-002-----0
  6
CONTINUOUS
  5
2D5
 10
834.221169
 20
410.62735
 30
0.0
 11
831.721169
 21
408.12735
 31
0.0
  0
LINE
  8
LC-002-002-----0
  6
CONTINUOUS
  5
2D6
 10
860.221169
 20
410.62735
 30
0.0
 11
862.721169
 21
408.12735
 31
0.0
  0
LINE
  8
LC-002-002-----0
  6
CONTINUOUS
  5
2D7
 10
831.721169
 20
408.12735
 30
0.0
 11
862.721169
 21
408.12735
 31
0.0
  0
LINE
  8
LC-002-002-----0
  6
CONTINUOUS
  5
2D8
 10
859.471169
 20
393.62735
 30
0.0
 11
859.471169
 21
391.12735
 31
0.0
  0
LINE
  8
LC-002-002-----0
  6
CONTINUOUS
  5
2D9
 10
157.170183
 20
285.709984
 30
0.0
 11
154.378282
 21
285.709984
 31
0.0
  0
LINE
  8
LC-002-002-----0
  6
CONTINUOUS
  5
2DA
 10
157.170183
 20
288.209984
 30
0.0
 11
157.170183
 21
285.709984
 31
0.0
  0
LINE
  8
LC-002-002-----0
  6
CONTINUOUS
  5
2DB
 10
104.962084
 20
285.709984
 30
0.0
 11
102.170183
 21
285.709984
 31
0.0
  0
LINE
  8
LC-002-002-----0
  6
CONTINUOUS
  5
2DC
 10
102.170183
 20
288.209984
 30
0.0
 11
102.170183
 21
285.709984
 31
0.0
  0
LINE
  8
LC-002-002-----0
  6
CONTINUOUS
  5
2DD
 10
714.621169
 20
447.367992
 30
0.0
 11
727.721169
 21
447.367992
 31
0.0
  0
LINE
  8
LC-002-002-----0
  6
CONTINUOUS
  5
2DE
 10
109.670183
 20
290.53454
 30
0.0
 11
109.670183
 21
341.209984
 31
0.0
  0
ARC
  8
LC-001-002-RND-0
  6
CONTINUOUS
  5
2DF
 10
110.670183
 20
343.709984
 30
0.0
 40
2.5
 50
180.0
 51
270.0
  0
LINE
  8
LC-002-002-----0
  6
CONTINUOUS
  5
2E0
 10
859.471169
 20
391.12735
 30
0.0
 11
834.971169
 21
391.12735
 31
0.0
  0
LINE
  8
LC-002-002-----0
  6
CONTINUOUS
  5
2E1
 10
106.690909
 20
234.209984
 30
0.0
 11
152.649457
 21
234.209984
 31
0.0
  0
ARC
  8
LC-001-002-RND-0
  6
CONTINUOUS
  5
2E2
 10
152.170183
 20
290.709984
 30
0.0
 40
2.5
 50
180.0
 51
270.0
  0
ARC
  8
LC-001-002-RND-0
  6
CONTINUOUS
  5
2E3
 10
107.170183
 20
290.53454
 30
0.0
 40
2.5
 50
283.342364
 51
0.0
  0
LINE
  8
LC-002-002-----0
  6
CONTINUOUS
  5
2E4
 10
154.670183
 20
237.709984
 30
0.0
 11
154.670183
 21
284.209984
 31
0.0
  0
LINE
  8
LC-002-002-----0
  6
CONTINUOUS
  5
2E5
 10
150.670183
 20
288.209984
 30
0.0
 11
102.170183
 21
288.209984
 31
0.0
  0
LINE
  8
LC-002-002-----0
  6
CONTINUOUS
  5
2E6
 10
148.170183
 20
422.209984
 30
0.0
 11
148.170183
 21
432.209984
 31
0.0
  0
LINE
  8
LC-002-002-----0
  6
CONTINUOUS
  5
2E7
 10
834.971169
 20
391.12735
 30
0.0
 11
834.971169
 21
393.62735
 31
0.0
  0
LINE
  8
LC-002-002-----0
  6
CONTINUOUS
  5
2E8
 10
123.073337
 20
443.709984
 30
0.0
 11
116.129174
 21
443.709984
 31
0.0
  0
LINE
  8
LC-002-002-----0
  6
CONTINUOUS
  5
2E9
 10
860.721169
 20
391.12735
 30
0.0
 11
860.721169
 21
386.12735
 31
0.0
  0
LINE
  8
LC-002-002-----0
  6
CONTINUOUS
  5
2EA
 10
135.170183
 20
422.209984
 30
0.0
 11
135.170183
 21
432.209984
 31
0.0
  0
LINE
  8
LC-002-002-----0
  6
CONTINUOUS
  5
2EB
 10
860.721169
 20
386.12735
 30
0.0
 11
833.721169
 21
386.12735
 31
0.0
  0
LINE
  8
LC-002-002-----0
  6
CONTINUOUS
  5
2EC
 10
833.721169
 20
386.12735
 30
0.0
 11
833.721169
 21
391.12735
 31
0.0
  0
LINE
  8
LC-002-002-----0
  6
CONTINUOUS
  5
2ED
 10
833.721169
 20
391.12735
 30
0.0
 11
834.971169
 21
391.12735
 31
0.0
  0
ARC
  8
LC-001-002-RND-0
  6
CONTINUOUS
  5
2EE
 10
110.670183
 20
366.209984
 30
0.0
 40
2.5
 50
169.082115
 51
180.0
  0
LINE
  8
LC-002-002-----0
  6
CONTINUOUS
  5
2EF
 10
108.215434
 20
366.683489
 30
0.0
 11
117.286535
 21
413.709984
 31
0.0
  0
ARC
  8
LC-001-002-RND-0
  6
CONTINUOUS
  5
2F0
 10
129.670183
 20
464.709984
 30
0.0
 40
2.5
 50
90.0
 51
169.082115
  0
LINE
  8
LC-002-002-----0
  6
CONTINUOUS
  5
2F1
 10
125.098717
 20
454.209984
 30
0.0
 11
127.215434
 21
465.183489
 31
0.0
  0
LINE
  8
LC-002-002-----0
  6
CONTINUOUS
  5
2F2
 10
135.170183
 20
422.209984
 30
0.0
 11
148.170183
 21
422.209984
 31
0.0
  0
LINE
  8
LC-002-002-----0
  6
CONTINUOUS
  5
2F3
 10
859.471169
 20
391.12735
 30
0.0
 11
860.721169
 21
391.12735
 31
0.0
  0
LINE
  8
LC-002-002-----0
  6
CONTINUOUS
  5
2F4
 10
135.170183
 20
432.209984
 30
0.0
 11
148.170183
 21
432.209984
 31
0.0
  0
ARC
  8
LC-002-002-----0
  6
CONTINUOUS
  5
2F5
 10
835.893776
 20
388.62735
 30
0.0
 40
0.5
 50
136.08159
 51
223.918258
  0
LINE
  8
LC-002-002-----0
  6
DASHED
 62
     2
  5
2F6
 10
135.170183
 20
390.307185
 30
0.0
 11
148.270183
 21
390.307185
 31
0.0
  0
LINE
  8
LC-002-002-----0
  6
DASHED
 62
     2
  5
2F7
 10
135.170183
 20
385.107185
 30
0.0
 11
148.270183
 21
385.107185
 31
0.0
  0
LINE
  8
LC-002-002-----0
  6
CONTINUOUS
  5
2F8
 10
135.170183
 20
447.209984
 30
0.0
 11
135.170183
 21
449.709984
 31
0.0
  0
ARC
  8
LC-001-002-RND-0
  6
CONTINUOUS
  5
2F9
 10
712.221169
 20
284.367992
 30
0.0
 40
4.0
 50
90.0
 51
180.0
  0
ARC
  8
LC-001-002-RND-0
  6
CONTINUOUS
  5
2FA
 10
754.221169
 20
284.367992
 30
0.0
 40
4.0
 50
0.0
 51
76.657636
  0
LINE
  8
LC-002-002-----0
  6
CONTINUOUS
  5
2FB
 10
708.721169
 20
340.367992
 30
0.0
 11
708.721169
 21
418.067992
 31
0.0
  0
LINE
  8
LC-002-002-----0
  6
CONTINUOUS
  5
2FC
 10
708.721169
 20
454.367992
 30
0.0
 11
708.721169
 21
468.367992
 31
0.0
  0
ARC
  8
LC-002-002-----0
  6
DASHED
 62
     2
  5
2FD
 10
55.66105
 20
398.9256
 30
0.0
 40
8.451553
 50
8.690273
 51
78.599914
  0
ARC
  8
LC-002-002-----0
  6
CONTINUOUS
  5
2FE
 10
64.012369
 20
447.527019
 30
0.0
 40
6.690726
 50
87.284886
 51
182.717845
  0
ARC
  8
LC-002-002-----0
  6
CONTINUOUS
  5
2FF
 10
64.014781
 20
406.893297
 30
0.0
 40
6.690726
 50
177.288957
 51
272.721915
  0
ARC
  8
LC-002-002-----0
  6
DASHED
 62
     2
  5
300
 10
55.657692
 20
455.493724
 30
0.0
 40
8.451553
 50
281.406888
 51
351.316528
  0
LINE
  8
LC-002-002-----0
  6
CONTINUOUS
  5
301
 10
65.329178
 20
452.132346
 30
0.0
 11
64.329314
 21
450.750543
 31
0.0
  0
LINE
  8
LC-002-002-----0
  6
CONTINUOUS
  5
302
 10
64.329308
 20
454.210234
 30
0.0
 11
65.32917
 21
453.914088
 31
0.0
  0
LINE
  8
LC-002-002-----0
  6
CONTINUOUS
  5
303
 10
65.329862
 20
421.418452
 30
0.0
 11
65.329174
 21
427.210488
 31
0.0
  0
LINE
  8
LC-002-002-----0
  6
CONTINUOUS
  5
304
 10
64.330032
 20
421.122187
 30
0.0
 11
65.329862
 21
421.418452
 31
0.0
  0
LINE
  8
LC-002-002-----0
  6
CONTINUOUS
  5
305
 10
710.221169
 20
339.367992
 30
0.0
 11
710.221169
 21
418.067992
 31
0.0
  0
LINE
  8
LC-002-002-----0
  6
CONTINUOUS
  5
306
 10
710.221169
 20
454.367992
 30
0.0
 11
710.221169
 21
469.367992
 31
0.0
  0
LINE
  8
LC-002-002-----0
  6
CONTINUOUS
  5
307
 10
706.721169
 20
343.367992
 30
0.0
 11
706.721169
 21
447.367992
 31
0.0
  0
LINE
  8
LC-002-002-----0
  6
CONTINUOUS
  5
308
 10
706.721169
 20
447.367992
 30
0.0
 11
706.721169
 21
465.367992
 31
0.0
  0
LINE
  8
LC-002-002-----0
  6
CONTINUOUS
  5
309
 10
737.792634
 20
454.367992
 30
0.0
 11
740.396695
 21
440.867992
 31
0.0
  0
LINE
  8
LC-002-002-----0
  6
CONTINUOUS
  5
30A
 10
148.170183
 20
432.209984
 30
0.0
 11
148.170183
 21
422.209984
 31
0.0
  0
LINE
  8
LC-002-002-----0
  6
CONTINUOUS
  5
30B
 10
148.270183
 20
447.209984
 30
0.0
 11
135.170183
 21
447.209984
 31
0.0
  0
LINE
  8
LC-002-002-----0
  6
CONTINUOUS
  5
30C
 10
714.621169
 20
449.867992
 30
0.0
 11
727.721169
 21
449.867992
 31
0.0
  0
LINE
  8
LC-002-002-----0
  6
CONTINUOUS
  5
30D
 10
711.721169
 20
340.367992
 30
0.0
 11
711.721169
 21
415.297278
 31
0.0
  0
ARC
  8
LC-002-002-----0
  6
CONTINUOUS
  5
30E
 10
840.596169
 20
384.099225
 30
0.0
 40
7.028125
 50
43.91841
 51
136.081571
  0
LINE
  8
LC-002-002-----0
  6
CONTINUOUS
  5
30F
 10
711.721169
 20
454.367992
 30
0.0
 11
711.721169
 21
468.367992
 31
0.0
  0
ARC
  8
LC-002-002-----0
  6
CONTINUOUS
  5
310
 10
845.298562
 20
388.62735
 30
0.0
 40
0.5
 50
316.081648
 51
43.91841
  0
ARC
  8
LC-002-002-----0
  6
CONTINUOUS
  5
311
 10
840.596169
 20
393.155475
 30
0.0
 40
7.028125
 50
223.918258
 51
316.08159
  0
ARC
  8
LC-002-002-----0
  6
CONTINUOUS
  5
312
 10
849.143776
 20
388.62735
 30
0.0
 40
0.5
 50
136.08159
 51
223.918258
  0
ARC
  8
LC-002-002-----0
  6
CONTINUOUS
  5
313
 10
853.846169
 20
384.099225
 30
0.0
 40
7.028125
 50
43.91841
 51
136.081571
  0
ARC
  8
LC-002-002-----0
  6
CONTINUOUS
  5
314
 10
858.548562
 20
388.62735
 30
0.0
 40
0.5
 50
316.081648
 51
43.91841
  0
ARC
  8
LC-002-002-----0
  6
CONTINUOUS
  5
315
 10
853.846169
 20
393.155475
 30
0.0
 40
7.028125
 50
223.918258
 51
316.08159
  0
LINE
  8
LC-007-001-----0
  5
317
 10
860.721169
 20
388.62735
 30
0.0
 11
833.721169
 21
388.62735
 31
0.0
  0
ARC
  8
LC-002-002-----0
  6
CONTINUOUS
  5
318
 10
832.387835
 20
388.62735
 30
0.0
 40
2.833333
 50
298.072604
 51
61.927571
  0
ARC
  8
LC-002-002-----0
  6
CONTINUOUS
  5
319
 10
862.054502
 20
388.62735
 30
0.0
 40
2.833333
 50
118.072449
 51
241.92719
  0
LINE
  8
LC-002-002-----0
  6
CONTINUOUS
  5
31A
 10
859.721169
 20
386.12735
 30
0.0
 11
859.721169
 21
378.921035
 31
0.0
  0
LINE
  8
LC-002-002-----0
  6
CONTINUOUS
  5
31B
 10
834.721169
 20
383.62735
 30
0.0
 11
834.721169
 21
386.12735
 31
0.0
  0
LINE
  8
LC-002-002-----0
  6
CONTINUOUS
  5
31C
 10
845.471169
 20
456.37735
 30
0.0
 11
863.502391
 21
438.346127
 31
0.0
  0
LINE
  8
LC-002-002-----0
  6
DASHDOT
 62
     2
  5
31D
 10
882.063944
 20
474.938903
 30
0.0
 11
847.221169
 21
440.096127
 31
0.0
  0
LINE
  8
LC-002-002-----0
  6
CONTINUOUS
 62
     2
  5
31E
 10
834.221169
 20
414.62735
 30
0.0
 11
847.221169
 21
427.37735
 31
0.0
  0
LINE
  8
LC-002-002-----0
  6
CONTINUOUS
 62
     2
  5
31F
 10
829.221169
 20
440.12735
 30
0.0
 11
829.221169
 21
427.37735
 31
0.0
  0
LINE
  8
LC-002-002-----0
  6
CONTINUOUS
  5
320
 10
827.150101
 20
440.12735
 30
0.0
 11
809.221169
 21
440.12735
 31
0.0
  0
ARC
  8
LC-002-002-----0
  6
CONTINUOUS
  5
321
 10
827.150101
 20
445.12735
 30
0.0
 40
5.0
 50
270.0
 51
315.000058
  0
LINE
  8
LC-002-002-----0
  6
CONTINUOUS
  5
322
 10
830.685635
 20
441.591816
 30
0.0
 11
845.471169
 21
456.37735
 31
0.0
  0
LINE
  8
LC-002-002-----0
  6
CONTINUOUS
  5
323
 10
863.502391
 20
438.346127
 30
0.0
 11
861.685635
 21
436.529371
 31
0.0
  0
ARC
  8
LC-002-002-----0
  6
CONTINUOUS
  5
324
 10
865.221169
 20
432.993837
 30
0.0
 40
5.0
 50
135.0
 51
179.999848
  0
LINE
  8
LC-002-002-----0
  6
CONTINUOUS
  5
325
 10
860.221169
 20
410.62735
 30
0.0
 11
860.221169
 21
432.993837
 31
0.0
  0
LINE
  8
LC-002-002-----0
  6
CONTINUOUS
  5
326
 10
809.221169
 20
414.62735
 30
0.0
 11
832.721169
 21
414.62735
 31
0.0
  0
ARC
  8
LC-002-002-----0
  6
CONTINUOUS
  5
327
 10
832.721169
 20
413.12735
 30
0.0
 40
1.5
 50
0.0
 51
90.0
  0
LINE
  8
LC-002-002-----0
  6
CONTINUOUS
  5
328
 10
834.221169
 20
413.12735
 30
0.0
 11
834.221169
 21
410.62735
 31
0.0
  0
LINE
  8
LC-002-002-----0
  6
CONTINUOUS
  5
329
 10
843.880178
 20
457.968341
 30
0.0
 11
845.471169
 21
456.37735
 31
0.0
  0
LINE
  8
LC-002-002-----0
  6
CONTINUOUS
 62
     2
  5
32A
 10
42.327975
 20
441.085709
 30
0.0
 11
42.327975
 21
435.085709
 31
0.0
  0
LINE
  8
LC-002-002-----0
  6
CONTINUOUS
  5
32B
 10
64.32931
 20
453.298167
 30
0.0
 11
65.329174
 21
453.00202
 31
0.0
  0
LINE
  8
LC-002-002-----0
  6
CONTINUOUS
  5
32C
 10
865.093382
 20
436.755137
 30
0.0
 11
863.502391
 21
438.346127
 31
0.0
  0
LINE
  8
LC-002-002-----0
  6
CONTINUOUS
  5
32D
 10
858.022314
 20
472.110476
 30
0.0
 11
879.235517
 21
450.897273
 31
0.0
  0
LINE
  8
LC-002-002-----0
  6
CONTINUOUS
  5
32E
 10
879.235517
 20
450.897273
 30
0.0
 11
865.093382
 21
436.755137
 31
0.0
  0
LINE
  8
LC-002-002-----0
  6
CONTINUOUS
  5
32F
 10
64.329308
 20
454.210234
 30
0.0
 11
64.329392
 21
400.210235
 31
0.0
  0
LINE
  8
LC-002-002-----0
  6
CONTINUOUS
  5
330
 10
858.022314
 20
472.110476
 30
0.0
 11
843.880178
 21
457.968341
 31
0.0
  0
LINE
  8
LC-002-002-----0
  6
CONTINUOUS
  5
331
 10
867.214702
 20
481.302864
 30
0.0
 11
888.427906
 21
460.089661
 31
0.0
  0
LINE
  8
LC-002-002-----0
  6
CONTINUOUS
  5
332
 10
705.721169
 20
288.367992
 30
0.0
 11
710.721169
 21
288.367992
 31
0.0
  0
LINE
  8
LC-002-002-----0
  6
CONTINUOUS
  5
333
 10
758.221169
 20
284.367992
 30
0.0
 11
758.221169
 21
237.867992
 31
0.0
  0
ARC
  8
LC-002-002-----0
  6
DASHED
 62
     2
  5
334
 10
98.059509
 20
256.255831
 30
0.0
 40
4.5
 50
278.327207
 51
278.714603
  0
LINE
  8
LC-002-002-----0
  6
CONTINUOUS
  5
335
 10
713.221169
 20
341.367992
 30
0.0
 11
713.221169
 21
290.867992
 31
0.0
  0
LINE
  8
LC-002-002-----0
  6
CONTINUOUS
  5
336
 10
754.721169
 20
343.867992
 30
0.0
 11
754.721169
 21
366.367992
 31
0.0
  0
LINE
  8
LC-007-001-----0
  6
CONTINUOUS
 62
     1
  5
337
 10
758.221169
 20
237.867992
 30
0.0
 11
708.221169
 21
237.867992
 31
0.0
  0
LINE
  8
LC-002-002-----0
  6
CONTINUOUS
  5
338
 10
708.221169
 20
237.867992
 30
0.0
 11
710.241895
 21
234.367992
 31
0.0
  0
LINE
  8
LC-002-002-----0
  6
CONTINUOUS
  5
339
 10
758.221169
 20
237.867992
 30
0.0
 11
756.200443
 21
234.367992
 31
0.0
  0
LINE
  8
LC-002-002-----0
  6
DASHDOT
 62
     2
  5
33A
 10
733.221169
 20
341.367992
 30
0.0
 11
733.221169
 21
234.367992
 31
0.0
  0
LINE
  8
LC-002-002-----0
  6
CONTINUOUS
  5
33B
 10
714.221169
 20
341.367992
 30
0.0
 11
711.721169
 21
341.367992
 31
0.0
  0
ARC
  8
LC-001-002-RND-0
  6
CONTINUOUS
  5
33C
 10
710.721169
 20
340.367992
 30
0.0
 40
1.0
 50
270.0
 51
0.0
  0
LINE
  8
LC-002-002-----0
  6
CONTINUOUS
  5
33D
 10
709.721169
 20
339.367992
 30
0.0
 11
710.721169
 21
339.367992
 31
0.0
  0
ARC
  8
LC-001-002-RND-0
  6
CONTINUOUS
  5
33E
 10
709.721169
 20
340.367992
 30
0.0
 40
1.0
 50
180.0
 51
270.0
  0
ARC
  8
LC-001-002-RND-0
  6
CONTINUOUS
  5
33F
 10
709.721169
 20
468.367992
 30
0.0
 40
1.0
 50
90.0
 51
180.0
  0
ARC
  8
LC-001-002-RND-0
  6
CONTINUOUS
  5
340
 10
710.721169
 20
468.367992
 30
0.0
 40
1.0
 50
0.0
 51
90.0
  0
LINE
  8
LC-002-002-----0
  6
CONTINUOUS
  5
341
 10
710.721169
 20
469.367992
 30
0.0
 11
709.721169
 21
469.367992
 31
0.0
  0
LINE
  8
LC-002-002-----0
  6
CONTINUOUS
  5
342
 10
714.221169
 20
341.367992
 30
0.0
 11
752.221169
 21
341.367992
 31
0.0
  0
LINE
  8
LC-002-002-----0
  6
CONTINUOUS
  5
343
 10
711.721169
 20
467.367992
 30
0.0
 11
733.221169
 21
467.367992
 31
0.0
  0
LINE
  8
LC-002-002-----0
  6
DASHDOT
 62
     2
  5
344
 10
694.721169
 20
414.867992
 30
0.0
 11
708.237313
 21
414.867992
 31
0.0
  0
LINE
  8
LC-002-002-----0
  6
CONTINUOUS
  5
345
 10
-51.969817
 20
478.495947
 30
0.0
 11
-51.969817
 21
453.209984
 31
0.0
  0
LINE
  8
LC-002-002-----0
  6
CONTINUOUS
  5
346
 10
64.32931
 20
448.798167
 30
0.0
 11
65.329174
 21
448.50202
 31
0.0
  0
LINE
  8
LC-002-002-----0
  6
DASHDOT
 62
     2
  5
347
 10
694.721169
 20
439.867992
 30
0.0
 11
707.672973
 21
439.867992
 31
0.0
  0
CIRCLE
  8
LC-002-002-----0
  6
CONTINUOUS
  5
348
 10
615.380306
 20
140.129278
 30
0.0
 40
2525.0
  0
LINE
  8
LC-002-002-----0
  6
CONTINUOUS
  5
349
 10
697.721169
 20
484.867992
 30
0.0
 11
705.721169
 21
484.867992
 31
0.0
  0
LINE
  8
LC-002-002-----0
  6
DASHDOT
 62
     2
  5
34A
 10
22.327022
 20
427.208147
 30
0.0
 11
22.32699
 21
377.211258
 31
0.0
  0
LINE
  8
LC-002-002-----0
  6
CONTINUOUS
  5
34B
 10
695.721169
 20
478.653955
 30
0.0
 11
697.721169
 21
478.653955
 31
0.0
  0
ARC
  8
LC-001-002-RND-0
  6
CONTINUOUS
  5
34C
 10
708.721169
 20
343.367992
 30
0.0
 40
2.0
 50
180.0
 51
270.0
  0
ARC
  8
LC-001-002-RND-0
  6
CONTINUOUS
  5
34D
 10
708.721169
 20
465.367992
 30
0.0
 40
2.0
 50
90.0
 51
180.0
  0
LINE
  8
LC-002-002-----0
  6
CONTINUOUS
  5
34E
 10
714.621169
 20
447.367992
 30
0.0
 11
714.621169
 21
449.867992
 31
0.0
  0
LINE
  8
LC-002-002-----0
  6
CONTINUOUS
  5
34F
 10
32.327015
 20
415.211252
 30
0.0
 11
22.327022
 21
427.208147
 31
0.0
  0
LINE
  8
LC-002-002-----0
  6
CONTINUOUS
  5
350
 10
714.621169
 20
404.367992
 30
0.0
 11
727.721169
 21
404.367992
 31
0.0
  0
LINE
  8
LC-002-002-----0
  6
CONTINUOUS
  5
351
 10
714.621169
 20
406.867992
 30
0.0
 11
727.721169
 21
406.867992
 31
0.0
  0
LINE
  8
LC-009-006-MLN-0
  6
DASHDOT
  5
354
 10
371.210789
 20
494.505177
 30
0.0
 11
371.210789
 21
368.117992
 31
0.0
  0
LINE
  8
LC-002-002-----0
  6
CONTINUOUS
  5
355
 10
727.721169
 20
404.367992
 30
0.0
 11
727.721169
 21
406.867992
 31
0.0
  0
LINE
  8
LC-002-002-----0
  6
CONTINUOUS
  5
356
 10
714.621169
 20
404.367992
 30
0.0
 11
714.621169
 21
406.867992
 31
0.0
  0
LINE
  8
LC-002-002-----0
  6
CONTINUOUS
  5
357
 10
714.621169
 20
382.865193
 30
0.0
 11
714.621169
 21
392.865193
 31
0.0
  0
LINE
  8
LC-002-002-----0
  6
CONTINUOUS
  5
358
 10
727.721169
 20
382.865193
 30
0.0
 11
714.621169
 21
382.865193
 31
0.0
  0
LINE
  8
LC-002-002-----0
  6
CONTINUOUS
  5
359
 10
727.721169
 20
382.865193
 30
0.0
 11
727.721169
 21
392.865193
 31
0.0
  0
ARC
  8
LC-002-002-----0
  6
DASHED
 62
     2
  5
35A
 10
451.210789
 20
427.367992
 30
0.0
 40
42.0
 50
359.831098
 51
26.765501
  0
LINE
  8
LC-002-002-----0
  6
CONTINUOUS
  5
35B
 10
727.721169
 20
392.865193
 30
0.0
 11
714.621169
 21
392.865193
 31
0.0
  0
LINE
  8
LC-002-002-----0
  6
DASHDOT
 62
     2
  5
35C
 10
730.228462
 20
387.865193
 30
0.0
 11
713.485989
 21
387.865193
 31
0.0
  0
LINE
  8
LC-002-002-----0
  6
CONTINUOUS
  5
35D
 10
888.427906
 20
455.84702
 30
0.0
 11
883.478158
 21
450.897273
 31
0.0
  0
LINE
  8
LC-002-002-----0
  6
CONTINUOUS
  5
35E
 10
862.972061
 20
481.302864
 30
0.0
 11
858.022314
 21
476.353117
 31
0.0
  0
ARC
  8
LC-001-002-RND-0
  6
CONTINUOUS
  5
35F
 10
865.093382
 20
479.181544
 30
0.0
 40
3.0
 50
45.0
 51
135.0
  0
ARC
  8
LC-001-002-RND-0
  6
CONTINUOUS
  5
360
 10
860.143634
 20
474.231797
 30
0.0
 40
3.0
 50
135.0
 51
225.0
  0
ARC
  8
LC-001-002-RND-0
  6
CONTINUOUS
  5
361
 10
881.356838
 20
453.018593
 30
0.0
 40
3.0
 50
225.0
 51
315.0
  0
ARC
  8
LC-001-002-RND-0
  6
CONTINUOUS
  5
362
 10
886.306585
 20
457.968341
 30
0.0
 40
3.0
 50
315.0
 51
45.0
  0
LINE
  8
LC-002-002-----0
  6
CONTINUOUS
  5
363
 10
880.296178
 20
463.978748
 30
0.0
 11
875.34643
 21
459.029001
 31
0.0
  0
LINE
  8
LC-002-002-----0
  6
CONTINUOUS
  5
364
 10
871.103789
 20
473.171136
 30
0.0
 11
866.154042
 21
468.221389
 31
0.0
  0
LINE
  8
LC-002-002-----0
  6
CONTINUOUS
  5
365
 10
697.721169
 20
453.367992
 30
0.0
 11
697.721169
 21
401.367992
 31
0.0
  0
LINE
  8
LC-002-002-----0
  6
CONTINUOUS
  5
366
 10
695.721169
 20
453.367992
 30
0.0
 11
697.721169
 21
453.367992
 31
0.0
  0
LINE
  8
LC-002-002-----0
  6
CONTINUOUS
  5
367
 10
695.721169
 20
401.367992
 30
0.0
 11
697.721169
 21
401.367992
 31
0.0
  0
LINE
  8
LC-002-002-----0
  6
CONTINUOUS
  5
368
 10
695.721169
 20
376.082029
 30
0.0
 11
697.721169
 21
376.082029
 31
0.0
  0
LINE
  8
LC-002-002-----0
  6
CONTINUOUS
  5
369
 10
695.721169
 20
401.367992
 30
0.0
 11
695.721169
 21
376.082029
 31
0.0
  0
LINE
  8
LC-002-002-----0
  6
CONTINUOUS
  5
36A
 10
697.721169
 20
378.901509
 30
0.0
 11
697.721169
 21
369.867992
 31
0.0
  0
LINE
  8
LC-002-002-----0
  6
CONTINUOUS
  5
36B
 10
697.721169
 20
369.867992
 30
0.0
 11
705.721169
 21
369.867992
 31
0.0
  0
ARC
  8
LC-001-002-RND-0
  6
CONTINUOUS
  5
36C
 10
705.721169
 20
483.867992
 30
0.0
 40
1.0
 50
0.0
 51
90.0
  0
LINE
  8
LC-002-002-----0
  6
CONTINUOUS
  5
36D
 10
697.721169
 20
453.367992
 30
0.0
 11
697.721169
 21
475.772006
 31
0.0
  0
LINE
  8
LC-002-002-----0
  6
CONTINUOUS
  5
36E
 10
697.721169
 20
384.867992
 30
0.0
 11
697.721169
 21
378.867992
 31
0.0
  0
LINE
  8
LC-002-002-----0
  6
CONTINUOUS
  5
36F
 10
697.721169
 20
384.867992
 30
0.0
 11
697.721169
 21
401.367992
 31
0.0
  0
LINE
  8
LC-002-002-----0
  6
CONTINUOUS
  5
370
 10
482.837087
 20
343.758646
 30
0.0
 11
487.013226
 21
377.367992
 31
0.0
  0
LINE
  8
LC-002-002-----0
  6
CONTINUOUS
 62
     2
  5
371
 10
42.32797
 20
430.209334
 30
0.0
 11
56.327024
 21
430.210165
 31
0.0
  0
ARC
  8
LC-002-002-----0
  6
CONTINUOUS
  5
372
 10
477.874356
 20
344.367992
 30
0.0
 40
5.0
 50
270.0
 51
353.0
  0
ARC
  8
LC-002-002-----0
  6
CONTINUOUS
  5
373
 10
422.229267
 20
349.367992
 30
0.0
 40
10.0
 50
182.183915
 51
270.0
  0
LINE
  8
LC-002-002-----0
  6
CONTINUOUS
 62
     2
  5
374
 10
42.328326
 20
424.209334
 30
0.0
 11
56.32702
 21
424.210165
 31
0.0
  0
LINE
  8
LC-002-002-----0
  6
CONTINUOUS
  5
375
 10
476.210789
 20
237.867992
 30
0.0
 11
475.272967
 21
234.367992
 31
0.0
  0
LINE
  8
LC-002-002-----0
  6
CONTINUOUS
  5
376
 10
426.210789
 20
237.867992
 30
0.0
 11
427.148611
 21
234.367992
 31
0.0
  0
ARC
  8
LC-001-002-RND-0
  6
CONTINUOUS
  5
377
 10
705.721169
 20
370.867992
 30
0.0
 40
1.0
 50
270.0
 51
0.0
  0
LINE
  8
LC-002-002-----0
  6
CONTINUOUS
  5
378
 10
697.721169
 20
452.367992
 30
0.0
 11
694.721169
 21
452.367992
 31
0.0
  0
LINE
  8
LC-002-002-----0
  6
CONTINUOUS
  5
379
 10
694.721169
 20
452.367992
 30
0.0
 11
694.721169
 21
402.367992
 31
0.0
  0
LINE
  8
LC-002-002-----0
  6
CONTINUOUS
  5
37A
 10
694.721169
 20
402.367992
 30
0.0
 11
697.721169
 21
402.367992
 31
0.0
  0
ARC
  8
LC-001-002-RND-0
  6
CONTINUOUS
  5
37B
 10
150.670183
 20
284.209984
 30
0.0
 40
4.0
 50
0.0
 51
90.0
  0
ARC
  8
LC-001-002-RND-0
  6
CONTINUOUS
  5
37C
 10
108.670183
 20
284.209984
 30
0.0
 40
4.0
 50
103.342364
 51
180.0
  0
LINE
  8
LC-002-002-----0
  6
CONTINUOUS
  5
37D
 10
154.170183
 20
340.209984
 30
0.0
 11
154.170183
 21
425.109984
 31
0.0
  0
LINE
  8
LC-002-002-----0
  6
CONTINUOUS
  5
37E
 10
154.170183
 20
447.209984
 30
0.0
 11
154.170183
 21
468.209984
 31
0.0
  0
LINE
  8
LC-002-002-----0
  6
CONTINUOUS
  5
37F
 10
152.670183
 20
339.209984
 30
0.0
 11
152.670183
 21
425.077426
 31
0.0
  0
LINE
  8
LC-002-002-----0
  6
CONTINUOUS
  5
380
 10
152.670183
 20
447.209984
 30
0.0
 11
152.670183
 21
469.209984
 31
0.0
  0
LINE
  8
LC-002-002-----0
  6
CONTINUOUS
  5
381
 10
156.170183
 20
343.209984
 30
0.0
 11
156.170183
 21
447.209984
 31
0.0
  0
LINE
  8
LC-002-002-----0
  6
CONTINUOUS
  5
382
 10
156.170183
 20
447.209984
 30
0.0
 11
156.170183
 21
465.209984
 31
0.0
  0
LINE
  8
LC-002-002-----0
  6
CONTINUOUS
  5
383
 10
125.098717
 20
454.209984
 30
0.0
 11
117.286535
 21
413.709984
 31
0.0
  0
LINE
  8
LC-002-002-----0
  6
CONTINUOUS
  5
384
 10
148.270183
 20
449.709984
 30
0.0
 11
135.170183
 21
449.709984
 31
0.0
  0
LINE
  8
LC-002-002-----0
  6
CONTINUOUS
  5
385
 10
151.170183
 20
340.209984
 30
0.0
 11
151.170183
 21
425.109984
 31
0.0
  0
LINE
  8
LC-002-002-----0
  6
CONTINUOUS
  5
386
 10
65.32917
 20
453.914088
 30
0.0
 11
65.32917
 21
452.132346
 31
0.0
  0
LINE
  8
LC-002-002-----0
  6
CONTINUOUS
  5
387
 10
151.170183
 20
447.209984
 30
0.0
 11
151.170183
 21
468.209984
 31
0.0
  0
LINE
  8
LC-002-002-----0
  6
CONTINUOUS
  5
388
 10
476.210789
 20
284.367992
 30
0.0
 11
476.210789
 21
237.867992
 31
0.0
  0
LINE
  8
LC-002-002-----0
  6
CONTINUOUS
 62
     2
  5
389
 10
42.327975
 20
441.085709
 30
0.0
 11
56.327029
 21
441.0857
 31
0.0
  0
LINE
  8
LC-002-002-----0
  6
CONTINUOUS
  5
38A
 10
858.022314
 20
476.353117
 30
0.0
 11
866.154042
 21
468.221389
 31
0.0
  0
LINE
  8
LC-002-002-----0
  6
CONTINUOUS
  5
38B
 10
426.210789
 20
284.367992
 30
0.0
 11
426.210789
 21
237.867992
 31
0.0
  0
LINE
  8
LC-002-002-----0
  6
CONTINUOUS
  5
38C
 10
431.210789
 20
339.367992
 30
0.0
 11
431.210789
 21
288.367992
 31
0.0
  0
LINE
  8
LC-002-002-----0
  6
CONTINUOUS
  5
38D
 10
56.32701
 20
408.459208
 30
0.0
 11
56.327035
 21
446.961236
 31
0.0
  0
LINE
  8
LC-002-002-----0
  6
CONTINUOUS
  5
38E
 10
56.327035
 20
446.961236
 30
0.0
 11
57.327035
 21
446.961235
 31
0.0
  0
ARC
  8
LC-002-002-----0
  6
CONTINUOUS
  5
38F
 10
42.327033
 20
442.961245
 30
0.0
 40
3.0
 50
89.999963
 51
179.999963
  0
LINE
  8
LC-002-002-----0
  6
CONTINUOUS
  5
390
 10
42.327035
 20
445.961245
 30
0.0
 11
56.327035
 21
445.961236
 31
0.0
  0
LINE
  8
LC-002-002-----0
  6
CONTINUOUS
  5
391
 10
42.329375
 20
408.459143
 30
0.0
 11
56.329375
 21
408.459208
 31
0.0
  0
LINE
  8
LC-002-002-----0
  6
CONTINUOUS
  5
392
 10
56.329375
 20
408.459208
 30
0.0
 11
56.32938
 21
407.459208
 31
0.0
  0
LINE
  8
LC-002-002-----0
  6
CONTINUOUS
  5
393
 10
56.32938
 20
407.459208
 30
0.0
 11
57.32938
 21
407.459213
 31
0.0
  0
ARC
  8
LC-002-002-----0
  6
CONTINUOUS
  5
394
 10
874.668786
 20
467.543745
 30
0.0
 40
8.541667
 50
175.449719
 51
274.550281
  0
LINE
  8
LC-002-002-----0
  6
CONTINUOUS
  5
395
 10
858.927484
 20
378.12735
 30
0.0
 11
835.514853
 21
378.12735
 31
0.0
  0
LINE
  8
LC-002-002-----0
  6
CONTINUOUS
 62
     2
  5
396
 10
859.721169
 20
386.12735
 30
0.0
 11
834.721169
 21
383.940134
 31
0.0
  0
LINE
  8
LC-002-002-----0
  6
CONTINUOUS
 62
     2
  5
397
 10
859.721169
 20
385.123531
 30
0.0
 11
834.721169
 21
382.936314
 31
0.0
  0
LINE
  8
LC-002-002-----0
  6
CONTINUOUS
 62
     2
  5
398
 10
859.721169
 20
384.119711
 30
0.0
 11
834.721169
 21
381.932494
 31
0.0
  0
LINE
  8
LC-002-002-----0
  6
CONTINUOUS
 62
     2
  5
399
 10
859.721169
 20
383.115891
 30
0.0
 11
834.721169
 21
380.928674
 31
0.0
  0
LINE
  8
LC-002-002-----0
  6
CONTINUOUS
 62
     2
  5
39A
 10
859.721169
 20
382.112071
 30
0.0
 11
834.721169
 21
379.924854
 31
0.0
  0
LINE
  8
LC-002-002-----0
  6
CONTINUOUS
 62
     2
  5
39B
 10
859.721169
 20
381.108251
 30
0.0
 11
834.721169
 21
378.921035
 31
0.0
  0
LINE
  8
LC-002-002-----0
  6
CONTINUOUS
 62
     2
  5
39C
 10
859.721169
 20
380.104431
 30
0.0
 11
837.12303
 21
378.12735
 31
0.0
  0
LINE
  8
LC-002-002-----0
  6
CONTINUOUS
 62
     2
  5
39D
 10
847.221169
 20
386.037562
 30
0.0
 11
834.721169
 21
384.943954
 31
0.0
  0
LINE
  8
LC-002-002-----0
  6
CONTINUOUS
  5
39E
 10
834.721169
 20
378.921035
 30
0.0
 11
835.514853
 21
378.12735
 31
0.0
  0
LINE
  8
LC-002-002-----0
  6
CONTINUOUS
  5
39F
 10
859.721169
 20
378.921035
 30
0.0
 11
858.927484
 21
378.12735
 31
0.0
  0
LINE
  8
LC-002-002-----0
  6
CONTINUOUS
  5
3A0
 10
834.721169
 20
378.921035
 30
0.0
 11
834.721169
 21
383.62735
 31
0.0
  0
LINE
  8
LC-002-002-----0
  6
CONTINUOUS
  5
3A1
 10
875.34643
 20
459.029001
 30
0.0
 11
883.478158
 21
450.897273
 31
0.0
  0
ARC
  8
LC-002-002-----0
  6
CONTINUOUS
  5
3A2
 10
871.781433
 20
464.656392
 30
0.0
 40
8.541667
 50
355.449719
 51
94.550281
  0
LINE
  8
LC-002-002-----0
  6
CONTINUOUS
  5
3A3
 10
862.972061
 20
481.302864
 30
0.0
 11
871.103789
 21
473.171136
 31
0.0
  0
LINE
  8
LC-002-002-----0
  6
CONTINUOUS
  5
3A4
 10
880.296178
 20
463.978748
 30
0.0
 11
888.427906
 21
455.84702
 31
0.0
  0
LINE
  8
LC-002-002-----0
  6
CONTINUOUS
  5
3A5
 10
873.22511
 20
483.777738
 30
0.0
 11
890.902779
 21
466.100069
 31
0.0
  0
LINE
  8
LC-002-002-----0
  6
CONTINUOUS
  5
3A6
 10
890.902779
 20
462.564535
 30
0.0
 11
888.427906
 21
460.089661
 31
0.0
  0
LINE
  8
LC-002-002-----0
  6
CONTINUOUS
  5
3A7
 10
869.689576
 20
483.777738
 30
0.0
 11
867.214702
 21
481.302864
 31
0.0
  0
ARC
  8
LC-001-002-RND-0
  6
CONTINUOUS
  5
3A8
 10
871.457343
 20
482.009971
 30
0.0
 40
2.5
 50
45.0
 51
135.0
  0
LINE
  8
LC-002-002-----0
  6
DASHDOT
 62
     2
  5
3A9
 10
847.221169
 20
427.367992
 30
0.0
 11
791.006304
 21
427.367992
 31
0.0
  0
LINE
  8
LC-002-002-----0
  6
DASHED
 62
     2
  5
3AA
 10
798.188806
 20
437.877843
 30
0.0
 11
808.188806
 21
437.877843
 31
0.0
  0
LINE
  8
LC-002-002-----0
  6
DASHED
 62
     2
  5
3AB
 10
796.188806
 20
418.87735
 30
0.0
 11
796.188806
 21
435.877843
 31
0.0
  0
LINE
  8
LC-002-002-----0
  6
DASHED
 62
     2
  5
3AC
 10
769.721169
 20
416.880471
 30
0.0
 11
809.221169
 21
416.880471
 31
0.0
  0
LINE
  8
LC-002-002-----0
  6
DASHED
 62
     2
  5
3AD
 10
798.188806
 20
416.87735
 30
0.0
 11
796.188806
 21
418.87735
 31
0.0
  0
LINE
  8
LC-002-002-----0
  6
DASHED
 62
     2
  5
3AE
 10
796.188806
 20
435.877843
 30
0.0
 11
798.188806
 21
437.877843
 31
0.0
  0
LINE
  8
LC-002-002-----0
  6
DASHED
 62
     2
  5
3AF
 10
798.188806
 20
416.87735
 30
0.0
 11
798.188806
 21
437.877843
 31
0.0
  0
LINE
  8
LC-002-002-----0
  6
DASHED
 62
     2
  5
3B0
 10
797.188806
 20
436.877843
 30
0.0
 11
808.188806
 21
436.877843
 31
0.0
  0
LINE
  8
LC-002-002-----0
  6
DASHED
 62
     2
  5
3B1
 10
808.221169
 20
417.87735
 30
0.0
 11
797.188806
 21
417.87735
 31
0.0
  0
LINE
  8
LC-002-002-----0
  6
CONTINUOUS
  5
3B2
 10
706.721169
 20
436.667992
 30
0.0
 11
706.721169
 21
418.067992
 31
0.0
  0
LINE
  8
LC-002-002-----0
  6
CONTINUOUS
  5
3B3
 10
710.221169
 20
433.361741
 30
0.0
 11
710.221169
 21
418.867992
 31
0.0
  0
LINE
  8
LC-002-002-----0
  6
CONTINUOUS
  5
3B4
 10
706.721169
 20
418.067992
 30
0.0
 11
710.285583
 21
418.067992
 31
0.0
  0
LINE
  8
LC-002-002-----0
  6
CONTINUOUS
  5
3B5
 10
706.721169
 20
436.667992
 30
0.0
 11
707.221169
 21
436.667992
 31
0.0
  0
LINE
  8
LC-002-002-----0
  6
DASHDOT
 62
     2
  5
3B6
 10
720.721169
 20
454.367992
 30
0.0
 11
720.721169
 21
427.367992
 31
0.0
  0
LINE
  8
LC-002-002-----0
  6
CONTINUOUS
  5
3B7
 10
808.221169
 20
413.867992
 30
0.0
 11
800.42173
 21
413.867992
 31
0.0
  0
LINE
  8
LC-002-002-----0
  6
CONTINUOUS
  5
3B8
 10
707.221169
 20
454.367992
 30
0.0
 11
707.221169
 21
436.667992
 31
0.0
  0
LINE
  8
LC-002-002-----0
  6
CONTINUOUS
  5
3B9
 10
734.221169
 20
454.367992
 30
0.0
 11
734.221169
 21
440.867992
 31
0.0
  0
ARC
  8
LC-002-002-----0
  6
CONTINUOUS
  5
3BA
 10
706.899286
 20
433.361741
 30
0.0
 40
3.321883
 50
0.0
 51
84.439446
  0
ARC
  8
LC-001-002-RND-0
  6
CONTINUOUS
  5
3BB
 10
715.221169
 20
418.867992
 30
0.0
 40
5.0
 50
180.0
 51
270.0
  0
LINE
  8
LC-002-002-----0
  6
CONTINUOUS
  5
3BC
 10
808.221169
 20
440.867992
 30
0.0
 11
800.42173
 21
440.867992
 31
0.0
  0
ARC
  8
LC-001-002-RND-0
  6
DASHED
 62
     2
  5
3BD
 10
721.421169
 20
428.075513
 30
0.0
 40
10.0
 50
180.0
 51
270.0
  0
LINE
  8
LC-002-002-----0
  6
CONTINUOUS
  5
3BE
 10
734.221169
 20
440.867992
 30
0.0
 11
720.721169
 21
427.367992
 31
0.0
  0
LINE
  8
LC-002-002-----0
  6
CONTINUOUS
  5
3BF
 10
809.221169
 20
439.867992
 30
0.0
 11
809.221169
 21
414.867992
 31
0.0
  0
LINE
  8
LC-002-002-----0
  6
DASHED
 62
     2
  5
3C0
 10
769.721169
 20
437.855513
 30
0.0
 11
809.221169
 21
437.855513
 31
0.0
  0
ARC
  8
LC-002-002-----0
  6
CONTINUOUS
  5
3C1
 10
42.329361
 20
411.459143
 30
0.0
 40
3.0
 50
180.000267
 51
270.000229
  0
LINE
  8
LC-002-002-----0
  6
CONTINUOUS
 62
     2
  5
3C2
 10
42.327975
 20
435.085709
 30
0.0
 11
56.327029
 21
435.0857
 31
0.0
  0
LINE
  8
LC-002-002-----0
  6
CONTINUOUS
  5
3C3
 10
39.327013
 20
412.459129
 30
0.0
 11
39.327033
 21
442.961247
 31
0.0
  0
LINE
  8
LC-002-002-----0
  6
CONTINUOUS
 62
     2
  5
3C4
 10
42.32891
 20
419.332958
 30
0.0
 11
56.327964
 21
419.334629
 31
0.0
  0
LINE
  8
LC-002-002-----0
  6
CONTINUOUS
  5
3C5
 10
39.329357
 20
412.459129
 30
0.0
 11
39.329361
 21
411.459129
 31
0.0
  0
LINE
  8
LC-002-002-----0
  6
DASHDOT
 62
     2
  5
3C6
 10
451.210789
 20
339.367992
 30
0.0
 11
451.210789
 21
288.367992
 31
0.0
  0
LINE
  8
LC-002-002-----0
  6
CONTINUOUS
  5
3C7
 10
427.148611
 20
234.367992
 30
0.0
 11
475.272967
 21
234.367992
 31
0.0
  0
LINE
  8
LC-002-002-----0
  6
CONTINUOUS
  5
3C8
 10
426.210789
 20
237.867992
 30
0.0
 11
476.210789
 21
237.867992
 31
0.0
  0
LINE
  8
LC-002-002-----0
  6
CONTINUOUS
  5
3C9
 10
12.327022
 20
426.211265
 30
0.0
 11
12.327013
 21
412.211265
 31
0.0
  0
LINE
  8
LC-002-002-----0
  6
CONTINUOUS
  5
3CA
 10
430.210789
 20
288.367992
 30
0.0
 11
472.210789
 21
288.367992
 31
0.0
  0
LINE
  8
LC-002-002-----0
  6
CONTINUOUS
  5
3CB
 10
32.327015
 20
415.211252
 30
0.0
 11
32.327013
 21
412.211252
 31
0.0
  0
ARC
  8
LC-001-002-RND-0
  6
CONTINUOUS
  5
3CC
 10
25.327022
 20
426.211256
 30
0.0
 40
13.0
 50
89.999963
 51
179.999963
  0
LINE
  8
LC-002-002-----0
  6
CONTINUOUS
  5
3CD
 10
39.32703
 20
439.211247
 30
0.0
 11
25.32703
 21
439.211256
 31
0.0
  0
LINE
  8
LC-002-002-----0
  6
DASHED
 62
     2
  5
3CE
 10
409.210806
 20
427.329406
 30
0.0
 11
411.140404
 21
377.367992
 31
0.0
  0
LINE
  8
LC-002-002-----0
  6
CONTINUOUS
 62
     2
  5
3CF
 10
42.329622
 20
413.332958
 30
0.0
 11
56.328677
 21
413.334629
 31
0.0
  0
LINE
  8
LC-002-002-----0
  6
CONTINUOUS
  5
3D0
 10
65.331702
 20
405.918452
 30
0.0
 11
65.330515
 21
415.918452
 31
0.0
  0
LINE
  8
LC-002-002-----0
  6
CONTINUOUS
  5
3D1
 10
65.329174
 20
448.50202
 30
0.0
 11
65.329174
 21
438.50202
 31
0.0
  0
LINE
  8
LC-002-002-----0
  6
CONTINUOUS
  5
3D2
 10
64.32931
 20
433.298167
 30
0.0
 11
65.329174
 21
433.00202
 31
0.0
  0
LINE
  8
LC-002-002-----0
  6
CONTINUOUS
  5
3D3
 10
65.329174
 20
433.00202
 30
0.0
 11
65.329174
 21
427.209984
 31
0.0
  0
LINE
  8
LC-002-002-----0
  6
DASHED
 62
     2
  5
3D4
 10
730.02869
 20
436.675513
 30
0.0
 11
808.041169
 21
436.675513
 31
0.0
  0
LINE
  8
LC-002-002-----0
  6
CONTINUOUS
  5
3D5
 10
64.330615
 20
416.21448
 30
0.0
 11
65.330515
 21
415.918452
 31
0.0
  0
LINE
  8
LC-002-002-----0
  6
CONTINUOUS
  5
3D6
 10
64.32931
 20
438.205873
 30
0.0
 11
65.329174
 21
438.50202
 31
0.0
  0
LINE
  8
LC-002-002-----0
  6
CONTINUOUS
  5
3D7
 10
64.331872
 20
405.622187
 30
0.0
 11
65.331702
 21
405.918452
 31
0.0
  0
LINE
  8
LC-002-002-----0
  6
CONTINUOUS
  5
3D8
 10
65.332137
 20
402.288126
 30
0.0
 11
64.332108
 21
403.669811
 31
0.0
  0
LINE
  8
LC-002-002-----0
  6
CONTINUOUS
  5
3D9
 10
65.33234
 20
400.506384
 30
0.0
 11
65.332129
 21
402.288126
 31
0.0
  0
LINE
  8
LC-002-002-----0
  6
CONTINUOUS
  5
3DA
 10
64.332407
 20
401.122187
 30
0.0
 11
65.332236
 21
401.418453
 31
0.0
  0
LINE
  8
LC-002-002-----0
  6
CONTINUOUS
  5
3DB
 10
64.332514
 20
400.210119
 30
0.0
 11
65.33234
 21
400.506384
 31
0.0
  0
LINE
  8
LC-002-002-----0
  6
DASHED
 62
     2
  5
3DC
 10
721.421169
 20
418.075513
 30
0.0
 11
808.041169
 21
418.075513
 31
0.0
  0
LINE
  8
LC-002-002-----0
  6
CONTINUOUS
  5
3DD
 10
70.329174
 20
443.709984
 30
0.0
 11
70.329174
 21
477.385575
 31
0.0
  0
LINE
  8
LC-002-002-----0
  6
CONTINUOUS
  5
3DE
 10
157.170183
 20
288.209984
 30
0.0
 11
152.170183
 21
288.209984
 31
0.0
  0
LINE
  8
LC-002-002-----0
  6
CONTINUOUS
  5
3DF
 10
104.670183
 20
284.209984
 30
0.0
 11
104.670183
 21
237.709984
 31
0.0
  0
LINE
  8
LC-002-002-----0
  6
CONTINUOUS
  5
3E0
 10
149.670183
 20
341.209984
 30
0.0
 11
149.670183
 21
290.709984
 31
0.0
  0
LINE
  8
LC-002-002-----0
  6
CONTINUOUS
  5
3E1
 10
108.170183
 20
343.709984
 30
0.0
 11
108.170183
 21
366.209984
 31
0.0
  0
LINE
  8
LC-007-001-----0
  6
CONTINUOUS
 62
     1
  5
3E2
 10
104.670183
 20
237.709984
 30
0.0
 11
154.670183
 21
237.709984
 31
0.0
  0
LINE
  8
LC-002-002-----0
  6
CONTINUOUS
  5
3E3
 10
154.670183
 20
237.709984
 30
0.0
 11
152.649457
 21
234.209984
 31
0.0
  0
LINE
  8
LC-002-002-----0
  6
CONTINUOUS
  5
3E4
 10
104.670183
 20
237.709984
 30
0.0
 11
106.690909
 21
234.209984
 31
0.0
  0
LINE
  8
LC-002-002-----0
  6
DASHDOT
 62
     2
  5
3E5
 10
129.670183
 20
427.209984
 30
0.0
 11
129.670183
 21
234.209984
 31
0.0
  0
LINE
  8
LC-002-002-----0
  6
CONTINUOUS
  5
3E6
 10
148.670183
 20
341.209984
 30
0.0
 11
151.170183
 21
341.209984
 31
0.0
  0
ARC
  8
LC-001-002-RND-0
  6
CONTINUOUS
  5
3E7
 10
152.170183
 20
340.209984
 30
0.0
 40
1.0
 50
180.0
 51
270.0
  0
LINE
  8
LC-002-002-----0
  6
CONTINUOUS
  5
3E8
 10
153.170183
 20
339.209984
 30
0.0
 11
152.170183
 21
339.209984
 31
0.0
  0
ARC
  8
LC-001-002-RND-0
  6
CONTINUOUS
  5
3E9
 10
153.170183
 20
340.209984
 30
0.0
 40
1.0
 50
270.0
 51
0.0
  0
ARC
  8
LC-001-002-RND-0
  6
CONTINUOUS
  5
3EA
 10
153.170183
 20
468.209984
 30
0.0
 40
1.0
 50
0.0
 51
90.0
  0
ARC
  8
LC-001-002-RND-0
  6
CONTINUOUS
  5
3EB
 10
152.170183
 20
468.209984
 30
0.0
 40
1.0
 50
90.0
 51
180.0
  0
LINE
  8
LC-002-002-----0
  6
CONTINUOUS
  5
3EC
 10
152.170183
 20
469.209984
 30
0.0
 11
153.170183
 21
469.209984
 31
0.0
  0
LINE
  8
LC-002-002-----0
  6
CONTINUOUS
  5
3ED
 10
148.670183
 20
341.209984
 30
0.0
 11
110.670183
 21
341.209984
 31
0.0
  0
LINE
  8
LC-002-002-----0
  6
CONTINUOUS
  5
3EE
 10
151.170183
 20
467.209984
 30
0.0
 11
129.670183
 21
467.209984
 31
0.0
  0
LINE
  8
LC-002-002-----0
  6
DASHED
 62
     2
  5
3EF
 10
769.721169
 20
416.895513
 30
0.0
 11
809.221169
 21
416.895513
 31
0.0
  0
LINE
  8
LC-002-002-----0
  6
DASHED
 62
     2
  5
3F0
 10
809.221169
 20
437.855513
 30
0.0
 11
808.041169
 21
436.675513
 31
0.0
  0
LINE
  8
LC-002-002-----0
  6
DASHED
 62
     2
  5
3F1
 10
809.221169
 20
416.895513
 30
0.0
 11
808.041169
 21
418.075513
 31
0.0
  0
LINE
  8
LC-002-002-----0
  6
CONTINUOUS
  5
3F2
 10
707.221169
 20
454.367992
 30
0.0
 11
734.221169
 21
454.367992
 31
0.0
  0
LINE
  8
LC-002-002-----0
  6
DASHED
 62
     2
  5
3F3
 10
711.421169
 20
454.367992
 30
0.0
 11
711.421169
 21
428.075513
 31
0.0
  0
LINE
  8
LC-002-002-----0
  6
DASHED
 62
     2
  5
3F4
 10
730.021169
 20
454.367992
 30
0.0
 11
730.021169
 21
436.675513
 31
0.0
  0
LINE
  8
LC-002-002-----0
  6
DASHDOT
 62
     2
  5
3F5
 10
701.160804
 20
427.367992
 30
0.0
 11
813.229241
 21
427.367992
 31
0.0
  0
LINE
  8
LC-002-002-----0
  6
CONTINUOUS
  5
3F6
 10
796.560971
 20
471.638797
 30
0.0
 11
796.560971
 21
383.097187
 31
0.0
  0
LINE
  8
LC-002-002-----0
  6
CONTINUOUS
  5
3F7
 10
442.908652
 20
378.367992
 30
0.0
 11
383.167105
 21
378.367992
 31
0.0
  0
LINE
  8
LC-002-002-----0
  6
CONTINUOUS
  5
3F8
 10
-61.969817
 20
285.709984
 30
0.0
 11
-64.761718
 21
285.709984
 31
0.0
  0
LINE
  8
LC-002-002-----0
  6
CONTINUOUS
  5
3F9
 10
-61.969817
 20
288.209984
 30
0.0
 11
-61.969817
 21
285.709984
 31
0.0
  0
ARC
  8
LC-001-002-RND-0
  6
CONTINUOUS
  5
3FA
 10
323.710789
 20
379.867992
 30
0.0
 40
2.5
 50
180.0
 51
270.0
  0
LINE
  8
LC-002-002-----0
  6
CONTINUOUS
  5
3FB
 10
-114.177916
 20
285.709984
 30
0.0
 11
-116.969817
 21
285.709984
 31
0.0
  0
LINE
  8
LC-002-002-----0
  6
CONTINUOUS
  5
3FC
 10
791.550802
 20
440.867992
 30
0.0
 11
734.221169
 21
440.867992
 31
0.0
  0
LINE
  8
LC-002-002-----0
  6
CONTINUOUS
  5
3FD
 10
791.550802
 20
413.867992
 30
0.0
 11
715.221169
 21
413.867992
 31
0.0
  0
LINE
  8
LC-002-002-----0
  6
CONTINUOUS
  5
3FE
 10
-116.969817
 20
288.209984
 30
0.0
 11
-116.969817
 21
285.709984
 31
0.0
  0
CIRCLE
  8
LC-002-002-----0
  6
CONTINUOUS
  5
3FF
 10
237.070789
 20
414.867992
 30
0.0
 40
4.25
  0
CIRCLE
  8
LC-002-002-----0
  6
CONTINUOUS
  5
400
 10
237.070789
 20
439.867992
 30
0.0
 40
4.25
  0
ARC
  8
LC-002-002-----0
  6
CONTINUOUS
  5
401
 10
251.210789
 20
441.507992
 30
0.0
 40
3.1
 50
90.0
 51
270.0
  0
LINE
  8
LC-002-002-----0
  6
CONTINUOUS
  5
402
 10
262.930789
 20
444.607992
 30
0.0
 11
251.210789
 21
444.607992
 31
0.0
  0
LINE
  8
LC-002-002-----0
  6
CONTINUOUS
  5
403
 10
-109.469817
 20
290.53454
 30
0.0
 11
-109.469817
 21
341.209984
 31
0.0
  0
ARC
  8
LC-001-002-RND-0
  6
CONTINUOUS
  5
404
 10
-108.469817
 20
343.709984
 30
0.0
 40
2.5
 50
180.0
 51
270.0
  0
ARC
  8
LC-002-002-----0
  6
CONTINUOUS
  5
405
 10
262.930789
 20
441.507992
 30
0.0
 40
3.1
 50
270.0
 51
90.0
  0
ARC
  8
LC-002-002-----0
  6
CONTINUOUS
  5
406
 10
261.299725
 20
436.907992
 30
0.0
 40
1.5
 50
90.0
 51
156.828899
  0
LINE
  8
LC-002-002-----0
  6
CONTINUOUS
  5
407
 10
-112.449091
 20
234.209984
 30
0.0
 11
-66.490543
 21
234.209984
 31
0.0
  0
ARC
  8
LC-002-002-----0
  6
CONTINUOUS
  5
408
 10
262.930789
 20
441.507992
 30
0.0
 40
3.1
 50
270.0
 51
90.0
  0
ARC
  8
LC-001-002-RND-0
  6
CONTINUOUS
  5
409
 10
323.710789
 20
474.867992
 30
0.0
 40
2.5
 50
90.0
 51
180.0
  0
ARC
  8
LC-002-002-----0
  6
CONTINUOUS
  5
40A
 10
257.070789
 20
438.717992
 30
0.0
 40
3.1
 50
203.171101
 51
336.828899
  0
ARC
  8
LC-001-002-RND-0
  6
CONTINUOUS
  5
40B
 10
-66.969817
 20
290.709984
 30
0.0
 40
2.5
 50
180.0
 51
270.0
  0
ARC
  8
LC-002-002-----0
  6
CONTINUOUS
  5
40C
 10
252.841853
 20
436.907992
 30
0.0
 40
1.5
 50
23.171101
 51
90.0
  0
ARC
  8
LC-002-002-----0
  6
CONTINUOUS
  5
40D
 10
251.210789
 20
441.507992
 30
0.0
 40
3.1
 50
90.0
 51
270.0
  0
CIRCLE
  8
LC-002-002-----0
  6
CONTINUOUS
  5
40E
 10
267.070789
 20
427.367992
 30
0.0
 40
4.25
  0
LINE
  8
LC-002-002-----0
  6
CONTINUOUS
  5
40F
 10
242.820789
 20
431.617992
 30
0.0
 11
251.320789
 21
431.617992
 31
0.0
  0
ARC
  8
LC-002-002-----0
  6
CONTINUOUS
  5
410
 10
242.820789
 20
427.367992
 30
0.0
 40
4.25
 50
90.0
 51
270.0
  0
ARC
  8
LC-001-002-RND-0
  6
CONTINUOUS
  5
411
 10
-111.969817
 20
290.53454
 30
0.0
 40
2.5
 50
283.342364
 51
0.0
  0
ARC
  8
LC-002-002-----0
  6
CONTINUOUS
  5
412
 10
251.320789
 20
427.367992
 30
0.0
 40
4.25
 50
270.0
 51
90.0
  0
LINE
  8
LC-002-002-----0
  6
CONTINUOUS
  5
413
 10
-64.469817
 20
237.709984
 30
0.0
 11
-64.469817
 21
284.209984
 31
0.0
  0
LINE
  8
LC-002-002-----0
  6
CONTINUOUS
  5
414
 10
-68.469817
 20
288.209984
 30
0.0
 11
-116.969817
 21
288.209984
 31
0.0
  0
ARC
  8
LC-001-002-RND-0
  6
CONTINUOUS
  5
415
 10
-177.474716
 20
452.209984
 30
0.0
 40
2.5
 50
90.0
 51
180.0
  0
ARC
  8
LC-001-002-RND-0
  6
CONTINUOUS
  5
416
 10
-183.474716
 20
449.709984
 30
0.0
 40
2.5
 50
90.0
 51
180.0
  0
LINE
  8
LC-002-002-----0
  6
CONTINUOUS
  5
417
 10
693.221169
 20
444.867992
 30
0.0
 11
693.221169
 21
434.867992
 31
0.0
  0
LINE
  8
LC-002-002-----0
  6
CONTINUOUS
  5
418
 10
693.721169
 20
445.367992
 30
0.0
 11
694.221169
 21
445.367992
 31
0.0
  0
LINE
  8
LC-002-002-----0
  6
CONTINUOUS
  5
419
 10
693.721169
 20
434.367992
 30
0.0
 11
694.221169
 21
434.367992
 31
0.0
  0
ARC
  8
LC-001-002-RND-0
  6
CONTINUOUS
  5
41A
 10
693.721169
 20
434.867992
 30
0.0
 40
0.5
 50
180.0
 51
270.0
  0
ARC
  8
LC-001-002-RND-0
  6
CONTINUOUS
  5
41B
 10
694.221169
 20
434.867992
 30
0.0
 40
0.5
 50
270.0
 51
0.0
  0
ARC
  8
LC-002-002-----0
  6
CONTINUOUS
  5
41C
 10
702.846169
 20
439.867992
 30
0.0
 40
10.625
 50
154.942385
 51
205.057615
  0
ARC
  8
LC-001-002-RND-0
  6
CONTINUOUS
  5
41D
 10
694.221169
 20
444.867992
 30
0.0
 40
0.5
 50
0.0
 51
90.0
  0
ARC
  8
LC-001-002-RND-0
  6
CONTINUOUS
  5
41E
 10
693.721169
 20
444.867992
 30
0.0
 40
0.5
 50
90.0
 51
180.0
  0
LINE
  8
LC-002-002-----0
  6
CONTINUOUS
  5
41F
 10
-185.974716
 20
427.209984
 30
0.0
 11
-185.974716
 21
404.709984
 31
0.0
  0
ARC
  8
LC-001-002-RND-0
  6
CONTINUOUS
  5
420
 10
-108.469817
 20
366.209984
 30
0.0
 40
2.5
 50
169.082115
 51
180.0
  0
LINE
  8
LC-002-002-----0
  6
CONTINUOUS
  5
421
 10
-110.924566
 20
366.683489
 30
0.0
 11
-106.38646
 21
390.209984
 31
0.0
  0
ARC
  8
LC-001-002-RND-0
  6
CONTINUOUS
  5
422
 10
-89.469817
 20
464.709984
 30
0.0
 40
2.5
 50
90.0
 51
169.082115
  0
LINE
  8
LC-002-002-----0
  6
CONTINUOUS
  5
423
 10
-92.112349
 20
464.209984
 30
0.0
 11
-91.924566
 21
465.183489
 31
0.0
  0
LINE
  8
LC-002-002-----0
  6
CONTINUOUS
  5
424
 10
-179.974716
 20
427.209984
 30
0.0
 11
-179.974716
 21
402.209984
 31
0.0
  0
ARC
  8
LC-001-002-RND-0
  6
CONTINUOUS
  5
425
 10
-183.474716
 20
404.709984
 30
0.0
 40
2.5
 50
180.0
 51
270.0
  0
LINE
  8
LC-002-002-----0
  6
DASHDOT
 62
     2
  5
426
 10
168.170183
 20
414.709984
 30
0.0
 11
154.654039
 21
414.709984
 31
0.0
  0
LINE
  8
LC-002-002-----0
  6
DASHDOT
 62
     2
  5
427
 10
168.170183
 20
439.709984
 30
0.0
 11
155.218379
 21
439.709984
 31
0.0
  0
LINE
  8
LC-002-002-----0
  6
CONTINUOUS
  5
428
 10
-183.474716
 20
402.209984
 30
0.0
 11
-179.974716
 21
402.209984
 31
0.0
  0
LINE
  8
LC-002-002-----0
  6
CONTINUOUS
  5
429
 10
165.170183
 20
484.709984
 30
0.0
 11
157.170183
 21
484.709984
 31
0.0
  0
LINE
  8
LC-002-002-----0
  6
CONTINUOUS
  5
42A
 10
-177.474716
 20
399.709984
 30
0.0
 11
-175.974716
 21
399.709984
 31
0.0
  0
ARC
  8
LC-001-002-RND-0
  6
CONTINUOUS
  5
42B
 10
-177.474716
 20
402.209984
 30
0.0
 40
2.5
 50
180.0
 51
270.0
  0
LINE
  8
LC-002-002-----0
  6
CONTINUOUS
  5
42C
 10
385.263787
 20
477.367992
 30
0.0
 11
598.710789
 21
477.367992
 31
0.0
  0
LINE
  8
LC-002-002-----0
  6
CONTINUOUS
  5
42D
 10
459.936079
 20
377.367992
 30
0.0
 11
358.710789
 21
377.367992
 31
0.0
  0
LINE
  8
LC-002-002-----0
  6
CONTINUOUS
  5
42E
 10
358.710789
 20
377.367992
 30
0.0
 11
323.710789
 21
377.367992
 31
0.0
  0
LINE
  8
LC-002-002-----0
  6
CONTINUOUS
  5
42F
 10
167.170183
 20
478.495947
 30
0.0
 11
165.170183
 21
478.495947
 31
0.0
  0
LINE
  8
LC-009-006-MLN-0
  6
DASHDOT
  5
430
 10
551.210789
 20
472.610164
 30
0.0
 11
551.210789
 21
379.190535
 31
0.0
  0
LINE
  8
LC-002-002-----0
  6
CONTINUOUS
  5
431
 10
601.210789
 20
379.867992
 30
0.0
 11
601.210789
 21
469.867992
 31
0.0
  0
LINE
  8
LC-002-002-----0
  6
CONTINUOUS
  5
432
 10
242.820789
 20
423.117992
 30
0.0
 11
251.320789
 21
423.117992
 31
0.0
  0
LINE
  8
LC-002-002-----0
  6
CONTINUOUS
  5
433
 10
262.930789
 20
410.127992
 30
0.0
 11
251.210789
 21
410.127992
 31
0.0
  0
ARC
  8
LC-002-002-----0
  6
CONTINUOUS
  5
434
 10
251.210789
 20
413.227992
 30
0.0
 40
3.1
 50
90.0
 51
270.0
  0
ARC
  8
LC-002-002-----0
  6
CONTINUOUS
  5
435
 10
262.930789
 20
413.227992
 30
0.0
 40
3.1
 50
270.0
 51
90.0
  0
ARC
  8
LC-002-002-----0
  6
CONTINUOUS
  5
436
 10
262.930789
 20
413.227992
 30
0.0
 40
3.1
 50
270.0
 51
90.0
  0
ARC
  8
LC-002-002-----0
  6
CONTINUOUS
  5
437
 10
261.299725
 20
417.827992
 30
0.0
 40
1.5
 50
203.171101
 51
270.0
  0
ARC
  8
LC-002-002-----0
  6
CONTINUOUS
  5
438
 10
257.070789
 20
416.017992
 30
0.0
 40
3.1
 50
23.171101
 51
156.828899
  0
ARC
  8
LC-002-002-----0
  6
CONTINUOUS
  5
439
 10
252.841853
 20
417.827992
 30
0.0
 40
1.5
 50
270.0
 51
336.828899
  0
LINE
  8
LC-002-002-----0
  6
CONTINUOUS
  5
43A
 10
251.210789
 20
438.407992
 30
0.0
 11
252.841853
 21
438.407992
 31
0.0
  0
LINE
  8
LC-002-002-----0
  6
CONTINUOUS
  5
43B
 10
262.930789
 20
438.407992
 30
0.0
 11
261.299725
 21
438.407992
 31
0.0
  0
LINE
  8
LC-002-002-----0
  6
CONTINUOUS
  5
43C
 10
251.210789
 20
416.327992
 30
0.0
 11
252.841853
 21
416.327992
 31
0.0
  0
LINE
  8
LC-002-002-----0
  6
CONTINUOUS
  5
43D
 10
262.930789
 20
416.327992
 30
0.0
 11
261.299725
 21
416.327992
 31
0.0
  0
ARC
  8
LC-001-002-RND-0
  6
CONTINUOUS
  5
43E
 10
598.710789
 20
379.867992
 30
0.0
 40
2.5
 50
270.0
 51
0.0
  0
ARC
  8
LC-001-002-RND-0
  6
CONTINUOUS
  5
43F
 10
598.710789
 20
474.867992
 30
0.0
 40
2.5
 50
0.0
 51
90.0
  0
CIRCLE
  8
LC-002-002-----0
  6
CONTINUOUS
  5
440
 10
627.070789
 20
427.367992
 30
0.0
 40
4.25
  0
ARC
  8
LC-002-002-----0
  6
CONTINUOUS
  5
441
 10
622.930789
 20
441.507992
 30
0.0
 40
3.1
 50
270.0
 51
90.0
  0
ARC
  8
LC-002-002-----0
  6
CONTINUOUS
  5
442
 10
611.210789
 20
441.507992
 30
0.0
 40
3.1
 50
90.0
 51
270.0
  0
LINE
  8
LC-002-002-----0
  6
CONTINUOUS
  5
443
 10
622.930789
 20
444.607992
 30
0.0
 11
611.210789
 21
444.607992
 31
0.0
  0
LINE
  8
LC-002-002-----0
  6
CONTINUOUS
  5
444
 10
622.930789
 20
438.407992
 30
0.0
 11
621.299725
 21
438.407992
 31
0.0
  0
LINE
  8
LC-002-002-----0
  6
CONTINUOUS
  5
445
 10
611.210789
 20
438.407992
 30
0.0
 11
612.841853
 21
438.407992
 31
0.0
  0
ARC
  8
LC-002-002-----0
  6
CONTINUOUS
  5
446
 10
617.070789
 20
438.717992
 30
0.0
 40
3.1
 50
203.171101
 51
336.828899
  0
ARC
  8
LC-002-002-----0
  6
CONTINUOUS
  5
447
 10
612.841853
 20
436.907992
 30
0.0
 40
1.5
 50
23.171101
 51
90.0
  0
ARC
  8
LC-002-002-----0
  6
CONTINUOUS
  5
448
 10
621.299725
 20
436.907992
 30
0.0
 40
1.5
 50
90.0
 51
156.828899
  0
ARC
  8
LC-002-002-----0
  6
CONTINUOUS
  5
449
 10
622.930789
 20
413.227992
 30
0.0
 40
3.1
 50
270.0
 51
90.0
  0
ARC
  8
LC-002-002-----0
  6
CONTINUOUS
  5
44A
 10
611.210789
 20
413.227992
 30
0.0
 40
3.1
 50
90.0
 51
270.0
  0
LINE
  8
LC-002-002-----0
  6
CONTINUOUS
  5
44B
 10
622.930789
 20
410.127992
 30
0.0
 11
611.210789
 21
410.127992
 31
0.0
  0
LINE
  8
LC-002-002-----0
  6
CONTINUOUS
  5
44C
 10
622.930789
 20
416.327992
 30
0.0
 11
621.299725
 21
416.327992
 31
0.0
  0
LINE
  8
LC-002-002-----0
  6
CONTINUOUS
  5
44D
 10
611.210789
 20
416.327992
 30
0.0
 11
612.841853
 21
416.327992
 31
0.0
  0
ARC
  8
LC-002-002-----0
  6
CONTINUOUS
  5
44E
 10
617.070789
 20
416.017992
 30
0.0
 40
3.1
 50
23.171101
 51
156.828899
  0
ARC
  8
LC-002-002-----0
  6
CONTINUOUS
  5
44F
 10
612.841853
 20
417.827992
 30
0.0
 40
1.5
 50
270.0
 51
336.828899
  0
ARC
  8
LC-002-002-----0
  6
CONTINUOUS
  5
450
 10
621.299725
 20
417.827992
 30
0.0
 40
1.5
 50
203.171101
 51
270.0
  0
ARC
  8
LC-002-002-----0
  6
CONTINUOUS
  5
451
 10
611.320789
 20
427.367992
 30
0.0
 40
4.25
 50
270.0
 51
90.0
  0
LINE
  8
LC-002-002-----0
  6
CONTINUOUS
  5
452
 10
601.210789
 20
402.367992
 30
0.0
 11
632.070789
 21
402.367992
 31
0.0
  0
LINE
  8
LC-002-002-----0
  6
CONTINUOUS
  5
453
 10
601.210789
 20
452.367992
 30
0.0
 11
632.070789
 21
452.367992
 31
0.0
  0
LINE
  8
LC-002-002-----0
  6
CONTINUOUS
  5
454
 10
601.210789
 20
431.617992
 30
0.0
 11
611.320789
 21
431.617992
 31
0.0
  0
LINE
  8
LC-002-002-----0
  6
CONTINUOUS
  5
455
 10
601.210789
 20
423.117992
 30
0.0
 11
611.320789
 21
423.117992
 31
0.0
  0
LINE
  8
LC-002-002-----0
  6
CONTINUOUS
  5
456
 10
579.960789
 20
453.117992
 30
0.0
 11
579.960789
 21
401.617992
 31
0.0
  0
LINE
  8
LC-002-002-----0
  6
CONTINUOUS
  5
457
 10
511.210789
 20
394.867992
 30
0.0
 11
511.210789
 21
459.867992
 31
0.0
  0
LINE
  8
LC-002-002-----0
  6
CONTINUOUS
  5
458
 10
591.210789
 20
459.867992
 30
0.0
 11
591.210789
 21
394.867992
 31
0.0
  0
LINE
  8
LC-002-002-----0
  6
CONTINUOUS
  5
459
 10
583.710789
 20
387.367992
 30
0.0
 11
518.710789
 21
387.367992
 31
0.0
  0
ARC
  8
LC-001-002-RND-0
  6
CONTINUOUS
  5
45A
 10
154.170183
 20
343.209984
 30
0.0
 40
2.0
 50
270.0
 51
0.0
  0
ARC
  8
LC-001-002-RND-0
  6
CONTINUOUS
  5
45B
 10
154.170183
 20
465.209984
 30
0.0
 40
2.0
 50
0.0
 51
90.0
  0
LINE
  8
LC-002-002-----0
  6
CONTINUOUS
  5
45C
 10
522.460789
 20
453.117992
 30
0.0
 11
522.460789
 21
401.617992
 31
0.0
  0
ARC
  8
LC-001-002-RND-0
  6
CONTINUOUS
  5
45D
 10
525.460789
 20
453.117992
 30
0.0
 40
3.0
 50
90.0
 51
180.0
  0
ARC
  8
LC-001-002-RND-0
  6
CONTINUOUS
  5
45E
 10
576.960789
 20
453.117992
 30
0.0
 40
3.0
 50
0.0
 51
90.0
  0
ARC
  8
LC-001-002-RND-0
  6
CONTINUOUS
  5
45F
 10
576.960789
 20
401.617992
 30
0.0
 40
3.0
 50
270.0
 51
0.0
  0
ARC
  8
LC-001-002-RND-0
  6
CONTINUOUS
  5
460
 10
525.460789
 20
401.617992
 30
0.0
 40
3.0
 50
180.0
 51
270.0
  0
LINE
  8
LC-002-002-----0
  6
CONTINUOUS
  5
461
 10
539.960789
 20
404.617992
 30
0.0
 11
562.460789
 21
404.617992
 31
0.0
  0
LINE
  8
LC-002-002-----0
  6
CONTINUOUS
  5
462
 10
539.960789
 20
399.617992
 30
0.0
 11
562.460789
 21
399.617992
 31
0.0
  0
ARC
  8
LC-001-002-RND-0
  6
CONTINUOUS
  5
463
 10
518.710789
 20
459.867992
 30
0.0
 40
7.5
 50
90.0
 51
180.0
  0
ARC
  8
LC-001-002-RND-0
  6
CONTINUOUS
  5
464
 10
583.710789
 20
459.867992
 30
0.0
 40
7.5
 50
0.0
 51
90.0
  0
ARC
  8
LC-001-002-RND-0
  6
CONTINUOUS
  5
465
 10
583.710789
 20
394.867992
 30
0.0
 40
7.5
 50
270.0
 51
0.0
  0
ARC
  8
LC-001-002-RND-0
  6
CONTINUOUS
  5
466
 10
518.710789
 20
394.867992
 30
0.0
 40
7.5
 50
180.0
 51
270.0
  0
LINE
  8
LC-002-002-----0
  6
CONTINUOUS
  5
467
 10
597.710789
 20
378.367992
 30
0.0
 11
458.633981
 21
378.367992
 31
0.0
  0
ARC
  8
LC-001-002-RND-0
  6
CONTINUOUS
  5
468
 10
324.710789
 20
380.867992
 30
0.0
 40
2.5
 50
180.0
 51
270.0
  0
LINE
  8
LC-002-002-----0
  6
CONTINUOUS
  5
469
 10
562.460789
 20
404.617992
 30
0.0
 11
562.460789
 21
398.617992
 31
0.0
  0
LINE
  8
LC-002-002-----0
  6
CONTINUOUS
  5
46A
 10
598.710789
 20
377.367992
 30
0.0
 11
459.936079
 21
377.367992
 31
0.0
  0
LINE
  8
LC-002-002-----0
  6
CONTINUOUS
  5
46B
 10
321.210789
 20
379.867992
 30
0.0
 11
321.210789
 21
476.048707
 31
0.0
  0
LINE
  8
LC-002-002-----0
  6
CONTINUOUS
  5
46C
 10
539.960789
 20
404.617992
 30
0.0
 11
539.960789
 21
398.617992
 31
0.0
  0
LINE
  8
LC-002-002-----0
  6
CONTINUOUS
  5
46D
 10
797.659674
 20
457.867992
 30
0.0
 11
796.560971
 21
457.867992
 31
0.0
  0
LINE
  8
LC-002-002-----0
  6
CONTINUOUS
  5
46E
 10
796.560971
 20
457.867992
 30
0.0
 11
796.560971
 21
396.867992
 31
0.0
  0
ARC
  8
LC-001-002-RND-0
  6
CONTINUOUS
  5
46F
 10
797.659674
 20
455.867992
 30
0.0
 40
2.0
 50
2.898577
 51
90.0
  0
ARC
  8
LC-001-002-RND-0
  6
CONTINUOUS
  5
470
 10
797.659674
 20
398.867992
 30
0.0
 40
2.0
 50
270.0
 51
357.101423
  0
LINE
  8
LC-002-002-----0
  6
CONTINUOUS
 62
     2
  5
471
 10
799.657116
 20
455.969128
 30
0.0
 11
799.657116
 21
398.766856
 31
0.0
  0
LINE
  8
LC-002-002-----0
  6
CONTINUOUS
  5
472
 10
800.560971
 20
438.117992
 30
0.0
 11
800.560971
 21
416.617992
 31
0.0
  0
LINE
  8
LC-002-002-----0
  6
CONTINUOUS
  5
473
 10
799.657116
 20
455.969128
 30
0.0
 11
800.560971
 21
438.117992
 31
0.0
  0
LINE
  8
LC-002-002-----0
  6
CONTINUOUS
  5
474
 10
800.560971
 20
416.617992
 30
0.0
 11
799.657116
 21
398.766856
 31
0.0
  0
LINE
  8
LC-002-002-----0
  6
CONTINUOUS
  5
475
 10
797.659674
 20
396.867992
 30
0.0
 11
796.560971
 21
396.867992
 31
0.0
  0
LINE
  8
LC-002-002-----0
  6
DASHDOT
 62
     2
  5
476
 10
796.560971
 20
427.367992
 30
0.0
 11
800.560971
 21
427.367992
 31
0.0
  0
ARC
  8
LC-001-002-RND-0
  6
CONTINUOUS
  5
477
 10
-68.469817
 20
284.209984
 30
0.0
 40
4.0
 50
0.0
 51
90.0
  0
ARC
  8
LC-001-002-RND-0
  6
CONTINUOUS
  5
478
 10
-110.469817
 20
284.209984
 30
0.0
 40
4.0
 50
103.342364
 51
180.0
  0
LINE
  8
LC-002-002-----0
  6
CONTINUOUS
  5
479
 10
-64.969817
 20
340.209984
 30
0.0
 11
-64.969817
 21
390.209984
 31
0.0
  0
LINE
  8
LC-002-002-----0
  6
CONTINUOUS
  5
47A
 10
-64.969817
 20
461.033053
 30
0.0
 11
-64.969817
 21
468.209984
 31
0.0
  0
LINE
  8
LC-002-002-----0
  6
CONTINUOUS
  5
47B
 10
-66.469817
 20
339.209984
 30
0.0
 11
-66.469817
 21
390.209984
 31
0.0
  0
LINE
  8
LC-002-002-----0
  6
CONTINUOUS
  5
47C
 10
-66.469817
 20
464.209984
 30
0.0
 11
-66.469817
 21
469.209984
 31
0.0
  0
LINE
  8
LC-002-002-----0
  6
CONTINUOUS
  5
47D
 10
-62.969817
 20
343.209984
 30
0.0
 11
-62.969817
 21
390.209984
 31
0.0
  0
LINE
  8
LC-002-002-----0
  6
CONTINUOUS
  5
47E
 10
796.560971
 20
396.867992
 30
0.0
 11
796.560971
 21
396.867992
 31
0.0
  0
ARC
  8
LC-002-002-----0
  6
CONTINUOUS
  5
47F
 10
371.210789
 20
427.367992
 30
0.0
 40
30.5
 50
119.459175
 51
239.456211
  0
ARC
  8
LC-002-002-----0
  6
CONTINUOUS
  5
480
 10
371.210789
 20
427.367992
 30
0.0
 40
30.5
 50
301.798913
 51
60.540825
  0
LINE
  8
LC-002-002-----0
  6
CONTINUOUS
  5
481
 10
-67.969817
 20
340.209984
 30
0.0
 11
-67.969817
 21
390.209984
 31
0.0
  0
LINE
  8
LC-002-002-----0
  6
CONTINUOUS
  5
482
 10
-67.969817
 20
464.209984
 30
0.0
 11
-67.969817
 21
468.209984
 31
0.0
  0
ARC
  8
LC-002-002-----0
  6
CONTINUOUS
  5
483
 10
451.21506
 20
427.367992
 30
0.0
 40
27.0
 50
293.556464
 51
246.443536
  0
LINE
  8
LC-002-002-----0
  6
CONTINUOUS
  5
484
 10
-161.974716
 20
443.709481
 30
0.0
 11
-161.974716
 21
477.385072
 31
0.0
  0
LINE
  8
LC-002-002-----0
  6
CONTINUOUS
  5
485
 10
-61.969817
 20
288.209984
 30
0.0
 11
-66.969817
 21
288.209984
 31
0.0
  0
LINE
  8
LC-002-002-----0
  6
CONTINUOUS
  5
486
 10
-114.469817
 20
284.209984
 30
0.0
 11
-114.469817
 21
237.709984
 31
0.0
  0
LINE
  8
LC-002-002-----0
  6
CONTINUOUS
  5
487
 10
-69.469817
 20
341.209984
 30
0.0
 11
-69.469817
 21
290.709984
 31
0.0
  0
LINE
  8
LC-002-002-----0
  6
CONTINUOUS
  5
488
 10
-110.969817
 20
343.709984
 30
0.0
 11
-110.969817
 21
366.209984
 31
0.0
  0
LINE
  8
LC-007-001-----0
  6
CONTINUOUS
 62
     1
  5
489
 10
-114.469817
 20
237.709984
 30
0.0
 11
-64.469817
 21
237.709984
 31
0.0
  0
LINE
  8
LC-002-002-----0
  6
CONTINUOUS
  5
48A
 10
-64.469817
 20
237.709984
 30
0.0
 11
-66.490543
 21
234.209984
 31
0.0
  0
LINE
  8
LC-002-002-----0
  6
CONTINUOUS
  5
48B
 10
-114.469817
 20
237.709984
 30
0.0
 11
-112.449091
 21
234.209984
 31
0.0
  0
LINE
  8
LC-002-002-----0
  6
DASHDOT
 62
     2
  5
48C
 10
-89.469817
 20
341.209984
 30
0.0
 11
-89.469817
 21
234.209984
 31
0.0
  0
LINE
  8
LC-002-002-----0
  6
CONTINUOUS
  5
48D
 10
-70.469817
 20
341.209984
 30
0.0
 11
-67.969817
 21
341.209984
 31
0.0
  0
ARC
  8
LC-001-002-RND-0
  6
CONTINUOUS
  5
48E
 10
-66.969817
 20
340.209984
 30
0.0
 40
1.0
 50
180.0
 51
270.0
  0
LINE
  8
LC-002-002-----0
  6
CONTINUOUS
  5
48F
 10
-65.969817
 20
339.209984
 30
0.0
 11
-66.969817
 21
339.209984
 31
0.0
  0
ARC
  8
LC-001-002-RND-0
  6
CONTINUOUS
  5
490
 10
-65.969817
 20
340.209984
 30
0.0
 40
1.0
 50
270.0
 51
0.0
  0
ARC
  8
LC-001-002-RND-0
  6
CONTINUOUS
  5
491
 10
-65.969817
 20
468.209984
 30
0.0
 40
1.0
 50
0.0
 51
90.0
  0
ARC
  8
LC-001-002-RND-0
  6
CONTINUOUS
  5
492
 10
-66.969817
 20
468.209984
 30
0.0
 40
1.0
 50
90.0
 51
180.0
  0
LINE
  8
LC-002-002-----0
  6
CONTINUOUS
  5
493
 10
-66.969817
 20
469.209984
 30
0.0
 11
-65.969817
 21
469.209984
 31
0.0
  0
LINE
  8
LC-002-002-----0
  6
CONTINUOUS
  5
494
 10
-70.469817
 20
341.209984
 30
0.0
 11
-108.469817
 21
341.209984
 31
0.0
  0
LINE
  8
LC-002-002-----0
  6
CONTINUOUS
  5
495
 10
-67.969817
 20
467.209984
 30
0.0
 11
-89.469817
 21
467.209984
 31
0.0
  0
LINE
  8
LC-002-002-----0
  6
CONTINUOUS
  5
496
 10
-53.969817
 20
484.709984
 30
0.0
 11
-61.969817
 21
484.709984
 31
0.0
  0
LINE
  8
LC-002-002-----0
  6
CONTINUOUS
  5
497
 10
-51.969817
 20
478.495947
 30
0.0
 11
-53.969817
 21
478.495947
 31
0.0
  0
ARC
  8
LC-001-002-RND-0
  6
CONTINUOUS
  5
498
 10
-64.969817
 20
343.209984
 30
0.0
 40
2.0
 50
270.0
 51
0.0
  0
ARC
  8
LC-001-002-RND-0
  6
CONTINUOUS
  5
499
 10
-64.969817
 20
465.209984
 30
0.0
 40
2.0
 50
0.0
 51
90.0
  0
LINE
  8
LC-002-002-----0
  6
CONTINUOUS
  5
49A
 10
600.210789
 20
380.554147
 30
0.0
 11
600.210789
 21
474.867992
 31
0.0
  0
LINE
  8
LC-002-002-----0
  6
CONTINUOUS
  5
49B
 10
148.270183
 20
447.209984
 30
0.0
 11
148.270183
 21
449.709984
 31
0.0
  0
LINE
  8
LC-002-002-----0
  6
CONTINUOUS
  5
49C
 10
322.210789
 20
380.867992
 30
0.0
 11
322.210789
 21
473.867992
 31
0.0
  0
LINE
  8
LC-002-002-----0
  6
CONTINUOUS
  5
49D
 10
324.710789
 20
476.367992
 30
0.0
 11
356.720905
 21
476.367992
 31
0.0
  0
ARC
  8
LC-001-002-RND-0
  6
CONTINUOUS
  5
49E
 10
324.710789
 20
473.867992
 30
0.0
 40
2.5
 50
90.0
 51
180.0
  0
ARC
  8
LC-001-002-RND-0
  6
CONTINUOUS
  5
49F
 10
597.710789
 20
380.867992
 30
0.0
 40
2.5
 50
270.0
 51
0.0
  0
ARC
  8
LC-001-002-RND-0
  6
CONTINUOUS
  5
4A0
 10
597.710789
 20
473.867992
 30
0.0
 40
2.5
 50
0.0
 51
90.0
  0
LINE
  8
LC-002-002-----0
  6
CONTINUOUS
  5
4A1
 10
-161.974716
 20
377.209481
 30
0.0
 11
-161.974716
 21
410.709481
 31
0.0
  0
LINE
  8
LC-002-002-----0
  6
CONTINUOUS
  5
4A2
 10
385.700673
 20
476.367992
 30
0.0
 11
597.710789
 21
476.367992
 31
0.0
  0
CIRCLE
  8
LC-002-002-----0
  6
DASHED
 62
     2
  5
4A3
 10
404.210789
 20
427.367992
 30
0.0
 40
2.6
  0
LINE
  8
LC-002-002-----0
  6
CONTINUOUS
  5
4A4
 10
-161.974716
 20
377.209481
 30
0.0
 11
-166.096037
 21
381.330801
 31
0.0
  0
ARC
  8
LC-002-002-----0
  6
CONTINUOUS
  5
4A5
 10
-163.974716
 20
383.452122
 30
0.0
 40
3.0
 50
180.0
 51
225.0
  0
LINE
  8
LC-002-002-----0
  6
CONTINUOUS
  5
4A6
 10
359.254473
 20
378.367992
 30
0.0
 11
324.710789
 21
378.367992
 31
0.0
  0
CIRCLE
  8
LC-002-002-----0
  6
DASHED
 62
     2
  5
4A7
 10
404.210789
 20
427.367992
 30
0.0
 40
5.0
  0
CIRCLE
  8
LC-002-002-----0
  6
DASHED
 62
     2
  5
4A8
 10
498.210789
 20
427.367992
 30
0.0
 40
2.6
  0
LINE
  8
LC-002-002-----0
  6
CONTINUOUS
  5
4A9
 10
148.270183
 20
404.209984
 30
0.0
 11
135.170183
 21
404.209984
 31
0.0
  0
CIRCLE
  8
LC-002-002-----0
  6
DASHED
 62
     2
  5
4AA
 10
498.210789
 20
427.367992
 30
0.0
 40
5.0
  0
LINE
  8
LC-002-002-----0
  6
CONTINUOUS
  5
4AB
 10
-161.974716
 20
477.209481
 30
0.0
 11
-166.096037
 21
473.088161
 31
0.0
  0
ARC
  8
LC-002-002-----0
  6
CONTINUOUS
  5
4AC
 10
-163.974716
 20
470.96684
 30
0.0
 40
3.0
 50
135.0
 51
180.0
  0
LINE
  8
LC-002-002-----0
  6
CONTINUOUS
  5
4AD
 10
-53.969817
 20
453.209984
 30
0.0
 11
-53.969817
 21
401.209984
 31
0.0
  0
LINE
  8
LC-002-002-----0
  6
CONTINUOUS
  5
4AE
 10
358.210789
 20
410.617992
 30
0.0
 11
384.210789
 21
410.617992
 31
0.0
  0
CIRCLE
  8
LC-002-002-----0
  6
DASHED
 62
     2
  5
4AF
 10
406.436867
 20
387.865193
 30
0.0
 40
2.6
  0
LINE
  8
LC-002-002-----0
  6
CONTINUOUS
  5
4B0
 10
-51.969817
 20
453.209984
 30
0.0
 11
-53.969817
 21
453.209984
 31
0.0
  0
LINE
  8
LC-002-002-----0
  6
CONTINUOUS
  5
4B1
 10
-51.969817
 20
401.209984
 30
0.0
 11
-53.969817
 21
401.209984
 31
0.0
  0
LINE
  8
LC-002-002-----0
  6
CONTINUOUS
  5
4B2
 10
-51.969817
 20
375.924021
 30
0.0
 11
-53.969817
 21
375.924021
 31
0.0
  0
LINE
  8
LC-002-002-----0
  6
CONTINUOUS
  5
4B3
 10
-51.969817
 20
401.209984
 30
0.0
 11
-51.969817
 21
375.924021
 31
0.0
  0
LINE
  8
LC-002-002-----0
  6
CONTINUOUS
  5
4B4
 10
-53.969817
 20
378.743501
 30
0.0
 11
-53.969817
 21
369.709984
 31
0.0
  0
LINE
  8
LC-002-002-----0
  6
CONTINUOUS
  5
4B5
 10
-53.969817
 20
369.709984
 30
0.0
 11
-61.969817
 21
369.709984
 31
0.0
  0
ARC
  8
LC-001-002-RND-0
  6
CONTINUOUS
  5
4B6
 10
-61.969817
 20
483.709984
 30
0.0
 40
1.0
 50
90.0
 51
180.0
  0
LINE
  8
LC-002-002-----0
  6
CONTINUOUS
  5
4B7
 10
-53.969817
 20
453.209984
 30
0.0
 11
-53.969817
 21
475.613998
 31
0.0
  0
LINE
  8
LC-002-002-----0
  6
CONTINUOUS
  5
4B8
 10
-53.969817
 20
384.709984
 30
0.0
 11
-53.969817
 21
378.709984
 31
0.0
  0
LINE
  8
LC-002-002-----0
  6
CONTINUOUS
  5
4B9
 10
-53.969817
 20
384.709984
 30
0.0
 11
-53.969817
 21
401.209984
 31
0.0
  0
ARC
  8
LC-001-002-RND-0
  6
CONTINUOUS
  5
4BA
 10
-61.969817
 20
370.709984
 30
0.0
 40
1.0
 50
180.0
 51
270.0
  0
LINE
  8
LC-002-002-----0
  6
CONTINUOUS
  5
4BB
 10
-53.969817
 20
452.209984
 30
0.0
 11
-50.969817
 21
452.209984
 31
0.0
  0
LINE
  8
LC-002-002-----0
  6
CONTINUOUS
  5
4BC
 10
-50.969817
 20
452.209984
 30
0.0
 11
-50.969817
 21
402.209984
 31
0.0
  0
LINE
  8
LC-002-002-----0
  6
CONTINUOUS
  5
4BD
 10
-50.969817
 20
402.209984
 30
0.0
 11
-53.969817
 21
402.209984
 31
0.0
  0
ARC
  8
LC-002-002-----0
  6
DASHED
 62
     2
  5
4BE
 10
406.436867
 20
387.865193
 30
0.0
 40
5.0
 50
33.009186
 51
331.414343
  0
CIRCLE
  8
LC-002-002-----0
  6
DASHED
 62
     2
  5
4BF
 10
492.436867
 20
388.365193
 30
0.0
 40
2.6
  0
ARC
  8
LC-002-002-----0
  6
DASHED
 62
     2
  5
4C0
 10
492.436867
 20
388.365193
 30
0.0
 40
5.0
 50
209.283206
 51
221.822378
  0
LINE
  8
LC-002-002-----0
  6
DASHED
 62
     2
  5
4C1
 10
384.71506
 20
454.367992
 30
0.0
 11
357.71506
 21
454.367992
 31
0.0
  0
LINE
  8
LC-002-002-----0
  6
CONTINUOUS
  5
4C2
 10
386.710789
 20
393.617992
 30
0.0
 11
355.710789
 21
393.617992
 31
0.0
  0
LINE
  8
LC-002-002-----0
  6
CONTINUOUS
  5
4C3
 10
355.710789
 20
393.617992
 30
0.0
 11
355.710789
 21
408.117992
 31
0.0
  0
LINE
  8
LC-002-002-----0
  6
CONTINUOUS
  5
4C4
 10
148.270183
 20
406.709984
 30
0.0
 11
135.170183
 21
406.709984
 31
0.0
  0
LINE
  8
LC-002-002-----0
  6
CONTINUOUS
  5
4C5
 10
386.710789
 20
408.117992
 30
0.0
 11
386.710789
 21
393.617992
 31
0.0
  0
LINE
  8
LC-002-002-----0
  6
DASHED
 62
     2
  5
4C6
 10
357.71506
 20
436.745779
 30
0.0
 11
357.71506
 21
454.367992
 31
0.0
  0
CIRCLE
  8
LC-002-002-----0
  6
DASHED
 62
     2
  5
4C7
 10
391.21506
 20
427.367992
 30
0.0
 40
3.0
  0
LINE
  8
LC-002-002-----0
  6
CONTINUOUS
  5
4C8
 10
232.070789
 20
452.367992
 30
0.0
 11
232.070789
 21
402.367992
 31
0.0
  0
LINE
  8
LC-002-002-----0
  6
DASHED
 62
     2
  5
4C9
 10
384.71506
 20
436.745779
 30
0.0
 11
384.71506
 21
454.367992
 31
0.0
  0
LINE
  8
LC-002-002-----0
  6
CONTINUOUS
  5
4CA
 10
358.210789
 20
410.617992
 30
0.0
 11
355.710789
 21
408.117992
 31
0.0
  0
LINE
  8
LC-002-002-----0
  6
CONTINUOUS
  5
4CB
 10
384.210789
 20
410.617992
 30
0.0
 11
386.710789
 21
408.117992
 31
0.0
  0
LINE
  8
LC-002-002-----0
  6
CONTINUOUS
  5
4CC
 10
632.070789
 20
452.367992
 30
0.0
 11
632.070789
 21
402.367992
 31
0.0
  0
LINE
  8
LC-010-002-___-0
  5
4CE
 10
369.68056
 20
418.195462
 30
0.0
 11
360.028983
 21
419.810103
 31
0.0
  0
LINE
  8
LC-010-002-___-0
  5
4CF
 10
372.74956
 20
436.540522
 30
0.0
 11
384.71506
 21
434.538778
 31
0.0
  0
LINE
  8
LC-002-002-----0
  6
DASHED
 62
     2
  5
4D0
 10
392.256987
 20
433.277067
 30
0.0
 11
384.71506
 21
434.538778
 31
0.0
  0
ARC
  8
LC-002-002-----0
  6
DASHED
 62
     2
  5
4D1
 10
391.21506
 20
427.367992
 30
0.0
 40
6.0
 50
279.497234
 51
80.0
  0
LINE
  8
LC-002-002-----0
  6
DASHED
 62
     2
  5
4D2
 10
392.20506
 20
421.450231
 30
0.0
 11
382.401137
 21
419.810103
 31
0.0
  0
LINE
  8
LC-002-002-----0
  6
DASHED
 62
     2
  5
4D3
 10
350.173133
 20
433.277067
 30
0.0
 11
357.71506
 21
434.538778
 31
0.0
  0
ARC
  8
LC-002-002-----0
  6
DASHED
 62
     2
  5
4D4
 10
351.21506
 20
427.367992
 30
0.0
 40
6.0
 50
100.0
 51
260.502766
  0
LINE
  8
LC-002-002-----0
  6
DASHED
 62
     2
  5
4D5
 10
321.210789
 20
402.367992
 30
0.0
 11
601.210789
 21
402.367992
 31
0.0
  0
LINE
  8
LC-002-002-----0
  6
DASHED
 62
     2
  5
4D6
 10
350.22506
 20
421.450231
 30
0.0
 11
360.028983
 21
419.810103
 31
0.0
  0
LINE
  8
LC-010-002-___-0
  5
4D7
 10
372.74956
 20
418.195462
 30
0.0
 11
382.401137
 21
419.810103
 31
0.0
  0
CIRCLE
  8
LC-002-002-----0
  6
DASHED
 62
     2
  5
4D8
 10
351.21506
 20
427.367992
 30
0.0
 40
3.0
  0
LINE
  8
LC-010-002-___-0
  5
4D9
 10
369.68056
 20
436.540522
 30
0.0
 11
357.71506
 21
434.538778
 31
0.0
  0
LINE
  8
LC-002-002-----0
  6
DASHED
 62
     2
  5
4DA
 10
321.210789
 20
452.367992
 30
0.0
 11
601.210789
 21
452.367992
 31
0.0
  0
LINE
  8
LC-002-002-----0
  6
CONTINUOUS
  5
4DB
 10
232.070789
 20
402.367992
 30
0.0
 11
321.210789
 21
402.367992
 31
0.0
  0
LINE
  8
LC-002-002-----0
  6
CONTINUOUS
  5
4DC
 10
232.070789
 20
452.367992
 30
0.0
 11
321.210789
 21
452.367992
 31
0.0
  0
ARC
  8
LC-002-002-----0
  6
DASHED
 62
     2
  5
4DD
 10
451.210789
 20
427.367992
 30
0.0
 40
57.5
 50
121.768796
 51
150.287235
  0
LINE
  8
LC-002-002-----0
  6
CONTINUOUS
  5
4DE
 10
411.140404
 20
377.367992
 30
0.0
 11
412.236531
 21
348.986919
 31
0.0
  0
ARC
  8
LC-002-002-----0
  6
DASHED
 62
     2
  5
4DF
 10
451.210789
 20
427.367992
 30
0.0
 40
57.5
 50
29.88571
 51
60.408154
  0
LINE
  8
LC-002-002-----0
  6
DASHED
 62
     2
  5
4E0
 10
487.013226
 20
377.367992
 30
0.0
 11
493.210606
 21
427.244181
 31
0.0
  0
LINE
  8
LC-002-002-----0
  6
DASHED
 62
     2
  5
4E1
 10
487.695188
 20
382.856386
 30
0.0
 11
488.710789
 21
391.029887
 31
0.0
  0
ARC
  8
LC-002-002-----0
  6
DASHED
 62
     2
  5
4E2
 10
492.436867
 20
388.365193
 30
0.0
 40
5.0
 50
221.822378
 51
136.550794
  0
ARC
  8
LC-002-002-----0
  6
CONTINUOUS
  5
4E3
 10
451.210789
 20
427.367992
 30
0.0
 40
57.5
 50
56.238444
 51
119.591846
  0
ARC
  8
LC-002-002-----0
  6
DASHED
 62
     2
  5
4E4
 10
451.210789
 20
427.367992
 30
0.0
 40
42.0
 50
26.765501
 51
180.052638
  0
ARC
  8
LC-002-002-----0
  6
CONTINUOUS
  5
4E5
 10
451.21506
 20
427.367992
 30
0.0
 40
19.0
 50
309.720187
 51
230.279778
  0
ARC
  8
LC-002-002-----0
  6
CONTINUOUS
  5
4E6
 10
451.21506
 20
427.367992
 30
0.0
 40
14.0
 50
315.584808
 51
224.415063
  0
ARC
  8
LC-002-002-----0
  6
CONTINUOUS
  5
4E7
 10
451.21506
 20
427.367992
 30
0.0
 40
13.0
 50
320.28498
 51
219.714892
  0
LINE
  8
LC-002-002-----0
  6
CONTINUOUS
  5
4E8
 10
460.46506
 20
385.367992
 30
0.0
 11
441.96506
 21
385.367992
 31
0.0
  0
LINE
  8
LC-002-002-----0
  6
CONTINUOUS
  5
4E9
 10
459.230771
 20
378.367992
 30
0.0
 11
443.177207
 21
378.367992
 31
0.0
  0
LINE
  8
LC-002-002-----0
  6
CONTINUOUS
  5
4EA
 10
461.21506
 20
392.367992
 30
0.0
 11
441.21506
 21
392.367992
 31
0.0
  0
LINE
  8
LC-002-002-----0
  6
CONTINUOUS
  5
4EB
 10
461.96506
 20
399.367992
 30
0.0
 11
440.46506
 21
399.367992
 31
0.0
  0
LINE
  8
LC-002-002-----0
  6
CONTINUOUS
  5
4EC
 10
462.71506
 20
406.367992
 30
0.0
 11
439.71506
 21
406.367992
 31
0.0
  0
LINE
  8
LC-002-002-----0
  6
CONTINUOUS
  5
4ED
 10
461.21506
 20
413.367992
 30
0.0
 11
461.21506
 21
419.061368
 31
0.0
  0
LINE
  8
LC-002-002-----0
  6
CONTINUOUS
  5
4EE
 10
441.21506
 20
413.367992
 30
0.0
 11
441.21506
 21
419.061368
 31
0.0
  0
LINE
  8
LC-002-002-----0
  6
CONTINUOUS
  5
4EF
 10
439.71506
 20
406.367992
 30
0.0
 11
440.949349
 21
399.367992
 31
0.0
  0
LINE
  8
LC-002-002-----0
  6
CONTINUOUS
  5
4F0
 10
440.46506
 20
399.367992
 30
0.0
 11
441.699349
 21
392.367992
 31
0.0
  0
LINE
  8
LC-002-002-----0
  6
CONTINUOUS
  5
4F1
 10
441.21506
 20
392.367992
 30
0.0
 11
442.449349
 21
385.367992
 31
0.0
  0
LINE
  8
LC-002-002-----0
  6
CONTINUOUS
  5
4F2
 10
441.96506
 20
385.367992
 30
0.0
 11
443.177207
 21
378.493563
 31
0.0
  0
LINE
  8
LC-002-002-----0
  6
CONTINUOUS
  5
4F3
 10
462.71506
 20
406.367992
 30
0.0
 11
461.480771
 21
399.367992
 31
0.0
  0
LINE
  8
LC-002-002-----0
  6
CONTINUOUS
  5
4F4
 10
461.96506
 20
399.367992
 30
0.0
 11
460.730771
 21
392.367992
 31
0.0
  0
LINE
  8
LC-002-002-----0
  6
CONTINUOUS
  5
4F5
 10
461.21506
 20
392.367992
 30
0.0
 11
459.980771
 21
385.367992
 31
0.0
  0
LINE
  8
LC-002-002-----0
  6
CONTINUOUS
  5
4F6
 10
460.46506
 20
385.367992
 30
0.0
 11
459.230771
 21
378.367992
 31
0.0
  0
LINE
  8
LC-007-001-----0
  6
CONTINUOUS
 62
     1
  5
4F7
 10
462.71506
 20
413.367992
 30
0.0
 11
439.71506
 21
413.367992
 31
0.0
  0
LINE
  8
LC-002-002-----0
  6
CONTINUOUS
  5
4F8
 10
439.71506
 20
413.367992
 30
0.0
 11
438.96506
 21
413.367992
 31
0.0
  0
LINE
  8
LC-002-002-----0
  6
CONTINUOUS
  5
4F9
 10
462.71506
 20
413.367992
 30
0.0
 11
463.46506
 21
413.367992
 31
0.0
  0
LINE
  8
LC-002-002-----0
  6
CONTINUOUS
  5
4FA
 10
463.46506
 20
413.367992
 30
0.0
 11
462.230771
 21
406.367992
 31
0.0
  0
LINE
  8
LC-002-002-----0
  6
CONTINUOUS
  5
4FB
 10
438.96506
 20
413.367992
 30
0.0
 11
440.199349
 21
406.367992
 31
0.0
  0
LINE
  8
LC-002-002-----0
  6
CONTINUOUS
  5
4FC
 10
355.710789
 20
408.117992
 30
0.0
 11
386.710789
 21
408.117992
 31
0.0
  0
LINE
  8
LC-002-002-----0
  6
CONTINUOUS
  5
4FD
 10
383.460789
 20
393.617992
 30
0.0
 11
383.460789
 21
391.117992
 31
0.0
  0
LINE
  8
LC-002-002-----0
  6
CONTINUOUS
  5
4FE
 10
383.460789
 20
391.117992
 30
0.0
 11
358.960789
 21
391.117992
 31
0.0
  0
LINE
  8
LC-002-002-----0
  6
CONTINUOUS
  5
4FF
 10
358.960789
 20
391.117992
 30
0.0
 11
358.960789
 21
393.617992
 31
0.0
  0
LINE
  8
LC-002-002-----0
  6
CONTINUOUS
  5
500
 10
384.710789
 20
391.117992
 30
0.0
 11
384.710789
 21
386.117992
 31
0.0
  0
LINE
  8
LC-002-002-----0
  6
CONTINUOUS
  5
501
 10
384.710789
 20
386.117992
 30
0.0
 11
357.710789
 21
386.117992
 31
0.0
  0
LINE
  8
LC-002-002-----0
  6
CONTINUOUS
  5
502
 10
357.710789
 20
386.117992
 30
0.0
 11
357.710789
 21
391.117992
 31
0.0
  0
LINE
  8
LC-002-002-----0
  6
CONTINUOUS
  5
503
 10
357.710789
 20
391.117992
 30
0.0
 11
358.960789
 21
391.117992
 31
0.0
  0
LINE
  8
LC-002-002-----0
  6
CONTINUOUS
  5
504
 10
383.460789
 20
391.117992
 30
0.0
 11
384.710789
 21
391.117992
 31
0.0
  0
ARC
  8
LC-002-002-----0
  6
CONTINUOUS
  5
505
 10
359.883396
 20
388.617992
 30
0.0
 40
0.5
 50
136.08159
 51
223.918258
  0
ARC
  8
LC-002-002-----0
  6
CONTINUOUS
  5
506
 10
364.585789
 20
384.089867
 30
0.0
 40
7.028125
 50
43.91841
 51
136.081571
  0
ARC
  8
LC-002-002-----0
  6
CONTINUOUS
  5
507
 10
369.288182
 20
388.617992
 30
0.0
 40
0.5
 50
316.081648
 51
43.91841
  0
ARC
  8
LC-002-002-----0
  6
CONTINUOUS
  5
508
 10
364.585789
 20
393.146117
 30
0.0
 40
7.028125
 50
223.918258
 51
316.08159
  0
ARC
  8
LC-002-002-----0
  6
CONTINUOUS
  5
509
 10
373.133396
 20
388.617992
 30
0.0
 40
0.5
 50
136.08159
 51
223.918258
  0
ARC
  8
LC-002-002-----0
  6
CONTINUOUS
  5
50A
 10
377.835789
 20
384.089867
 30
0.0
 40
7.028125
 50
43.91841
 51
136.081571
  0
ARC
  8
LC-002-002-----0
  6
CONTINUOUS
  5
50B
 10
382.538182
 20
388.617992
 30
0.0
 40
0.5
 50
316.081648
 51
43.91841
  0
ARC
  8
LC-002-002-----0
  6
CONTINUOUS
  5
50C
 10
377.835789
 20
393.146117
 30
0.0
 40
7.028125
 50
223.918258
 51
316.08159
  0
LINE
  8
LC-007-001-----0
  5
50D
 10
384.710789
 20
388.617992
 30
0.0
 11
357.710789
 21
388.617992
 31
0.0
  0
ARC
  8
LC-002-002-----0
  6
CONTINUOUS
  5
50E
 10
356.377455
 20
388.617992
 30
0.0
 40
2.833333
 50
298.072604
 51
61.927571
  0
ARC
  8
LC-002-002-----0
  6
CONTINUOUS
  5
50F
 10
386.044122
 20
388.617992
 30
0.0
 40
2.833333
 50
118.072449
 51
241.92719
  0
LINE
  8
LC-002-002-----0
  6
CONTINUOUS
  5
510
 10
384.210789
 20
410.617992
 30
0.0
 11
384.210789
 21
436.745779
 31
0.0
  0
LINE
  8
LC-002-002-----0
  6
CONTINUOUS
  5
511
 10
358.210789
 20
436.745779
 30
0.0
 11
358.210789
 21
410.617992
 31
0.0
  0
LINE
  8
LC-002-002-----0
  6
CONTINUOUS
  5
512
 10
135.170183
 20
404.209984
 30
0.0
 11
135.170183
 21
406.709984
 31
0.0
  0
LINE
  8
LC-002-002-----0
  6
CONTINUOUS
  5
513
 10
148.270183
 20
404.209984
 30
0.0
 11
148.270183
 21
406.709984
 31
0.0
  0
ARC
  8
LC-002-002-----0
  6
CONTINUOUS
  5
514
 10
371.210789
 20
475.16963
 30
0.0
 40
15.089328
 50
201.038766
 51
338.961234
  0
LINE
  8
LC-002-002-----0
  6
CONTINUOUS
  5
515
 10
148.270183
 20
382.707185
 30
0.0
 11
148.270183
 21
392.707185
 31
0.0
  0
LINE
  8
LC-002-002-----0
  6
CONTINUOUS
  5
516
 10
135.170183
 20
382.707185
 30
0.0
 11
148.270183
 21
382.707185
 31
0.0
  0
LINE
  8
LC-002-002-----0
  6
CONTINUOUS
  5
517
 10
356.210789
 20
436.745779
 30
0.0
 11
386.210789
 21
436.745779
 31
0.0
  0
LINE
  8
LC-002-002-----0
  6
CONTINUOUS
  5
518
 10
135.170183
 20
382.707185
 30
0.0
 11
135.170183
 21
392.707185
 31
0.0
  0
LINE
  8
LC-002-002-----0
  6
CONTINUOUS
  5
519
 10
386.210789
 20
457.200681
 30
0.0
 11
386.210789
 21
436.745779
 31
0.0
  0
LINE
  8
LC-002-002-----0
  6
CONTINUOUS
  5
51A
 10
356.210789
 20
457.200681
 30
0.0
 11
356.210789
 21
436.745779
 31
0.0
  0
ARC
  8
LC-002-002-----0
  6
CONTINUOUS
  5
51B
 10
371.305387
 20
471.122742
 30
0.0
 40
15.285373
 50
170.938229
 51
15.516647
  0
LINE
  8
LC-002-002-----0
  6
CONTINUOUS
  5
51C
 10
135.170183
 20
392.707185
 30
0.0
 11
148.270183
 21
392.707185
 31
0.0
  0
LINE
  8
LC-002-002-----0
  6
DASHDOT
 62
     2
  5
51D
 10
132.662889
 20
387.707185
 30
0.0
 11
149.405363
 21
387.707185
 31
0.0
  0
ARC
  8
LC-002-002-----0
  6
CONTINUOUS
  5
51E
 10
371.210789
 20
429.169302
 30
0.0
 40
22.868191
 50
73.486718
 51
106.513282
  0
LINE
  8
LC-002-002-----0
  6
CONTINUOUS
  5
51F
 10
70.329174
 20
377.209984
 30
0.0
 11
70.329174
 21
410.709984
 31
0.0
  0
LINE
  8
LC-002-002-----0
  6
CONTINUOUS
 62
     2
  5
520
 10
383.710789
 20
386.117992
 30
0.0
 11
358.710789
 21
383.930776
 31
0.0
  0
LINE
  8
LC-002-002-----0
  6
CONTINUOUS
 62
     2
  5
521
 10
383.710789
 20
379.091253
 30
0.0
 11
372.586363
 21
378.117992
 31
0.0
  0
LINE
  8
LC-002-002-----0
  6
CONTINUOUS
 62
     2
  5
522
 10
383.710789
 20
380.095073
 30
0.0
 11
361.11265
 21
378.117992
 31
0.0
  0
LINE
  8
LC-002-002-----0
  6
CONTINUOUS
 62
     2
  5
523
 10
371.210789
 20
386.028204
 30
0.0
 11
358.710789
 21
384.934595
 31
0.0
  0
LINE
  8
LC-002-002-----0
  6
CONTINUOUS
  5
524
 10
70.329174
 20
377.209984
 30
0.0
 11
66.207854
 21
381.331305
 31
0.0
  0
ARC
  8
LC-002-002-----0
  6
CONTINUOUS
  5
525
 10
68.329174
 20
383.452625
 30
0.0
 40
3.0
 50
180.0
 51
225.0
  0
LINE
  8
LC-002-002-----0
  6
CONTINUOUS
 62
     2
  5
526
 10
383.710789
 20
385.114172
 30
0.0
 11
358.710789
 21
382.926956
 31
0.0
  0
LINE
  8
LC-002-002-----0
  6
CONTINUOUS
 62
     2
  5
527
 10
383.710789
 20
384.110353
 30
0.0
 11
358.710789
 21
381.923136
 31
0.0
  0
LINE
  8
LC-002-002-----0
  6
CONTINUOUS
 62
     2
  5
528
 10
383.710789
 20
383.106533
 30
0.0
 11
358.710789
 21
380.919316
 31
0.0
  0
LINE
  8
LC-002-002-----0
  6
CONTINUOUS
 62
     2
  5
529
 10
383.710789
 20
382.102713
 30
0.0
 11
358.710789
 21
379.915496
 31
0.0
  0
LINE
  8
LC-002-002-----0
  6
CONTINUOUS
 62
     2
  5
52A
 10
383.710789
 20
381.098893
 30
0.0
 11
358.710789
 21
378.911676
 31
0.0
  0
LINE
  8
LC-002-002-----0
  6
CONTINUOUS
  5
52B
 10
358.710789
 20
378.911676
 30
0.0
 11
358.710789
 21
386.117992
 31
0.0
  0
LINE
  8
LC-002-002-----0
  6
CONTINUOUS
  5
52C
 10
358.710789
 20
378.911676
 30
0.0
 11
359.504473
 21
378.117992
 31
0.0
  0
LINE
  8
LC-002-002-----0
  6
CONTINUOUS
  5
52D
 10
383.710789
 20
378.911676
 30
0.0
 11
382.917105
 21
378.117992
 31
0.0
  0
LINE
  8
LC-002-002-----0
  6
CONTINUOUS
  5
52E
 10
382.917105
 20
378.117992
 30
0.0
 11
359.504473
 21
378.117992
 31
0.0
  0
LINE
  8
LC-002-002-----0
  6
CONTINUOUS
  5
52F
 10
383.710789
 20
386.117992
 30
0.0
 11
383.710789
 21
378.911676
 31
0.0
  0
LINE
  8
LC-002-002-----0
  6
CONTINUOUS
  5
530
 10
-166.974716
 20
467.209984
 30
0.0
 11
-169.974716
 21
467.209984
 31
0.0
  0
LINE
  8
LC-002-002-----0
  6
DASHED
 62
     2
  5
531
 10
347.710789
 20
455.867992
 30
0.0
 11
401.270825
 21
455.867992
 31
0.0
  0
LINE
  8
LC-002-002-----0
  6
DASHED
 62
     2
  5
532
 10
347.710789
 20
398.867992
 30
0.0
 11
401.270825
 21
398.867992
 31
0.0
  0
ARC
  8
LC-001-002-RND-0
  6
DASHED
 62
     2
  5
533
 10
347.710789
 20
450.867992
 30
0.0
 40
5.0
 50
90.0
 51
180.0
  0
ARC
  8
LC-001-002-RND-0
  6
DASHED
 62
     2
  5
534
 10
347.710789
 20
403.867992
 30
0.0
 40
5.0
 50
180.0
 51
270.0
  0
LINE
  8
LC-002-002-----0
  6
CONTINUOUS
  5
535
 10
-175.974716
 20
393.209984
 30
0.0
 11
-175.974716
 21
461.209984
 31
0.0
  0
LINE
  8
LC-002-002-----0
  6
CONTINUOUS
  5
536
 10
-166.974716
 20
387.209984
 30
0.0
 11
-169.974716
 21
387.209984
 31
0.0
  0
LINE
  8
LC-009-006-MLN-0
  6
DASHDOT
  5
537
 10
451.210789
 20
492.367992
 30
0.0
 11
451.210789
 21
329.367992
 31
0.0
  0
ARC
  8
LC-001-002-RND-0
  6
CONTINUOUS
  5
538
 10
-169.974716
 20
461.209984
 30
0.0
 40
6.0
 50
90.0
 51
180.0
  0
ARC
  8
LC-001-002-RND-0
  6
CONTINUOUS
  5
539
 10
-169.974716
 20
393.209984
 30
0.0
 40
6.0
 50
180.0
 51
270.0
  0
CIRCLE
  8
LC-002-002-----0
  6
DASHED
 62
     2
  5
53A
 10
391.210789
 20
427.367992
 30
0.0
 40
1.5
  0
CIRCLE
  8
LC-002-002-----0
  6
DASHED
 62
     2
  5
53B
 10
351.206517
 20
427.367992
 30
0.0
 40
1.5
  0
CIRCLE
  8
LC-002-002-----0
  6
DASHED
 62
     2
  5
53C
 10
404.210789
 20
427.367992
 30
0.0
 40
1.5
  0
LINE
  8
LC-002-002-----0
  6
DASHED
 62
     2
  5
53D
 10
342.710789
 20
450.867992
 30
0.0
 11
342.710789
 21
403.867992
 31
0.0
  0
LINE
  8
LC-002-002-----0
  6
DASHDOT
 62
     2
  5
53E
 10
451.210789
 20
381.867992
 30
0.0
 11
451.210789
 21
378.867992
 31
0.0
  0
LINE
  8
LC-002-002-----0
  6
DASHED
 62
     2
  5
53F
 10
-122.974716
 20
464.209984
 30
0.0
 11
-122.974716
 21
462.209984
 31
0.0
  0
CIRCLE
  8
LC-002-002-----0
  6
DASHED
 62
     2
  5
540
 10
498.210789
 20
427.367992
 30
0.0
 40
1.5
  0
LINE
  8
LC-002-002-----0
  6
CONTINUOUS
  5
541
 10
-166.974716
 20
383.628361
 30
0.0
 11
-166.974716
 21
471.548294
 31
0.0
  0
LINE
  8
LC-002-002-----0
  6
CONTINUOUS
  5
542
 10
-115.834716
 20
452.209984
 30
0.0
 11
-115.834716
 21
402.209984
 31
0.0
  0
LINE
  8
LC-002-002-----0
  6
CONTINUOUS
  5
543
 10
-57.957419
 20
473.706167
 30
0.0
 11
-57.957419
 21
474.71095
 31
0.0
  0
LINE
  8
LC-002-002-----0
  6
CONTINUOUS
  5
544
 10
-124.834716
 20
461.209984
 30
0.0
 11
-124.834716
 21
393.209984
 31
0.0
  0
LINE
  8
LC-002-002-----0
  6
DASHED
 62
     2
  5
545
 10
-118.974716
 20
464.209984
 30
0.0
 11
-118.974716
 21
462.209984
 31
0.0
  0
LINE
  8
LC-002-002-----0
  6
CONTINUOUS
  5
546
 10
-56.469817
 20
469.708237
 30
0.0
 11
-61.969817
 21
469.708237
 31
0.0
  0
LINE
  8
LC-002-002-----0
  6
CONTINUOUS
  5
547
 10
-124.834716
 20
461.209984
 30
0.0
 11
-115.834716
 21
452.209984
 31
0.0
  0
LINE
  8
LC-002-002-----0
  6
CONTINUOUS
  5
548
 10
-115.834716
 20
402.209984
 30
0.0
 11
-124.834716
 21
393.209984
 31
0.0
  0
LINE
  8
LC-002-002-----0
  6
CONTINUOUS
  5
549
 10
65.329174
 20
410.209984
 30
0.0
 11
65.329174
 21
383.452625
 31
0.0
  0
LINE
  8
LC-002-002-----0
  6
CONTINUOUS
  5
54A
 10
70.329174
 20
477.209984
 30
0.0
 11
66.207854
 21
473.088664
 31
0.0
  0
ARC
  8
LC-002-002-----0
  6
CONTINUOUS
  5
54B
 10
68.329174
 20
470.967344
 30
0.0
 40
3.0
 50
135.0
 51
180.0
  0
LINE
  8
LC-002-002-----0
  6
CONTINUOUS
  5
54C
 10
65.329174
 20
470.967344
 30
0.0
 11
65.329174
 21
410.209984
 31
0.0
  0
LINE
  8
LC-002-002-----0
  6
CONTINUOUS
  5
54D
 10
-126.974716
 20
464.209984
 30
0.0
 11
-126.974716
 21
462.209984
 31
0.0
  0
LINE
  8
LC-002-002-----0
  6
CONTINUOUS
  5
54E
 10
-126.974716
 20
392.209984
 30
0.0
 11
-126.974716
 21
390.209984
 31
0.0
  0
LINE
  8
LC-002-002-----0
  6
CONTINUOUS
  5
54F
 10
-57.957419
 20
474.71095
 30
0.0
 11
-56.469817
 21
477.708746
 31
0.0
  0
LINE
  8
LC-002-002-----0
  6
DASHED
 62
     2
  5
550
 10
-122.974716
 20
395.925547
 30
0.0
 11
-122.974716
 21
393.597375
 31
0.0
  0
ARC
  8
LC-001-002-RND-0
  6
CONTINUOUS
  5
551
 10
-61.969817
 20
470.708237
 30
0.0
 40
1.0
 50
180.0
 51
270.0
  0
LINE
  8
LC-002-002-----0
  6
DASHED
 62
     2
  5
552
 10
-118.974716
 20
395.925547
 30
0.0
 11
-118.974716
 21
393.597375
 31
0.0
  0
LINE
  8
LC-002-002-----0
  6
CONTINUOUS
  5
553
 10
-53.969817
 20
390.209984
 30
0.0
 11
-118.974716
 21
390.209984
 31
0.0
  0
LINE
  8
LC-002-002-----0
  6
CONTINUOUS
  5
554
 10
-56.469817
 20
474.71095
 30
0.0
 11
-56.469817
 21
464.209984
 31
0.0
  0
LINE
  8
LC-002-002-----0
  6
CONTINUOUS
  5
555
 10
32.327013
 20
412.211252
 30
0.0
 11
33.827013
 21
412.211251
 31
0.0
  0
LINE
  8
LC-002-002-----0
  6
CONTINUOUS
  5
556
 10
-120.834716
 20
469.209984
 30
0.0
 11
-120.834716
 21
457.209984
 31
0.0
  0
LINE
  8
LC-002-002-----0
  6
CONTINUOUS
  5
557
 10
-56.469817
 20
477.708746
 30
0.0
 11
-53.969817
 21
477.708746
 31
0.0
  0
LINE
  8
LC-002-002-----0
  6
CONTINUOUS
  5
558
 10
-124.834716
 20
393.209984
 30
0.0
 11
-161.974716
 21
393.209984
 31
0.0
  0
LINE
  8
LC-002-002-----0
  6
CONTINUOUS
  5
559
 10
-124.834716
 20
461.209984
 30
0.0
 11
-161.974716
 21
461.209984
 31
0.0
  0
LINE
  8
LC-002-002-----0
  6
CONTINUOUS
  5
55A
 10
-56.469817
 20
474.71095
 30
0.0
 11
-57.957419
 21
474.71095
 31
0.0
  0
LINE
  8
LC-002-002-----0
  6
CONTINUOUS
  5
55B
 10
-126.974716
 20
462.209984
 30
0.0
 11
-126.974716
 21
392.209984
 31
0.0
  0
LINE
  8
LC-002-002-----0
  6
CONTINUOUS
  5
55C
 10
-120.834716
 20
397.209984
 30
0.0
 11
-120.834716
 21
385.209984
 31
0.0
  0
LINE
  8
LC-002-002-----0
  6
CONTINUOUS
  5
55D
 10
-119.334716
 20
469.209984
 30
0.0
 11
-120.834716
 21
469.209984
 31
0.0
  0
LINE
  8
LC-002-002-----0
  6
CONTINUOUS
  5
55E
 10
-119.334716
 20
385.209984
 30
0.0
 11
-120.834716
 21
385.209984
 31
0.0
  0
LINE
  8
LC-002-002-----0
  6
CONTINUOUS
  5
55F
 10
-119.334716
 20
398.709984
 30
0.0
 11
-119.334716
 21
385.209984
 31
0.0
  0
LINE
  8
LC-002-002-----0
  6
CONTINUOUS
  5
560
 10
-119.334716
 20
469.209984
 30
0.0
 11
-119.334716
 21
455.709984
 31
0.0
  0
LINE
  8
LC-002-002-----0
  6
CONTINUOUS
  5
561
 10
-118.974716
 20
464.209984
 30
0.0
 11
-118.974716
 21
463.87059
 31
0.0
  0
LINE
  8
LC-002-002-----0
  6
CONTINUOUS
  5
562
 10
-118.974716
 20
463.87059
 30
0.0
 11
-122.974716
 21
463.87059
 31
0.0
  0
LINE
  8
LC-002-002-----0
  6
CONTINUOUS
  5
563
 10
-122.974716
 20
463.87059
 30
0.0
 11
-122.974716
 21
464.209984
 31
0.0
  0
LINE
  8
LC-002-002-----0
  6
CONTINUOUS
  5
564
 10
-65.469817
 20
464.209984
 30
0.0
 11
-118.974716
 21
464.209984
 31
0.0
  0
LINE
  8
LC-002-002-----0
  6
CONTINUOUS
  5
565
 10
-122.974716
 20
464.209984
 30
0.0
 11
-126.974716
 21
464.209984
 31
0.0
  0
LINE
  8
LC-002-002-----0
  6
DASHED
 62
     2
  5
566
 10
-122.974716
 20
462.209984
 30
0.0
 11
-126.974716
 21
462.209984
 31
0.0
  0
LINE
  8
LC-002-002-----0
  6
DASHED
 62
     2
  5
567
 10
-122.974716
 20
392.209984
 30
0.0
 11
-126.974716
 21
392.209984
 31
0.0
  0
LINE
  8
LC-002-002-----0
  6
CONTINUOUS
  5
568
 10
-122.974716
 20
390.209984
 30
0.0
 11
-126.974716
 21
390.209984
 31
0.0
  0
LINE
  8
LC-002-002-----0
  6
DASHED
 62
     2
  5
569
 10
-118.974716
 20
462.209984
 30
0.0
 11
-118.974716
 21
458.494422
 31
0.0
  0
LINE
  8
LC-002-002-----0
  6
CONTINUOUS
  5
56A
 10
-57.957419
 20
473.706167
 30
0.0
 11
-56.469817
 21
473.706167
 31
0.0
  0
LINE
  8
LC-002-002-----0
  6
DASHED
 62
     2
  5
56B
 10
-57.957419
 20
473.706167
 30
0.0
 11
-56.469817
 21
476.713963
 31
0.0
  0
LINE
  8
LC-002-002-----0
  6
DASHED
 62
     2
  5
56C
 10
-56.469817
 20
476.713963
 30
0.0
 11
-53.969817
 21
476.713963
 31
0.0
  0
LINE
  8
LC-002-002-----0
  6
DASHED
 62
     2
  5
56D
 10
-118.974716
 20
458.494422
 30
0.0
 11
-122.974716
 21
458.494422
 31
0.0
  0
LINE
  8
LC-002-002-----0
  6
DASHED
 62
     2
  5
56E
 10
-122.974716
 20
458.494422
 30
0.0
 11
-122.974716
 21
462.209984
 31
0.0
  0
LINE
  8
LC-002-002-----0
  6
DASHED
 62
     2
  5
56F
 10
-122.974716
 20
461.542419
 30
0.0
 11
-118.974716
 21
461.542419
 31
0.0
  0
LINE
  8
LC-002-002-----0
  6
CONTINUOUS
  5
570
 10
-65.469817
 20
464.209984
 30
0.0
 11
-65.469817
 21
461.033053
 31
0.0
  0
LINE
  8
LC-002-002-----0
  6
CONTINUOUS
  5
571
 10
-65.469817
 20
461.033053
 30
0.0
 11
-62.969817
 21
461.033053
 31
0.0
  0
LINE
  8
LC-002-002-----0
  6
CONTINUOUS
  5
572
 10
-62.969817
 20
461.033053
 30
0.0
 11
-62.969817
 21
464.209984
 31
0.0
  0
LINE
  8
LC-002-002-----0
  6
CONTINUOUS
  5
573
 10
-56.469817
 20
464.209984
 30
0.0
 11
-56.469817
 21
461.033053
 31
0.0
  0
LINE
  8
LC-002-002-----0
  6
CONTINUOUS
  5
574
 10
-56.469817
 20
461.033053
 30
0.0
 11
-53.969817
 21
461.033053
 31
0.0
  0
LINE
  8
LC-002-002-----0
  6
CONTINUOUS
  5
575
 10
-56.469817
 20
464.209984
 30
0.0
 11
-62.969817
 21
464.209984
 31
0.0
  0
LINE
  8
LC-002-002-----0
  6
DASHED
 62
     2
  5
576
 10
-122.974716
 20
461.033053
 30
0.0
 11
-118.974716
 21
461.033053
 31
0.0
  0
LINE
  8
LC-002-002-----0
  6
CONTINUOUS
  5
577
 10
-118.974716
 20
393.597375
 30
0.0
 11
-118.974716
 21
390.338919
 31
0.0
  0
LINE
  8
LC-002-002-----0
  6
CONTINUOUS
  5
578
 10
-118.974716
 20
390.338919
 30
0.0
 11
-122.974716
 21
390.338919
 31
0.0
  0
LINE
  8
LC-002-002-----0
  6
CONTINUOUS
  5
579
 10
-122.974716
 20
390.338919
 30
0.0
 11
-122.974716
 21
393.597375
 31
0.0
  0
LINE
  8
LC-002-002-----0
  6
CONTINUOUS
  5
57A
 10
-122.974716
 20
393.597375
 30
0.0
 11
-118.974716
 21
393.597375
 31
0.0
  0
LINE
  8
LC-002-002-----0
  6
CONTINUOUS
  5
57B
 10
-122.974716
 20
392.87755
 30
0.0
 11
-118.974716
 21
392.87755
 31
0.0
  0
LINE
  8
LC-002-002-----0
  6
DASHED
 62
     2
  5
57C
 10
-118.974716
 20
395.925547
 30
0.0
 11
-122.974716
 21
395.925547
 31
0.0
  0
LINE
  8
LC-002-002-----0
  6
DASHDOT
 62
     2
  5
57D
 10
-185.974716
 20
427.209984
 30
0.0
 11
-50.969817
 21
427.209984
 31
0.0
  0
LINE
  8
LC-002-002-----0
  6
CONTINUOUS
  5
57E
 10
-161.974716
 20
436.517002
 30
0.0
 11
-161.974716
 21
417.917002
 31
0.0
  0
LINE
  8
LC-002-002-----0
  6
CONTINUOUS
  5
57F
 10
-161.974716
 20
418.24288
 30
0.0
 11
-161.974716
 21
410.709481
 31
0.0
  0
LINE
  8
LC-002-002-----0
  6
CONTINUOUS
  5
580
 10
165.170183
 20
453.209984
 30
0.0
 11
165.170183
 21
401.209984
 31
0.0
  0
LINE
  8
LC-002-002-----0
  6
CONTINUOUS
  5
581
 10
167.170183
 20
453.209984
 30
0.0
 11
165.170183
 21
453.209984
 31
0.0
  0
LINE
  8
LC-002-002-----0
  6
CONTINUOUS
  5
582
 10
167.170183
 20
401.209984
 30
0.0
 11
165.170183
 21
401.209984
 31
0.0
  0
LINE
  8
LC-002-002-----0
  6
CONTINUOUS
  5
583
 10
167.170183
 20
375.924021
 30
0.0
 11
165.170183
 21
375.924021
 31
0.0
  0
LINE
  8
LC-002-002-----0
  6
CONTINUOUS
  5
584
 10
167.170183
 20
401.209984
 30
0.0
 11
167.170183
 21
375.924021
 31
0.0
  0
LINE
  8
LC-002-002-----0
  6
CONTINUOUS
  5
585
 10
165.170183
 20
378.743501
 30
0.0
 11
165.170183
 21
369.709984
 31
0.0
  0
LINE
  8
LC-002-002-----0
  6
CONTINUOUS
  5
586
 10
165.170183
 20
369.709984
 30
0.0
 11
157.170183
 21
369.709984
 31
0.0
  0
ARC
  8
LC-001-002-RND-0
  6
CONTINUOUS
  5
587
 10
157.170183
 20
483.709984
 30
0.0
 40
1.0
 50
90.0
 51
180.0
  0
LINE
  8
LC-002-002-----0
  6
CONTINUOUS
  5
588
 10
165.170183
 20
453.209984
 30
0.0
 11
165.170183
 21
475.613998
 31
0.0
  0
LINE
  8
LC-002-002-----0
  6
CONTINUOUS
  5
589
 10
165.170183
 20
384.709984
 30
0.0
 11
165.170183
 21
378.709984
 31
0.0
  0
LINE
  8
LC-002-002-----0
  6
CONTINUOUS
  5
58A
 10
165.170183
 20
384.709984
 30
0.0
 11
165.170183
 21
401.209984
 31
0.0
  0
LINE
  8
LC-002-002-----0
  6
CONTINUOUS
  5
58B
 10
-161.974716
 20
436.517002
 30
0.0
 11
-161.974716
 21
443.709481
 31
0.0
  0
ARC
  8
LC-001-002-RND-0
  6
CONTINUOUS
  5
58C
 10
157.170183
 20
370.709984
 30
0.0
 40
1.0
 50
180.0
 51
270.0
  0
LINE
  8
LC-002-002-----0
  6
CONTINUOUS
  5
58D
 10
165.170183
 20
452.209984
 30
0.0
 11
168.170183
 21
452.209984
 31
0.0
  0
LINE
  8
LC-002-002-----0
  6
CONTINUOUS
  5
58E
 10
168.170183
 20
452.209984
 30
0.0
 11
168.170183
 21
402.209984
 31
0.0
  0
LINE
  8
LC-002-002-----0
  6
CONTINUOUS
  5
58F
 10
168.170183
 20
402.209984
 30
0.0
 11
165.170183
 21
402.209984
 31
0.0
  0
LINE
  8
LC-002-002-----0
  6
CONTINUOUS
  5
590
 10
32.327013
 20
412.211252
 30
0.0
 11
10.827013
 21
412.211266
 31
0.0
  0
LINE
  8
LC-002-002-----0
  6
CONTINUOUS
  5
591
 10
11.327008
 20
405.211265
 30
0.0
 11
32.327008
 21
405.211252
 31
0.0
  0
LINE
  8
LC-002-002-----0
  6
CONTINUOUS
  5
592
 10
11.827004
 20
398.211265
 30
0.0
 11
32.187257
 21
398.211252
 31
0.0
  0
LINE
  8
LC-002-002-----0
  6
CONTINUOUS
  5
593
 10
12.326999
 20
391.211265
 30
0.0
 11
31.456705
 21
391.211252
 31
0.0
  0
LINE
  8
LC-002-002-----0
  6
CONTINUOUS
  5
594
 10
12.826995
 20
384.211264
 30
0.0
 11
31.423452
 21
384.211252
 31
0.0
  0
LINE
  8
LC-002-002-----0
  6
CONTINUOUS
  5
595
 10
13.82699
 20
377.211264
 30
0.0
 11
30.82699
 21
377.211252
 31
0.0
  0
LINE
  8
LC-002-002-----0
  6
CONTINUOUS
  5
596
 10
33.827013
 20
412.211251
 30
0.0
 11
32.327008
 21
405.211252
 31
0.0
  0
LINE
  8
LC-002-002-----0
  6
CONTINUOUS
  5
597
 10
33.327008
 20
405.211251
 30
0.0
 11
32.187257
 21
398.211252
 31
0.0
  0
LINE
  8
LC-002-002-----0
  6
CONTINUOUS
  5
598
 10
32.827004
 20
398.211251
 30
0.0
 11
31.456705
 21
391.211252
 31
0.0
  0
LINE
  8
LC-002-002-----0
  6
CONTINUOUS
  5
599
 10
32.326999
 20
391.211252
 30
0.0
 11
31.423452
 21
384.211252
 31
0.0
  0
LINE
  8
LC-002-002-----0
  6
CONTINUOUS
  5
59A
 10
31.826995
 20
384.211252
 30
0.0
 11
30.82699
 21
377.211252
 31
0.0
  0
LINE
  8
LC-002-002-----0
  6
CONTINUOUS
  5
59B
 10
10.826743
 20
412.21153
 30
0.0
 11
12.326743
 21
405.21153
 31
0.0
  0
LINE
  8
LC-002-002-----0
  6
CONTINUOUS
  5
59C
 10
11.326743
 20
405.21153
 30
0.0
 11
12.466491
 21
398.21153
 31
0.0
  0
LINE
  8
LC-002-002-----0
  6
CONTINUOUS
  5
59D
 10
11.826743
 20
398.21153
 30
0.0
 11
13.197038
 21
391.21153
 31
0.0
  0
LINE
  8
LC-002-002-----0
  6
CONTINUOUS
  5
59E
 10
12.326743
 20
391.21153
 30
0.0
 11
13.230286
 21
384.21153
 31
0.0
  0
LINE
  8
LC-002-002-----0
  6
CONTINUOUS
  5
59F
 10
12.826743
 20
384.21153
 30
0.0
 11
13.826743
 21
377.21153
 31
0.0
  0
LINE
  8
LC-002-002-----0
  6
CONTINUOUS
  5
5A0
 10
32.327008
 20
405.211252
 30
0.0
 11
33.327008
 21
405.211251
 31
0.0
  0
LINE
  8
LC-002-002-----0
  6
CONTINUOUS
  5
5A1
 10
32.187257
 20
398.211252
 30
0.0
 11
32.827004
 21
398.211251
 31
0.0
  0
LINE
  8
LC-002-002-----0
  6
CONTINUOUS
  5
5A2
 10
31.456705
 20
391.211252
 30
0.0
 11
32.326999
 21
391.211252
 31
0.0
  0
LINE
  8
LC-002-002-----0
  6
CONTINUOUS
  5
5A3
 10
31.423452
 20
384.211252
 30
0.0
 11
31.826995
 21
384.211252
 31
0.0
  0
LINE
  8
LC-002-002-----0
  6
CONTINUOUS
  5
5A4
 10
39.327015
 20
415.211247
 30
0.0
 11
32.327015
 21
415.211252
 31
0.0
  0
LINE
  8
LC-002-002-----0
  6
CONTINUOUS
 62
     2
  5
5A5
 10
90.329174
 20
442.209984
 30
0.0
 11
70.329174
 21
442.209984
 31
0.0
  0
LINE
  8
LC-002-002-----0
  6
CONTINUOUS
 62
     2
  5
5A6
 10
90.329174
 20
412.209984
 30
0.0
 11
70.329174
 21
412.209984
 31
0.0
  0
LINE
  8
LC-002-002-----0
  6
CONTINUOUS
  5
5A7
 10
95.329174
 20
438.709984
 30
0.0
 11
98.329174
 21
438.709984
 31
0.0
  0
LINE
  8
LC-002-002-----0
  6
CONTINUOUS
  5
5A8
 10
90.329174
 20
443.709984
 30
0.0
 11
70.329174
 21
443.709984
 31
0.0
  0
LINE
  8
LC-002-002-----0
  6
CONTINUOUS
  5
5A9
 10
90.329174
 20
410.709984
 30
0.0
 11
70.329174
 21
410.709984
 31
0.0
  0
LINE
  8
LC-002-002-----0
  6
CONTINUOUS
  5
5AA
 10
93.329174
 20
440.709984
 30
0.0
 11
90.329174
 21
443.709984
 31
0.0
  0
LINE
  8
LC-002-002-----0
  6
CONTINUOUS
  5
5AB
 10
93.329174
 20
413.709984
 30
0.0
 11
90.329174
 21
410.709984
 31
0.0
  0
LINE
  8
LC-002-002-----0
  6
CONTINUOUS
  5
5AC
 10
95.329174
 20
438.709984
 30
0.0
 11
95.329174
 21
415.709984
 31
0.0
  0
LINE
  8
LC-002-002-----0
  6
CONTINUOUS
  5
5AD
 10
95.420607
 20
415.87475
 30
0.0
 11
98.329174
 21
415.87475
 31
0.0
  0
LINE
  8
LC-002-002-----0
  6
CONTINUOUS
  5
5AE
 10
116.129174
 20
446.709984
 30
0.0
 11
116.129174
 21
440.709984
 31
0.0
  0
LINE
  8
LC-002-002-----0
  6
CONTINUOUS
  5
5AF
 10
116.129174
 20
413.709984
 30
0.0
 11
116.129174
 21
407.709984
 31
0.0
  0
LINE
  8
LC-002-002-----0
  6
CONTINUOUS
  5
5B0
 10
114.629174
 20
446.709984
 30
0.0
 11
114.629174
 21
440.709984
 31
0.0
  0
LINE
  8
LC-002-002-----0
  6
CONTINUOUS
  5
5B1
 10
114.629174
 20
413.709984
 30
0.0
 11
114.629174
 21
407.709984
 31
0.0
  0
LINE
  8
LC-002-002-----0
  6
CONTINUOUS
  5
5B2
 10
114.629174
 20
438.137822
 30
0.0
 11
114.629174
 21
416.282147
 31
0.0
  0
LINE
  8
LC-002-002-----0
  6
CONTINUOUS
  5
5B3
 10
116.129174
 20
436.517506
 30
0.0
 11
116.129174
 21
417.917506
 31
0.0
  0
LINE
  8
LC-002-002-----0
  6
CONTINUOUS
  5
5B4
 10
98.329174
 20
444.709984
 30
0.0
 11
98.329174
 21
440.709984
 31
0.0
  0
LINE
  8
LC-002-002-----0
  6
DASHDOT
 62
     2
  5
5B5
 10
22.327022
 20
427.209984
 30
0.0
 11
168.170183
 21
427.209984
 31
0.0
  0
LINE
  8
LC-002-002-----0
  6
CONTINUOUS
  5
5B6
 10
98.329174
 20
438.709984
 30
0.0
 11
98.329174
 21
415.87475
 31
0.0
  0
LINE
  8
LC-002-002-----0
  6
CONTINUOUS
  5
5B7
 10
98.329174
 20
413.709984
 30
0.0
 11
98.329174
 21
409.709984
 31
0.0
  0
LINE
  8
LC-002-002-----0
  6
CONTINUOUS
  5
5B8
 10
70.329174
 20
436.517506
 30
0.0
 11
70.329174
 21
417.917506
 31
0.0
  0
LINE
  8
LC-002-002-----0
  6
CONTINUOUS
  5
5B9
 10
70.329174
 20
418.243383
 30
0.0
 11
70.329174
 21
410.709984
 31
0.0
  0
LINE
  8
LC-002-002-----0
  6
CONTINUOUS
  5
5BA
 10
-49.469817
 20
444.709984
 30
0.0
 11
-49.469817
 21
434.709984
 31
0.0
  0
LINE
  8
LC-002-002-----0
  6
CONTINUOUS
  5
5BB
 10
-49.969817
 20
445.209984
 30
0.0
 11
-50.469817
 21
445.209984
 31
0.0
  0
LINE
  8
LC-002-002-----0
  6
CONTINUOUS
  5
5BC
 10
116.129174
 20
410.709984
 30
0.0
 11
116.129174
 21
410.709984
 31
0.0
  0
LINE
  8
LC-002-002-----0
  6
CONTINUOUS
  5
5BD
 10
98.829174
 20
441.701918
 30
0.0
 11
98.829174
 21
444.137555
 31
0.0
  0
LINE
  8
LC-002-002-----0
  6
CONTINUOUS
  5
5BE
 10
116.129174
 20
443.709984
 30
0.0
 11
116.129174
 21
443.709984
 31
0.0
  0
LINE
  8
LC-002-002-----0
  6
CONTINUOUS
  5
5BF
 10
114.629174
 20
419.746248
 30
0.0
 11
98.829174
 21
419.746248
 31
0.0
  0
LINE
  8
LC-002-002-----0
  6
CONTINUOUS
  5
5C0
 10
98.829174
 20
429.209984
 30
0.0
 11
98.829174
 21
425.209984
 31
0.0
  0
LINE
  8
LC-002-002-----0
  6
CONTINUOUS
  5
5C1
 10
114.629174
 20
416.282147
 30
0.0
 11
98.829174
 21
416.282147
 31
0.0
  0
LINE
  8
LC-002-002-----0
  6
CONTINUOUS
  5
5C2
 10
98.829174
 20
419.746248
 30
0.0
 11
98.829174
 21
416.282147
 31
0.0
  0
LINE
  8
LC-002-002-----0
  6
CONTINUOUS
  5
5C3
 10
114.629174
 20
412.718051
 30
0.0
 11
98.829174
 21
412.718051
 31
0.0
  0
LINE
  8
LC-002-002-----0
  6
CONTINUOUS
  5
5C4
 10
98.829174
 20
412.718051
 30
0.0
 11
98.829174
 21
410.282414
 31
0.0
  0
LINE
  8
LC-002-002-----0
  6
CONTINUOUS
  5
5C5
 10
98.829174
 20
434.673721
 30
0.0
 11
98.829174
 21
438.137822
 31
0.0
  0
LINE
  8
LC-002-002-----0
  6
CONTINUOUS
  5
5C6
 10
114.629174
 20
410.282414
 30
0.0
 11
98.829174
 21
410.282414
 31
0.0
  0
LINE
  8
LC-002-002-----0
  6
CONTINUOUS
  5
5C7
 10
114.629174
 20
434.673721
 30
0.0
 11
98.829174
 21
434.673721
 31
0.0
  0
LINE
  8
LC-002-002-----0
  6
CONTINUOUS
  5
5C8
 10
114.629174
 20
438.137822
 30
0.0
 11
98.829174
 21
438.137822
 31
0.0
  0
LINE
  8
LC-002-002-----0
  6
CONTINUOUS
  5
5C9
 10
114.629174
 20
429.209984
 30
0.0
 11
98.829174
 21
429.209984
 31
0.0
  0
LINE
  8
LC-002-002-----0
  6
CONTINUOUS
  5
5CA
 10
114.629174
 20
425.209984
 30
0.0
 11
98.829174
 21
425.209984
 31
0.0
  0
LINE
  8
LC-002-002-----0
  6
CONTINUOUS
  5
5CB
 10
114.629174
 20
441.701918
 30
0.0
 11
98.829174
 21
441.701918
 31
0.0
  0
LINE
  8
LC-002-002-----0
  6
CONTINUOUS
  5
5CC
 10
114.629174
 20
444.137555
 30
0.0
 11
98.829174
 21
444.137555
 31
0.0
  0
ARC
  8
LC-001-002-RND-0
  6
CONTINUOUS
  5
5CD
 10
99.329174
 20
444.709984
 30
0.0
 40
1.0
 50
90.0
 51
180.0
  0
LINE
  8
LC-002-002-----0
  6
CONTINUOUS
  5
5CE
 10
99.329174
 20
445.709984
 30
0.0
 11
114.629174
 21
445.709984
 31
0.0
  0
LINE
  8
LC-002-002-----0
  6
CONTINUOUS
  5
5CF
 10
114.629174
 20
446.709984
 30
0.0
 11
116.129174
 21
446.709984
 31
0.0
  0
LINE
  8
LC-002-002-----0
  6
CONTINUOUS
  5
5D0
 10
114.629174
 20
407.709984
 30
0.0
 11
116.129174
 21
407.709984
 31
0.0
  0
LINE
  8
LC-002-002-----0
  6
CONTINUOUS
  5
5D1
 10
99.329174
 20
408.709984
 30
0.0
 11
114.629174
 21
408.709984
 31
0.0
  0
ARC
  8
LC-001-002-RND-0
  6
CONTINUOUS
  5
5D2
 10
99.329174
 20
409.709984
 30
0.0
 40
1.0
 50
180.0
 51
270.0
  0
LINE
  8
LC-002-002-----0
  6
CONTINUOUS
  5
5D3
 10
116.129174
 20
417.917506
 30
0.0
 11
116.129174
 21
413.709984
 31
0.0
  0
LINE
  8
LC-002-002-----0
  6
CONTINUOUS
  5
5D4
 10
114.603429
 20
413.727374
 30
0.0
 11
114.603429
 21
416.282147
 31
0.0
  0
LINE
  8
LC-002-002-----0
  6
CONTINUOUS
  5
5D5
 10
98.329174
 20
413.709984
 30
0.0
 11
98.329174
 21
415.87475
 31
0.0
  0
LINE
  8
LC-002-002-----0
  6
CONTINUOUS
  5
5D6
 10
95.329174
 20
415.709984
 30
0.0
 11
93.329174
 21
413.709984
 31
0.0
  0
LINE
  8
LC-002-002-----0
  6
CONTINUOUS
  5
5D7
 10
116.129174
 20
436.517506
 30
0.0
 11
116.129174
 21
440.709984
 31
0.0
  0
LINE
  8
LC-002-002-----0
  6
CONTINUOUS
  5
5D8
 10
114.629174
 20
440.709984
 30
0.0
 11
114.629174
 21
438.137822
 31
0.0
  0
LINE
  8
LC-002-002-----0
  6
CONTINUOUS
  5
5D9
 10
98.329174
 20
438.709984
 30
0.0
 11
98.329174
 21
440.709984
 31
0.0
  0
LINE
  8
LC-002-002-----0
  6
CONTINUOUS
  5
5DA
 10
95.329174
 20
438.709984
 30
0.0
 11
93.329174
 21
440.709984
 31
0.0
  0
LINE
  8
LC-002-002-----0
  6
CONTINUOUS
  5
5DB
 10
70.329174
 20
436.517506
 30
0.0
 11
70.329174
 21
443.709984
 31
0.0
  0
LINE
  8
LC-002-002-----0
  6
CONTINUOUS
  5
5DC
 10
-49.969817
 20
434.209984
 30
0.0
 11
-50.469817
 21
434.209984
 31
0.0
  0
ARC
  8
LC-001-002-RND-0
  6
CONTINUOUS
  5
5DD
 10
-49.969817
 20
434.709984
 30
0.0
 40
0.5
 50
270.0
 51
0.0
  0
ARC
  8
LC-001-002-RND-0
  6
CONTINUOUS
  5
5DE
 10
-50.469817
 20
434.709984
 30
0.0
 40
0.5
 50
180.0
 51
270.0
  0
ARC
  8
LC-002-002-----0
  6
CONTINUOUS
  5
5DF
 10
-59.094817
 20
439.709984
 30
0.0
 40
10.625
 50
334.942385
 51
25.057615
  0
ARC
  8
LC-001-002-RND-0
  6
CONTINUOUS
  5
5E0
 10
-50.469817
 20
444.709984
 30
0.0
 40
0.5
 50
90.0
 51
180.0
  0
ARC
  8
LC-001-002-RND-0
  6
CONTINUOUS
  5
5E1
 10
-49.969817
 20
444.709984
 30
0.0
 40
0.5
 50
0.0
 51
90.0
  0
LINE
  8
LC-002-002-----0
  6
CONTINUOUS
  5
5E2
 10
133.670183
 20
432.209984
 30
0.0
 11
133.670183
 21
422.209984
 31
0.0
  0
LINE
  8
LC-002-002-----0
  6
CONTINUOUS
  5
5E3
 10
134.170183
 20
432.709984
 30
0.0
 11
134.670183
 21
432.709984
 31
0.0
  0
LINE
  8
LC-002-002-----0
  6
CONTINUOUS
  5
5E4
 10
134.170183
 20
421.709984
 30
0.0
 11
134.670183
 21
421.709984
 31
0.0
  0
ARC
  8
LC-001-002-RND-0
  6
CONTINUOUS
  5
5E5
 10
134.170183
 20
422.209984
 30
0.0
 40
0.5
 50
180.0
 51
270.0
  0
LINE
  8
LC-002-002-----0
  6
CONTINUOUS
  5
5E6
 10
148.170183
 20
429.309984
 30
0.0
 11
156.170183
 21
429.309984
 31
0.0
  0
LINE
  8
LC-002-002-----0
  6
CONTINUOUS
  5
5E7
 10
148.170183
 20
425.109984
 30
0.0
 11
156.170183
 21
425.109984
 31
0.0
  0
ARC
  8
LC-001-002-RND-0
  6
CONTINUOUS
  5
5E8
 10
134.670183
 20
422.209984
 30
0.0
 40
0.5
 50
270.0
 51
0.0
  0
ARC
  8
LC-002-002-----0
  6
CONTINUOUS
  5
5E9
 10
143.295183
 20
427.209984
 30
0.0
 40
10.625
 50
154.942385
 51
205.057615
  0
ARC
  8
LC-001-002-RND-0
  6
CONTINUOUS
  5
5EA
 10
134.670183
 20
432.209984
 30
0.0
 40
0.5
 50
0.0
 51
90.0
  0
ARC
  8
LC-001-002-RND-0
  6
CONTINUOUS
  5
5EB
 10
134.170183
 20
432.209984
 30
0.0
 40
0.5
 50
90.0
 51
180.0
  0
LINE
  8
LC-002-002-----0
  6
CONTINUOUS
 62
     2
  5
5EC
 10
42.327975
 20
430.209334
 30
0.0
 11
42.327975
 21
424.209334
 31
0.0
  0
LINE
  8
LC-002-002-----0
  6
CONTINUOUS
  5
5ED
 10
57.329376
 20
407.209762
 30
0.0
 11
57.3292
 21
447.209111
 31
0.0
  0
LINE
  8
LC-002-002-----0
  6
CONTINUOUS
 62
     2
  5
5EE
 10
42.327975
 20
419.332958
 30
0.0
 11
42.327975
 21
413.332958
 31
0.0
  0
LINE
  8
LC-002-002-----0
  6
CONTINUOUS
  5
5EF
 10
169.670183
 20
444.709984
 30
0.0
 11
169.670183
 21
434.709984
 31
0.0
  0
LINE
  8
LC-002-002-----0
  6
CONTINUOUS
  5
5F0
 10
169.170183
 20
445.209984
 30
0.0
 11
168.670183
 21
445.209984
 31
0.0
  0
LINE
  8
LC-002-002-----0
  6
CONTINUOUS
  5
5F1
 10
169.170183
 20
434.209984
 30
0.0
 11
168.670183
 21
434.209984
 31
0.0
  0
ARC
  8
LC-001-002-RND-0
  6
CONTINUOUS
  5
5F2
 10
169.170183
 20
434.709984
 30
0.0
 40
0.5
 50
270.0
 51
0.0
  0
ARC
  8
LC-001-002-RND-0
  6
CONTINUOUS
  5
5F3
 10
168.670183
 20
434.709984
 30
0.0
 40
0.5
 50
180.0
 51
270.0
  0
ARC
  8
LC-002-002-----0
  6
CONTINUOUS
  5
5F4
 10
160.045183
 20
439.709984
 30
0.0
 40
10.625
 50
334.942385
 51
25.057615
  0
CIRCLE
  8
LC-002-002-----0
  6
CONTINUOUS
  5
5F5
 10
317.070789
 20
439.867992
 30
0.0
 40
4.25
  0
CIRCLE
  8
LC-002-002-----0
  6
CONTINUOUS
  5
5F6
 10
307.070789
 20
427.367992
 30
0.0
 40
4.25
  0
CIRCLE
  8
LC-002-002-----0
  6
CONTINUOUS
  5
5F7
 10
317.070789
 20
414.867992
 30
0.0
 40
4.25
  0
CIRCLE
  8
LC-002-002-----0
  6
CONTINUOUS
  5
5F8
 10
277.070789
 20
439.867992
 30
0.0
 40
4.25
  0
ARC
  8
LC-001-002-RND-0
  6
CONTINUOUS
  5
5F9
 10
168.670183
 20
444.709984
 30
0.0
 40
0.5
 50
90.0
 51
180.0
  0
ARC
  8
LC-001-002-RND-0
  6
CONTINUOUS
  5
5FA
 10
169.170183
 20
444.709984
 30
0.0
 40
0.5
 50
0.0
 51
90.0
  0
CIRCLE
  8
LC-002-002-----0
  6
CONTINUOUS
  5
5FB
 10
277.070789
 20
414.867992
 30
0.0
 40
4.25
  0
ARC
  8
LC-002-002-----0
  6
CONTINUOUS
  5
5FC
 10
322.820789
 20
427.367992
 30
0.0
 40
4.25
 50
112.260828
 51
247.739172
  0
LINE
  8
LC-002-002-----0
  6
DASHDOT
 62
     2
  5
5FD
 10
232.070789
 20
427.367992
 30
0.0
 11
632.070789
 21
427.367992
 31
0.0
  0
LINE
  8
LC-002-002-----0
  6
CONTINUOUS
  5
5FE
 10
282.820789
 20
423.117992
 30
0.0
 11
291.320789
 21
423.117992
 31
0.0
  0
LINE
  8
LC-002-002-----0
  6
CONTINUOUS
  5
5FF
 10
282.820789
 20
431.617992
 30
0.0
 11
291.320789
 21
431.617992
 31
0.0
  0
ARC
  8
LC-002-002-----0
  6
CONTINUOUS
  5
600
 10
282.820789
 20
427.367992
 30
0.0
 40
4.25
 50
90.0
 51
270.0
  0
ARC
  8
LC-002-002-----0
  6
CONTINUOUS
  5
601
 10
291.320789
 20
427.367992
 30
0.0
 40
4.25
 50
270.0
 51
90.0
  0
ARC
  8
LC-002-002-----0
  6
CONTINUOUS
  5
602
 10
302.930789
 20
413.227992
 30
0.0
 40
3.1
 50
270.0
 51
90.0
  0
ARC
  8
LC-002-002-----0
  6
CONTINUOUS
  5
603
 10
291.210789
 20
413.227992
 30
0.0
 40
3.1
 50
90.0
 51
270.0
  0
LINE
  8
LC-002-002-----0
  6
CONTINUOUS
  5
604
 10
302.930789
 20
410.127992
 30
0.0
 11
291.210789
 21
410.127992
 31
0.0
  0
LINE
  8
LC-002-002-----0
  6
CONTINUOUS
  5
605
 10
302.930789
 20
416.327992
 30
0.0
 11
301.299725
 21
416.327992
 31
0.0
  0
LINE
  8
LC-002-002-----0
  6
CONTINUOUS
  5
606
 10
291.210789
 20
416.327992
 30
0.0
 11
292.841853
 21
416.327992
 31
0.0
  0
ARC
  8
LC-002-002-----0
  6
CONTINUOUS
  5
607
 10
297.070789
 20
416.017992
 30
0.0
 40
3.1
 50
23.171101
 51
156.828899
  0
ARC
  8
LC-002-002-----0
  6
CONTINUOUS
  5
608
 10
292.841853
 20
417.827992
 30
0.0
 40
1.5
 50
270.0
 51
336.828899
  0
ARC
  8
LC-002-002-----0
  6
CONTINUOUS
  5
609
 10
301.299725
 20
417.827992
 30
0.0
 40
1.5
 50
203.171101
 51
270.0
  0
ARC
  8
LC-002-002-----0
  6
CONTINUOUS
  5
60A
 10
302.930789
 20
441.507992
 30
0.0
 40
3.1
 50
270.0
 51
90.0
  0
ARC
  8
LC-002-002-----0
  6
CONTINUOUS
  5
60B
 10
291.210789
 20
441.507992
 30
0.0
 40
3.1
 50
90.0
 51
270.0
  0
LINE
  8
LC-002-002-----0
  6
CONTINUOUS
  5
60C
 10
302.930789
 20
444.607992
 30
0.0
 11
291.210789
 21
444.607992
 31
0.0
  0
LINE
  8
LC-002-002-----0
  6
CONTINUOUS
  5
60D
 10
302.930789
 20
438.407992
 30
0.0
 11
301.299725
 21
438.407992
 31
0.0
  0
LINE
  8
LC-002-002-----0
  6
CONTINUOUS
  5
60E
 10
291.210789
 20
438.407992
 30
0.0
 11
292.841853
 21
438.407992
 31
0.0
  0
ARC
  8
LC-002-002-----0
  6
CONTINUOUS
  5
60F
 10
297.070789
 20
438.717992
 30
0.0
 40
3.1
 50
203.171101
 51
336.828899
  0
ARC
  8
LC-002-002-----0
  6
CONTINUOUS
  5
610
 10
292.841853
 20
436.907992
 30
0.0
 40
1.5
 50
23.171101
 51
90.0
  0
ARC
  8
LC-002-002-----0
  6
CONTINUOUS
  5
611
 10
301.299725
 20
436.907992
 30
0.0
 40
1.5
 50
90.0
 51
156.828899
  0
LINE
  8
LC-002-002-----0
  6
DASHDOT
 62
     2
  5
612
 10
451.210789
 20
465.845895
 30
0.0
 11
451.210789
 21
448.473349
 31
0.0
  0
ENDSEC
  0
EOF
